<?xml version="1.0" standalone="no"?>
<!DOCTYPE svg PUBLIC "-//W3C//DTD SVG 1.1//EN" "http://www.w3.org/Graphics/SVG/1.1/DTD/svg11.dtd" >
<svg xmlns="http://www.w3.org/2000/svg" xmlns:xlink="http://www.w3.org/1999/xlink" version="1.1">
<metadata>
Created by FontForge 20170731 at Thu Nov  9 17:49:38 2017
 By Aleksey,,,
Copyright 2013 The Alegreya Sans Project Authors (https://github.com/huertatipografica/Alegreya-Sans)
</metadata>
<defs>
<font id="AlegreyaSans-Black" horiz-adv-x="0" >
  <font-face 
    font-family="Alegreya Sans Black"
    font-weight="900"
    font-stretch="normal"
    units-per-em="1000"
    panose-1="0 0 10 0 0 0 0 0 0 0"
    ascent="800"
    descent="-200"
    x-height="474"
    cap-height="647"
    bbox="-477 -304 1349 1126"
    underline-thickness="42"
    underline-position="-212"
    unicode-range="U+000D-FB02"
  />
<missing-glyph horiz-adv-x="135" 
 />
    <glyph glyph-name="Idieresis" unicode="&#xa8;I" horiz-adv-x="327" 
d="M253 210l8 -210h-201l10 190l-10 457h204zM137 864.5q19 -19.5 19 -55.5q0 -38 -21.5 -60t-58.5 -22q-36 0 -55 19.5t-19 55.5q0 38 21.5 60t59.5 22q35 0 54 -19.5zM303.5 864.5q19.5 -19.5 19.5 -55.5q0 -38 -21.5 -60t-58.5 -22t-56 19.5t-19 55.5q0 38 21.5 60
t59.5 22q35 0 54.5 -19.5z" />
    <glyph glyph-name="Odieresis" unicode="&#xa8;O" horiz-adv-x="653" 
d="M559 575.5q77 -83.5 77 -235.5q0 -168 -84.5 -260t-239.5 -92q-141 0 -218 84.5t-77 239.5q0 166 84.5 256.5t239.5 90.5q141 0 218 -83.5zM264 485.5q-20 -13.5 -28.5 -47.5t-8.5 -99q0 -83 9 -126t30.5 -60t63.5 -17q39 0 59 13.5t28.5 48t8.5 99.5q0 82 -9 125
t-30.5 60t-63.5 17q-39 0 -59 -13.5zM293.5 870.5q21.5 -21.5 21.5 -60.5q0 -42 -23.5 -66.5t-64.5 -24.5q-40 0 -61 21.5t-21 61.5q0 42 24 66t65 24q38 0 59.5 -21.5zM486.5 870.5q21.5 -21.5 21.5 -60.5q0 -42 -23.5 -66.5t-64.5 -24.5q-40 0 -61 21.5t-21 61.5
q0 42 24 66t65 24q38 0 59.5 -21.5z" />
    <glyph glyph-name="Yacute" unicode="&#xb4;Y" horiz-adv-x="594" 
d="M382 170l8 -170h-200l10 170l-1 31l-207 446h210l16 -54l73 -195h12l84 188l23 61h204l-230 -439zM410 914l49 -117l-6 -16q-132 -42 -238 -69l-17 4l-30 79q118 60 225 123z" />
    <glyph glyph-name="idieresis" unicode="&#xa8;i" horiz-adv-x="284" 
d="M52 190l-7 271l194 13l-9 -264l8 -210h-195zM116 689.5q19 -19.5 19 -55.5q0 -38 -21.5 -60t-58.5 -22q-36 0 -55 19.5t-19 55.5q0 38 21.5 60t59.5 22q35 0 54 -19.5zM282.5 689.5q19.5 -19.5 19.5 -55.5q0 -38 -21.5 -60t-58.5 -22t-56 19.5t-19 55.5q0 38 21.5 60
t59.5 22q35 0 54.5 -19.5z" />
    <glyph glyph-name="odieresis" unicode="&#xa8;o" horiz-adv-x="497" 
d="M426 424q57 -60 57 -177q0 -128 -61.5 -193.5t-181.5 -65.5q-112 0 -169 59.5t-57 175.5q0 129 61.5 195t181.5 66q112 0 169 -60zM213 345.5q-10 -7.5 -13.5 -27.5t-3.5 -61q0 -61 4.5 -90.5t16.5 -41t37 -11.5q20 0 29.5 7.5t13 28t3.5 61.5q0 60 -4.5 89.5t-16.5 41
t-36 11.5q-20 0 -30 -7.5zM217.5 695.5q21.5 -21.5 21.5 -60.5q0 -42 -23.5 -66.5t-64.5 -24.5q-40 0 -61 21.5t-21 61.5q0 42 24 66t65 24q38 0 59.5 -21.5zM410.5 695.5q21.5 -21.5 21.5 -60.5q0 -42 -23.5 -66.5t-64.5 -24.5q-40 0 -61 21.5t-21 61.5q0 42 24 66t65 24
q38 0 59.5 -21.5z" />
    <glyph glyph-name="yacute" unicode="&#xb4;y" horiz-adv-x="471" 
d="M190 386l51 -197h10l47 179l19 104h164l-138 -423q-23 -69 -55 -113.5t-81 -75t-127 -54.5l-13 2q-50 47 -85 116l7 17q92 14 170 59l-171 469l186 7zM336 754l69 -107l-3 -17q-142 -72 -223 -109l-17 1l-44 72q102 76 201 161z" />
    <glyph glyph-name="Itilde" unicode="&#x7e;I" horiz-adv-x="327" 
d="M253 210l8 -210h-201l10 190l-10 457h204zM333 858v-16l-72 -111l-15 -6q-22 4 -72 19q-41 13 -51 13q-17 0 -29 -13.5t-31 -42.5h-16l-56 55v16l72 111l15 6q22 -4 72 -19q41 -13 51 -13q17 0 29 13.5t31 42.5h16z" />
    <glyph glyph-name="itilde" unicode="&#x7e;i" horiz-adv-x="284" 
d="M52 190l-7 271l194 13l-9 -264l8 -210h-195zM312 683v-16l-72 -111l-15 -6q-22 4 -72 19q-41 13 -51 13q-17 0 -29 -13.5t-31 -42.5h-16l-56 55v16l72 111l15 6q22 -4 72 -19q41 -13 51 -13q17 0 29 13.5t31 42.5h16z" />
    <glyph glyph-name="Utilde" unicode="&#x7e;U" horiz-adv-x="653" 
d="M600 319l-1 -103q-1 -110 -74 -169t-209 -59q-131 0 -200.5 59t-66.5 169l3 103l-6 328h201l-9 -404q-1 -51 19.5 -74t66.5 -23q47 0 68 23t20 74l-9 404h204zM522 861v-16l-81 -113l-16 -6q-27 3 -86 20q-8 2 -32.5 8t-34.5 6q-17 0 -30 -13t-39 -45h-16l-57 55v16
l81 113l16 6q27 -3 86 -20q8 -2 32.5 -8t34.5 -6q17 0 30 13t39 45h16z" />
    <glyph glyph-name="utilde" unicode="&#x7e;u" horiz-adv-x="536" 
d="M524 120l-17 -100q-48 -31 -100 -30q-58 12 -84 84h-12q-28 -31 -55 -50.5t-60 -29.5q-74 0 -114.5 34t-40.5 98l3 103l-6 232l185 13v-271q0 -30 10 -42.5t31 -12.5q13 0 22.5 3.5t20.5 11.5v298l185 13l-11 -326q0 -11 3.5 -16t10.5 -5t17 3zM458 686v-16l-81 -113
l-16 -6q-27 3 -86 20q-8 2 -32.5 8t-34.5 6q-17 0 -30 -13t-39 -45h-16l-57 55v16l81 113l16 6q27 -3 86 -20q8 -2 32.5 -8t34.5 -6q17 0 30 13t39 45h16z" />
    <glyph glyph-name="uni1EBC" unicode="&#x7e;E" horiz-adv-x="541" 
d="M517 160l11 -14l-12 -146h-456l10 190l-10 457h464l11 -14l-13 -146l-159 6h-103l-2 -91h99l104 3l11 -14l-12 -146l-116 3h-90l-1 -38l2 -56h96zM487 861v-16l-81 -113l-16 -6q-27 3 -86 20q-8 2 -32.5 8t-34.5 6q-17 0 -30 -13t-39 -45h-16l-57 55v16l81 113l16 6
q27 -3 86 -20q8 -2 32.5 -8t34.5 -6q17 0 30 13t39 45h16z" />
    <glyph glyph-name="uni1EBD" unicode="&#x7e;e" horiz-adv-x="485" 
d="M442 196l-248 -2q9 -35 34 -51.5t69 -16.5q49 0 143 25l14 -10l-30 -132q-79 -21 -147 -21q-124 0 -193.5 66t-69.5 182q0 115 66 181t181 66q99 0 153.5 -52t54.5 -145q0 -30 -6 -65zM304 306q0 53 -45 53q-55 0 -67 -71l110 4zM447 685v-16l-81 -113l-16 -6
q-27 3 -86 20q-8 2 -32.5 8t-34.5 6q-17 0 -30 -13t-39 -45h-16l-57 55v16l81 113l16 6q27 -3 86 -20q8 -2 32.5 -8t34.5 -6q17 0 30 13t39 45h16z" />
    <glyph glyph-name="uni1EF8" unicode="&#x7e;Y" horiz-adv-x="594" 
d="M382 170l8 -170h-200l10 170l-1 31l-207 446h210l16 -54l73 -195h12l84 188l23 61h204l-230 -439zM492 861v-16l-81 -113l-16 -6q-27 3 -86 20q-8 2 -32.5 8t-34.5 6q-17 0 -30 -13t-39 -45h-16l-57 55v16l81 113l16 6q27 -3 86 -20q8 -2 32.5 -8t34.5 -6q17 0 30 13
t39 45h16z" />
    <glyph glyph-name="uni1EF9" unicode="&#x7e;y" horiz-adv-x="471" 
d="M190 386l51 -197h10l47 179l19 104h164l-138 -423q-23 -69 -55 -113.5t-81 -75t-127 -54.5l-13 2q-50 47 -85 116l7 17q92 14 170 59l-171 469l186 7zM437 686v-16l-81 -113l-16 -6q-27 3 -86 20q-8 2 -32.5 8t-34.5 6q-17 0 -30 -13t-39 -45h-16l-57 55v16l81 113l16 6
q27 -3 86 -20q8 -2 32.5 -8t34.5 -6q17 0 30 13t39 45h16z" />
    <glyph glyph-name="fi" unicode="fi" horiz-adv-x="653" 
d="M485 691l-21 -147l-17 -9q-85 36 -125 36q-23 0 -34 -12t-13 -38v-54h225l103 14l10 -9l-9 -262l8 -210h-195l9 190l-4 164h-149l-2 -144l8 -210h-195l9 190l-2 164h-71l-5 10l8 103h66v10q0 117 63 173t192 56q55 0 141 -15z" />
    <glyph glyph-name="fl" unicode="fl" horiz-adv-x="660" 
d="M418.5 701q42.5 -8 92.5 -26l-42 -132l-13 -9q-84 40 -132 40q-22 0 -34.5 -10t-13.5 -38l-1 -59h105l5 -10l-8 -103h-104l-2 -144l8 -210h-195l9 190l-3 164h-70l-5 10l8 103h65v30q0 102 63.5 157t180.5 55q44 0 86.5 -8zM608 210l8 -210h-195l9 190l-7 499l194 13z
" />
    <glyph glyph-name="f_j" unicode="fj" horiz-adv-x="656" 
d="M485 691l-21 -147l-17 -9q-85 36 -125 36q-23 0 -34 -12t-12 -38l-1 -54h228l99 13l11 -8l-9 -262l7 -175q0 -80 -46 -136.5t-143 -95.5l-65 86v16q35 19 52 49.5t17 76.5v159l-4 164h-149l-2 -144l8 -210h-195l9 190l-2 164h-71l-5 10l8 103h66v10q0 117 62.5 173
t192.5 56q55 0 141 -15z" />
    <glyph glyph-name="Gtilde" unicode="&#x7e;G" horiz-adv-x="596" 
d="M569 628l-43 -177h-16q-50 25 -86.5 36t-79.5 11q-46 0 -70.5 -15t-35.5 -53t-11 -110q0 -73 11 -111.5t37.5 -54t76.5 -15.5q14 0 36 4v32l-3 109l183 13l-3 -88v-177q-116 -44 -231 -44q-157 0 -237 83.5t-80 238.5q0 170 94.5 259t270.5 89q108 0 187 -30zM523 861
v-16l-81 -113l-16 -6q-27 3 -86 20q-8 2 -32.5 8t-34.5 6q-17 0 -30 -13t-39 -45h-16l-57 55v16l81 113l16 6q27 -3 86 -20q8 -2 32.5 -8t34.5 -6q17 0 30 13t39 45h16z" />
    <glyph glyph-name="gtilde" unicode="&#x7e;g" horiz-adv-x="516" 
d="M473 376l-2 -4q9 -22 9 -48q0 -78 -61 -124t-166 -46q-27 0 -53 3q-3 -7 -3 -12q0 -15 20 -20t69 -10q61 -5 103 -14.5t73 -38t31 -82.5q0 -53 -30 -93t-85.5 -62t-129.5 -22q-103 0 -158 36.5t-55 100.5q35 36 78 63v6q-69 28 -69 103q35 34 76 61v6q-40 19 -61 52.5
t-21 79.5q0 80 60.5 125.5t166.5 45.5q62 0 111 -20q72 16 146 48l13 -11v-117q-26 -4 -62 -6zM301 276.5q14 12.5 14 40.5t-12.5 39t-40.5 11q-33 0 -45.5 -10.5t-12.5 -36.5q0 -31 12 -43.5t41 -12.5q30 0 44 12.5zM309.5 -27q-23.5 7 -76.5 13l-31 3q-16 -16 -16 -36
q0 -48 79 -48q35 0 51.5 9t16.5 32q0 20 -23.5 27zM458 680v-16l-81 -113l-16 -6q-27 3 -86 20q-8 2 -32.5 8t-34.5 6q-17 0 -30 -13t-39 -45h-16l-57 55v16l81 113l16 6q27 -3 86 -20q8 -2 32.5 -8t34.5 -6q17 0 30 13t39 45h16z" />
    <glyph glyph-name=".notdef" horiz-adv-x="135" 
 />
    <glyph glyph-name=".null" 
 />
    <glyph glyph-name="nonmarkingreturn" unicode="&#xd;" horiz-adv-x="135" 
 />
    <glyph glyph-name="space" unicode=" " horiz-adv-x="135" 
 />
    <glyph glyph-name="exclam" unicode="!" horiz-adv-x="274" 
d="M248 649l-52 -390l-109 -16l-19 18l-17 378l17 22l157 11zM197.5 165q24.5 -25 24.5 -70q0 -48 -27 -76t-74 -28q-46 0 -70 24.5t-24 70.5q0 48 27.5 76t74.5 28q44 0 68.5 -25z" />
    <glyph glyph-name="quotedbl" unicode="&#x22;" horiz-adv-x="443" 
d="M214 634l-48 -262l-88 -14l-15 11l-10 268l151 9zM407 634l-48 -262l-88 -14l-15 11l-10 268l151 9z" />
    <glyph glyph-name="numbersign" unicode="#" horiz-adv-x="587" 
d="M468 346l-14 -90h72l11 -12l-8 -97h-93l-18 -116h-111l-9 12l17 104h-92l-18 -116h-111l-9 12l17 104h-71l-11 12l8 97h91l14 90h-72l-11 12l8 97h92l19 117h108l12 -13l-17 -104h91l19 117h108l12 -13l-17 -104h71l11 -12l-8 -97h-91zM346 346h-91l-14 -90h91z" />
    <glyph glyph-name="dollar" unicode="$" horiz-adv-x="469" 
d="M399 62q-37 -48 -113 -66l-8 -138h-115l-14 15l7 117q-67 7 -132 26l27 161l17 13q39 -31 85 -51t76 -20q24 0 24 16q0 12 -13.5 19.5t-47.5 20.5q-45 16 -76 33t-54 49.5t-23 82.5q0 62 38 108.5t107 64.5l7 134h112l17 -15l-6 -111q56 -5 113 -25l-27 -154l-26 -7
q-35 23 -72.5 37t-58.5 14t-21 -13t14.5 -21t48.5 -21q45 -16 75.5 -32.5t53 -48t22.5 -80.5q0 -60 -37 -108z" />
    <glyph glyph-name="percent" unicode="%" horiz-adv-x="889" 
d="M693 647l10 -24l-462 -717l-82 50l-6 17l464 721zM314.5 609q40.5 -46 40.5 -133q0 -94 -45.5 -144.5t-130.5 -50.5q-77 0 -118 46t-41 131q0 95 46.5 146t131.5 51q76 0 116.5 -46zM146.5 520q-11.5 -15 -11.5 -53q0 -41 11.5 -58.5t40.5 -17.5q30 0 42 16.5t12 53.5
q0 40 -12.5 57t-42.5 17q-28 0 -39.5 -15zM827.5 321q40.5 -46 40.5 -133q0 -94 -45.5 -144.5t-130.5 -50.5q-77 0 -118 46t-41 131q0 95 46.5 146t131.5 51q76 0 116.5 -46zM659.5 232q-11.5 -15 -11.5 -53q0 -41 11.5 -58.5t40.5 -17.5q30 0 42 16.5t12 53.5
q0 40 -12.5 57t-42.5 17q-28 0 -39.5 -15z" />
    <glyph glyph-name="ampersand" unicode="&#x26;" horiz-adv-x="730" 
d="M600 263q0 -66 -24 -117l129 -118v-12q-46 -52 -104 -87h-12l-115 105q-80 -46 -194 -46q-121 0 -190 50.5t-69 138.5q0 107 112 159l1 12q-60 68 -60 139q0 77 60.5 122.5t170.5 45.5q90 0 170 -24l-44 -143h-23q-58 33 -110 33q-54 0 -54 -45q0 -16 9 -30.5t37 -39.5
l179 -163q5 23 5 45q0 25 -3 43h-51l-8 11l12 125h293l11 -13l-12 -123h-113l-5 -11q2 -20 2 -57zM367 131l-155 141q-24 -28 -24 -63q0 -88 111 -88q39 0 68 10z" />
    <glyph glyph-name="quotesingle" unicode="'" horiz-adv-x="250" 
d="M214 634l-48 -262l-88 -14l-15 11l-10 268l151 9z" />
    <glyph glyph-name="parenleft" unicode="(" horiz-adv-x="302" 
d="M300 602v-15q-45 -50 -66.5 -131.5t-21.5 -204.5q0 -113 21.5 -189.5t66.5 -126.5v-15l-69 -57h-17q-81 60 -119.5 154t-38.5 233q0 150 38.5 249t119.5 160h17z" />
    <glyph glyph-name="parenright" unicode=")" horiz-adv-x="294" 
d="M-9 -80v15q45 50 66.5 131.5t21.5 204.5q0 113 -21.5 189.5t-66.5 126.5v15l69 57h17q81 -60 119.5 -154t38.5 -233q0 -150 -38.5 -249t-119.5 -160h-17z" />
    <glyph glyph-name="asterisk" unicode="*" horiz-adv-x="394" 
d="M258 741l-36 -127l-51 -6l-9 8l-6 118q43 15 97 17zM150 605l-9 -51l-11 -5l-114 30q-1 44 13 97l12 3zM393 561l-7 -8l-132 -4l-23 46l5 11l112 42q27 -39 45 -87zM250 533l75 -93q-24 -33 -69 -70l-10 4l-45 125l37 35zM182 509l2 -11l-64 -100q-38 11 -89 42l1 12
l104 81z" />
    <glyph glyph-name="plus" unicode="+" horiz-adv-x="480" 
d="M306 469v-149h148l12 -13l-9 -117h-151v-152l-117 -9l-13 12v149h-149l-12 13l9 117h152v152l117 9z" />
    <glyph glyph-name="comma" unicode="," horiz-adv-x="228" 
d="M197.5 134q11.5 -26 11.5 -57q0 -58 -37 -111.5t-115 -107.5l-61 53l-2 14q29 25 42.5 51.5t13.5 57.5q0 42 -33 75l1 16q72 40 143 58q25 -23 36.5 -49z" />
    <glyph glyph-name="hyphen" unicode="-" horiz-adv-x="299" 
d="M273 326l1 -120l-235 -38l-14 14v120l234 38z" />
    <glyph glyph-name="period" unicode="." horiz-adv-x="228" 
d="M186.5 165q24.5 -25 24.5 -70q0 -48 -27 -76t-74 -28q-46 0 -70 24.5t-24 70.5q0 48 27.5 76t74.5 28q44 0 68.5 -25z" />
    <glyph glyph-name="slash" unicode="/" horiz-adv-x="280" 
d="M326 667l-208 -785h-135l-11 15l208 786h131z" />
    <glyph glyph-name="zero" unicode="0" horiz-adv-x="513" 
d="M427.5 457.5q56.5 -66.5 56.5 -187.5q0 -134 -63 -208t-176 -74q-102 0 -159 67t-57 188q0 132 63.5 206.5t177.5 74.5q101 0 157.5 -66.5zM197 323q-17 -19 -17 -67q0 -52 17 -74.5t59 -22.5t60 20.5t18 67.5q0 52 -18.5 73.5t-60.5 21.5q-41 0 -58 -19z" />
    <glyph glyph-name="one" unicode="1" horiz-adv-x="379" 
d="M303 502l-10 -292l8 -210h-198l8 190v109l-94 -20l-12 9v158l270 76z" />
    <glyph glyph-name="two" unicode="2" horiz-adv-x="490" 
d="M385 486.5q51 -35.5 51 -99.5q0 -41 -24.5 -86.5t-82.5 -103.5l-44 -44l3 -5h77l97 10l10 -12l-22 -154l-144 8h-230l-36 -3l-9 7v118l128 110q41 37 61.5 61t20.5 41q0 23 -35 23q-27 0 -61 -13.5t-65 -36.5h-21l-33 152q124 63 228 63q80 0 131 -35.5z" />
    <glyph glyph-name="three" unicode="3" horiz-adv-x="453" 
d="M364 483q55 -41 55 -108q0 -37 -20 -74.5t-69 -65.5v-6q48 -17 71 -50t23 -85q0 -55 -35 -97.5t-98 -66t-146 -23.5q-61 0 -118 11l-10 144l13 12q69 -20 121 -20q43 0 64 11.5t21 35.5q0 33 -46 33h-84l-8 12l5 134l45 2q31 2 51 15t20 36q0 17 -11 25t-35 8
q-23 0 -49 -8t-61 -24h-20l-28 135q47 26 100 40.5t104 14.5q90 0 145 -41z" />
    <glyph glyph-name="four" unicode="4" horiz-adv-x="529" 
d="M499 28l-68 2l6 -103l-10 -13l-153 -9l-10 12l4 115h-129l-112 -4l-12 16v123l236 347h180l-4 -333h69l11 -17zM180 181h92l-1 119h-11z" />
    <glyph glyph-name="five" unicode="5" horiz-adv-x="448" 
d="M428 510l-21 -148l-13 -14l-111 15h-79l-2 -61l60 -13q80 -17 117.5 -56.5t37.5 -106.5q0 -66 -34.5 -116t-96.5 -77.5t-144 -27.5q-63 0 -129 14l-9 140l13 13q64 -19 128 -19q41 0 63.5 13t22.5 38q0 20 -14 31.5t-45 16.5l-109 18l-11 14l5 314l19 20l63 -4h161l117 8
z" />
    <glyph glyph-name="six" unicode="6" horiz-adv-x="498" 
d="M397 350.5q39 -25.5 59.5 -67t20.5 -88.5q0 -52 -25.5 -99.5t-78 -77.5t-128.5 -30q-106 0 -166.5 62.5t-60.5 169.5q0 115 74.5 213.5t210.5 164.5h9l124 -86v-19q-85 -34 -132.5 -61.5t-71.5 -60.5l4 -5q35 10 67 10q55 0 94 -25.5zM301 176q0 33 -13.5 49t-43.5 16
q-22 0 -49 -9v-9q0 -59 10 -84.5t45 -25.5q51 0 51 63z" />
    <glyph glyph-name="seven" unicode="7" horiz-adv-x="450" 
d="M159 514h210l57 2v-142l-131 -285l-70 -186l-156 43l-12 30l180 377h-109l-111 -12l-9 15l12 163z" />
    <glyph glyph-name="eight" unicode="8" horiz-adv-x="515" 
d="M414 556.5q51 -41.5 51 -111.5q0 -76 -80 -128v-8q44 -23 69 -55t25 -80q0 -87 -64.5 -136.5t-172.5 -49.5q-101 0 -155 42.5t-54 110.5q0 47 25.5 78t77.5 53v8q-88 48 -88 139q0 83 61 131t164 48q90 0 141 -41.5zM219 455.5q-13 -10.5 -13 -29.5q0 -22 18.5 -37
t53.5 -29q35 30 35 62q0 20 -14.5 32t-39.5 12q-27 0 -40 -10.5zM204.5 202.5q-11.5 -12.5 -11.5 -33.5q0 -25 16.5 -39t48.5 -14q31 0 47 12.5t16 30.5q0 22 -19.5 36.5t-58.5 29.5q-27 -10 -38.5 -22.5z" />
    <glyph glyph-name="nine" unicode="9" horiz-adv-x="498" 
d="M101 162.5q-39 25.5 -59.5 67t-20.5 88.5q0 52 25.5 99.5t78 77.5t128.5 30q106 0 166.5 -62.5t60.5 -169.5q0 -115 -74.5 -213.5t-210.5 -164.5h-9l-124 86v19q85 34 132.5 61.5t71.5 60.5l-4 5q-35 -10 -67 -10q-55 0 -94 25.5zM197 337q0 -33 13.5 -49t43.5 -16
q22 0 49 9v9q0 59 -10 84.5t-45 25.5q-51 0 -51 -63z" />
    <glyph glyph-name="colon" unicode=":" horiz-adv-x="228" 
d="M181.5 165q24.5 -25 24.5 -70q0 -48 -27 -76t-74 -28q-46 0 -70 24.5t-24 70.5q0 48 27.5 76t74.5 28q44 0 68.5 -25zM181.5 420q24.5 -25 24.5 -70q0 -48 -27 -76t-74 -28q-46 0 -70 24.5t-24 70.5q0 48 27.5 76t74.5 28q44 0 68.5 -25z" />
    <glyph glyph-name="semicolon" unicode=";" horiz-adv-x="228" 
d="M192.5 134q11.5 -26 11.5 -57q0 -58 -37 -111.5t-115 -107.5l-61 53l-2 14q29 25 42.5 51.5t13.5 57.5q0 42 -33 75l1 16q72 40 143 58q25 -23 36.5 -49zM181.5 420q24.5 -25 24.5 -70q0 -48 -27 -76t-74 -28q-46 0 -70 24.5t-24 70.5q0 48 27.5 76t74.5 28
q44 0 68.5 -25z" />
    <glyph glyph-name="less" unicode="&#x3c;" horiz-adv-x="480" 
d="M448 369l-7 -13l-277 -92v-9l276 -91l-26 -108l-16 -13l-367 134v156l12 17l365 130z" />
    <glyph glyph-name="equal" unicode="=" horiz-adv-x="480" 
d="M466 413l-9 -117h-430l-12 13l9 117h430zM466 200l-9 -117h-430l-12 13l9 117h430z" />
    <glyph glyph-name="greater" unicode="&#x3e;" horiz-adv-x="480" 
d="M437 350l12 -17v-156l-367 -134l-16 13l-26 108l276 91v9l-277 92l-7 13l40 111z" />
    <glyph glyph-name="question" unicode="?" horiz-adv-x="351" 
d="M306 628q78 -43 78 -118q0 -43 -25.5 -80.5t-73.5 -62.5l-58 -30l-3 -6l7 -71l-136 -20l-13 12l-13 126l6 11l84 33q48 20 48 58q0 28 -35 42t-127 20l-14 18l35 108l17 9q145 -6 223 -49zM239.5 165q24.5 -25 24.5 -70q0 -48 -27 -76t-74 -28q-46 0 -70 24.5t-24 70.5
q0 48 27.5 76t74.5 28q44 0 68.5 -25z" />
    <glyph glyph-name="at" unicode="@" horiz-adv-x="866" 
d="M747 86q-109 -84 -311 -84l14 103h-15q-34 -66 -70 -110h-22q-74 18 -102 57t-28 102q0 60 24.5 119.5t76 108.5t126.5 74h6l92 -15l103 21l11 -8l-43 -321q56 14 89 65.5t33 122.5q0 101 -66.5 160t-179.5 59q-101 0 -178 -43.5t-119 -119.5t-42 -173q0 -101 47 -174
t132.5 -111t198.5 -38l7 -17l-50 -89q-140 0 -244 47t-161 139t-57 222q0 133 59 242t166 171.5t247 62.5q109 0 191.5 -39.5t128 -114.5t45.5 -178q0 -157 -109 -241zM423.5 185q20.5 35 51.5 111l3 21l-64 16q-45 0 -45 -109q0 -74 20 -74q14 0 34.5 35z" />
    <glyph glyph-name="A" unicode="A" horiz-adv-x="627" 
d="M617 0h-203l-18 107l-1 3l-98 2l-82 -4l-17 -108h-196l196 647h242zM365 256l-44 212h-12l-56 -212l56 -1z" />
    <glyph glyph-name="B" unicode="B" horiz-adv-x="629" 
d="M575.5 279.5q28.5 -35.5 28.5 -92.5q0 -101 -82.5 -147.5t-246.5 -46.5q-91 0 -215 7l10 190l-10 457l289 1q110 0 172 -42.5t62 -123.5q0 -50 -25.5 -88.5t-73.5 -60.5q63 -18 91.5 -53.5zM354.5 501.5q-24.5 13.5 -91.5 13.5h-9l-4 -132l75 -3q28 9 41 26t13 47
q0 35 -24.5 48.5zM377.5 143q23.5 18 23.5 52q0 23 -13.5 37t-43.5 24l-97 -2l-1 -44l3 -81q50 -4 64 -4q41 0 64.5 18z" />
    <glyph glyph-name="C" unicode="C" horiz-adv-x="514" 
d="M514 631l-34 -159l-13 -8q-26 14 -60 22.5t-63 8.5q-61 0 -88 -35.5t-27 -118.5q0 -97 31 -141.5t97 -44.5q28 0 62.5 5.5t60.5 15.5l16 -10l-16 -158q-60 -19 -139 -19q-161 0 -242.5 84t-81.5 245q0 162 87.5 251t247.5 89q86 0 162 -27z" />
    <glyph glyph-name="D" unicode="D" horiz-adv-x="665" 
d="M571.5 573.5q76.5 -77.5 76.5 -223.5q0 -173 -89 -266t-255 -93q-104 0 -244 9l10 190l-10 457l292 4q143 0 219.5 -77.5zM413.5 177.5q24.5 37.5 24.5 123.5q0 73 -10 115t-32 60.5t-61 18.5q-38 0 -75 -4l-7 -281l2 -62q60 -8 87 -8q47 0 71.5 37.5z" />
    <glyph glyph-name="E" unicode="E" horiz-adv-x="541" 
d="M517 160l11 -14l-12 -146h-456l10 190l-10 457h464l11 -14l-13 -146l-159 6h-103l-2 -91h99l104 3l11 -14l-12 -146l-116 3h-90l-1 -38l2 -56h96z" />
    <glyph glyph-name="F" unicode="F" horiz-adv-x="481" 
d="M260 493l-3 -116h68l116 3l11 -14l-12 -146l-129 3h-58v-13l8 -210h-201l10 190l-10 457h432l11 -14l-13 -146l-160 6h-70z" />
    <glyph glyph-name="G" unicode="G" horiz-adv-x="596" 
d="M569 628l-43 -177h-16q-50 25 -86.5 36t-79.5 11q-46 0 -70.5 -15t-35.5 -53t-11 -110q0 -73 11 -111.5t37.5 -54t76.5 -15.5q14 0 36 4v32l-3 109l183 13l-3 -88v-177q-116 -44 -231 -44q-157 0 -237 83.5t-80 238.5q0 170 94.5 259t270.5 89q108 0 187 -30z" />
    <glyph glyph-name="H" unicode="H" horiz-adv-x="711" 
d="M648 210l8 -210h-201l10 190l-1 50l-108 2l-93 -3l-1 -29l8 -210h-201l10 190l-10 457h204l-6 -245l101 -2l92 2l-5 245h204z" />
    <glyph glyph-name="I" unicode="I" horiz-adv-x="327" 
d="M253 210l8 -210h-201l10 190l-10 457h204z" />
    <glyph glyph-name="J" unicode="J" horiz-adv-x="362" 
d="M293 213l2 -89q0 -63 -21 -106t-69.5 -74t-134.5 -56l-52 103v16q51 25 71.5 52t20.5 71v63l-7 313l-85 -3l-11 13l8 131h289z" />
    <glyph glyph-name="K" unicode="K" horiz-adv-x="628" 
d="M647 42l-3 -22q-105 -23 -200 -32l-22 12q-102 175 -167 297l-2 -87l8 -210h-201l10 190l-10 457h204l-7 -270l124 200l34 70h212l-190 -306q92 -144 210 -299z" />
    <glyph glyph-name="L" unicode="L" horiz-adv-x="452" 
d="M452 150l-12 -150h-385l10 190l-10 457h204l-11 -437l2 -46h191z" />
    <glyph glyph-name="M" unicode="M" horiz-adv-x="806" 
d="M774 0h-176l-5 196l-11 163h-12l-104 -298h-151l-86 298h-12l-14 -144l-10 -215h-167l63 647h231l19 -92l57 -235h12l63 228l23 99h228z" />
    <glyph glyph-name="N" unicode="N" horiz-adv-x="710" 
d="M639 211l8 -211h-218l-182 346h-12l-1 -112l8 -234h-182l10 190l-10 457h218l182 -346h12l-6 339l184 11z" />
    <glyph glyph-name="O" unicode="O" horiz-adv-x="653" 
d="M559 575.5q77 -83.5 77 -235.5q0 -168 -84.5 -260t-239.5 -92q-141 0 -218 84.5t-77 239.5q0 166 84.5 256.5t239.5 90.5q141 0 218 -83.5zM264 485.5q-20 -13.5 -28.5 -47.5t-8.5 -99q0 -83 9 -126t30.5 -60t63.5 -17q39 0 59 13.5t28.5 48t8.5 99.5q0 82 -9 125
t-30.5 60t-63.5 17q-39 0 -59 -13.5z" />
    <glyph glyph-name="P" unicode="P" horiz-adv-x="593" 
d="M534.5 594.5q58.5 -53.5 58.5 -152.5q0 -77 -36 -135.5t-102 -91t-152 -32.5h-49l7 -183h-201l10 190l-10 457l307 1q109 0 167.5 -53.5zM370.5 361.5q12.5 23.5 12.5 60.5q0 44 -21 64.5t-66 22.5l-36 -3l-4 -179l75 -4q27 15 39.5 38.5z" />
    <glyph glyph-name="Q" unicode="Q" horiz-adv-x="661" 
d="M741 -78q-39 -77 -96 -127l-14 -7q-172 87 -303 200h-16q-141 0 -218 84.5t-77 239.5q0 166 84.5 256.5t239.5 90.5q141 0 218 -83.5t77 -235.5q0 -105 -34 -181.5t-99 -119.5q117 -61 230 -99zM236 213q9 -43 30.5 -60t63.5 -17q39 0 59 13.5t28.5 48t8.5 99.5
q0 82 -9 125t-30.5 60t-63.5 17q-39 0 -59 -13.5t-28.5 -47.5t-8.5 -99q0 -83 9 -126z" />
    <glyph glyph-name="R" unicode="R" horiz-adv-x="631" 
d="M630 47l-3 -22q-102 -31 -201 -37l-19 16l-12 25q-8 16 -32 67.5t-42 96.5h-67l7 -193h-201l10 190l-10 457l307 1q109 0 168 -51.5t59 -148.5q0 -57 -28.5 -107t-79.5 -86q72 -112 144 -208zM362.5 487.5q-20.5 19.5 -66.5 21.5l-36 -3l-4 -167l73 -4q28 13 41 35t13 58
q0 40 -20.5 59.5z" />
    <glyph glyph-name="S" unicode="S" horiz-adv-x="528" 
d="M493 624l-32 -163l-28 -12q-42 26 -83 41t-66 15q-23 0 -36.5 -9t-13.5 -24q0 -19 20.5 -32.5t68.5 -35.5q56 -25 92 -46.5t63 -59t27 -92.5q0 -61 -33.5 -110.5t-95.5 -78.5t-144 -29q-102 0 -214 38l29 174l20 12q46 -35 98.5 -55.5t87.5 -20.5q28 0 40.5 9.5
t12.5 23.5q0 21 -21.5 35.5t-69.5 35.5q-55 24 -90.5 45.5t-61.5 59t-26 92.5q0 63 34 113.5t95 79.5t139 29q95 0 188 -35z" />
    <glyph glyph-name="T" unicode="T" horiz-adv-x="519" 
d="M513 633l-11 -146l-132 6h-12l-5 -283l8 -210h-200l10 190l-5 303h-13l-133 -6l-12 14l11 146h483z" />
    <glyph glyph-name="U" unicode="U" horiz-adv-x="653" 
d="M600 319l-1 -103q-1 -110 -74 -169t-209 -59q-131 0 -200.5 59t-66.5 169l3 103l-6 328h201l-9 -404q-1 -51 19.5 -74t66.5 -23q47 0 68 23t20 74l-9 404h204z" />
    <glyph glyph-name="V" unicode="V" horiz-adv-x="615" 
d="M423 0h-242l-177 647h203l18 -107l75 -361h12l92 349l19 119h196z" />
    <glyph glyph-name="W" unicode="W" horiz-adv-x="914" 
d="M723 0h-212l-61 234h-12l-56 -234h-213l-152 647h194l10 -100l63 -346h12l75 295l-34 151h202l14 -120l68 -326h12l79 334l18 112h184z" />
    <glyph glyph-name="X" unicode="X" horiz-adv-x="659" 
d="M458 342l195 -342h-239l-34 79l-58 105l-74 -115l-32 -69h-203l192 311l-198 336h240l35 -81l57 -102l65 113l30 70h209z" />
    <glyph glyph-name="Y" unicode="Y" horiz-adv-x="594" 
d="M382 170l8 -170h-200l10 170l-1 31l-207 446h210l16 -54l73 -195h12l84 188l23 61h204l-230 -439z" />
    <glyph glyph-name="Z" unicode="Z" horiz-adv-x="570" 
d="M538 504l-275 -356h161l123 9l6 -9l-16 -153l-178 5h-230l-101 -6v143l280 362h-157l-120 -10l-7 8l14 153l150 -3h274l76 1v-144z" />
    <glyph glyph-name="bracketleft" unicode="[" horiz-adv-x="302" 
d="M311 640v-86l-94 -15v-552l94 -15v-86l-7 -9l-245 10l11 376l-11 376l245 10z" />
    <glyph glyph-name="backslash" unicode="\" horiz-adv-x="280" 
d="M-28 667l15 16h131l208 -786l-11 -15h-135z" />
    <glyph glyph-name="bracketright" unicode="]" horiz-adv-x="302" 
d="M-9 -114v86l94 15v552l-94 15v86l7 9l245 -10l-11 -376l11 -376l-245 -10z" />
    <glyph glyph-name="asciicircum" unicode="^" horiz-adv-x="460" 
d="M449 161l-13 -16l-108 -26l-91 251h-9l-92 -252l-13 -7l-111 40l130 340l17 11h156z" />
    <glyph glyph-name="underscore" unicode="_" horiz-adv-x="438" 
d="M453 -104l-9 -107h-447l-12 13l9 107h447z" />
    <glyph glyph-name="grave" unicode="`" horiz-adv-x="388" 
d="M338 594l-44 -72l-17 -1q-81 37 -223 109l-3 17l69 107l17 1q99 -85 201 -161z" />
    <glyph glyph-name="a" unicode="a" horiz-adv-x="503" 
d="M400 446.5q50 -37.5 50 -107.5q0 -20 -4 -106q-4 -76 -4 -85q0 -11 3.5 -16t10.5 -5t17 3l12 -10l-17 -100q-37 -26 -93 -30q-29 2 -51.5 20t-34.5 51h-7q-44 -51 -100 -72q-76 1 -121.5 42.5t-45.5 113.5q0 111 115 127l142 19v12q0 26 -10.5 37t-36.5 11
q-56 0 -145 -48l-12 8l-21 123q46 24 101.5 37t109.5 13q92 0 142 -37.5zM215 198q-14 -2 -20.5 -10.5t-6.5 -25.5q0 -40 37 -40q24 0 47 16v68z" />
    <glyph glyph-name="b" unicode="b" horiz-adv-x="534" 
d="M470.5 417.5q49.5 -61.5 49.5 -169.5q0 -126 -65 -193t-178 -67q-63 0 -135 25l-82 -25l-17 19l8 183l-7 499l194 13l-6 -298h5q42 50 96 75q88 0 137.5 -61.5zM319 132.5q18 24.5 18 84.5q0 55 -16.5 81.5t-51.5 26.5q-20 0 -38 -11l-2 -99l1 -101q20 -6 36 -6
q35 0 53 24.5z" />
    <glyph glyph-name="c" unicode="c" horiz-adv-x="384" 
d="M382 460l-31 -148l-14 -7q-27 11 -44 16t-32 5q-31 0 -46 -18.5t-15 -58.5q0 -57 17.5 -83t55.5 -26q31 0 85 15l13 -11l-20 -143q-52 -13 -125 -13q-101 0 -156.5 62.5t-55.5 177.5q0 122 64.5 189t181.5 67q68 0 122 -24z" />
    <glyph glyph-name="d" unicode="d" horiz-adv-x="535" 
d="M480 210l1 -61q0 -12 3 -17t10 -5t17 3l12 -10l-17 -100q-37 -26 -93 -30q-32 2 -56.5 20t-38.5 50h-7q-40 -43 -94 -69q-95 0 -149 64t-54 174q0 123 66 187.5t181 64.5q15 0 37 -3l-3 211l194 13zM209 334q-13 -18 -13 -69q0 -69 14 -99.5t44 -30.5q25 0 47 20l1 36
l-2 151q-23 10 -45 10q-33 0 -46 -18z" />
    <glyph glyph-name="e" unicode="e" horiz-adv-x="485" 
d="M442 196l-248 -2q9 -35 34 -51.5t69 -16.5q49 0 143 25l14 -10l-30 -132q-79 -21 -147 -21q-124 0 -193.5 66t-69.5 182q0 115 66 181t181 66q99 0 153.5 -52t54.5 -145q0 -30 -6 -65zM304 306q0 53 -45 53q-55 0 -67 -71l110 4z" />
    <glyph glyph-name="f" unicode="f" horiz-adv-x="360" 
d="M436 695l-11 -141l-13 -9q-61 24 -93 24q-20 0 -30.5 -9.5t-11.5 -32.5l-1 -60h106l5 -10l-8 -103h-105l-3 -144l8 -210h-195l9 190l-2 164h-71l-5 10l8 103h66v25q0 102 65.5 157t185.5 55q46 0 96 -9z" />
    <glyph glyph-name="g" unicode="g" horiz-adv-x="516" 
d="M473 376l-2 -4q9 -22 9 -48q0 -78 -61 -124t-166 -46q-27 0 -53 3q-3 -7 -3 -12q0 -15 20 -20t69 -10q61 -5 103 -14.5t73 -38t31 -82.5q0 -53 -30 -93t-85.5 -62t-129.5 -22q-103 0 -158 36.5t-55 100.5q35 36 78 63v6q-69 28 -69 103q35 34 76 61v6q-40 19 -61 52.5
t-21 79.5q0 80 60.5 125.5t166.5 45.5q62 0 111 -20q72 16 146 48l13 -11v-117q-26 -4 -62 -6zM301 276.5q14 12.5 14 40.5t-12.5 39t-40.5 11q-33 0 -45.5 -10.5t-12.5 -36.5q0 -31 12 -43.5t41 -12.5q30 0 44 12.5zM309.5 -27q-23.5 7 -76.5 13l-31 3q-16 -16 -16 -36
q0 -48 79 -48q35 0 51.5 9t16.5 32q0 20 -23.5 27z" />
    <glyph glyph-name="h" unicode="h" horiz-adv-x="549" 
d="M316 0l10 264q0 61 -47 61q-23 0 -47 -14l-2 -101l8 -210h-195l9 190l-7 499l194 13l-5 -298h5q53 53 117 74q75 0 114.5 -34t37.5 -98l-4 -136l7 -210h-195z" />
    <glyph glyph-name="i" unicode="i" horiz-adv-x="284" 
d="M52 190l-7 271l194 13l-9 -264l8 -210h-195zM213.5 703q24.5 -25 24.5 -70q0 -48 -27 -76t-74 -28q-46 0 -70 24.5t-24 70.5q0 48 27.5 76t74.5 28q44 0 68.5 -25z" />
    <glyph glyph-name="j" unicode="j" horiz-adv-x="306" 
d="M263 472l-9 -262l7 -175q0 -80 -46 -136.5t-143 -95.5l-65 86v16q35 19 52 49.5t17 76.5v159l-4 164h-64l-10 11l8 102h71l181 9zM227.5 703q24.5 -25 24.5 -70q0 -48 -27 -76t-74 -28q-46 0 -70 24.5t-24 70.5q0 48 27.5 76t74.5 28q44 0 68.5 -25z" />
    <glyph glyph-name="k" unicode="k" horiz-adv-x="540" 
d="M534 32l-1 -20q-65 -13 -183 -24l-20 10q-59 108 -100 223v-11l8 -210h-195l9 190l-7 499l194 13l-8 -428l76 142l21 56h199l-120 -209q47 -96 127 -231z" />
    <glyph glyph-name="l" unicode="l" horiz-adv-x="282" 
d="M230 210l8 -210h-195l9 190l-7 499l194 13z" />
    <glyph glyph-name="m" unicode="m" horiz-adv-x="814" 
d="M583 0l10 265q0 61 -47 61q-22 0 -47 -13l-3 -103l8 -210h-193l10 265q0 61 -48 61q-23 0 -48 -14v-102l8 -210h-193l9 190l-7 271l183 13v-70h7q53 53 117 74q55 0 91.5 -19t50.5 -55h5q52 51 126 74q74 0 113 -34t38 -98l-4 -136l7 -210h-193z" />
    <glyph glyph-name="n" unicode="n" horiz-adv-x="544" 
d="M311 0l10 264q0 61 -47 61q-23 0 -47 -14v-101l8 -210h-195l9 190l-7 271l185 13v-70h7q52 52 117 74q75 0 114.5 -34t37.5 -98l-4 -136l7 -210h-195z" />
    <glyph glyph-name="o" unicode="o" horiz-adv-x="497" 
d="M426 424q57 -60 57 -177q0 -128 -61.5 -193.5t-181.5 -65.5q-112 0 -169 59.5t-57 175.5q0 129 61.5 195t181.5 66q112 0 169 -60zM213 345.5q-10 -7.5 -13.5 -27.5t-3.5 -61q0 -61 4.5 -90.5t16.5 -41t37 -11.5q20 0 29.5 7.5t13 28t3.5 61.5q0 60 -4.5 89.5t-16.5 41
t-36 11.5q-20 0 -30 -7.5z" />
    <glyph glyph-name="p" unicode="p" horiz-adv-x="529" 
d="M466 418q49 -61 49 -170q0 -124 -63.5 -192t-178.5 -68q-20 0 -43 3l4 -176h-194l8 375l-7 271l185 13v-70h7q42 50 96 75q88 0 137 -61zM315.5 134q16.5 26 16.5 83q0 56 -16 82t-51 26q-22 0 -39 -12v-103l2 -97q20 -5 34 -5q37 0 53.5 26z" />
    <glyph glyph-name="q" unicode="q" horiz-adv-x="529" 
d="M473 484l16 -9l-9 -265l7 -395h-194l9 198v33h-7q-36 -36 -78 -55q-96 0 -149.5 64t-53.5 173q0 82 30.5 139t84 85.5t120.5 28.5q34 0 59 -6.5t62 -20.5zM208 332.5q-12 -19.5 -12 -73.5q0 -64 14.5 -94t43.5 -30q25 0 47 20l1 33l-3 154q-23 10 -46 10q-33 0 -45 -19.5
z" />
    <glyph glyph-name="r" unicode="r" horiz-adv-x="376" 
d="M374 471v-175l-19 -6q-13 8 -36 8q-22 0 -46.5 -10t-45.5 -28v-50l8 -210h-195l9 190l-7 271l185 13v-88h9q43 87 115 87q13 0 23 -2z" />
    <glyph glyph-name="s" unicode="s" horiz-adv-x="402" 
d="M380 458l-25 -135l-22 -7q-34 21 -69 33.5t-55 12.5q-26 0 -26 -18q0 -13 15 -22t49 -21q43 -16 71 -31t49 -43.5t21 -72.5t-22 -81.5t-70 -61t-121 -23.5q-82 0 -168 26l23 143l16 12q37 -29 80.5 -46t72.5 -17q28 0 28 19q0 13 -15 22t-49 21q-43 16 -71.5 31
t-49.5 43.5t-21 73.5q0 47 25 85t72.5 60t113.5 22q73 0 148 -25z" />
    <glyph glyph-name="t" unicode="t" horiz-adv-x="361" 
d="M340 154l12 -15l-18 -108q-21 -13 -50 -23.5t-56 -14.5q-79 0 -124 36t-45 96l6 104l-1 125h-62l-5 10l8 103h59l-1 85l181 48l12 -11l-5 -122h98l5 -10l-8 -103h-99l-6 -169q0 -24 8.5 -33.5t30.5 -9.5q26 0 60 12z" />
    <glyph glyph-name="u" unicode="u" horiz-adv-x="536" 
d="M524 120l-17 -100q-48 -31 -100 -30q-58 12 -84 84h-12q-28 -31 -55 -50.5t-60 -29.5q-74 0 -114.5 34t-40.5 98l3 103l-6 232l185 13v-271q0 -30 10 -42.5t31 -12.5q13 0 22.5 3.5t20.5 11.5v298l185 13l-11 -326q0 -11 3.5 -16t10.5 -5t17 3z" />
    <glyph glyph-name="v" unicode="v" horiz-adv-x="468" 
d="M195 381l35 -202h10l45 190l18 103h168l-140 -472h-212l-119 469l182 7z" />
    <glyph glyph-name="w" unicode="w" horiz-adv-x="725" 
d="M191 387l27 -196h10l38 185l17 96h188l9 -85l31 -195h10l35 184l18 96h160l-137 -472h-183l-43 234h-12l-50 -234h-191l-113 469l176 7z" />
    <glyph glyph-name="x" unicode="x" horiz-adv-x="490" 
d="M231 407l29 -63l36 72l27 55h167l-125 -233l125 -233l-205 -13l-25 72l-28 64l-38 -73l-24 -55h-168l123 234l-125 234l209 7z" />
    <glyph glyph-name="y" unicode="y" horiz-adv-x="471" 
d="M190 386l51 -197h10l47 179l19 104h164l-138 -423q-23 -69 -55 -113.5t-81 -75t-127 -54.5l-13 2q-50 47 -85 116l7 17q92 14 170 59l-171 469l186 7z" />
    <glyph glyph-name="z" unicode="z" horiz-adv-x="438" 
d="M148 472h199l66 1v-114l-189 -239h96l95 7l10 -12l-12 -118l-142 3h-166l-85 -5v114l192 243h-90l-95 -7l-10 12l12 118z" />
    <glyph glyph-name="braceleft" unicode="{" horiz-adv-x="302" 
d="M298 647l7 -13l-15 -96q-18 5 -33 5q-22 0 -34 -12.5t-12 -35.5q0 -20 13 -53q5 -14 9 -30t4 -28q0 -33 -18 -60t-52 -43v-7q34 -16 52 -43t18 -58q0 -23 -14 -61q-5 -13 -8.5 -27t-3.5 -25q0 -23 12 -35.5t34 -12.5q15 0 33 5l15 -96l-7 -13q-39 -12 -80 -12
q-77 0 -118 32.5t-41 91.5q0 21 4 43.5t9 42.5q9 38 9 58q0 47 -55 70v87q55 23 55 70q0 20 -9 58q-5 20 -9 42.5t-4 43.5q0 59 41 91.5t118 32.5q41 0 80 -12z" />
    <glyph glyph-name="bar" unicode="|" horiz-adv-x="300" 
d="M226 797l-5 -503l1 -539l-132 -11l-15 16l1 519l1 520l135 11z" />
    <glyph glyph-name="braceright" unicode="}" horiz-adv-x="302" 
d="M4 -92l-7 13l15 96q18 -5 33 -5q22 0 34 12.5t12 35.5q0 20 -13 53q-5 14 -9 30t-4 28q0 33 18 60t52 43v7q-34 16 -52 43t-18 58q0 23 14 61q5 13 8.5 27t3.5 25q0 23 -12 35.5t-34 12.5q-15 0 -33 -5l-15 96l7 13q39 12 80 12q77 0 118 -32.5t41 -91.5q0 -21 -4 -43.5
t-9 -42.5q-9 -38 -9 -58q0 -47 55 -70v-87q-55 -23 -55 -70q0 -20 9 -58q5 -20 9 -42.5t4 -43.5q0 -59 -41 -91.5t-118 -32.5q-41 0 -80 12z" />
    <glyph glyph-name="asciitilde" unicode="~" horiz-adv-x="480" 
d="M120 199.5q-15 -12.5 -28.5 -28t-18.5 -20.5h-16l-51 63v16l92 115l16 7q32 -6 107 -29q9 -3 51 -15.5t59 -12.5q15 0 29.5 12t28.5 27.5t19 21.5h16l50 -63v-16l-91 -115l-16 -6q-30 4 -115 31q-32 10 -61 17.5t-40 7.5q-16 0 -31 -12.5z" />
    <glyph glyph-name="uni00A0" unicode="&#xa0;" horiz-adv-x="135" 
 />
    <glyph glyph-name="exclamdown" unicode="&#xa1;" horiz-adv-x="274" 
d="M37 -174l52 390l109 16l19 -18l17 -378l-17 -22l-157 -11zM87.5 310q-24.5 25 -24.5 70q0 48 27 76t74 28q46 0 70 -24.5t24 -70.5q0 -48 -27.5 -76t-74.5 -28q-44 0 -68.5 25z" />
    <glyph glyph-name="cent" unicode="&#xa2;" horiz-adv-x="382" 
d="M358 194l13 -11l-20 -143q-36 -8 -55 -10l-8 -159h-135l-14 15l8 153q-65 22 -99 80t-34 148q0 96 40.5 158.5t115.5 85.5l7 151h131l19 -16l-7 -128q38 -8 62 -19l-31 -148l-14 -7q-27 11 -44 16t-32 5q-31 0 -46 -18.5t-15 -58.5q0 -57 17.5 -83t55.5 -26q31 0 85 15z
" />
    <glyph glyph-name="sterling" unicode="&#xa3;" horiz-adv-x="481" 
d="M461 127l-13 -132l-157 5h-274l-6 9l8 108q40 10 56.5 31.5t16.5 59.5v41h-75l-6 9l8 95h71v39q-1 98 63.5 151.5t184.5 53.5q63 0 122 -13l-11 -135l-12 -8q-71 32 -117 32q-30 0 -44 -12t-14 -38l-1 -70h137l5 -9l-7 -95h-137v-2q0 -41 -8 -64t-33 -51v-5h127l111 8z
" />
    <glyph glyph-name="currency" unicode="&#xa4;" horiz-adv-x="434" 
d="M458 490v-16l-72 -61q17 -36 17 -74q0 -32 -13 -65l72 -55l3 -17l-84 -89h-16l-59 71q-34 -18 -76 -18q-34 0 -67 14l-54 -70l-17 -3l-89 84l1 16l70 59q-17 34 -17 73q0 35 14 68l-70 55l-3 17l84 89l16 -1l60 -71q35 16 72 16q33 0 65 -13l57 72l17 3zM177 392
q-19 -19 -19 -53t19 -53t53 -19t53 19t19 53t-19 53t-53 19t-53 -19z" />
    <glyph glyph-name="yen" unicode="&#xa5;" horiz-adv-x="579" 
d="M417 240l-32 -55h162l8 -7l-6 -79h-183l5 -99h-170l6 99h-166l-6 9l5 77h148l-27 55h-120l-6 9l5 77h77l-94 185h178l15 -45l71 -144h10l81 138l20 51h174l-106 -185h81l8 -7l-6 -79h-132z" />
    <glyph glyph-name="brokenbar" unicode="&#xa6;" horiz-adv-x="300" 
d="M226 797l-4 -415l-133 -17l-13 11l1 423l135 11zM221 145l1 -390l-132 -11l-15 16l1 386l130 15z" />
    <glyph glyph-name="section" unicode="&#xa7;" horiz-adv-x="446" 
d="M380 131.5q14 -23.5 14 -56.5q0 -46 -27.5 -85t-77 -62t-110.5 -23q-36 0 -84.5 7.5t-86.5 19.5l24 145l16 11q38 -29 79.5 -46t71.5 -17t30 16q0 11 -15 18.5t-48 17.5q-47 16 -79 31.5t-56 45.5t-24 77q0 46 23.5 88t63.5 71q-49 35 -49 95q0 47 28 87t78 63.5
t111 23.5q34 0 74 -7t70 -18l-23 -138l-22 -8q-35 22 -68.5 34.5t-55.5 12.5q-14 0 -21 -5t-7 -12q0 -11 15.5 -19t48.5 -19q46 -15 78.5 -30.5t56.5 -45t24 -74.5t-24.5 -87t-66.5 -70q25 -18 39 -41.5zM187 249.5q16 -13.5 47 -26.5q33 25 33 54q0 21 -17 34.5t-50 27.5
q-29 -27 -29 -56q0 -20 16 -33.5z" />
    <glyph glyph-name="dieresis" unicode="&#xa8;" horiz-adv-x="388" 
d="M161.5 695.5q21.5 -21.5 21.5 -60.5q0 -42 -23.5 -66.5t-64.5 -24.5q-40 0 -61 21.5t-21 61.5q0 42 24 66t65 24q38 0 59.5 -21.5zM354.5 695.5q21.5 -21.5 21.5 -60.5q0 -42 -23.5 -66.5t-64.5 -24.5q-40 0 -61 21.5t-21 61.5q0 42 24 66t65 24q38 0 59.5 -21.5z" />
    <glyph glyph-name="copyright" unicode="&#xa9;" horiz-adv-x="689" 
d="M504 560q69 -38 107 -107t38 -160t-38 -160t-107 -107t-160 -38q-90 0 -159 38t-107 107t-38 160t38 160t107 107t159 38q91 0 160 -38zM218 506.5q-55 -30.5 -85.5 -86t-30.5 -127.5t30.5 -127.5t85.5 -86t126 -30.5q72 0 127 30.5t85.5 86t30.5 127.5t-30.5 127.5
t-85.5 86t-127 30.5q-71 0 -126 -30.5zM458 455l-22 -100l-7 -5q-12 5 -29 8t-31 3q-26 0 -36 -11t-10 -43q0 -40 12.5 -57.5t42.5 -17.5q24 0 58 4l10 -6l-10 -99q-12 -2 -35 -2h-33q-179 0 -179 163q0 81 48.5 126.5t136.5 45.5q37 0 84 -9z" />
    <glyph glyph-name="ordfeminine" unicode="&#xaa;" horiz-adv-x="364" 
d="M288 629q35 -26 35 -74q0 -28 -3 -70l-2 -56q0 -9 2 -12.5t7 -3.5q8 0 12 2l9 -8l-13 -71q-15 -11 -28.5 -15.5t-30.5 -4.5q-30 0 -44.5 10.5t-23.5 37.5h-5q-29 -34 -70 -49q-54 0 -86 29t-32 79q0 77 81 89l99 12l1 5q0 17 -7.5 24t-24.5 7q-40 0 -103 -32l-8 5l-15 89
q33 16 72 24.5t77 8.5q66 0 101 -26zM158 459q-10 -2 -14.5 -7t-4.5 -16q0 -27 25 -27q16 0 31 9v45z" />
    <glyph glyph-name="guillemotleft" unicode="&#xab;" horiz-adv-x="466" 
d="M254 214v27l125 184l91 -47l4 -17l-80 -131l80 -130l-4 -17l-91 -47zM48 214v27l125 184l91 -47l4 -17l-80 -131l80 -130l-4 -17l-91 -47z" />
    <glyph glyph-name="logicalnot" unicode="&#xac;" horiz-adv-x="480" 
d="M440 311v-273l-117 -9l-13 12v149h-283l-12 13l9 117h410z" />
    <glyph glyph-name="uni00AD" unicode="&#xad;" horiz-adv-x="299" 
d="M273 326l1 -120l-235 -38l-14 14v120l234 38z" />
    <glyph glyph-name="registered" unicode="&#xae;" horiz-adv-x="454" 
d="M366 650q53 -53 53 -139t-53 -139t-139 -53t-139 53t-53 139t53 139t139 53t139 -53zM336 402.5q41 41.5 41 108.5q0 68 -41 109t-109 41q-67 0 -108.5 -41t-41.5 -109q0 -67 41.5 -108.5t108.5 -41.5q68 0 109 41.5zM310.5 520.5q-9.5 -15.5 -26.5 -25.5q25 -35 48 -62
l-1 -7q-19 -7 -62 -11l-8 5q-17 30 -29 56h-25l3 -57h-64l3 56l-3 140l100 1q35 0 54.5 -16.5t19.5 -46.5q0 -17 -9.5 -32.5zM246 564q-7 5 -23 6l-13 -1l-2 -48l27 -2q10 6 14 12t4 17t-7 16z" />
    <glyph glyph-name="macron" unicode="&#xaf;" horiz-adv-x="388" 
d="M343 678l-9 -107h-276l-12 13l9 107h276z" />
    <glyph glyph-name="degree" unicode="&#xb0;" horiz-adv-x="292" 
d="M214 641q31 -18 49 -49t18 -68t-18 -68t-49 -49t-68 -18t-68 18t-49 49t-18 68t18 68t49 49t68 18t68 -18zM105.5 564.5q-15.5 -15.5 -15.5 -40.5t15.5 -40.5t40.5 -15.5t40.5 15.5t15.5 40.5t-15.5 40.5t-40.5 15.5t-40.5 -15.5z" />
    <glyph glyph-name="plusminus" unicode="&#xb1;" horiz-adv-x="480" 
d="M306 469v-149h148l12 -13l-9 -117h-151v-152l-117 -9l-13 12v149h-149l-12 13l9 117h152v152l117 9zM466 -28l-9 -117h-430l-12 13l9 117h430z" />
    <glyph glyph-name="uni00B2" unicode="&#xb2;" horiz-adv-x="375" 
d="M289.5 680q38.5 -27 38.5 -76q0 -29 -18 -63t-59 -82l-35 -40l2 -3h56l72 7l7 -9l-16 -113l-108 6h-170l-26 -2l-7 5v84l90 89q34 34 49 52.5t15 33.5q0 20 -26 20q-19 0 -44 -11t-47 -29h-16l-25 108q92 50 170 50q59 0 97.5 -27z" />
    <glyph glyph-name="uni00B3" unicode="&#xb3;" horiz-adv-x="337" 
d="M268.5 680q40.5 -28 40.5 -73q0 -58 -61 -91v-4q35 -11 51.5 -33t16.5 -57q0 -56 -55.5 -89.5t-146.5 -33.5q-44 0 -86 8l-9 102l10 9q46 -14 88 -14q30 0 43.5 5.5t13.5 18.5q0 17 -28 17h-62l-7 8l2 95l33 2q22 1 34.5 8t12.5 20q0 10 -7 14t-24 4q-26 0 -78 -19h-15
l-23 95q34 17 72.5 26.5t76.5 9.5q67 0 107.5 -28z" />
    <glyph glyph-name="acute" unicode="&#xb4;" horiz-adv-x="388" 
d="M269 754l69 -107l-3 -17q-142 -72 -223 -109l-17 1l-44 72q102 76 201 161z" />
    <glyph glyph-name="uni00B5" unicode="&#xb5;" horiz-adv-x="552" 
d="M534 120l-17 -100q-48 -31 -100 -30q-58 12 -84 84h-12q-26 -46 -63 -80q-21 0 -39 3l14 -182h-184l4 375l-5 271l185 13v-264l-1 -8l1 1q0 -30 10 -42.5t31 -12.5q13 0 22.5 3.5t20.5 11.5v298l185 13l-11 -326q0 -11 3.5 -16t10.5 -5t17 3z" />
    <glyph glyph-name="paragraph" unicode="&#xb6;" horiz-adv-x="564" 
d="M556 634l-12 -135h-60l-7 -286l2 -69q0 -59 -21 -101.5t-71.5 -76t-138.5 -61.5l-50 89v16q53 26 74.5 54t21.5 73v56l-7 307h-31q-17 -8 -26.5 -31t-9.5 -57q0 -31 12 -63.5t35 -61.5l-69 -97q-91 25 -139.5 84t-48.5 144q0 110 71 169.5t203 59.5h261z" />
    <glyph glyph-name="periodcentered" unicode="&#xb7;" horiz-adv-x="228" 
d="M186.5 335q24.5 -25 24.5 -70q0 -48 -27 -76t-74 -28q-46 0 -70 24.5t-24 70.5q0 48 27.5 76t74.5 28q44 0 68.5 -25z" />
    <glyph glyph-name="cedilla" unicode="&#xb8;" horiz-adv-x="388" 
d="M222 -43l34 -19q24 -13 34 -28.5t10 -34.5q0 -37 -29.5 -60.5t-80.5 -23.5q-49 0 -92 24l11 75l8 3q15 -13 32 -20.5t28 -7.5q16 0 16 14q0 9 -12 15l-50 27l22 112h83z" />
    <glyph glyph-name="uni00B9" unicode="&#xb9;" horiz-adv-x="296" 
d="M238 692l-7 -244l6 -141h-150l6 127v113l-80 -12l-9 6v113l213 52z" />
    <glyph glyph-name="ordmasculine" unicode="&#xba;" horiz-adv-x="356" 
d="M342 492q0 -178 -171 -178q-157 0 -157 163q0 178 171 178q157 0 157 -163zM150 549q-6 -13 -6 -55q0 -39 3 -57.5t10.5 -26t22.5 -7.5q20 0 26.5 14t6.5 58q0 37 -3 55t-11 25t-23 7q-20 0 -26 -13z" />
    <glyph glyph-name="guillemotright" unicode="&#xbb;" horiz-adv-x="466" 
d="M418 250v-27l-125 -184l-91 47l-4 17l80 131l-80 130l4 17l91 47zM212 250v-27l-125 -184l-91 47l-4 17l80 131l-80 130l4 17l91 47z" />
    <glyph glyph-name="onequarter" unicode="&#xbc;" horiz-adv-x="818" 
d="M238 639l-7 -244l6 -141h-150l6 127v113l-80 -12l-9 6v113l213 52zM613 647l10 -24l-462 -717l-82 50l-6 17l464 721zM794 69l-46 1l5 -61l-8 -9l-115 -6l-8 8l3 70h-87l-83 -3l-9 11v88l166 225h136l-3 -215h47l8 -12zM570 178h58l-1 64h-8z" />
    <glyph glyph-name="onehalf" unicode="&#xbd;" horiz-adv-x="808" 
d="M238 639l-7 -244l6 -141h-150l6 127v113l-80 -12l-9 6v113l213 52zM613 647l10 -24l-462 -717l-82 50l-6 17l464 721zM722.5 373q38.5 -27 38.5 -76q0 -29 -18 -63t-59 -82l-35 -40l2 -3h56l72 7l7 -9l-16 -113l-108 6h-170l-26 -2l-7 5v84l90 89q35 35 49.5 53t14.5 33
q0 20 -26 20q-19 0 -44 -11t-47 -29h-16l-25 108q92 50 170 50q59 0 97.5 -27z" />
    <glyph glyph-name="threequarters" unicode="&#xbe;" horiz-adv-x="859" 
d="M268.5 627q40.5 -28 40.5 -73q0 -58 -61 -91v-4q35 -11 51.5 -33t16.5 -57q0 -56 -55.5 -89.5t-146.5 -33.5q-44 0 -86 8l-9 102l10 9q46 -14 88 -14q30 0 43.5 5.5t13.5 18.5q0 17 -28 17h-62l-7 8l2 95l33 2q22 1 34.5 8t12.5 20q0 10 -7 14t-24 4q-26 0 -78 -19h-15
l-23 95q34 17 72.5 26.5t76.5 9.5q67 0 107.5 -28zM654 647l10 -24l-462 -717l-82 50l-6 17l464 721zM835 69l-46 1l5 -61l-8 -9l-115 -6l-8 8l3 70h-87l-83 -3l-9 11v88l166 225h136l-3 -215h47l8 -12zM611 178h58l-1 64h-8z" />
    <glyph glyph-name="questiondown" unicode="&#xbf;" horiz-adv-x="351" 
d="M50 -153q-78 43 -78 118q0 43 25.5 80.5t73.5 62.5l58 30l3 6l-7 71l136 20l13 -12l13 -126l-6 -11l-84 -33q-48 -20 -48 -58q0 -28 35 -42t127 -20l14 -18l-35 -108l-17 -9q-145 6 -223 49zM116.5 310q-24.5 25 -24.5 70q0 48 27 76t74 28q46 0 70 -24.5t24 -70.5
q0 -48 -27.5 -76t-74.5 -28q-44 0 -68.5 25z" />
    <glyph glyph-name="Agrave" unicode="&#xc0;" horiz-adv-x="627" 
d="M617 0h-203l-18 107l-1 3l-98 2l-82 -4l-17 -108h-196l196 647h242zM365 256l-44 212h-12l-56 -212l56 -1zM462 795l-30 -79l-17 -4q-106 27 -238 69l-6 16l49 117l17 4q107 -63 225 -123z" />
    <glyph glyph-name="Aacute" unicode="&#xc1;" horiz-adv-x="627" 
d="M617 0h-203l-18 107l-1 3l-98 2l-82 -4l-17 -108h-196l196 647h242zM365 256l-44 212h-12l-56 -212l56 -1zM428 914l49 -117l-6 -16q-132 -42 -238 -69l-17 4l-30 79q118 60 225 123z" />
    <glyph glyph-name="Acircumflex" unicode="&#xc2;" horiz-adv-x="627" 
d="M617 0h-203l-18 107l-1 3l-98 2l-82 -4l-17 -108h-196l196 647h242zM365 256l-44 212h-12l-56 -212l56 -1zM147 797q90 62 153 119h34q63 -57 153 -119l-34 -76h-18l-118 60l-118 -60h-18z" />
    <glyph glyph-name="Atilde" unicode="&#xc3;" horiz-adv-x="627" 
d="M617 0h-203l-18 107l-1 3l-98 2l-82 -4l-17 -108h-196l196 647h242zM365 256l-44 212h-12l-56 -212l56 -1zM510 861v-16l-81 -113l-16 -6q-27 3 -86 20q-8 2 -32.5 8t-34.5 6q-17 0 -30 -13t-39 -45h-16l-57 55v16l81 113l16 6q27 -3 86 -20q8 -2 32.5 -8t34.5 -6
q17 0 30 13t39 45h16z" />
    <glyph glyph-name="Adieresis" unicode="&#xc4;" horiz-adv-x="627" 
d="M617 0h-203l-18 107l-1 3l-98 2l-82 -4l-17 -108h-196l196 647h242zM365 256l-44 212h-12l-56 -212l56 -1zM281.5 870.5q21.5 -21.5 21.5 -60.5q0 -42 -23.5 -66.5t-64.5 -24.5q-40 0 -61 21.5t-21 61.5q0 42 24 66t65 24q38 0 59.5 -21.5zM474.5 870.5
q21.5 -21.5 21.5 -60.5q0 -42 -23.5 -66.5t-64.5 -24.5q-40 0 -61 21.5t-21 61.5q0 42 24 66t65 24q38 0 59.5 -21.5z" />
    <glyph glyph-name="Aring" unicode="&#xc5;" horiz-adv-x="627" 
d="M617 0h-203l-18 107l-1 3l-98 2l-82 -4l-17 -108h-196l196 647h242zM365 256l-44 212h-12l-56 -212l56 -1zM425 827q0 -55 -29 -84.5t-85 -29.5q-106 0 -106 107q0 55 29 83t85 28q106 0 106 -104zM287.5 846.5q-7.5 -6.5 -7.5 -23.5q0 -19 8 -26.5t28 -7.5q19 0 26.5 7
t7.5 24q0 18 -8 25.5t-28 7.5q-19 0 -26.5 -6.5z" />
    <glyph glyph-name="AE" unicode="&#xc6;" horiz-adv-x="840" 
d="M840 146l-12 -146h-436l-5 107l-5 66l-171 -52l-1 -2l-34 -119h-196l276 647h520l11 -14l-13 -146l-149 6h-76l8 -114l169 54l14 -11l18 -138l-190 -55l5 -75h91l165 6zM369 322l-12 146h-12l-67 -174z" />
    <glyph glyph-name="Ccedilla" unicode="&#xc7;" horiz-adv-x="514" 
d="M514 631l-34 -159l-13 -8q-26 14 -60 22.5t-63 8.5q-61 0 -88 -35.5t-27 -118.5q0 -97 31 -141.5t97 -44.5q28 0 62.5 5.5t60.5 15.5l16 -10l-16 -158q-60 -19 -139 -19q-161 0 -242.5 84t-81.5 245q0 162 87.5 251t247.5 89q86 0 162 -27zM351 -42l34 -19
q24 -13 34 -28.5t10 -34.5q0 -37 -29.5 -60.5t-80.5 -23.5q-49 0 -92 24l11 75l8 3q15 -13 32 -20.5t28 -7.5q16 0 16 14q0 9 -12 15l-50 27l22 112h83z" />
    <glyph glyph-name="Egrave" unicode="&#xc8;" horiz-adv-x="541" 
d="M517 160l11 -14l-12 -146h-456l10 190l-10 457h464l11 -14l-13 -146l-159 6h-103l-2 -91h99l104 3l11 -14l-12 -146l-116 3h-90l-1 -38l2 -56h96zM439 795l-30 -79l-17 -4q-106 27 -238 69l-6 16l49 117l17 4q107 -63 225 -123z" />
    <glyph glyph-name="Eacute" unicode="&#xc9;" horiz-adv-x="541" 
d="M517 160l11 -14l-12 -146h-456l10 190l-10 457h464l11 -14l-13 -146l-159 6h-103l-2 -91h99l104 3l11 -14l-12 -146l-116 3h-90l-1 -38l2 -56h96zM405 914l49 -117l-6 -16q-132 -42 -238 -69l-17 4l-30 79q118 60 225 123z" />
    <glyph glyph-name="Ecircumflex" unicode="&#xca;" horiz-adv-x="541" 
d="M517 160l11 -14l-12 -146h-456l10 190l-10 457h464l11 -14l-13 -146l-159 6h-103l-2 -91h99l104 3l11 -14l-12 -146l-116 3h-90l-1 -38l2 -56h96zM124 797q90 62 153 119h34q63 -57 153 -119l-34 -76h-18l-118 60l-118 -60h-18z" />
    <glyph glyph-name="Edieresis" unicode="&#xcb;" horiz-adv-x="541" 
d="M517 160l11 -14l-12 -146h-456l10 190l-10 457h464l11 -14l-13 -146l-159 6h-103l-2 -91h99l104 3l11 -14l-12 -146l-116 3h-90l-1 -38l2 -56h96zM258.5 870.5q21.5 -21.5 21.5 -60.5q0 -42 -23.5 -66.5t-64.5 -24.5q-40 0 -61 21.5t-21 61.5q0 42 24 66t65 24
q38 0 59.5 -21.5zM451.5 870.5q21.5 -21.5 21.5 -60.5q0 -42 -23.5 -66.5t-64.5 -24.5q-40 0 -61 21.5t-21 61.5q0 42 24 66t65 24q38 0 59.5 -21.5z" />
    <glyph glyph-name="Igrave" unicode="&#xcc;" horiz-adv-x="327" 
d="M253 210l8 -210h-201l10 190l-10 457h204zM309 795l-30 -79l-17 -4q-106 27 -238 69l-6 16l49 117l17 4q107 -63 225 -123z" />
    <glyph glyph-name="Iacute" unicode="&#xcd;" horiz-adv-x="327" 
d="M253 210l8 -210h-201l10 190l-10 457h204zM275 914l49 -117l-6 -16q-132 -42 -238 -69l-17 4l-30 79q118 60 225 123z" />
    <glyph glyph-name="Icircumflex" unicode="&#xce;" horiz-adv-x="327" 
d="M253 210l8 -210h-201l10 190l-10 457h204zM-6 797q90 62 153 119h34q63 -57 153 -119l-34 -76h-18l-118 60l-118 -60h-18z" />
    <glyph glyph-name="Eth" unicode="&#xd0;" horiz-adv-x="695" 
d="M601.5 573.5q76.5 -77.5 76.5 -223.5q0 -173 -89 -266t-255 -93q-104 0 -244 9l10 190l-10 457l292 4q143 0 219.5 -77.5zM443.5 177.5q24.5 37.5 24.5 123.5q0 73 -10 115t-32 60.5t-61 18.5q-38 0 -75 -4l-7 -281l2 -62q60 -8 87 -8q47 0 71.5 37.5zM376.5 367
l-6.75 -117h-345l-9 13l6.75 117h345z" />
    <glyph glyph-name="Ntilde" unicode="&#xd1;" horiz-adv-x="710" 
d="M639 211l8 -211h-218l-182 346h-12l-1 -112l8 -234h-182l10 190l-10 457h218l182 -346h12l-6 339l184 11zM550 861v-16l-81 -113l-16 -6q-27 3 -86 20q-8 2 -32.5 8t-34.5 6q-17 0 -30 -13t-39 -45h-16l-57 55v16l81 113l16 6q27 -3 86 -20q8 -2 32.5 -8t34.5 -6
q17 0 30 13t39 45h16z" />
    <glyph glyph-name="Ograve" unicode="&#xd2;" horiz-adv-x="653" 
d="M559 575.5q77 -83.5 77 -235.5q0 -168 -84.5 -260t-239.5 -92q-141 0 -218 84.5t-77 239.5q0 166 84.5 256.5t239.5 90.5q141 0 218 -83.5zM264 485.5q-20 -13.5 -28.5 -47.5t-8.5 -99q0 -83 9 -126t30.5 -60t63.5 -17q39 0 59 13.5t28.5 48t8.5 99.5q0 82 -9 125
t-30.5 60t-63.5 17q-39 0 -59 -13.5zM474 795l-30 -79l-17 -4q-106 27 -238 69l-6 16l49 117l17 4q107 -63 225 -123z" />
    <glyph glyph-name="Oacute" unicode="&#xd3;" horiz-adv-x="653" 
d="M559 575.5q77 -83.5 77 -235.5q0 -168 -84.5 -260t-239.5 -92q-141 0 -218 84.5t-77 239.5q0 166 84.5 256.5t239.5 90.5q141 0 218 -83.5zM264 485.5q-20 -13.5 -28.5 -47.5t-8.5 -99q0 -83 9 -126t30.5 -60t63.5 -17q39 0 59 13.5t28.5 48t8.5 99.5q0 82 -9 125
t-30.5 60t-63.5 17q-39 0 -59 -13.5zM440 914l49 -117l-6 -16q-132 -42 -238 -69l-17 4l-30 79q118 60 225 123z" />
    <glyph glyph-name="Ocircumflex" unicode="&#xd4;" horiz-adv-x="653" 
d="M559 575.5q77 -83.5 77 -235.5q0 -168 -84.5 -260t-239.5 -92q-141 0 -218 84.5t-77 239.5q0 166 84.5 256.5t239.5 90.5q141 0 218 -83.5zM264 485.5q-20 -13.5 -28.5 -47.5t-8.5 -99q0 -83 9 -126t30.5 -60t63.5 -17q39 0 59 13.5t28.5 48t8.5 99.5q0 82 -9 125
t-30.5 60t-63.5 17q-39 0 -59 -13.5zM159 797q90 62 153 119h34q63 -57 153 -119l-34 -76h-18l-118 60l-118 -60h-18z" />
    <glyph glyph-name="Otilde" unicode="&#xd5;" horiz-adv-x="653" 
d="M559 575.5q77 -83.5 77 -235.5q0 -168 -84.5 -260t-239.5 -92q-141 0 -218 84.5t-77 239.5q0 166 84.5 256.5t239.5 90.5q141 0 218 -83.5zM264 485.5q-20 -13.5 -28.5 -47.5t-8.5 -99q0 -83 9 -126t30.5 -60t63.5 -17q39 0 59 13.5t28.5 48t8.5 99.5q0 82 -9 125
t-30.5 60t-63.5 17q-39 0 -59 -13.5zM522 861v-16l-81 -113l-16 -6q-27 3 -86 20q-8 2 -32.5 8t-34.5 6q-17 0 -30 -13t-39 -45h-16l-57 55v16l81 113l16 6q27 -3 86 -20q8 -2 32.5 -8t34.5 -6q17 0 30 13t39 45h16z" />
    <glyph glyph-name="multiply" unicode="&#xd7;" horiz-adv-x="480" 
d="M437 378l1 -18l-105 -105l104 -105v-18l-89 -76l-107 107l-108 -108l-89 77v17l105 106l-105 105v18l89 76l108 -107l107 107z" />
    <glyph glyph-name="Oslash" unicode="&#xd8;" horiz-adv-x="653" 
d="M636 340q0 -168 -84.5 -260t-239.5 -92q-29 0 -61 5l-64 -132l-124 47l-8 17l62 126q-49 41 -74.5 107.5t-25.5 153.5q0 166 84.5 256.5t239.5 90.5q38 0 72 -6l62 126l120 -46l12 -19l-62 -124q91 -85 91 -250zM389 149.5q20 13.5 28.5 48t8.5 99.5q0 82 -9 125
t-30.5 60t-63.5 17q-39 0 -59 -13.5t-28.5 -47.5t-8.5 -99q0 -83 9 -126t30.5 -60t63.5 -17q39 0 59 13.5z" />
    <glyph glyph-name="Ugrave" unicode="&#xd9;" horiz-adv-x="653" 
d="M600 319l-1 -103q-1 -110 -74 -169t-209 -59q-131 0 -200.5 59t-66.5 169l3 103l-6 328h201l-9 -404q-1 -51 19.5 -74t66.5 -23q47 0 68 23t20 74l-9 404h204zM474 795l-30 -79l-17 -4q-106 27 -238 69l-6 16l49 117l17 4q107 -63 225 -123z" />
    <glyph glyph-name="Uacute" unicode="&#xda;" horiz-adv-x="653" 
d="M600 319l-1 -103q-1 -110 -74 -169t-209 -59q-131 0 -200.5 59t-66.5 169l3 103l-6 328h201l-9 -404q-1 -51 19.5 -74t66.5 -23q47 0 68 23t20 74l-9 404h204zM440 914l49 -117l-6 -16q-132 -42 -238 -69l-17 4l-30 79q118 60 225 123z" />
    <glyph glyph-name="Ucircumflex" unicode="&#xdb;" horiz-adv-x="653" 
d="M600 319l-1 -103q-1 -110 -74 -169t-209 -59q-131 0 -200.5 59t-66.5 169l3 103l-6 328h201l-9 -404q-1 -51 19.5 -74t66.5 -23q47 0 68 23t20 74l-9 404h204zM159 797q90 62 153 119h34q63 -57 153 -119l-34 -76h-18l-118 60l-118 -60h-18z" />
    <glyph glyph-name="Udieresis" unicode="&#xdc;" horiz-adv-x="653" 
d="M600 319l-1 -103q-1 -110 -74 -169t-209 -59q-131 0 -200.5 59t-66.5 169l3 103l-6 328h201l-9 -404q-1 -51 19.5 -74t66.5 -23q47 0 68 23t20 74l-9 404h204zM293.5 870.5q21.5 -21.5 21.5 -60.5q0 -42 -23.5 -66.5t-64.5 -24.5q-40 0 -61 21.5t-21 61.5q0 42 24 66
t65 24q38 0 59.5 -21.5zM486.5 870.5q21.5 -21.5 21.5 -60.5q0 -42 -23.5 -66.5t-64.5 -24.5q-40 0 -61 21.5t-21 61.5q0 42 24 66t65 24q38 0 59.5 -21.5z" />
    <glyph glyph-name="Thorn" unicode="&#xde;" horiz-adv-x="602" 
d="M543.5 506q58.5 -52 58.5 -156q0 -119 -76.5 -184.5t-217.5 -65.5l-49 -1l4 -99h-203l10 190l-8 364l-2 3h2l-2 90h206l-2 -89h109q112 0 170.5 -52zM376 276q13 21 13 58q0 44 -20.5 63t-67.5 21l-41 -3l-4 -171l80 -4q27 15 40 36z" />
    <glyph glyph-name="germandbls" unicode="&#xdf;" horiz-adv-x="659" 
d="M503.5 344q15.5 -14 50.5 -35q35 -20 57 -37t38 -45.5t16 -69.5q0 -71 -51 -120t-155 -49q-77 0 -156 26l23 143l16 12q33 -29 72 -46t65 -17q24 0 24 16q0 13 -13 23.5t-41 26.5q-38 22 -62 41.5t-42.5 51.5t-18.5 77q0 38 12 60.5t35 47.5q17 18 25.5 32t8.5 35
q0 52 -62 52q-33 0 -52 -16t-20 -56l-5 -287l8 -210h-195l9 190l-3 164h-67l-5 10l8 103h62v5q0 73 34.5 125.5t96 79.5t141.5 27q105 0 158.5 -44t53.5 -111q0 -36 -13 -60t-37 -52q-16 -19 -23.5 -31t-7.5 -27q0 -21 15.5 -35z" />
    <glyph glyph-name="agrave" unicode="&#xe0;" horiz-adv-x="503" 
d="M400 446.5q50 -37.5 50 -107.5q0 -20 -4 -106q-4 -76 -4 -85q0 -11 3.5 -16t10.5 -5t17 3l12 -10l-17 -100q-37 -26 -93 -30q-29 2 -51.5 20t-34.5 51h-7q-44 -51 -100 -72q-76 1 -121.5 42.5t-45.5 113.5q0 111 115 127l142 19v12q0 26 -10.5 37t-36.5 11
q-56 0 -145 -48l-12 8l-21 123q46 24 101.5 37t109.5 13q92 0 142 -37.5zM215 198q-14 -2 -20.5 -10.5t-6.5 -25.5q0 -40 37 -40q24 0 47 16v68zM390 594l-44 -72l-17 -1q-81 37 -223 109l-3 17l69 107l17 1q99 -85 201 -161z" />
    <glyph glyph-name="aacute" unicode="&#xe1;" horiz-adv-x="503" 
d="M400 446.5q50 -37.5 50 -107.5q0 -20 -4 -106q-4 -76 -4 -85q0 -11 3.5 -16t10.5 -5t17 3l12 -10l-17 -100q-37 -26 -93 -30q-29 2 -51.5 20t-34.5 51h-7q-44 -51 -100 -72q-76 1 -121.5 42.5t-45.5 113.5q0 111 115 127l142 19v12q0 26 -10.5 37t-36.5 11
q-56 0 -145 -48l-12 8l-21 123q46 24 101.5 37t109.5 13q92 0 142 -37.5zM215 198q-14 -2 -20.5 -10.5t-6.5 -25.5q0 -40 37 -40q24 0 47 16v68zM340 754l69 -107l-3 -17q-142 -72 -223 -109l-17 1l-44 72q102 76 201 161z" />
    <glyph glyph-name="acircumflex" unicode="&#xe2;" horiz-adv-x="503" 
d="M400 446.5q50 -37.5 50 -107.5q0 -20 -4 -106q-4 -76 -4 -85q0 -11 3.5 -16t10.5 -5t17 3l12 -10l-17 -100q-37 -26 -93 -30q-29 2 -51.5 20t-34.5 51h-7q-44 -51 -100 -72q-76 1 -121.5 42.5t-45.5 113.5q0 111 115 127l142 19v12q0 26 -10.5 37t-36.5 11
q-56 0 -145 -48l-12 8l-21 123q46 24 101.5 37t109.5 13q92 0 142 -37.5zM215 198q-14 -2 -20.5 -10.5t-6.5 -25.5q0 -40 37 -40q24 0 47 16v68zM66 602q69 58 163 150h34q70 -70 163 -150l-47 -72h-18q-76 48 -115 78q-39 -30 -115 -78h-18z" />
    <glyph glyph-name="atilde" unicode="&#xe3;" horiz-adv-x="503" 
d="M400 446.5q50 -37.5 50 -107.5q0 -20 -4 -106q-4 -76 -4 -85q0 -11 3.5 -16t10.5 -5t17 3l12 -10l-17 -100q-37 -26 -93 -30q-29 2 -51.5 20t-34.5 51h-7q-44 -51 -100 -72q-76 1 -121.5 42.5t-45.5 113.5q0 111 115 127l142 19v12q0 26 -10.5 37t-36.5 11
q-56 0 -145 -48l-12 8l-21 123q46 24 101.5 37t109.5 13q92 0 142 -37.5zM215 198q-14 -2 -20.5 -10.5t-6.5 -25.5q0 -40 37 -40q24 0 47 16v68zM441 686v-16l-81 -113l-16 -6q-27 3 -86 20q-8 2 -32.5 8t-34.5 6q-17 0 -30 -13t-39 -45h-16l-57 55v16l81 113l16 6
q27 -3 86 -20q8 -2 32.5 -8t34.5 -6q17 0 30 13t39 45h16z" />
    <glyph glyph-name="adieresis" unicode="&#xe4;" horiz-adv-x="503" 
d="M400 446.5q50 -37.5 50 -107.5q0 -20 -4 -106q-4 -76 -4 -85q0 -11 3.5 -16t10.5 -5t17 3l12 -10l-17 -100q-37 -26 -93 -30q-29 2 -51.5 20t-34.5 51h-7q-44 -51 -100 -72q-76 1 -121.5 42.5t-45.5 113.5q0 111 115 127l142 19v12q0 26 -10.5 37t-36.5 11
q-56 0 -145 -48l-12 8l-21 123q46 24 101.5 37t109.5 13q92 0 142 -37.5zM215 198q-14 -2 -20.5 -10.5t-6.5 -25.5q0 -40 37 -40q24 0 47 16v68zM212.5 695.5q21.5 -21.5 21.5 -60.5q0 -42 -23.5 -66.5t-64.5 -24.5q-40 0 -61 21.5t-21 61.5q0 42 24 66t65 24
q38 0 59.5 -21.5zM405.5 695.5q21.5 -21.5 21.5 -60.5q0 -42 -23.5 -66.5t-64.5 -24.5q-40 0 -61 21.5t-21 61.5q0 42 24 66t65 24q38 0 59.5 -21.5z" />
    <glyph glyph-name="aring" unicode="&#xe5;" horiz-adv-x="503" 
d="M400 446.5q50 -37.5 50 -107.5q0 -20 -4 -106q-4 -76 -4 -85q0 -11 3.5 -16t10.5 -5t17 3l12 -10l-17 -100q-37 -26 -93 -30q-29 2 -51.5 20t-34.5 51h-7q-44 -51 -100 -72q-76 1 -121.5 42.5t-45.5 113.5q0 111 115 127l142 19v12q0 26 -10.5 37t-36.5 11
q-56 0 -145 -48l-12 8l-21 123q46 24 101.5 37t109.5 13q92 0 142 -37.5zM215 198q-14 -2 -20.5 -10.5t-6.5 -25.5q0 -40 37 -40q24 0 47 16v68zM356 652q0 -55 -29 -84.5t-85 -29.5q-106 0 -106 107q0 55 29 83t85 28q106 0 106 -104zM218.5 671.5q-7.5 -6.5 -7.5 -23.5
q0 -19 8 -26.5t28 -7.5q19 0 26.5 7t7.5 24q0 18 -8 25.5t-28 7.5q-19 0 -26.5 -6.5z" />
    <glyph glyph-name="ae" unicode="&#xe6;" horiz-adv-x="712" 
d="M671 219l-245 -14q5 -41 27.5 -58.5t70.5 -17.5q62 0 134 24l14 -10l-30 -134q-31 -10 -68 -15.5t-68 -5.5q-125 0 -185 72q-53 -46 -112 -71q-88 1 -141 40t-53 110q0 53 29.5 89.5t85.5 40.5l137 8v26q0 26 -10 36.5t-36 10.5q-55 0 -144 -48l-12 8l-21 125
q44 23 97.5 36t104.5 13q82 0 124 -35q54 34 126 34q92 0 143 -53.5t51 -150.5q0 -12 -2 -38zM441.5 338q-17.5 -19 -18.5 -50l97 9q1 7 1 18q0 22 -8.5 32t-27.5 10q-26 0 -43.5 -19zM278 144q-6 23 -9 49l-53 -5q-14 -2 -20 -9t-6 -21q0 -35 34 -35q22 0 54 21z" />
    <glyph glyph-name="ccedilla" unicode="&#xe7;" horiz-adv-x="384" 
d="M382 460l-31 -148l-14 -7q-27 11 -44 16t-32 5q-31 0 -46 -18.5t-15 -58.5q0 -57 17.5 -83t55.5 -26q31 0 85 15l13 -11l-20 -143q-52 -13 -125 -13q-101 0 -156.5 62.5t-55.5 177.5q0 122 64.5 189t181.5 67q68 0 122 -24zM258 -42l34 -19q24 -13 34 -28.5t10 -34.5
q0 -37 -29.5 -60.5t-80.5 -23.5q-49 0 -92 24l11 75l8 3q15 -13 32 -20.5t28 -7.5q16 0 16 14q0 9 -12 15l-50 27l22 112h83z" />
    <glyph glyph-name="egrave" unicode="&#xe8;" horiz-adv-x="485" 
d="M442 196l-248 -2q9 -35 34 -51.5t69 -16.5q49 0 143 25l14 -10l-30 -132q-79 -21 -147 -21q-124 0 -193.5 66t-69.5 182q0 115 66 181t181 66q99 0 153.5 -52t54.5 -145q0 -30 -6 -65zM304 306q0 53 -45 53q-55 0 -67 -71l110 4zM396 593l-44 -72l-17 -1q-81 37 -223 109
l-3 17l69 107l17 1q99 -85 201 -161z" />
    <glyph glyph-name="eacute" unicode="&#xe9;" horiz-adv-x="485" 
d="M442 196l-248 -2q9 -35 34 -51.5t69 -16.5q49 0 143 25l14 -10l-30 -132q-79 -21 -147 -21q-124 0 -193.5 66t-69.5 182q0 115 66 181t181 66q99 0 153.5 -52t54.5 -145q0 -30 -6 -65zM304 306q0 53 -45 53q-55 0 -67 -71l110 4zM346 753l69 -107l-3 -17
q-142 -72 -223 -109l-17 1l-44 72q102 76 201 161z" />
    <glyph glyph-name="ecircumflex" unicode="&#xea;" horiz-adv-x="485" 
d="M442 196l-248 -2q9 -35 34 -51.5t69 -16.5q49 0 143 25l14 -10l-30 -132q-79 -21 -147 -21q-124 0 -193.5 66t-69.5 182q0 115 66 181t181 66q99 0 153.5 -52t54.5 -145q0 -30 -6 -65zM304 306q0 53 -45 53q-55 0 -67 -71l110 4zM72 601q69 58 163 150h34
q70 -70 163 -150l-47 -72h-18q-76 48 -115 78q-39 -30 -115 -78h-18z" />
    <glyph glyph-name="edieresis" unicode="&#xeb;" horiz-adv-x="485" 
d="M442 196l-248 -2q9 -35 34 -51.5t69 -16.5q49 0 143 25l14 -10l-30 -132q-79 -21 -147 -21q-124 0 -193.5 66t-69.5 182q0 115 66 181t181 66q99 0 153.5 -52t54.5 -145q0 -30 -6 -65zM304 306q0 53 -45 53q-55 0 -67 -71l110 4zM218.5 694.5q21.5 -21.5 21.5 -60.5
q0 -42 -23.5 -66.5t-64.5 -24.5q-40 0 -61 21.5t-21 61.5q0 42 24 66t65 24q38 0 59.5 -21.5zM411.5 694.5q21.5 -21.5 21.5 -60.5q0 -42 -23.5 -66.5t-64.5 -24.5q-40 0 -61 21.5t-21 61.5q0 42 24 66t65 24q38 0 59.5 -21.5z" />
    <glyph glyph-name="igrave" unicode="&#xec;" horiz-adv-x="284" 
d="M52 190l-7 271l194 13l-9 -264l8 -210h-195zM284 594l-44 -72l-17 -1q-81 37 -223 109l-3 17l69 107l17 1q99 -85 201 -161z" />
    <glyph glyph-name="iacute" unicode="&#xed;" horiz-adv-x="284" 
d="M52 190l-7 271l194 13l-9 -264l8 -210h-195zM235 754l69 -107l-3 -17q-142 -72 -223 -109l-17 1l-44 72q102 76 201 161z" />
    <glyph glyph-name="icircumflex" unicode="&#xee;" horiz-adv-x="284" 
d="M52 190l-7 271l194 13l-9 -264l8 -210h-195zM-39 602q69 58 163 150h34q70 -70 163 -150l-47 -72h-18q-76 48 -115 78q-39 -30 -115 -78h-18z" />
    <glyph glyph-name="eth" unicode="&#xf0;" horiz-adv-x="507" 
d="M484 250q0 -127 -62.5 -194.5t-178.5 -67.5q-107 0 -164.5 59t-57.5 176q0 116 56 176t166 60h2q-23 28 -56 52l-111 -72l-15 5l-39 70l78 50q-20 11 -69 34v22l127 92h11q44 -24 81 -51l100 64l16 -4l38 -71l-79 -51q157 -147 157 -349zM287 121.5q10 9.5 14 33t4 72.5
q0 53 -4 88q-19 11 -46 11q-23 0 -34 -7.5t-16 -29t-5 -64.5q0 -46 5.5 -70.5t17 -33.5t33.5 -9q21 0 31 9.5z" />
    <glyph glyph-name="ntilde" unicode="&#xf1;" horiz-adv-x="544" 
d="M311 0l10 264q0 61 -47 61q-23 0 -47 -14v-101l8 -210h-195l9 190l-7 271l185 13v-70h7q52 52 117 74q75 0 114.5 -34t37.5 -98l-4 -136l7 -210h-195zM487 686v-16l-81 -113l-16 -6q-27 3 -86 20q-8 2 -32.5 8t-34.5 6q-17 0 -30 -13t-39 -45h-16l-57 55v16l81 113l16 6
q27 -3 86 -20q8 -2 32.5 -8t34.5 -6q17 0 30 13t39 45h16z" />
    <glyph glyph-name="ograve" unicode="&#xf2;" horiz-adv-x="497" 
d="M426 424q57 -60 57 -177q0 -128 -61.5 -193.5t-181.5 -65.5q-112 0 -169 59.5t-57 175.5q0 129 61.5 195t181.5 66q112 0 169 -60zM213 345.5q-10 -7.5 -13.5 -27.5t-3.5 -61q0 -61 4.5 -90.5t16.5 -41t37 -11.5q20 0 29.5 7.5t13 28t3.5 61.5q0 60 -4.5 89.5t-16.5 41
t-36 11.5q-20 0 -30 -7.5zM395 594l-44 -72l-17 -1q-81 37 -223 109l-3 17l69 107l17 1q99 -85 201 -161z" />
    <glyph glyph-name="oacute" unicode="&#xf3;" horiz-adv-x="497" 
d="M426 424q57 -60 57 -177q0 -128 -61.5 -193.5t-181.5 -65.5q-112 0 -169 59.5t-57 175.5q0 129 61.5 195t181.5 66q112 0 169 -60zM213 345.5q-10 -7.5 -13.5 -27.5t-3.5 -61q0 -61 4.5 -90.5t16.5 -41t37 -11.5q20 0 29.5 7.5t13 28t3.5 61.5q0 60 -4.5 89.5t-16.5 41
t-36 11.5q-20 0 -30 -7.5zM345 754l69 -107l-3 -17q-142 -72 -223 -109l-17 1l-44 72q102 76 201 161z" />
    <glyph glyph-name="ocircumflex" unicode="&#xf4;" horiz-adv-x="497" 
d="M426 424q57 -60 57 -177q0 -128 -61.5 -193.5t-181.5 -65.5q-112 0 -169 59.5t-57 175.5q0 129 61.5 195t181.5 66q112 0 169 -60zM213 345.5q-10 -7.5 -13.5 -27.5t-3.5 -61q0 -61 4.5 -90.5t16.5 -41t37 -11.5q20 0 29.5 7.5t13 28t3.5 61.5q0 60 -4.5 89.5t-16.5 41
t-36 11.5q-20 0 -30 -7.5zM71 602q69 58 163 150h34q70 -70 163 -150l-47 -72h-18q-76 48 -115 78q-39 -30 -115 -78h-18z" />
    <glyph glyph-name="otilde" unicode="&#xf5;" horiz-adv-x="497" 
d="M426 424q57 -60 57 -177q0 -128 -61.5 -193.5t-181.5 -65.5q-112 0 -169 59.5t-57 175.5q0 129 61.5 195t181.5 66q112 0 169 -60zM213 345.5q-10 -7.5 -13.5 -27.5t-3.5 -61q0 -61 4.5 -90.5t16.5 -41t37 -11.5q20 0 29.5 7.5t13 28t3.5 61.5q0 60 -4.5 89.5t-16.5 41
t-36 11.5q-20 0 -30 -7.5zM446 686v-16l-81 -113l-16 -6q-27 3 -86 20q-8 2 -32.5 8t-34.5 6q-17 0 -30 -13t-39 -45h-16l-57 55v16l81 113l16 6q27 -3 86 -20q8 -2 32.5 -8t34.5 -6q17 0 30 13t39 45h16z" />
    <glyph glyph-name="divide" unicode="&#xf7;" horiz-adv-x="480" 
d="M466 307l-9 -117h-430l-12 13l9 117h430zM309.556 151.969q20.041 -20.4492 20.041 -57.2598q0 -39.2637 -22.0859 -62.167q-22.0859 -22.9043 -60.5312 -22.9043q-37.6279 0 -57.2598 20.041t-19.6318 57.6689q0 39.2637 22.4951 62.167
q22.4941 22.9043 60.9404 22.9043q35.9912 0 56.0322 -20.4502zM309.556 476.969q20.041 -20.4492 20.041 -57.2598q0 -39.2637 -22.0859 -62.167q-22.0859 -22.9043 -60.5312 -22.9043q-37.6279 0 -57.2598 20.041t-19.6318 57.6689q0 39.2637 22.4951 62.167
q22.4941 22.9043 60.9404 22.9043q35.9912 0 56.0322 -20.4502z" />
    <glyph glyph-name="oslash" unicode="&#xf8;" horiz-adv-x="497" 
d="M435 413q48 -58 48 -166q0 -128 -61.5 -193.5t-181.5 -65.5q-29 0 -61 5l-78 -128l-110 56l-4 16l74 122q-47 59 -47 164q0 129 61.5 195t181.5 66q30 0 60 -5l71 115l105 -55l9 -17zM283.5 121.5q9.5 7.5 13 28t3.5 61.5q0 60 -4.5 89.5t-16.5 41t-36 11.5
q-20 0 -30 -7.5t-13.5 -27.5t-3.5 -61q0 -61 4.5 -90.5t16.5 -41t37 -11.5q20 0 29.5 7.5z" />
    <glyph glyph-name="ugrave" unicode="&#xf9;" horiz-adv-x="536" 
d="M524 120l-17 -100q-48 -31 -100 -30q-58 12 -84 84h-12q-28 -31 -55 -50.5t-60 -29.5q-74 0 -114.5 34t-40.5 98l3 103l-6 232l185 13v-271q0 -30 10 -42.5t31 -12.5q13 0 22.5 3.5t20.5 11.5v298l185 13l-11 -326q0 -11 3.5 -16t10.5 -5t17 3zM407 594l-44 -72l-17 -1
q-81 37 -223 109l-3 17l69 107l17 1q99 -85 201 -161z" />
    <glyph glyph-name="uacute" unicode="&#xfa;" horiz-adv-x="536" 
d="M524 120l-17 -100q-48 -31 -100 -30q-58 12 -84 84h-12q-28 -31 -55 -50.5t-60 -29.5q-74 0 -114.5 34t-40.5 98l3 103l-6 232l185 13v-271q0 -30 10 -42.5t31 -12.5q13 0 22.5 3.5t20.5 11.5v298l185 13l-11 -326q0 -11 3.5 -16t10.5 -5t17 3zM357 754l69 -107l-3 -17
q-142 -72 -223 -109l-17 1l-44 72q102 76 201 161z" />
    <glyph glyph-name="ucircumflex" unicode="&#xfb;" horiz-adv-x="536" 
d="M524 120l-17 -100q-48 -31 -100 -30q-58 12 -84 84h-12q-28 -31 -55 -50.5t-60 -29.5q-74 0 -114.5 34t-40.5 98l3 103l-6 232l185 13v-271q0 -30 10 -42.5t31 -12.5q13 0 22.5 3.5t20.5 11.5v298l185 13l-11 -326q0 -11 3.5 -16t10.5 -5t17 3zM83 602q69 58 163 150h34
q70 -70 163 -150l-47 -72h-18q-76 48 -115 78q-39 -30 -115 -78h-18z" />
    <glyph glyph-name="udieresis" unicode="&#xfc;" horiz-adv-x="536" 
d="M524 120l-17 -100q-48 -31 -100 -30q-58 12 -84 84h-12q-28 -31 -55 -50.5t-60 -29.5q-74 0 -114.5 34t-40.5 98l3 103l-6 232l185 13v-271q0 -30 10 -42.5t31 -12.5q13 0 22.5 3.5t20.5 11.5v298l185 13l-11 -326q0 -11 3.5 -16t10.5 -5t17 3zM229.5 695.5
q21.5 -21.5 21.5 -60.5q0 -42 -23.5 -66.5t-64.5 -24.5q-40 0 -61 21.5t-21 61.5q0 42 24 66t65 24q38 0 59.5 -21.5zM422.5 695.5q21.5 -21.5 21.5 -60.5q0 -42 -23.5 -66.5t-64.5 -24.5q-40 0 -61 21.5t-21 61.5q0 42 24 66t65 24q38 0 59.5 -21.5z" />
    <glyph glyph-name="thorn" unicode="&#xfe;" horiz-adv-x="533" 
d="M469.5 417.5q49.5 -61.5 49.5 -169.5q0 -126 -65 -193t-178 -67q-21 0 -45 3l3 -176h-190l6 375l-7 499l194 13l-6 -298h5q42 49 96 75q88 0 137.5 -61.5zM317.5 133.5q18.5 25.5 18.5 88.5q0 53 -15.5 78t-50.5 25q-19 0 -40 -12l-2 -98l2 -102q20 -5 33 -5
q36 0 54.5 25.5z" />
    <glyph glyph-name="ydieresis" unicode="&#xff;" horiz-adv-x="471" 
d="M190 386l51 -197h10l47 179l19 104h164l-138 -423q-23 -69 -55 -113.5t-81 -75t-127 -54.5l-13 2q-50 47 -85 116l7 17q92 14 170 59l-171 469l186 7zM208.5 695.5q21.5 -21.5 21.5 -60.5q0 -42 -23.5 -66.5t-64.5 -24.5q-40 0 -61 21.5t-21 61.5q0 42 24 66t65 24
q38 0 59.5 -21.5zM401.5 695.5q21.5 -21.5 21.5 -60.5q0 -42 -23.5 -66.5t-64.5 -24.5q-40 0 -61 21.5t-21 61.5q0 42 24 66t65 24q38 0 59.5 -21.5z" />
    <glyph glyph-name="Amacron" unicode="&#x100;" horiz-adv-x="627" 
d="M617 0h-203l-18 107l-1 3l-98 2l-82 -4l-17 -108h-196l196 647h242zM365 256l-44 212h-12l-56 -212l56 -1zM463 853l-9 -107h-276l-12 13l9 107h276z" />
    <glyph glyph-name="amacron" unicode="&#x101;" horiz-adv-x="503" 
d="M400 446.5q50 -37.5 50 -107.5q0 -20 -4 -106q-4 -76 -4 -85q0 -11 3.5 -16t10.5 -5t17 3l12 -10l-17 -100q-37 -26 -93 -30q-29 2 -51.5 20t-34.5 51h-7q-44 -51 -100 -72q-76 1 -121.5 42.5t-45.5 113.5q0 111 115 127l142 19v12q0 26 -10.5 37t-36.5 11
q-56 0 -145 -48l-12 8l-21 123q46 24 101.5 37t109.5 13q92 0 142 -37.5zM215 198q-14 -2 -20.5 -10.5t-6.5 -25.5q0 -40 37 -40q24 0 47 16v68zM395 678l-9 -107h-276l-12 13l9 107h276z" />
    <glyph glyph-name="Abreve" unicode="&#x102;" horiz-adv-x="627" 
d="M617 0h-203l-18 107l-1 3l-98 2l-82 -4l-17 -108h-196l196 647h242zM365 256l-44 212h-12l-56 -212l56 -1zM494 840q-23 -60 -69.5 -92t-111.5 -32q-64 0 -109 32t-66 92l40 60h27q17 -24 46.5 -37t68.5 -13q35 0 63 13t44 37h27z" />
    <glyph glyph-name="abreve" unicode="&#x103;" horiz-adv-x="503" 
d="M400 446.5q50 -37.5 50 -107.5q0 -20 -4 -106q-4 -76 -4 -85q0 -11 3.5 -16t10.5 -5t17 3l12 -10l-17 -100q-37 -26 -93 -30q-29 2 -51.5 20t-34.5 51h-7q-44 -51 -100 -72q-76 1 -121.5 42.5t-45.5 113.5q0 111 115 127l142 19v12q0 26 -10.5 37t-36.5 11
q-56 0 -145 -48l-12 8l-21 123q46 24 101.5 37t109.5 13q92 0 142 -37.5zM215 198q-14 -2 -20.5 -10.5t-6.5 -25.5q0 -40 37 -40q24 0 47 16v68zM425 671q-19 -58 -65 -97t-118 -39q-71 0 -113.5 39.5t-59.5 96.5l45 62h26q16 -29 45 -46t63 -17t62.5 17t43.5 46h26z" />
    <glyph glyph-name="Aogonek" unicode="&#x104;" horiz-adv-x="627" 
d="M617 0h-203l-18 107l-1 3l-98 2l-82 -4l-17 -108h-196l196 647h242zM365 256l-44 212h-12l-56 -212l56 -1zM538 -44.5q-22 -16.5 -22 -30.5q0 -17 23 -17q25 0 72 23l9 -2l20 -82q-61 -42 -125 -42q-49 0 -78.5 25t-29.5 66q0 39 27 67t73 37h110q-57 -28 -79 -44.5z" />
    <glyph glyph-name="aogonek" unicode="&#x105;" horiz-adv-x="503" 
d="M400 446.5q50 -37.5 50 -107.5q0 -20 -4 -106q-4 -76 -4 -85q0 -11 3.5 -16t10.5 -5t17 3l12 -10l-17 -100q-37 -26 -93 -30q-29 2 -51.5 20t-34.5 51h-7q-44 -51 -100 -72q-76 1 -121.5 42.5t-45.5 113.5q0 111 115 127l142 19v12q0 26 -10.5 37t-36.5 11
q-56 0 -145 -48l-12 8l-21 123q46 24 101.5 37t109.5 13q92 0 142 -37.5zM215 198q-14 -2 -20.5 -10.5t-6.5 -25.5q0 -40 37 -40q24 0 47 16v68zM279.5 -193.5q-33.5 26.5 -33.5 71.5q0 36 27 70t100 72h95q-65 -59 -86.5 -82.5t-21.5 -36.5q0 -17 22 -17q27 0 71 19l9 -3
l20 -84q-59 -36 -114 -36t-88.5 26.5z" />
    <glyph glyph-name="Cacute" unicode="&#x106;" horiz-adv-x="514" 
d="M514 631l-34 -159l-13 -8q-26 14 -60 22.5t-63 8.5q-61 0 -88 -35.5t-27 -118.5q0 -97 31 -141.5t97 -44.5q28 0 62.5 5.5t60.5 15.5l16 -10l-16 -158q-60 -19 -139 -19q-161 0 -242.5 84t-81.5 245q0 162 87.5 251t247.5 89q86 0 162 -27zM430 914l49 -117l-6 -16
q-132 -42 -238 -69l-17 4l-30 79q118 60 225 123z" />
    <glyph glyph-name="cacute" unicode="&#x107;" horiz-adv-x="384" 
d="M382 460l-31 -148l-14 -7q-27 11 -44 16t-32 5q-31 0 -46 -18.5t-15 -58.5q0 -57 17.5 -83t55.5 -26q31 0 85 15l13 -11l-20 -143q-52 -13 -125 -13q-101 0 -156.5 62.5t-55.5 177.5q0 122 64.5 189t181.5 67q68 0 122 -24zM334 754l69 -107l-3 -17q-142 -72 -223 -109
l-17 1l-44 72q102 76 201 161z" />
    <glyph glyph-name="Ccircumflex" unicode="&#x108;" horiz-adv-x="514" 
d="M514 631l-34 -159l-13 -8q-26 14 -60 22.5t-63 8.5q-61 0 -88 -35.5t-27 -118.5q0 -97 31 -141.5t97 -44.5q28 0 62.5 5.5t60.5 15.5l16 -10l-16 -158q-60 -19 -139 -19q-161 0 -242.5 84t-81.5 245q0 162 87.5 251t247.5 89q86 0 162 -27zM149 797q90 62 153 119h34
q63 -57 153 -119l-34 -76h-18l-118 60l-118 -60h-18z" />
    <glyph glyph-name="ccircumflex" unicode="&#x109;" horiz-adv-x="384" 
d="M382 460l-31 -148l-14 -7q-27 11 -44 16t-32 5q-31 0 -46 -18.5t-15 -58.5q0 -57 17.5 -83t55.5 -26q31 0 85 15l13 -11l-20 -143q-52 -13 -125 -13q-101 0 -156.5 62.5t-55.5 177.5q0 122 64.5 189t181.5 67q68 0 122 -24zM60 602q69 58 163 150h34q70 -70 163 -150
l-47 -72h-18q-76 48 -115 78q-39 -30 -115 -78h-18z" />
    <glyph glyph-name="Cdotaccent" unicode="&#x10a;" horiz-adv-x="514" 
d="M514 631l-34 -159l-13 -8q-26 14 -60 22.5t-63 8.5q-61 0 -88 -35.5t-27 -118.5q0 -97 31 -141.5t97 -44.5q28 0 62.5 5.5t60.5 15.5l16 -10l-16 -158q-60 -19 -139 -19q-161 0 -242.5 84t-81.5 245q0 162 87.5 251t247.5 89q86 0 162 -27zM389.5 878q24.5 -25 24.5 -70
q0 -48 -27 -76t-74 -28q-46 0 -70 24.5t-24 70.5q0 48 27.5 76t74.5 28q44 0 68.5 -25z" />
    <glyph glyph-name="cdotaccent" unicode="&#x10b;" horiz-adv-x="384" 
d="M382 460l-31 -148l-14 -7q-27 11 -44 16t-32 5q-31 0 -46 -18.5t-15 -58.5q0 -57 17.5 -83t55.5 -26q31 0 85 15l13 -11l-20 -143q-52 -13 -125 -13q-101 0 -156.5 62.5t-55.5 177.5q0 122 64.5 189t181.5 67q68 0 122 -24zM312.5 703q24.5 -25 24.5 -70q0 -48 -27 -76
t-74 -28q-46 0 -70 24.5t-24 70.5q0 48 27.5 76t74.5 28q44 0 68.5 -25z" />
    <glyph glyph-name="Ccaron" unicode="&#x10c;" horiz-adv-x="514" 
d="M514 631l-34 -159l-13 -8q-26 14 -60 22.5t-63 8.5q-61 0 -88 -35.5t-27 -118.5q0 -97 31 -141.5t97 -44.5q28 0 62.5 5.5t60.5 15.5l16 -10l-16 -158q-60 -19 -139 -19q-161 0 -242.5 84t-81.5 245q0 162 87.5 251t247.5 89q86 0 162 -27zM487 831q-90 -62 -153 -119
h-34q-63 57 -153 119l34 76h18l118 -60l118 60h18z" />
    <glyph glyph-name="ccaron" unicode="&#x10d;" horiz-adv-x="384" 
d="M382 460l-31 -148l-14 -7q-27 11 -44 16t-32 5q-31 0 -46 -18.5t-15 -58.5q0 -57 17.5 -83t55.5 -26q31 0 85 15l13 -11l-20 -143q-52 -13 -125 -13q-101 0 -156.5 62.5t-55.5 177.5q0 122 64.5 189t181.5 67q68 0 122 -24zM420 676q-69 -58 -163 -150h-34
q-70 70 -163 150l47 72h18q76 -48 115 -78q39 30 115 78h18z" />
    <glyph glyph-name="Dcaron" unicode="&#x10e;" horiz-adv-x="665" 
d="M571.5 573.5q76.5 -77.5 76.5 -223.5q0 -173 -89 -266t-255 -93q-104 0 -244 9l10 190l-10 457l292 4q143 0 219.5 -77.5zM413.5 177.5q24.5 37.5 24.5 123.5q0 73 -10 115t-32 60.5t-61 18.5q-38 0 -75 -4l-7 -281l2 -62q60 -8 87 -8q47 0 71.5 37.5zM503 831
q-90 -62 -153 -119h-34q-63 57 -153 119l34 76h18l118 -60l118 60h18z" />
    <glyph glyph-name="dcaron" unicode="&#x10f;" horiz-adv-x="630" 
d="M480 210l1 -61q0 -12 3 -17t10 -5t17 3l12 -10l-17 -100q-37 -26 -93 -30q-32 2 -56.5 20t-38.5 50h-7q-40 -43 -94 -69q-95 0 -149 64t-54 174q0 123 66 187.5t181 64.5q15 0 37 -3l-3 211l194 13zM670 627l-44 -232l-82 -13l-13 10l-10 238l139 8zM209 334
q-13 -18 -13 -69q0 -69 14 -99.5t44 -30.5q25 0 47 20l1 36l-2 151q-23 10 -45 10q-33 0 -46 -18z" />
    <glyph glyph-name="Dcroat" unicode="&#x110;" horiz-adv-x="695" 
d="M601.5 573.5q76.5 -77.5 76.5 -223.5q0 -173 -89 -266t-255 -93q-104 0 -244 9l10 190l-10 457l292 4q143 0 219.5 -77.5zM443.5 177.5q24.5 37.5 24.5 123.5q0 73 -10 115t-32 60.5t-61 18.5q-38 0 -75 -4l-7 -281l2 -62q60 -8 87 -8q47 0 71.5 37.5zM376.5 367
l-6.75 -117h-345l-9 13l6.75 117h345z" />
    <glyph glyph-name="dcroat" unicode="&#x111;" horiz-adv-x="544" 
d="M486 524l-6 -314l1 -61q0 -12 3 -17t10 -5t17 3l12 -10l-17 -100q-37 -26 -93 -30q-32 2 -56.5 20t-38.5 50h-7q-40 -43 -94 -69q-95 0 -149 64t-54 174q0 123 66 187.5t181 64.5q15 0 37 -3l-1 46h-93l-12 13l7 88h97l-1 64l194 13l-1 -77h60l12 -13l-7 -88h-67z
M302 191l-2 151q-23 10 -45 10q-33 0 -46 -18t-13 -69q0 -69 14 -99.5t44 -30.5q25 0 47 20z" />
    <glyph glyph-name="Emacron" unicode="&#x112;" horiz-adv-x="541" 
d="M517 160l11 -14l-12 -146h-456l10 190l-10 457h464l11 -14l-13 -146l-159 6h-103l-2 -91h99l104 3l11 -14l-12 -146l-116 3h-90l-1 -38l2 -56h96zM440 853l-9 -107h-276l-12 13l9 107h276z" />
    <glyph glyph-name="emacron" unicode="&#x113;" horiz-adv-x="485" 
d="M442 196l-248 -2q9 -35 34 -51.5t69 -16.5q49 0 143 25l14 -10l-30 -132q-79 -21 -147 -21q-124 0 -193.5 66t-69.5 182q0 115 66 181t181 66q99 0 153.5 -52t54.5 -145q0 -30 -6 -65zM304 306q0 53 -45 53q-55 0 -67 -71l110 4zM401 677l-9 -107h-276l-12 13l9 107h276z
" />
    <glyph glyph-name="Ebreve" unicode="&#x114;" horiz-adv-x="541" 
d="M517 160l11 -14l-12 -146h-456l10 190l-10 457h464l11 -14l-13 -146l-159 6h-103l-2 -91h99l104 3l11 -14l-12 -146l-116 3h-90l-1 -38l2 -56h96zM471 840q-23 -60 -69.5 -92t-111.5 -32q-64 0 -109 32t-66 92l40 60h27q17 -24 46.5 -37t68.5 -13q35 0 63 13t44 37h27z
" />
    <glyph glyph-name="ebreve" unicode="&#x115;" horiz-adv-x="485" 
d="M442 196l-248 -2q9 -35 34 -51.5t69 -16.5q49 0 143 25l14 -10l-30 -132q-79 -21 -147 -21q-124 0 -193.5 66t-69.5 182q0 115 66 181t181 66q99 0 153.5 -52t54.5 -145q0 -30 -6 -65zM304 306q0 53 -45 53q-55 0 -67 -71l110 4zM431 670q-19 -58 -65 -97t-118 -39
q-71 0 -113.5 39.5t-59.5 96.5l45 62h26q16 -29 45 -46t63 -17t62.5 17t43.5 46h26z" />
    <glyph glyph-name="Edotaccent" unicode="&#x116;" horiz-adv-x="541" 
d="M517 160l11 -14l-12 -146h-456l10 190l-10 457h464l11 -14l-13 -146l-159 6h-103l-2 -91h99l104 3l11 -14l-12 -146l-116 3h-90l-1 -38l2 -56h96zM364.5 878q24.5 -25 24.5 -70q0 -48 -27 -76t-74 -28q-46 0 -70 24.5t-24 70.5q0 48 27.5 76t74.5 28q44 0 68.5 -25z" />
    <glyph glyph-name="edotaccent" unicode="&#x117;" horiz-adv-x="485" 
d="M442 196l-248 -2q9 -35 34 -51.5t69 -16.5q49 0 143 25l14 -10l-30 -132q-79 -21 -147 -21q-124 0 -193.5 66t-69.5 182q0 115 66 181t181 66q99 0 153.5 -52t54.5 -145q0 -30 -6 -65zM304 306q0 53 -45 53q-55 0 -67 -71l110 4zM324.5 702q24.5 -25 24.5 -70
q0 -48 -27 -76t-74 -28q-46 0 -70 24.5t-24 70.5q0 48 27.5 76t74.5 28q44 0 68.5 -25z" />
    <glyph glyph-name="Eogonek" unicode="&#x118;" horiz-adv-x="541" 
d="M517 160l11 -14l-12 -146h-456l10 190l-10 457h464l11 -14l-13 -146l-159 6h-103l-2 -91h99l104 3l11 -14l-12 -146l-116 3h-90l-1 -38l2 -56h96zM306.5 -203.5q-33.5 26.5 -33.5 71.5q0 36 27 70t100 72h95q-65 -59 -86.5 -82.5t-21.5 -36.5q0 -17 22 -17q27 0 71 19
l9 -3l20 -84q-59 -36 -114 -36t-88.5 26.5z" />
    <glyph glyph-name="eogonek" unicode="&#x119;" horiz-adv-x="485" 
d="M442 196l-248 -2q9 -35 34 -51.5t69 -16.5q49 0 143 25l14 -10l-30 -132q-79 -21 -147 -21q-124 0 -193.5 66t-69.5 182q0 115 66 181t181 66q99 0 153.5 -52t54.5 -145q0 -30 -6 -65zM304 306q0 53 -45 53q-55 0 -67 -71l110 4zM235.5 -204.5q-33.5 26.5 -33.5 71.5
q0 36 27 70t100 72h95q-65 -59 -86.5 -82.5t-21.5 -36.5q0 -17 22 -17q27 0 71 19l9 -3l20 -84q-59 -36 -114 -36t-88.5 26.5z" />
    <glyph glyph-name="Ecaron" unicode="&#x11a;" horiz-adv-x="541" 
d="M517 160l11 -14l-12 -146h-456l10 190l-10 457h464l11 -14l-13 -146l-159 6h-103l-2 -91h99l104 3l11 -14l-12 -146l-116 3h-90l-1 -38l2 -56h96zM462 831q-90 -62 -153 -119h-34q-63 57 -153 119l34 76h18l118 -60l118 60h18z" />
    <glyph glyph-name="ecaron" unicode="&#x11b;" horiz-adv-x="485" 
d="M442 196l-248 -2q9 -35 34 -51.5t69 -16.5q49 0 143 25l14 -10l-30 -132q-79 -21 -147 -21q-124 0 -193.5 66t-69.5 182q0 115 66 181t181 66q99 0 153.5 -52t54.5 -145q0 -30 -6 -65zM304 306q0 53 -45 53q-55 0 -67 -71l110 4zM432 675q-69 -58 -163 -150h-34
q-70 70 -163 150l47 72h18q76 -48 115 -78q39 30 115 78h18z" />
    <glyph glyph-name="Gcircumflex" unicode="&#x11c;" horiz-adv-x="596" 
d="M569 628l-43 -177h-16q-50 25 -86.5 36t-79.5 11q-46 0 -70.5 -15t-35.5 -53t-11 -110q0 -73 11 -111.5t37.5 -54t76.5 -15.5q14 0 36 4v32l-3 109l183 13l-3 -88v-177q-116 -44 -231 -44q-157 0 -237 83.5t-80 238.5q0 170 94.5 259t270.5 89q108 0 187 -30zM160 797
q90 62 153 119h34q63 -57 153 -119l-34 -76h-18l-118 60l-118 -60h-18z" />
    <glyph glyph-name="gcircumflex" unicode="&#x11d;" horiz-adv-x="516" 
d="M473 376l-2 -4q9 -22 9 -48q0 -78 -61 -124t-166 -46q-27 0 -53 3q-3 -7 -3 -12q0 -15 20 -20t69 -10q61 -5 103 -14.5t73 -38t31 -82.5q0 -53 -30 -93t-85.5 -62t-129.5 -22q-103 0 -158 36.5t-55 100.5q35 36 78 63v6q-69 28 -69 103q35 34 76 61v6q-40 19 -61 52.5
t-21 79.5q0 80 60.5 125.5t166.5 45.5q62 0 111 -20q72 16 146 48l13 -11v-117q-26 -4 -62 -6zM301 276.5q14 12.5 14 40.5t-12.5 39t-40.5 11q-33 0 -45.5 -10.5t-12.5 -36.5q0 -31 12 -43.5t41 -12.5q30 0 44 12.5zM309.5 -27q-23.5 7 -76.5 13l-31 3q-16 -16 -16 -36
q0 -48 79 -48q35 0 51.5 9t16.5 32q0 20 -23.5 27zM83 596q69 58 163 150h34q70 -70 163 -150l-47 -72h-18q-76 48 -115 78q-39 -30 -115 -78h-18z" />
    <glyph glyph-name="Gbreve" unicode="&#x11e;" horiz-adv-x="596" 
d="M569 628l-43 -177h-16q-50 25 -86.5 36t-79.5 11q-46 0 -70.5 -15t-35.5 -53t-11 -110q0 -73 11 -111.5t37.5 -54t76.5 -15.5q14 0 36 4v32l-3 109l183 13l-3 -88v-177q-116 -44 -231 -44q-157 0 -237 83.5t-80 238.5q0 170 94.5 259t270.5 89q108 0 187 -30zM507 840
q-23 -60 -69.5 -92t-111.5 -32q-64 0 -109 32t-66 92l40 60h27q17 -24 46.5 -37t68.5 -13q35 0 63 13t44 37h27z" />
    <glyph glyph-name="gbreve" unicode="&#x11f;" horiz-adv-x="516" 
d="M473 376l-2 -4q9 -22 9 -48q0 -78 -61 -124t-166 -46q-27 0 -53 3q-3 -7 -3 -12q0 -15 20 -20t69 -10q61 -5 103 -14.5t73 -38t31 -82.5q0 -53 -30 -93t-85.5 -62t-129.5 -22q-103 0 -158 36.5t-55 100.5q35 36 78 63v6q-69 28 -69 103q35 34 76 61v6q-40 19 -61 52.5
t-21 79.5q0 80 60.5 125.5t166.5 45.5q62 0 111 -20q72 16 146 48l13 -11v-117q-26 -4 -62 -6zM301 276.5q14 12.5 14 40.5t-12.5 39t-40.5 11q-33 0 -45.5 -10.5t-12.5 -36.5q0 -31 12 -43.5t41 -12.5q30 0 44 12.5zM309.5 -27q-23.5 7 -76.5 13l-31 3q-16 -16 -16 -36
q0 -48 79 -48q35 0 51.5 9t16.5 32q0 20 -23.5 27zM442 665q-19 -58 -65 -97t-118 -39q-71 0 -113.5 39.5t-59.5 96.5l45 62h26q16 -29 45 -46t63 -17t62.5 17t43.5 46h26z" />
    <glyph glyph-name="Gdotaccent" unicode="&#x120;" horiz-adv-x="596" 
d="M569 628l-43 -177h-16q-50 25 -86.5 36t-79.5 11q-46 0 -70.5 -15t-35.5 -53t-11 -110q0 -73 11 -111.5t37.5 -54t76.5 -15.5q14 0 36 4v32l-3 109l183 13l-3 -88v-177q-116 -44 -231 -44q-157 0 -237 83.5t-80 238.5q0 170 94.5 259t270.5 89q108 0 187 -30zM400.5 878
q24.5 -25 24.5 -70q0 -48 -27 -76t-74 -28q-46 0 -70 24.5t-24 70.5q0 48 27.5 76t74.5 28q44 0 68.5 -25z" />
    <glyph glyph-name="gdotaccent" unicode="&#x121;" horiz-adv-x="516" 
d="M473 376l-2 -4q9 -22 9 -48q0 -78 -61 -124t-166 -46q-27 0 -53 3q-3 -7 -3 -12q0 -15 20 -20t69 -10q61 -5 103 -14.5t73 -38t31 -82.5q0 -53 -30 -93t-85.5 -62t-129.5 -22q-103 0 -158 36.5t-55 100.5q35 36 78 63v6q-69 28 -69 103q35 34 76 61v6q-40 19 -61 52.5
t-21 79.5q0 80 60.5 125.5t166.5 45.5q62 0 111 -20q72 16 146 48l13 -11v-117q-26 -4 -62 -6zM301 276.5q14 12.5 14 40.5t-12.5 39t-40.5 11q-33 0 -45.5 -10.5t-12.5 -36.5q0 -31 12 -43.5t41 -12.5q30 0 44 12.5zM309.5 -27q-23.5 7 -76.5 13l-31 3q-16 -16 -16 -36
q0 -48 79 -48q35 0 51.5 9t16.5 32q0 20 -23.5 27zM335.5 697q24.5 -25 24.5 -70q0 -48 -27 -76t-74 -28q-46 0 -70 24.5t-24 70.5q0 48 27.5 76t74.5 28q44 0 68.5 -25z" />
    <glyph glyph-name="Gcommaaccent" unicode="&#x122;" horiz-adv-x="596" 
d="M569 628l-43 -177h-16q-50 25 -86.5 36t-79.5 11q-46 0 -70.5 -15t-35.5 -53t-11 -110q0 -73 11 -111.5t37.5 -54t76.5 -15.5q14 0 36 4v32l-3 109l183 13l-3 -88v-177q-116 -44 -231 -44q-157 0 -237 83.5t-80 238.5q0 170 94.5 259t270.5 89q108 0 187 -30zM380 -67
q10 -22 10 -49q0 -50 -31.5 -95.5t-98.5 -92.5l-52 46l-2 12q48 42 48 93q0 36 -28 64v14q61 35 123 50q21 -20 31 -42z" />
    <glyph glyph-name="gcommaaccent" unicode="&#x123;" horiz-adv-x="516" 
d="M193.5 559q-13.5 26 -13.5 62q0 45 26 90.5t80 94.5l60 -39l3 -11q-36 -40 -36 -81q0 -27 8.5 -46t30.5 -36v-14q-66 -47 -116 -65q-29 19 -42.5 45zM473 376l-2 -4q9 -22 9 -48q0 -78 -61 -124t-166 -46q-27 0 -53 3q-3 -7 -3 -12q0 -15 20 -20t69 -10q61 -5 103 -14.5
t73 -38t31 -82.5q0 -53 -30 -93t-85.5 -62t-129.5 -22q-103 0 -158 36.5t-55 100.5q35 36 78 63v6q-69 28 -69 103q35 34 76 61v6q-40 19 -61 52.5t-21 79.5q0 80 60.5 125.5t166.5 45.5q62 0 111 -20q72 16 146 48l13 -11v-117q-26 -4 -62 -6zM301 276.5q14 12.5 14 40.5
t-12.5 39t-40.5 11q-33 0 -45.5 -10.5t-12.5 -36.5q0 -31 12 -43.5t41 -12.5q30 0 44 12.5zM309.5 -27q-23.5 7 -76.5 13l-31 3q-16 -16 -16 -36q0 -48 79 -48q35 0 51.5 9t16.5 32q0 20 -23.5 27z" />
    <glyph glyph-name="Hcircumflex" unicode="&#x124;" horiz-adv-x="711" 
d="M648 210l8 -210h-201l10 190l-1 50l-108 2l-93 -3l-1 -29l8 -210h-201l10 190l-10 457h204l-6 -245l101 -2l92 2l-5 245h204zM188 797q90 62 153 119h34q63 -57 153 -119l-34 -76h-18l-118 60l-118 -60h-18z" />
    <glyph glyph-name="hcircumflex" unicode="&#x125;" horiz-adv-x="549" 
d="M316 0l10 264q0 61 -47 61q-23 0 -47 -14l-2 -101l8 -210h-195l9 190l-7 499l194 13l-5 -298h5q53 53 117 74q75 0 114.5 -34t37.5 -98l-4 -136l7 -210h-195zM-30 810q90 62 153 119h34q63 -57 153 -119l-34 -76h-18l-118 60l-118 -60h-18z" />
    <glyph glyph-name="Hbar" unicode="&#x126;" horiz-adv-x="744" 
d="M659 472l-7 -262l8 -210h-201l10 190l-1 50l-108 2l-93 -3l-1 -29l8 -210h-201l10 190l-6 282h-59l-8 10l6 91h59l-2 74h204l-2 -74h186l-2 74h204l-2 -74h65l8 -10l-5 -91h-70zM463 472h-190l-2 -70l101 -2l92 2z" />
    <glyph glyph-name="hbar" unicode="&#x127;" horiz-adv-x="552" 
d="M324 0l10 264q0 61 -47 61q-23 0 -47 -14l-2 -101l8 -210h-195l9 190l-5 321h-59l-12 13l7 88h63l-1 77l194 13l-2 -90h105l12 -13l-7 -88h-111l-2 -107h5q53 53 117 74q75 0 114.5 -34t37.5 -98l-4 -136l7 -210h-195z" />
    <glyph glyph-name="Imacron" unicode="&#x12a;" horiz-adv-x="327" 
d="M253 210l8 -210h-201l10 190l-10 457h204zM290 853l-9 -107h-236l-12 13l9 107h236z" />
    <glyph glyph-name="imacron" unicode="&#x12b;" horiz-adv-x="284" 
d="M52 190l-7 271l194 13l-9 -264l8 -210h-195zM269 678l-9 -107h-236l-12 13l9 107h236z" />
    <glyph glyph-name="Ibreve" unicode="&#x12c;" horiz-adv-x="327" 
d="M253 210l8 -210h-201l10 190l-10 457h204zM341 840q-23 -60 -69.5 -92t-111.5 -32q-64 0 -109 32t-66 92l40 60h27q17 -24 46.5 -37t68.5 -13q35 0 63 13t44 37h27z" />
    <glyph glyph-name="ibreve" unicode="&#x12d;" horiz-adv-x="284" 
d="M52 190l-7 271l194 13l-9 -264l8 -210h-195zM320 671q-19 -58 -65 -97t-118 -39q-71 0 -113.5 39.5t-59.5 96.5l45 62h26q16 -29 45 -46t63 -17t62.5 17t43.5 46h26z" />
    <glyph glyph-name="Iogonek" unicode="&#x12e;" horiz-adv-x="327" 
d="M253 210l8 -210h-201l10 190l-10 457h204zM182 -44.5q-22 -16.5 -22 -30.5q0 -17 23 -17q25 0 72 23l9 -2l20 -82q-61 -42 -125 -42q-49 0 -78.5 25t-29.5 66q0 39 27 67t73 37h110q-57 -28 -79 -44.5z" />
    <glyph glyph-name="iogonek" unicode="&#x12f;" horiz-adv-x="284" 
d="M52 190l-7 271l194 13l-9 -264l8 -210h-195zM213.5 703q24.5 -25 24.5 -70q0 -48 -27 -76t-74 -28q-46 0 -70 24.5t-24 70.5q0 48 27.5 76t74.5 28q44 0 68.5 -25zM159 -44.5q-22 -16.5 -22 -30.5q0 -17 23 -17q25 0 72 23l9 -2l20 -82q-61 -42 -125 -42q-49 0 -78.5 25
t-29.5 66q0 39 27 67t73 37h110q-57 -28 -79 -44.5z" />
    <glyph glyph-name="Idotaccent" unicode="&#x130;" horiz-adv-x="327" 
d="M253 210l8 -210h-201l10 190l-10 457h204zM234.5 878q24.5 -25 24.5 -70q0 -48 -27 -76t-74 -28q-46 0 -70 24.5t-24 70.5q0 48 27.5 76t74.5 28q44 0 68.5 -25z" />
    <glyph glyph-name="dotlessi" unicode="&#x131;" horiz-adv-x="284" 
d="M52 190l-7 271l194 13l-9 -264l8 -210h-195z" />
    <glyph glyph-name="IJ" unicode="&#x132;" horiz-adv-x="689" 
d="M253 210l8 -210h-201l10 190l-10 457h204zM620 213l2 -89q0 -63 -21 -106t-69.5 -74t-134.5 -56l-52 103v16q51 25 71.5 52t20.5 71v63l-7 313l-85 -3l-11 13l8 131h289z" />
    <glyph glyph-name="ij" unicode="&#x133;" horiz-adv-x="590" 
d="M52 190l-7 271l194 13l-9 -264l8 -210h-195zM213.5 703q24.5 -25 24.5 -70q0 -48 -27 -76t-74 -28q-46 0 -70 24.5t-24 70.5q0 48 27.5 76t74.5 28q44 0 68.5 -25zM547 472l-9 -262l7 -175q0 -80 -46 -136.5t-143 -95.5l-65 86v16q35 19 52 49.5t17 76.5v159l-4 164h-64
l-10 11l8 102h71l181 9zM511.5 703q24.5 -25 24.5 -70q0 -48 -27 -76t-74 -28q-46 0 -70 24.5t-24 70.5q0 48 27.5 76t74.5 28q44 0 68.5 -25z" />
    <glyph glyph-name="Jcircumflex" unicode="&#x134;" horiz-adv-x="362" 
d="M293 213l2 -89q0 -63 -21 -106t-69.5 -74t-134.5 -56l-52 103v16q51 25 71.5 52t20.5 71v63l-7 313l-85 -3l-11 13l8 131h289zM-4 797q90 62 153 119h34q63 -57 153 -119l-34 -76h-18l-118 60l-118 -60h-18z" />
    <glyph glyph-name="jcircumflex" unicode="&#x135;" horiz-adv-x="306" 
d="M263 472l-9 -262l7 -175q0 -80 -46 -136.5t-143 -95.5l-65 86v16q35 19 52 49.5t17 76.5v159l-4 164h-64l-10 11l8 102h71l181 9zM-25 602q69 58 163 150h34q70 -70 163 -150l-47 -72h-18q-76 48 -115 78q-39 -30 -115 -78h-18z" />
    <glyph glyph-name="Kcommaaccent" unicode="&#x136;" horiz-adv-x="628" 
d="M647 42l-3 -22q-105 -23 -200 -32l-22 12q-102 175 -167 297l-2 -87l8 -210h-201l10 190l-10 457h204l-7 -270l124 200l34 70h212l-190 -306q92 -144 210 -299zM396 -67q10 -22 10 -49q0 -50 -31.5 -95.5t-98.5 -92.5l-52 46l-2 12q48 42 48 93q0 36 -28 64v14
q61 35 123 50q21 -20 31 -42z" />
    <glyph glyph-name="kcommaaccent" unicode="&#x137;" horiz-adv-x="540" 
d="M534 32l-1 -20q-65 -13 -183 -24l-20 10q-59 108 -100 223v-11l8 -210h-195l9 190l-7 499l194 13l-8 -428l76 142l21 56h199l-120 -209q47 -96 127 -231zM363 -67q10 -22 10 -49q0 -50 -31.5 -95.5t-98.5 -92.5l-52 46l-2 12q48 42 48 93q0 36 -28 64v14q61 35 123 50
q21 -20 31 -42z" />
    <glyph glyph-name="kgreenlandic" unicode="&#x138;" horiz-adv-x="538" 
d="M532 32l-1 -20q-65 -13 -183 -24l-20 10q-63 116 -101 225v-13l8 -210h-195l9 190l-7 271l194 13l-7 -200l76 142l21 56h199l-120 -209q47 -96 127 -231z" />
    <glyph glyph-name="Lacute" unicode="&#x139;" horiz-adv-x="452" 
d="M452 150l-12 -150h-385l10 190l-10 457h204l-11 -437l2 -46h191zM276 914l49 -117l-6 -16q-132 -42 -238 -69l-17 4l-30 79q118 60 225 123z" />
    <glyph glyph-name="lacute" unicode="&#x13a;" horiz-adv-x="282" 
d="M230 210l8 -210h-195l9 190l-7 499l194 13zM254 947l49 -117l-6 -16q-132 -42 -238 -69l-17 4l-30 79q118 60 225 123z" />
    <glyph glyph-name="Lcommaaccent" unicode="&#x13b;" horiz-adv-x="452" 
d="M452 150l-12 -150h-385l10 190l-10 457h204l-11 -437l2 -46h191zM314 -67q10 -22 10 -49q0 -50 -31.5 -95.5t-98.5 -92.5l-52 46l-2 12q48 42 48 93q0 36 -28 64v14q61 35 123 50q21 -20 31 -42z" />
    <glyph glyph-name="lcommaaccent" unicode="&#x13c;" horiz-adv-x="282" 
d="M230 210l8 -210h-195l9 190l-7 499l194 13zM223 -67q10 -22 10 -49q0 -50 -31.5 -95.5t-98.5 -92.5l-52 46l-2 12q48 42 48 93q0 36 -28 64v14q61 35 123 50q21 -20 31 -42z" />
    <glyph glyph-name="Lcaron" unicode="&#x13d;" horiz-adv-x="519" 
d="M441 164l11 -14l-12 -150h-385l10 190l-10 457h204l-11 -437l2 -46h191zM499 590l-44 -232l-82 -13l-13 10l-10 238l139 8z" />
    <glyph glyph-name="lcaron" unicode="&#x13e;" horiz-adv-x="382" 
d="M230 210l8 -210h-195l9 190l-7 499l194 13zM419 630l-44 -232l-82 -13l-13 10l-10 238l139 8z" />
    <glyph glyph-name="Ldot" unicode="&#x13f;" horiz-adv-x="503" 
d="M452 150l-12 -150h-385l10 190l-10 457h204l-11 -437l2 -46h191zM469.5 476q24.5 -25 24.5 -70q0 -48 -27 -76t-74 -28q-46 0 -70 24.5t-24 70.5q0 48 27.5 76t74.5 28q44 0 68.5 -25z" />
    <glyph glyph-name="ldot" unicode="&#x140;" horiz-adv-x="399" 
d="M230 210l8 -210h-195l9 190l-7 499l194 13zM413.5 381q24.5 -25 24.5 -70q0 -48 -27 -76t-74 -28q-46 0 -70 24.5t-24 70.5q0 48 27.5 76t74.5 28q44 0 68.5 -25z" />
    <glyph glyph-name="Lslash" unicode="&#x141;" horiz-adv-x="472" 
d="M472 150l-12 -150h-385l10 190v11l-47 -24l-17 9l-35 115l96 48l-7 298h204l-5 -201l67 34l17 -9l36 -114l-124 -63l-2 -84l2 -46h191z" />
    <glyph glyph-name="lslash" unicode="&#x142;" horiz-adv-x="321" 
d="M250 210l8 -210h-195l9 190l-1 64l-54 -27l-10 2l-37 105l99 50l-4 305l194 13l-5 -248l51 25l9 -4l37 -104l-99 -50z" />
    <glyph glyph-name="Nacute" unicode="&#x143;" horiz-adv-x="710" 
d="M639 211l8 -211h-218l-182 346h-12l-1 -112l8 -234h-182l10 190l-10 457h218l182 -346h12l-6 339l184 11zM468 914l49 -117l-6 -16q-132 -42 -238 -69l-17 4l-30 79q118 60 225 123z" />
    <glyph glyph-name="nacute" unicode="&#x144;" horiz-adv-x="544" 
d="M311 0l10 264q0 61 -47 61q-23 0 -47 -14v-101l8 -210h-195l9 190l-7 271l185 13v-70h7q52 52 117 74q75 0 114.5 -34t37.5 -98l-4 -136l7 -210h-195zM386 754l69 -107l-3 -17q-142 -72 -223 -109l-17 1l-44 72q102 76 201 161z" />
    <glyph glyph-name="Ncommaaccent" unicode="&#x145;" horiz-adv-x="710" 
d="M639 211l8 -211h-218l-182 346h-12l-1 -112l8 -234h-182l10 190l-10 457h218l182 -346h12l-6 339l184 11zM437 -67q10 -22 10 -49q0 -50 -31.5 -95.5t-98.5 -92.5l-52 46l-2 12q48 42 48 93q0 36 -28 64v14q61 35 123 50q21 -20 31 -42z" />
    <glyph glyph-name="ncommaaccent" unicode="&#x146;" horiz-adv-x="544" 
d="M311 0l10 264q0 61 -47 61q-23 0 -47 -14v-101l8 -210h-195l9 190l-7 271l185 13v-70h7q52 52 117 74q75 0 114.5 -34t37.5 -98l-4 -136l7 -210h-195zM362 -67q10 -22 10 -49q0 -50 -31.5 -95.5t-98.5 -92.5l-52 46l-2 12q48 42 48 93q0 36 -28 64v14q61 35 123 50
q21 -20 31 -42z" />
    <glyph glyph-name="Ncaron" unicode="&#x147;" horiz-adv-x="710" 
d="M639 211l8 -211h-218l-182 346h-12l-1 -112l8 -234h-182l10 190l-10 457h218l182 -346h12l-6 339l184 11zM525 831q-90 -62 -153 -119h-34q-63 57 -153 119l34 76h18l118 -60l118 60h18z" />
    <glyph glyph-name="ncaron" unicode="&#x148;" horiz-adv-x="544" 
d="M311 0l10 264q0 61 -47 61q-23 0 -47 -14v-101l8 -210h-195l9 190l-7 271l185 13v-70h7q52 52 117 74q75 0 114.5 -34t37.5 -98l-4 -136l7 -210h-195zM472 676q-69 -58 -163 -150h-34q-70 70 -163 150l47 72h18q76 -48 115 -78q39 30 115 78h18z" />
    <glyph glyph-name="Eng" unicode="&#x14a;" horiz-adv-x="710" 
d="M639 211l6 -157q0 -63 -21 -106t-69.5 -74t-134.5 -56l-52 103v16q60 28 79 63l-200 346h-12l-1 -112l8 -234h-182l10 190l-10 457h218l182 -326h12l-6 319l184 11z" />
    <glyph glyph-name="eng" unicode="&#x14b;" horiz-adv-x="549" 
d="M506 35q0 -80 -45 -136.5t-141 -95.5l-65 86v16q34 19 50 49.5t16 76.5v233q0 61 -47 61q-23 0 -47 -14v-101l8 -210h-195l9 190l-7 271l185 13v-70h7q52 52 117 74q75 0 114.5 -34t37.5 -98l-4 -136z" />
    <glyph glyph-name="Omacron" unicode="&#x14c;" horiz-adv-x="653" 
d="M559 575.5q77 -83.5 77 -235.5q0 -168 -84.5 -260t-239.5 -92q-141 0 -218 84.5t-77 239.5q0 166 84.5 256.5t239.5 90.5q141 0 218 -83.5zM264 485.5q-20 -13.5 -28.5 -47.5t-8.5 -99q0 -83 9 -126t30.5 -60t63.5 -17q39 0 59 13.5t28.5 48t8.5 99.5q0 82 -9 125
t-30.5 60t-63.5 17q-39 0 -59 -13.5zM475 853l-9 -107h-276l-12 13l9 107h276z" />
    <glyph glyph-name="omacron" unicode="&#x14d;" horiz-adv-x="497" 
d="M426 424q57 -60 57 -177q0 -128 -61.5 -193.5t-181.5 -65.5q-112 0 -169 59.5t-57 175.5q0 129 61.5 195t181.5 66q112 0 169 -60zM213 345.5q-10 -7.5 -13.5 -27.5t-3.5 -61q0 -61 4.5 -90.5t16.5 -41t37 -11.5q20 0 29.5 7.5t13 28t3.5 61.5q0 60 -4.5 89.5t-16.5 41
t-36 11.5q-20 0 -30 -7.5zM400 678l-9 -107h-276l-12 13l9 107h276z" />
    <glyph glyph-name="Obreve" unicode="&#x14e;" horiz-adv-x="653" 
d="M559 575.5q77 -83.5 77 -235.5q0 -168 -84.5 -260t-239.5 -92q-141 0 -218 84.5t-77 239.5q0 166 84.5 256.5t239.5 90.5q141 0 218 -83.5zM264 485.5q-20 -13.5 -28.5 -47.5t-8.5 -99q0 -83 9 -126t30.5 -60t63.5 -17q39 0 59 13.5t28.5 48t8.5 99.5q0 82 -9 125
t-30.5 60t-63.5 17q-39 0 -59 -13.5zM506 840q-23 -60 -69.5 -92t-111.5 -32q-64 0 -109 32t-66 92l40 60h27q17 -24 46.5 -37t68.5 -13q35 0 63 13t44 37h27z" />
    <glyph glyph-name="obreve" unicode="&#x14f;" horiz-adv-x="497" 
d="M426 424q57 -60 57 -177q0 -128 -61.5 -193.5t-181.5 -65.5q-112 0 -169 59.5t-57 175.5q0 129 61.5 195t181.5 66q112 0 169 -60zM213 345.5q-10 -7.5 -13.5 -27.5t-3.5 -61q0 -61 4.5 -90.5t16.5 -41t37 -11.5q20 0 29.5 7.5t13 28t3.5 61.5q0 60 -4.5 89.5t-16.5 41
t-36 11.5q-20 0 -30 -7.5zM430 671q-19 -58 -65 -97t-118 -39q-71 0 -113.5 39.5t-59.5 96.5l45 62h26q16 -29 45 -46t63 -17t62.5 17t43.5 46h26z" />
    <glyph glyph-name="Ohungarumlaut" unicode="&#x150;" horiz-adv-x="653" 
d="M559 575.5q77 -83.5 77 -235.5q0 -168 -84.5 -260t-239.5 -92q-141 0 -218 84.5t-77 239.5q0 166 84.5 256.5t239.5 90.5q141 0 218 -83.5zM264 485.5q-20 -13.5 -28.5 -47.5t-8.5 -99q0 -83 9 -126t30.5 -60t63.5 -17q39 0 59 13.5t28.5 48t8.5 99.5q0 82 -9 125
t-30.5 60t-63.5 17q-39 0 -59 -13.5zM268 906l14 4l90 -58l3 -14q-64 -64 -131 -122l-16 -5l-59 46q68 98 99 149zM361 791q36 53 76 115l13 4l91 -58l3 -14q-69 -67 -132 -122l-15 -5l-59 46z" />
    <glyph glyph-name="ohungarumlaut" unicode="&#x151;" horiz-adv-x="497" 
d="M426 424q57 -60 57 -177q0 -128 -61.5 -193.5t-181.5 -65.5q-112 0 -169 59.5t-57 175.5q0 129 61.5 195t181.5 66q112 0 169 -60zM213 345.5q-10 -7.5 -13.5 -27.5t-3.5 -61q0 -61 4.5 -90.5t16.5 -41t37 -11.5q20 0 29.5 7.5t13 28t3.5 61.5q0 60 -4.5 89.5t-16.5 41
t-36 11.5q-20 0 -30 -7.5zM196 759l13 4l90 -63l3 -14q-62 -73 -145 -159l-15 -5l-58 46q59 95 112 191zM361 759l13 4l90 -63l3 -14q-62 -73 -145 -159l-15 -5l-58 46q59 95 112 191z" />
    <glyph glyph-name="OE" unicode="&#x152;" horiz-adv-x="889" 
d="M464 652q12 -1 39 -3t47 -2h322l11 -14l-13 -146l-159 6h-103l-2 -91h99l104 3l11 -14l-12 -146l-116 3h-91v-38l2 -56h96l166 6l11 -14l-12 -146h-314q-27 2 -64 -1t-47 -4q-65 -7 -117 -7q-146 0 -225.5 85t-79.5 240q0 164 87.5 255t243.5 91q53 0 116 -7zM267 483.5
q-22 -15.5 -31 -51t-9 -102.5q0 -73 10 -115t34 -60.5t67 -18.5q52 0 67 15q13 13 12 54l-5 229q-1 38 -11 49q-15 16 -70 16q-42 0 -64 -15.5z" />
    <glyph glyph-name="oe" unicode="&#x153;" horiz-adv-x="764" 
d="M712 197l-248 -2q8 -36 33.5 -52t73.5 -16q62 0 134 24l14 -10l-30 -132q-68 -21 -141 -21q-103 0 -164 59q-53 -59 -150 -59q-108 0 -164 60.5t-56 179.5q0 125 61 190t174 65q90 0 138 -52q55 52 144 52q101 0 154.5 -52t53.5 -144q0 -33 -6 -65zM574 306q0 53 -45 53
q-55 0 -67 -74l110 6zM283.5 121.5q9.5 7.5 13 28t3.5 61.5q0 60 -4.5 89.5t-16.5 41t-36 11.5q-20 0 -30 -7.5t-13.5 -27.5t-3.5 -61q0 -61 4.5 -90.5t16.5 -41t37 -11.5q20 0 29.5 7.5z" />
    <glyph glyph-name="Racute" unicode="&#x154;" horiz-adv-x="631" 
d="M630 47l-3 -22q-102 -31 -201 -37l-19 16l-12 25q-8 16 -32 67.5t-42 96.5h-67l7 -193h-201l10 190l-10 457l307 1q109 0 168 -51.5t59 -148.5q0 -57 -28.5 -107t-79.5 -86q72 -112 144 -208zM362.5 487.5q-20.5 19.5 -66.5 21.5l-36 -3l-4 -167l73 -4q28 13 41 35t13 58
q0 40 -20.5 59.5zM410 929l69 -107l-3 -17q-142 -72 -223 -109l-17 1l-44 72q102 76 201 161z" />
    <glyph glyph-name="racute" unicode="&#x155;" horiz-adv-x="376" 
d="M374 471v-175l-19 -6q-13 8 -36 8q-22 0 -46.5 -10t-45.5 -28v-50l8 -210h-195l9 190l-7 271l185 13v-88h9q43 87 115 87q13 0 23 -2zM306 754l69 -107l-3 -17q-142 -72 -223 -109l-17 1l-44 72q102 76 201 161z" />
    <glyph glyph-name="Rcommaaccent" unicode="&#x156;" horiz-adv-x="631" 
d="M630 47l-3 -22q-102 -31 -201 -37l-19 16l-12 25q-8 16 -32 67.5t-42 96.5h-67l7 -193h-201l10 190l-10 457l307 1q109 0 168 -51.5t59 -148.5q0 -57 -28.5 -107t-79.5 -86q72 -112 144 -208zM362.5 487.5q-20.5 19.5 -66.5 21.5l-36 -3l-4 -167l73 -4q28 13 41 35t13 58
q0 40 -20.5 59.5zM398 -67q10 -22 10 -49q0 -50 -31.5 -95.5t-98.5 -92.5l-52 46l-2 12q48 42 48 93q0 36 -28 64v14q61 35 123 50q21 -20 31 -42z" />
    <glyph glyph-name="rcommaaccent" unicode="&#x157;" horiz-adv-x="376" 
d="M374 471v-175l-19 -6q-13 8 -36 8q-22 0 -46.5 -10t-45.5 -28v-50l8 -210h-195l9 190l-7 271l185 13v-88h9q43 87 115 87q13 0 23 -2zM218 -67q10 -22 10 -49q0 -50 -31.5 -95.5t-98.5 -92.5l-52 46l-2 12q48 42 48 93q0 36 -28 64v14q61 35 123 50q21 -20 31 -42z" />
    <glyph glyph-name="Rcaron" unicode="&#x158;" horiz-adv-x="631" 
d="M630 47l-3 -22q-102 -31 -201 -37l-19 16l-12 25q-8 16 -32 67.5t-42 96.5h-67l7 -193h-201l10 190l-10 457l307 1q109 0 168 -51.5t59 -148.5q0 -57 -28.5 -107t-79.5 -86q72 -112 144 -208zM362.5 487.5q-20.5 19.5 -66.5 21.5l-36 -3l-4 -167l73 -4q28 13 41 35t13 58
q0 40 -20.5 59.5zM486 831q-90 -62 -153 -119h-34q-63 57 -153 119l34 76h18l118 -60l118 60h18z" />
    <glyph glyph-name="rcaron" unicode="&#x159;" horiz-adv-x="376" 
d="M374 471v-175l-19 -6q-13 8 -36 8q-22 0 -46.5 -10t-45.5 -28v-50l8 -210h-195l9 190l-7 271l185 13v-88h9q43 87 115 87q13 0 23 -2zM392 676q-69 -58 -163 -150h-34q-70 70 -163 150l47 72h18q76 -48 115 -78q39 30 115 78h18z" />
    <glyph glyph-name="Sacute" unicode="&#x15a;" horiz-adv-x="528" 
d="M493 624l-32 -163l-28 -12q-42 26 -83 41t-66 15q-23 0 -36.5 -9t-13.5 -24q0 -19 20.5 -32.5t68.5 -35.5q56 -25 92 -46.5t63 -59t27 -92.5q0 -61 -33.5 -110.5t-95.5 -78.5t-144 -29q-102 0 -214 38l29 174l20 12q46 -35 98.5 -55.5t87.5 -20.5q28 0 40.5 9.5
t12.5 23.5q0 21 -21.5 35.5t-69.5 35.5q-55 24 -90.5 45.5t-61.5 59t-26 92.5q0 63 34 113.5t95 79.5t139 29q95 0 188 -35zM369 929l69 -107l-3 -17q-142 -72 -223 -109l-17 1l-44 72q102 76 201 161z" />
    <glyph glyph-name="sacute" unicode="&#x15b;" horiz-adv-x="402" 
d="M380 458l-25 -135l-22 -7q-34 21 -69 33.5t-55 12.5q-26 0 -26 -18q0 -13 15 -22t49 -21q43 -16 71 -31t49 -43.5t21 -72.5t-22 -81.5t-70 -61t-121 -23.5q-82 0 -168 26l23 143l16 12q37 -29 80.5 -46t72.5 -17q28 0 28 19q0 13 -15 22t-49 21q-43 16 -71.5 31
t-49.5 43.5t-21 73.5q0 47 25 85t72.5 60t113.5 22q73 0 148 -25zM298 754l69 -107l-3 -17q-142 -72 -223 -109l-17 1l-44 72q102 76 201 161z" />
    <glyph glyph-name="Scircumflex" unicode="&#x15c;" horiz-adv-x="528" 
d="M493 624l-32 -163l-28 -12q-42 26 -83 41t-66 15q-23 0 -36.5 -9t-13.5 -24q0 -19 20.5 -32.5t68.5 -35.5q56 -25 92 -46.5t63 -59t27 -92.5q0 -61 -33.5 -110.5t-95.5 -78.5t-144 -29q-102 0 -214 38l29 174l20 12q46 -35 98.5 -55.5t87.5 -20.5q28 0 40.5 9.5
t12.5 23.5q0 21 -21.5 35.5t-69.5 35.5q-55 24 -90.5 45.5t-61.5 59t-26 92.5q0 63 34 113.5t95 79.5t139 29q95 0 188 -35zM95 777q69 58 163 150h34q70 -70 163 -150l-47 -72h-18q-76 48 -115 78q-39 -30 -115 -78h-18z" />
    <glyph glyph-name="scircumflex" unicode="&#x15d;" horiz-adv-x="402" 
d="M380 458l-25 -135l-22 -7q-34 21 -69 33.5t-55 12.5q-26 0 -26 -18q0 -13 15 -22t49 -21q43 -16 71 -31t49 -43.5t21 -72.5t-22 -81.5t-70 -61t-121 -23.5q-82 0 -168 26l23 143l16 12q37 -29 80.5 -46t72.5 -17q28 0 28 19q0 13 -15 22t-49 21q-43 16 -71.5 31
t-49.5 43.5t-21 73.5q0 47 25 85t72.5 60t113.5 22q73 0 148 -25zM24 602q69 58 163 150h34q70 -70 163 -150l-47 -72h-18q-76 48 -115 78q-39 -30 -115 -78h-18z" />
    <glyph glyph-name="Scedilla" unicode="&#x15e;" horiz-adv-x="528" 
d="M493 624l-32 -163l-28 -12q-42 26 -83 41t-66 15q-23 0 -36.5 -9t-13.5 -24q0 -19 20.5 -32.5t68.5 -35.5q56 -25 92 -46.5t63 -59t27 -92.5q0 -61 -33.5 -110.5t-95.5 -78.5t-144 -29q-102 0 -214 38l29 174l20 12q46 -35 98.5 -55.5t87.5 -20.5q28 0 40.5 9.5
t12.5 23.5q0 21 -21.5 35.5t-69.5 35.5q-55 24 -90.5 45.5t-61.5 59t-26 92.5q0 63 34 113.5t95 79.5t139 29q95 0 188 -35zM287 -42l34 -19q24 -13 34 -28.5t10 -34.5q0 -37 -29.5 -60.5t-80.5 -23.5q-49 0 -92 24l11 75l8 3q15 -13 32 -20.5t28 -7.5q16 0 16 14
q0 9 -12 15l-50 27l22 112h83z" />
    <glyph glyph-name="scedilla" unicode="&#x15f;" horiz-adv-x="402" 
d="M380 458l-25 -135l-22 -7q-34 21 -69 33.5t-55 12.5q-26 0 -26 -18q0 -13 15 -22t49 -21q43 -16 71 -31t49 -43.5t21 -72.5t-22 -81.5t-70 -61t-121 -23.5q-82 0 -168 26l23 143l16 12q37 -29 80.5 -46t72.5 -17q28 0 28 19q0 13 -15 22t-49 21q-43 16 -71.5 31
t-49.5 43.5t-21 73.5q0 47 25 85t72.5 60t113.5 22q73 0 148 -25zM233 -42l34 -19q24 -13 34 -28.5t10 -34.5q0 -37 -29.5 -60.5t-80.5 -23.5q-49 0 -92 24l11 75l8 3q15 -13 32 -20.5t28 -7.5q16 0 16 14q0 9 -12 15l-50 27l22 112h83z" />
    <glyph glyph-name="Scaron" unicode="&#x160;" horiz-adv-x="528" 
d="M493 624l-32 -163l-28 -12q-42 26 -83 41t-66 15q-23 0 -36.5 -9t-13.5 -24q0 -19 20.5 -32.5t68.5 -35.5q56 -25 92 -46.5t63 -59t27 -92.5q0 -61 -33.5 -110.5t-95.5 -78.5t-144 -29q-102 0 -214 38l29 174l20 12q46 -35 98.5 -55.5t87.5 -20.5q28 0 40.5 9.5
t12.5 23.5q0 21 -21.5 35.5t-69.5 35.5q-55 24 -90.5 45.5t-61.5 59t-26 92.5q0 63 34 113.5t95 79.5t139 29q95 0 188 -35zM445 831q-90 -62 -153 -119h-34q-63 57 -153 119l34 76h18l118 -60l118 60h18z" />
    <glyph glyph-name="scaron" unicode="&#x161;" horiz-adv-x="402" 
d="M380 458l-25 -135l-22 -7q-34 21 -69 33.5t-55 12.5q-26 0 -26 -18q0 -13 15 -22t49 -21q43 -16 71 -31t49 -43.5t21 -72.5t-22 -81.5t-70 -61t-121 -23.5q-82 0 -168 26l23 143l16 12q37 -29 80.5 -46t72.5 -17q28 0 28 19q0 13 -15 22t-49 21q-43 16 -71.5 31
t-49.5 43.5t-21 73.5q0 47 25 85t72.5 60t113.5 22q73 0 148 -25zM384 676q-69 -58 -163 -150h-34q-70 70 -163 150l47 72h18q76 -48 115 -78q39 30 115 78h18z" />
    <glyph glyph-name="uni0162" unicode="&#x162;" horiz-adv-x="519" 
d="M358 493l-5 -283l8 -210h-60l-8 -42l34 -19q24 -13 34 -28.5t10 -34.5q0 -37 -29.5 -60.5t-80.5 -23.5q-49 0 -92 24l11 75l8 3q15 -13 32 -20.5t28 -7.5q16 0 16 14q0 9 -12 15l-50 27l16 78h-57l10 190l-5 303h-13l-133 -6l-12 14l11 146h483l11 -14l-11 -146l-132 6
h-12z" />
    <glyph glyph-name="uni0163" unicode="&#x163;" horiz-adv-x="361" 
d="M340 154l12 -15l-18 -108q-21 -13 -50 -23.5t-56 -14.5q-79 0 -124 36t-45 96l6 104l-1 125h-62l-5 10l8 103h59l-1 85l181 48l12 -11l-5 -122h98l5 -10l-8 -103h-99l-6 -169q0 -24 8.5 -33.5t30.5 -9.5q26 0 60 12zM243 -42l34 -19q24 -13 34 -28.5t10 -34.5
q0 -37 -29.5 -60.5t-80.5 -23.5q-49 0 -92 24l11 75l8 3q15 -13 32 -20.5t28 -7.5q16 0 16 14q0 9 -12 15l-50 27l22 112h83z" />
    <glyph glyph-name="Tcaron" unicode="&#x164;" horiz-adv-x="519" 
d="M513 633l-11 -146l-132 6h-12l-5 -283l8 -210h-200l10 190l-5 303h-13l-133 -6l-12 14l11 146h483zM431 831q-90 -62 -153 -119h-34q-63 57 -153 119l34 76h18l118 -60l118 60h18z" />
    <glyph glyph-name="tcaron" unicode="&#x165;" horiz-adv-x="386" 
d="M340 154l12 -15l-18 -108q-21 -13 -50 -23.5t-56 -14.5q-79 0 -124 36t-45 96l6 104l-1 125h-62l-5 10l8 103h59l-1 85l181 48l12 -11l-5 -122h98l5 -10l-8 -103h-99l-6 -169q0 -24 8.5 -33.5t30.5 -9.5q26 0 60 12zM425 746l-44 -232l-82 -13l-13 10l-10 238l139 8z" />
    <glyph glyph-name="Tbar" unicode="&#x166;" horiz-adv-x="519" 
d="M358 493l-3 -158h90l12 -13l-7 -88h-97v-24l8 -210h-200l10 190l-1 44h-81l-12 13l7 88h85l-3 158h-13l-133 -6l-12 14l11 146h483l11 -14l-11 -146l-132 6h-12z" />
    <glyph glyph-name="tbar" unicode="&#x167;" horiz-adv-x="367" 
d="M343 154l12 -15l-18 -108q-21 -13 -50 -23.5t-56 -14.5q-79 0 -124 36t-45 96l5 78h-52l-12 13l7 88h58l-1 50h-62l-5 10l8 103h59l-1 85l181 48l12 -11l-5 -122h98l5 -10l-8 -103h-99l-2 -50h81l12 -13l-7 -88h-89l-1 -18q0 -24 8.5 -33.5t30.5 -9.5q26 0 60 12z" />
    <glyph glyph-name="Umacron" unicode="&#x16a;" horiz-adv-x="653" 
d="M600 319l-1 -103q-1 -110 -74 -169t-209 -59q-131 0 -200.5 59t-66.5 169l3 103l-6 328h201l-9 -404q-1 -51 19.5 -74t66.5 -23q47 0 68 23t20 74l-9 404h204zM476 853l-9 -107h-276l-12 13l9 107h276z" />
    <glyph glyph-name="umacron" unicode="&#x16b;" horiz-adv-x="536" 
d="M524 120l-17 -100q-48 -31 -100 -30q-58 12 -84 84h-12q-28 -31 -55 -50.5t-60 -29.5q-74 0 -114.5 34t-40.5 98l3 103l-6 232l185 13v-271q0 -30 10 -42.5t31 -12.5q13 0 22.5 3.5t20.5 11.5v298l185 13l-11 -326q0 -11 3.5 -16t10.5 -5t17 3zM412 678l-9 -107h-276
l-12 13l9 107h276z" />
    <glyph glyph-name="Ubreve" unicode="&#x16c;" horiz-adv-x="653" 
d="M600 319l-1 -103q-1 -110 -74 -169t-209 -59q-131 0 -200.5 59t-66.5 169l3 103l-6 328h201l-9 -404q-1 -51 19.5 -74t66.5 -23q47 0 68 23t20 74l-9 404h204zM506 846q-19 -58 -65 -97t-118 -39q-71 0 -113.5 39.5t-59.5 96.5l45 62h26q16 -29 45 -46t63 -17t62.5 17
t43.5 46h26z" />
    <glyph glyph-name="ubreve" unicode="&#x16d;" horiz-adv-x="536" 
d="M524 120l-17 -100q-48 -31 -100 -30q-58 12 -84 84h-12q-28 -31 -55 -50.5t-60 -29.5q-74 0 -114.5 34t-40.5 98l3 103l-6 232l185 13v-271q0 -30 10 -42.5t31 -12.5q13 0 22.5 3.5t20.5 11.5v298l185 13l-11 -326q0 -11 3.5 -16t10.5 -5t17 3zM442 671q-19 -58 -65 -97
t-118 -39q-71 0 -113.5 39.5t-59.5 96.5l45 62h26q16 -29 45 -46t63 -17t62.5 17t43.5 46h26z" />
    <glyph glyph-name="Uring" unicode="&#x16e;" horiz-adv-x="653" 
d="M600 319l-1 -103q-1 -110 -74 -169t-209 -59q-131 0 -200.5 59t-66.5 169l3 103l-6 328h201l-9 -404q-1 -51 19.5 -74t66.5 -23q47 0 68 23t20 74l-9 404h204zM437 827q0 -55 -29 -84.5t-85 -29.5q-106 0 -106 107q0 55 29 83t85 28q106 0 106 -104zM299.5 846.5
q-7.5 -6.5 -7.5 -23.5q0 -19 8 -26.5t28 -7.5q19 0 26.5 7t7.5 24q0 18 -8 25.5t-28 7.5q-19 0 -26.5 -6.5z" />
    <glyph glyph-name="uring" unicode="&#x16f;" horiz-adv-x="536" 
d="M524 120l-17 -100q-48 -31 -100 -30q-58 12 -84 84h-12q-28 -31 -55 -50.5t-60 -29.5q-74 0 -114.5 34t-40.5 98l3 103l-6 232l185 13v-271q0 -30 10 -42.5t31 -12.5q13 0 22.5 3.5t20.5 11.5v298l185 13l-11 -326q0 -11 3.5 -16t10.5 -5t17 3zM373 652q0 -55 -29 -84.5
t-85 -29.5q-106 0 -106 107q0 55 29 83t85 28q106 0 106 -104zM235.5 671.5q-7.5 -6.5 -7.5 -23.5q0 -19 8 -26.5t28 -7.5q19 0 26.5 7t7.5 24q0 18 -8 25.5t-28 7.5q-19 0 -26.5 -6.5z" />
    <glyph glyph-name="Uhungarumlaut" unicode="&#x170;" horiz-adv-x="653" 
d="M600 319l-1 -103q-1 -110 -74 -169t-209 -59q-131 0 -200.5 59t-66.5 169l3 103l-6 328h201l-9 -404q-1 -51 19.5 -74t66.5 -23q47 0 68 23t20 74l-9 404h204zM268 906l14 4l90 -58l3 -14q-64 -64 -131 -122l-16 -5l-59 46q68 98 99 149zM361 791q36 53 76 115l13 4
l91 -58l3 -14q-69 -67 -132 -122l-15 -5l-59 46z" />
    <glyph glyph-name="uhungarumlaut" unicode="&#x171;" horiz-adv-x="536" 
d="M524 120l-17 -100q-48 -31 -100 -30q-58 12 -84 84h-12q-28 -31 -55 -50.5t-60 -29.5q-74 0 -114.5 34t-40.5 98l3 103l-6 232l185 13v-271q0 -30 10 -42.5t31 -12.5q13 0 22.5 3.5t20.5 11.5v298l185 13l-11 -326q0 -11 3.5 -16t10.5 -5t17 3zM208 759l13 4l90 -63
l3 -14q-62 -73 -145 -159l-15 -5l-58 46q59 95 112 191zM373 759l13 4l90 -63l3 -14q-62 -73 -145 -159l-15 -5l-58 46q59 95 112 191z" />
    <glyph glyph-name="Uogonek" unicode="&#x172;" horiz-adv-x="653" 
d="M600 319l-1 -103q-1 -110 -74 -169t-209 -59q-131 0 -200.5 59t-66.5 169l3 103l-6 328h201l-9 -404q-1 -51 19.5 -74t66.5 -23q47 0 68 23t20 74l-9 404h204zM329.5 -164.5q-33.5 26.5 -33.5 71.5q0 36 27 70t100 72h95q-65 -59 -86.5 -82.5t-21.5 -36.5q0 -17 22 -17
q27 0 71 19l9 -3l20 -84q-59 -36 -114 -36t-88.5 26.5z" />
    <glyph glyph-name="uogonek" unicode="&#x173;" horiz-adv-x="536" 
d="M524 120l-17 -100q-48 -31 -100 -30q-58 12 -84 84h-12q-28 -31 -55 -50.5t-60 -29.5q-74 0 -114.5 34t-40.5 98l3 103l-6 232l185 13v-271q0 -30 10 -42.5t31 -12.5q13 0 22.5 3.5t20.5 11.5v298l185 13l-11 -326q0 -11 3.5 -16t10.5 -5t17 3zM318.5 -193.5
q-33.5 26.5 -33.5 71.5q0 36 27 70t100 72h95q-65 -59 -86.5 -82.5t-21.5 -36.5q0 -17 22 -17q27 0 71 19l9 -3l20 -84q-59 -36 -114 -36t-88.5 26.5z" />
    <glyph glyph-name="Wcircumflex" unicode="&#x174;" horiz-adv-x="914" 
d="M723 0h-212l-61 234h-12l-56 -234h-213l-152 647h194l10 -100l63 -346h12l75 295l-34 151h202l14 -120l68 -326h12l79 334l18 112h184zM283 797q90 62 153 119h34q63 -57 153 -119l-34 -76h-18l-118 60l-118 -60h-18z" />
    <glyph glyph-name="wcircumflex" unicode="&#x175;" horiz-adv-x="725" 
d="M191 387l27 -196h10l38 185l17 96h188l9 -85l31 -195h10l35 184l18 96h160l-137 -472h-183l-43 234h-12l-50 -234h-191l-113 469l176 7zM190 602q69 58 163 150h34q70 -70 163 -150l-47 -72h-18q-76 48 -115 78q-39 -30 -115 -78h-18z" />
    <glyph glyph-name="Ycircumflex" unicode="&#x176;" horiz-adv-x="594" 
d="M382 170l8 -170h-200l10 170l-1 31l-207 446h210l16 -54l73 -195h12l84 188l23 61h204l-230 -439zM129 797q90 62 153 119h34q63 -57 153 -119l-34 -76h-18l-118 60l-118 -60h-18z" />
    <glyph glyph-name="ycircumflex" unicode="&#x177;" horiz-adv-x="471" 
d="M190 386l51 -197h10l47 179l19 104h164l-138 -423q-23 -69 -55 -113.5t-81 -75t-127 -54.5l-13 2q-50 47 -85 116l7 17q92 14 170 59l-171 469l186 7zM62 602q69 58 163 150h34q70 -70 163 -150l-47 -72h-18q-76 48 -115 78q-39 -30 -115 -78h-18z" />
    <glyph glyph-name="Ydieresis" unicode="&#x178;" horiz-adv-x="594" 
d="M382 170l8 -170h-200l10 170l-1 31l-207 446h210l16 -54l73 -195h12l84 188l23 61h204l-230 -439zM263.5 870.5q21.5 -21.5 21.5 -60.5q0 -42 -23.5 -66.5t-64.5 -24.5q-40 0 -61 21.5t-21 61.5q0 42 24 66t65 24q38 0 59.5 -21.5zM456.5 870.5q21.5 -21.5 21.5 -60.5
q0 -42 -23.5 -66.5t-64.5 -24.5q-40 0 -61 21.5t-21 61.5q0 42 24 66t65 24q38 0 59.5 -21.5z" />
    <glyph glyph-name="Zacute" unicode="&#x179;" horiz-adv-x="570" 
d="M538 504l-275 -356h161l123 9l6 -9l-16 -153l-178 5h-230l-101 -6v143l280 362h-157l-120 -10l-7 8l14 153l150 -3h274l76 1v-144zM398 914l49 -117l-6 -16q-132 -42 -238 -69l-17 4l-30 79q118 60 225 123z" />
    <glyph glyph-name="zacute" unicode="&#x17a;" horiz-adv-x="438" 
d="M148 472h199l66 1v-114l-189 -239h96l95 7l10 -12l-12 -118l-142 3h-166l-85 -5v114l192 243h-90l-95 -7l-10 12l12 118zM313 754l69 -107l-3 -17q-142 -72 -223 -109l-17 1l-44 72q102 76 201 161z" />
    <glyph glyph-name="Zdotaccent" unicode="&#x17b;" horiz-adv-x="570" 
d="M538 504l-275 -356h161l123 9l6 -9l-16 -153l-178 5h-230l-101 -6v143l280 362h-157l-120 -10l-7 8l14 153l150 -3h274l76 1v-144zM357.5 878q24.5 -25 24.5 -70q0 -48 -27 -76t-74 -28q-46 0 -70 24.5t-24 70.5q0 48 27.5 76t74.5 28q44 0 68.5 -25z" />
    <glyph glyph-name="zdotaccent" unicode="&#x17c;" horiz-adv-x="438" 
d="M148 472h199l66 1v-114l-189 -239h96l95 7l10 -12l-12 -118l-142 3h-166l-85 -5v114l192 243h-90l-95 -7l-10 12l12 118zM291.5 703q24.5 -25 24.5 -70q0 -48 -27 -76t-74 -28q-46 0 -70 24.5t-24 70.5q0 48 27.5 76t74.5 28q44 0 68.5 -25z" />
    <glyph glyph-name="Zcaron" unicode="&#x17d;" horiz-adv-x="570" 
d="M538 504l-275 -356h161l123 9l6 -9l-16 -153l-178 5h-230l-101 -6v143l280 362h-157l-120 -10l-7 8l14 153l150 -3h274l76 1v-144zM455 831q-90 -62 -153 -119h-34q-63 57 -153 119l34 76h18l118 -60l118 60h18z" />
    <glyph glyph-name="zcaron" unicode="&#x17e;" horiz-adv-x="438" 
d="M148 472h199l66 1v-114l-189 -239h96l95 7l10 -12l-12 -118l-142 3h-166l-85 -5v114l192 243h-90l-95 -7l-10 12l12 118zM399 676q-69 -58 -163 -150h-34q-70 70 -163 150l47 72h18q76 -48 115 -78q39 30 115 78h18z" />
    <glyph glyph-name="uni018F" unicode="&#x18f;" horiz-adv-x="640" 
d="M466 616.5q76 -39.5 116.5 -115t40.5 -179.5q0 -102 -39 -177t-111.5 -115.5t-171.5 -40.5q-85 0 -149.5 33t-99 91.5t-34.5 132.5q0 34 8 84l25 31l370 3q-8 70 -44 101.5t-106 31.5q-83 0 -202 -42l-18 13l36 154q98 34 198 34q105 0 181 -39.5zM382.5 162
q28.5 29 37.5 88l-211 -6l-2 -19q0 -41 26.5 -66.5t71.5 -25.5q49 0 77.5 29z" />
    <glyph glyph-name="florin" unicode="&#x192;" horiz-adv-x="361" 
d="M448 617l-27 -131l-13 -8q-54 22 -84 22q-20 0 -31.5 -9t-15.5 -30l-9 -64h91l4 -10l-10 -97h-100l-15 -104l-13 -122q-9 -76 -46.5 -126.5t-117.5 -88.5l-80 79l2 14q33 19 50 46.5t24 71.5l13 107l12 123h-66l-4 9l11 98h71l4 32q12 95 80.5 146t180.5 51q43 0 89 -9z
" />
    <glyph glyph-name="Ohorn" unicode="&#x1a0;" horiz-adv-x="705" 
d="M672 597q-29 -36 -79 -54q51 -80 51 -203q0 -168 -84.5 -260t-239.5 -92q-141 0 -218 84.5t-77 239.5q0 108 39 186.5t107.5 119.5t157.5 41q38 0 68.5 -5t66.5 -14q38 -9 50 -9q21 0 29.5 9t8.5 27q0 39 -37 67l1 14q49 37 90 37q40 0 67.5 -30.5t27.5 -76.5
q0 -45 -29 -81zM397 149.5q20 13.5 28.5 48t8.5 99.5q0 82 -9 125t-30.5 60t-63.5 17q-39 0 -59 -13.5t-28.5 -47.5t-8.5 -99q0 -83 9 -126t30.5 -60t63.5 -17q39 0 59 13.5z" />
    <glyph glyph-name="ohorn" unicode="&#x1a1;" horiz-adv-x="541" 
d="M523 448q-34 -40 -79 -50q39 -61 39 -152q0 -128 -61 -193t-181 -65q-114 0 -170.5 59.5t-56.5 180.5q0 127 61.5 191.5t182.5 64.5q31 0 75 -8q28 -5 41 -5q15 0 23.5 11.5t8.5 29.5q0 15 -6.5 27.5t-22.5 25.5l3 14q50 44 95 44q35 0 58.5 -25t23.5 -63q0 -47 -34 -87z
M283.5 121.5q9.5 7.5 13 28t3.5 61.5q0 61 -4.5 90t-16.5 40.5t-36 11.5q-20 0 -30 -7.5t-13.5 -27.5t-3.5 -61q0 -61 4.5 -90.5t16.5 -41t37 -11.5q20 0 29.5 7.5z" />
    <glyph glyph-name="Uhorn" unicode="&#x1af;" horiz-adv-x="663" 
d="M679.5 635.5q-26.5 -35.5 -73.5 -57.5l-6 -259l-1 -103q-1 -110 -74 -169t-209 -59q-131 0 -200.5 59t-66.5 169l3 103l-6 328h201l-9 -404q-1 -51 19.5 -74t66.5 -23q47 0 68 23t20 74l-9 404h95q31 0 44 11t13 37q0 35 -29 59l3 14q52 37 94 37q36 0 59.5 -26t23.5 -66
q0 -42 -26.5 -77.5z" />
    <glyph glyph-name="uhorn" unicode="&#x1b0;" horiz-adv-x="565" 
d="M555 601.5q24 -24.5 24 -62.5q0 -41 -26.5 -77.5t-63.5 -53.5l-8 -257q0 -23 16 -23q5 0 16 3l12 -10l-19 -101q-40 -29 -89 -29q-38 0 -63 18t-42 59h-7q-49 -55 -109 -74q-74 0 -114.5 34t-40.5 98l3 103l-6 232l185 13v-271q0 -30 10 -42.5t32 -12.5q12 0 21.5 3.5
t20.5 11.5v298l61 7q31 3 45.5 14t14.5 31q0 31 -29 55l3 14q51 44 95 44q34 0 58 -24.5z" />
    <glyph glyph-name="uni01C4" unicode="&#x1c4;" horiz-adv-x="1235" 
d="M571.5 573.5q76.5 -77.5 76.5 -223.5q0 -173 -89 -266t-255 -93q-104 0 -244 9l10 190l-10 457l292 4q143 0 219.5 -77.5zM413.5 177.5q24.5 37.5 24.5 123.5q0 73 -10 115t-32 60.5t-61 18.5q-38 0 -75 -4l-7 -281l2 -62q60 -8 87 -8q47 0 71.5 37.5zM1203 504
l-275 -356h161l123 9l6 -9l-16 -153l-178 5h-230l-101 -6v143l280 362h-157l-120 -10l-7 8l14 153l150 -3h274l76 1v-144zM1120 831q-90 -62 -153 -119h-34q-63 57 -153 119l34 76h18l118 -60l118 60h18z" />
    <glyph glyph-name="uni01C5" unicode="&#x1c5;" horiz-adv-x="1103" 
d="M571.5 573.5q76.5 -77.5 76.5 -223.5q0 -173 -89 -266t-255 -93q-104 0 -244 9l10 190l-10 457l292 4q143 0 219.5 -77.5zM413.5 177.5q24.5 37.5 24.5 123.5q0 73 -10 115t-32 60.5t-61 18.5q-38 0 -75 -4l-7 -281l2 -62q60 -8 87 -8q47 0 71.5 37.5zM813 472h199l66 1
v-114l-189 -239h96l95 7l10 -12l-12 -118l-142 3h-166l-85 -5v114l192 243h-90l-95 -7l-10 12l12 118zM1064 676q-69 -58 -163 -150h-34q-70 70 -163 150l47 72h18q76 -48 115 -78q39 30 115 78h18z" />
    <glyph glyph-name="uni01C6" unicode="&#x1c6;" horiz-adv-x="973" 
d="M480 210l1 -61q0 -12 3 -17t10 -5t17 3l12 -10l-17 -100q-37 -26 -93 -30q-32 2 -56.5 20t-38.5 50h-7q-40 -43 -94 -69q-95 0 -149 64t-54 174q0 123 66 187.5t181 64.5q15 0 37 -3l-3 211l194 13zM209 334q-13 -18 -13 -69q0 -69 14 -99.5t44 -30.5q25 0 47 20l1 36
l-2 151q-23 10 -45 10q-33 0 -46 -18zM683 472h199l66 1v-114l-189 -239h96l95 7l10 -12l-12 -118l-142 3h-166l-85 -5v114l192 243h-90l-95 -7l-10 12l12 118zM934 676q-69 -58 -163 -150h-34q-70 70 -163 150l47 72h18q76 -48 115 -78q39 30 115 78h18z" />
    <glyph glyph-name="uni01C7" unicode="&#x1c7;" horiz-adv-x="794" 
d="M452 150l-12 -150h-385l10 190l-10 457h204l-11 -437l2 -46h191zM725 213l2 -89q0 -63 -21 -106t-69.5 -74t-134.5 -56l-52 103v16q51 25 71.5 52t20.5 71v63l-7 313l-85 -3l-11 13l8 131h289z" />
    <glyph glyph-name="uni01C8" unicode="&#x1c8;" horiz-adv-x="758" 
d="M452 150l-12 -150h-385l10 190l-10 457h204l-11 -437l2 -46h191zM715 472l-9 -262l7 -175q0 -80 -46 -136.5t-143 -95.5l-65 86v16q35 19 52 49.5t17 76.5v159l-4 164h-64l-10 11l8 102h71l181 9zM679.5 703q24.5 -25 24.5 -70q0 -48 -27 -76t-74 -28q-46 0 -70 24.5
t-24 70.5q0 48 27.5 76t74.5 28q44 0 68.5 -25z" />
    <glyph glyph-name="uni01C9" unicode="&#x1c9;" horiz-adv-x="588" 
d="M230 210l8 -210h-195l9 190l-7 499l194 13zM545 472l-9 -262l7 -175q0 -80 -46 -136.5t-143 -95.5l-65 86v16q35 19 52 49.5t17 76.5v159l-4 164h-64l-10 11l8 102h71l181 9zM509.5 703q24.5 -25 24.5 -70q0 -48 -27 -76t-74 -28q-46 0 -70 24.5t-24 70.5q0 48 27.5 76
t74.5 28q44 0 68.5 -25z" />
    <glyph glyph-name="uni01CA" unicode="&#x1ca;" horiz-adv-x="1072" 
d="M639 211l8 -211h-218l-182 346h-12l-1 -112l8 -234h-182l10 190l-10 457h218l182 -346h12l-6 339l184 11zM1003 213l2 -89q0 -63 -21 -106t-69.5 -74t-134.5 -56l-52 103v16q51 25 71.5 52t20.5 71v63l-7 313l-85 -3l-11 13l8 131h289z" />
    <glyph glyph-name="uni01CB" unicode="&#x1cb;" horiz-adv-x="1016" 
d="M639 211l8 -211h-218l-182 346h-12l-1 -112l8 -234h-182l10 190l-10 457h218l182 -346h12l-6 339l184 11zM973 472l-9 -262l7 -175q0 -80 -46 -136.5t-143 -95.5l-65 86v16q35 19 52 49.5t17 76.5v159l-4 164h-64l-10 11l8 102h71l181 9zM937.5 703q24.5 -25 24.5 -70
q0 -48 -27 -76t-74 -28q-46 0 -70 24.5t-24 70.5q0 48 27.5 76t74.5 28q44 0 68.5 -25z" />
    <glyph glyph-name="uni01CC" unicode="&#x1cc;" horiz-adv-x="850" 
d="M311 0l10 264q0 61 -47 61q-23 0 -47 -14v-101l8 -210h-195l9 190l-7 271l185 13v-70h7q52 52 117 74q75 0 114.5 -34t37.5 -98l-4 -136l7 -210h-195zM807 472l-9 -262l7 -175q0 -80 -46 -136.5t-143 -95.5l-65 86v16q35 19 52 49.5t17 76.5v159l-4 164h-64l-10 11l8 102
h71l181 9zM771.5 703q24.5 -25 24.5 -70q0 -48 -27 -76t-74 -28q-46 0 -70 24.5t-24 70.5q0 48 27.5 76t74.5 28q44 0 68.5 -25z" />
    <glyph glyph-name="uni01CD" unicode="&#x1cd;" horiz-adv-x="627" 
d="M617 0h-203l-18 107l-1 3l-98 2l-82 -4l-17 -108h-196l196 647h242zM365 256l-44 212h-12l-56 -212l56 -1zM485 831q-90 -62 -153 -119h-34q-63 57 -153 119l34 76h18l118 -60l118 60h18z" />
    <glyph glyph-name="uni01CE" unicode="&#x1ce;" horiz-adv-x="503" 
d="M400 446.5q50 -37.5 50 -107.5q0 -20 -4 -106q-4 -76 -4 -85q0 -11 3.5 -16t10.5 -5t17 3l12 -10l-17 -100q-37 -26 -93 -30q-29 2 -51.5 20t-34.5 51h-7q-44 -51 -100 -72q-76 1 -121.5 42.5t-45.5 113.5q0 111 115 127l142 19v12q0 26 -10.5 37t-36.5 11
q-56 0 -145 -48l-12 8l-21 123q46 24 101.5 37t109.5 13q92 0 142 -37.5zM215 198q-14 -2 -20.5 -10.5t-6.5 -25.5q0 -40 37 -40q24 0 47 16v68zM426 676q-69 -58 -163 -150h-34q-70 70 -163 150l47 72h18q76 -48 115 -78q39 30 115 78h18z" />
    <glyph glyph-name="uni01CF" unicode="&#x1cf;" horiz-adv-x="327" 
d="M253 210l8 -210h-201l10 190l-10 457h204zM332 831q-90 -62 -153 -119h-34q-63 57 -153 119l34 76h18l118 -60l118 60h18z" />
    <glyph glyph-name="uni01D0" unicode="&#x1d0;" horiz-adv-x="284" 
d="M52 190l-7 271l194 13l-9 -264l8 -210h-195zM321 676q-69 -58 -163 -150h-34q-70 70 -163 150l47 72h18q76 -48 115 -78q39 30 115 78h18z" />
    <glyph glyph-name="uni01D1" unicode="&#x1d1;" horiz-adv-x="653" 
d="M559 575.5q77 -83.5 77 -235.5q0 -168 -84.5 -260t-239.5 -92q-141 0 -218 84.5t-77 239.5q0 166 84.5 256.5t239.5 90.5q141 0 218 -83.5zM264 485.5q-20 -13.5 -28.5 -47.5t-8.5 -99q0 -83 9 -126t30.5 -60t63.5 -17q39 0 59 13.5t28.5 48t8.5 99.5q0 82 -9 125
t-30.5 60t-63.5 17q-39 0 -59 -13.5zM497 831q-90 -62 -153 -119h-34q-63 57 -153 119l34 76h18l118 -60l118 60h18z" />
    <glyph glyph-name="uni01D2" unicode="&#x1d2;" horiz-adv-x="497" 
d="M426 424q57 -60 57 -177q0 -128 -61.5 -193.5t-181.5 -65.5q-112 0 -169 59.5t-57 175.5q0 129 61.5 195t181.5 66q112 0 169 -60zM213 345.5q-10 -7.5 -13.5 -27.5t-3.5 -61q0 -61 4.5 -90.5t16.5 -41t37 -11.5q20 0 29.5 7.5t13 28t3.5 61.5q0 60 -4.5 89.5t-16.5 41
t-36 11.5q-20 0 -30 -7.5zM431 676q-69 -58 -163 -150h-34q-70 70 -163 150l47 72h18q76 -48 115 -78q39 30 115 78h18z" />
    <glyph glyph-name="uni01D3" unicode="&#x1d3;" horiz-adv-x="653" 
d="M600 319l-1 -103q-1 -110 -74 -169t-209 -59q-131 0 -200.5 59t-66.5 169l3 103l-6 328h201l-9 -404q-1 -51 19.5 -74t66.5 -23q47 0 68 23t20 74l-9 404h204zM497 831q-90 -62 -153 -119h-34q-63 57 -153 119l34 76h18l118 -60l118 60h18z" />
    <glyph glyph-name="uni01D4" unicode="&#x1d4;" horiz-adv-x="536" 
d="M524 120l-17 -100q-48 -31 -100 -30q-58 12 -84 84h-12q-28 -31 -55 -50.5t-60 -29.5q-74 0 -114.5 34t-40.5 98l3 103l-6 232l185 13v-271q0 -30 10 -42.5t31 -12.5q13 0 22.5 3.5t20.5 11.5v298l185 13l-11 -326q0 -11 3.5 -16t10.5 -5t17 3zM443 676
q-69 -58 -163 -150h-34q-70 70 -163 150l47 72h18q76 -48 115 -78q39 30 115 78h18z" />
    <glyph glyph-name="uni01D5" unicode="&#x1d5;" horiz-adv-x="653" 
d="M600 319l-1 -103q-1 -110 -74 -169t-209 -59q-131 0 -200.5 59t-66.5 169l3 103l-6 328h201l-9 -404q-1 -51 19.5 -74t66.5 -23q47 0 68 23t20 74l-9 404h204zM491 1026l-10 -107h-303l-13 13l10 107h303zM294 850.5q21 -21.5 21 -60.5q0 -42 -23.5 -66.5t-63.5 -24.5
t-61 21.5t-21 61.5q0 41 24 65.5t65 24.5q38 0 59 -21.5zM487 850.5q21 -21.5 21 -60.5q0 -42 -23.5 -66.5t-63.5 -24.5t-61 21.5t-21 61.5q0 41 24 65.5t65 24.5q38 0 59 -21.5z" />
    <glyph glyph-name="uni01D6" unicode="&#x1d6;" horiz-adv-x="536" 
d="M524 120l-17 -100q-48 -31 -100 -30q-58 12 -84 84h-12q-28 -31 -55 -50.5t-60 -29.5q-74 0 -114.5 34t-40.5 98l3 103l-6 232l185 13v-271q0 -30 10 -42.5t31 -12.5q13 0 22.5 3.5t20.5 11.5v298l185 13l-11 -326q0 -11 3.5 -16t10.5 -5t17 3zM427 851l-10 -107h-303
l-13 13l10 107h303zM230 675.5q21 -21.5 21 -60.5q0 -42 -23.5 -66.5t-63.5 -24.5t-61 21.5t-21 61.5q0 41 24 65.5t65 24.5q38 0 59 -21.5zM423 675.5q21 -21.5 21 -60.5q0 -42 -23.5 -66.5t-63.5 -24.5t-61 21.5t-21 61.5q0 41 24 65.5t65 24.5q38 0 59 -21.5z" />
    <glyph glyph-name="uni01D7" unicode="&#x1d7;" horiz-adv-x="653" 
d="M600 319l-1 -103q-1 -110 -74 -169t-209 -59q-131 0 -200.5 59t-66.5 169l3 103l-6 328h201l-9 -404q-1 -51 19.5 -74t66.5 -23q47 0 68 23t20 74l-9 404h204zM437 1076l28 -124l-9 -15q-154 -19 -246 -26l-16 7l-16 83q130 39 243 82zM294 850.5q21 -21.5 21 -60.5
q0 -42 -23.5 -66.5t-63.5 -24.5t-61 21.5t-21 61.5q0 41 24 65.5t65 24.5q38 0 59 -21.5zM487 850.5q21 -21.5 21 -60.5q0 -42 -23.5 -66.5t-63.5 -24.5t-61 21.5t-21 61.5q0 41 24 65.5t65 24.5q38 0 59 -21.5z" />
    <glyph glyph-name="uni01D8" unicode="&#x1d8;" horiz-adv-x="536" 
d="M524 120l-17 -100q-48 -31 -100 -30q-58 12 -84 84h-12q-28 -31 -55 -50.5t-60 -29.5q-74 0 -114.5 34t-40.5 98l3 103l-6 232l185 13v-271q0 -30 10 -42.5t31 -12.5q13 0 22.5 3.5t20.5 11.5v298l185 13l-11 -326q0 -11 3.5 -16t10.5 -5t17 3zM373 901l28 -124l-9 -15
q-154 -19 -246 -26l-16 7l-16 83q130 39 243 82zM230 675.5q21 -21.5 21 -60.5q0 -42 -23.5 -66.5t-63.5 -24.5t-61 21.5t-21 61.5q0 41 24 65.5t65 24.5q38 0 59 -21.5zM423 675.5q21 -21.5 21 -60.5q0 -42 -23.5 -66.5t-63.5 -24.5t-61 21.5t-21 61.5q0 41 24 65.5
t65 24.5q38 0 59 -21.5z" />
    <glyph glyph-name="uni01D9" unicode="&#x1d9;" horiz-adv-x="653" 
d="M600 319l-1 -103q-1 -110 -74 -169t-209 -59q-131 0 -200.5 59t-66.5 169l3 103l-6 328h201l-9 -404q-1 -51 19.5 -74t66.5 -23q47 0 68 23t20 74l-9 404h204zM496 994q-90 -62 -153 -119h-34q-63 57 -153 119l34 76h18l118 -60l118 60h18zM294 850.5q21 -21.5 21 -60.5
q0 -42 -23.5 -66.5t-63.5 -24.5t-61 21.5t-21 61.5q0 41 24 65.5t65 24.5q38 0 59 -21.5zM487 850.5q21 -21.5 21 -60.5q0 -42 -23.5 -66.5t-63.5 -24.5t-61 21.5t-21 61.5q0 41 24 65.5t65 24.5q38 0 59 -21.5z" />
    <glyph glyph-name="uni01DA" unicode="&#x1da;" horiz-adv-x="536" 
d="M524 120l-17 -100q-48 -31 -100 -30q-58 12 -84 84h-12q-28 -31 -55 -50.5t-60 -29.5q-74 0 -114.5 34t-40.5 98l3 103l-6 232l185 13v-271q0 -30 10 -42.5t31 -12.5q13 0 22.5 3.5t20.5 11.5v298l185 13l-11 -326q0 -11 3.5 -16t10.5 -5t17 3zM432 819
q-90 -62 -153 -119h-34q-63 57 -153 119l34 76h18l118 -60l118 60h18zM230 675.5q21 -21.5 21 -60.5q0 -42 -23.5 -66.5t-63.5 -24.5t-61 21.5t-21 61.5q0 41 24 65.5t65 24.5q38 0 59 -21.5zM423 675.5q21 -21.5 21 -60.5q0 -42 -23.5 -66.5t-63.5 -24.5t-61 21.5t-21 61.5
q0 41 24 65.5t65 24.5q38 0 59 -21.5z" />
    <glyph glyph-name="uni01DB" unicode="&#x1db;" horiz-adv-x="653" 
d="M600 319l-1 -103q-1 -110 -74 -169t-209 -59q-131 0 -200.5 59t-66.5 169l3 103l-6 328h201l-9 -404q-1 -51 19.5 -74t66.5 -23q47 0 68 23t20 74l-9 404h204zM465 1001l-16 -83l-16 -7q-92 7 -246 26l-9 15l28 124l16 7q113 -43 243 -82zM294 850.5q21 -21.5 21 -60.5
q0 -42 -23.5 -66.5t-63.5 -24.5t-61 21.5t-21 61.5q0 41 24 65.5t65 24.5q38 0 59 -21.5zM487 850.5q21 -21.5 21 -60.5q0 -42 -23.5 -66.5t-63.5 -24.5t-61 21.5t-21 61.5q0 41 24 65.5t65 24.5q38 0 59 -21.5z" />
    <glyph glyph-name="uni01DC" unicode="&#x1dc;" horiz-adv-x="536" 
d="M524 120l-17 -100q-48 -31 -100 -30q-58 12 -84 84h-12q-28 -31 -55 -50.5t-60 -29.5q-74 0 -114.5 34t-40.5 98l3 103l-6 232l185 13v-271q0 -30 10 -42.5t31 -12.5q13 0 22.5 3.5t20.5 11.5v298l185 13l-11 -326q0 -11 3.5 -16t10.5 -5t17 3zM123 762l-9 15l28 124
l16 7q113 -43 243 -82l-16 -83l-16 -7q-92 7 -246 26zM103 545.5q-21 21.5 -21 61.5q0 41 24 65.5t65 24.5q38 0 59 -21.5t21 -60.5q0 -42 -23.5 -66.5t-63.5 -24.5t-61 21.5zM296 545.5q-21 21.5 -21 61.5q0 41 24 65.5t65 24.5q38 0 59 -21.5t21 -60.5q0 -42 -23.5 -66.5
t-63.5 -24.5t-61 21.5z" />
    <glyph glyph-name="Gcaron" unicode="&#x1e6;" horiz-adv-x="596" 
d="M569 628l-43 -177h-16q-50 25 -86.5 36t-79.5 11q-46 0 -70.5 -15t-35.5 -53t-11 -110q0 -73 11 -111.5t37.5 -54t76.5 -15.5q14 0 36 4v32l-3 109l183 13l-3 -88v-177q-116 -44 -231 -44q-157 0 -237 83.5t-80 238.5q0 170 94.5 259t270.5 89q108 0 187 -30zM498 831
q-90 -62 -153 -119h-34q-63 57 -153 119l34 76h18l118 -60l118 60h18z" />
    <glyph glyph-name="gcaron" unicode="&#x1e7;" horiz-adv-x="516" 
d="M473 376l-2 -4q9 -22 9 -48q0 -78 -61 -124t-166 -46q-27 0 -53 3q-3 -7 -3 -12q0 -15 20 -20t69 -10q61 -5 103 -14.5t73 -38t31 -82.5q0 -53 -30 -93t-85.5 -62t-129.5 -22q-103 0 -158 36.5t-55 100.5q35 36 78 63v6q-69 28 -69 103q35 34 76 61v6q-40 19 -61 52.5
t-21 79.5q0 80 60.5 125.5t166.5 45.5q62 0 111 -20q72 16 146 48l13 -11v-117q-26 -4 -62 -6zM301 276.5q14 12.5 14 40.5t-12.5 39t-40.5 11q-33 0 -45.5 -10.5t-12.5 -36.5q0 -31 12 -43.5t41 -12.5q30 0 44 12.5zM309.5 -27q-23.5 7 -76.5 13l-31 3q-16 -16 -16 -36
q0 -48 79 -48q35 0 51.5 9t16.5 32q0 20 -23.5 27zM443 670q-69 -58 -163 -150h-34q-70 70 -163 150l47 72h18q76 -48 115 -78q39 30 115 78h18z" />
    <glyph glyph-name="uni01EA" unicode="&#x1ea;" horiz-adv-x="653" 
d="M559 575.5q77 -83.5 77 -235.5q0 -168 -84.5 -260t-239.5 -92q-141 0 -218 84.5t-77 239.5q0 166 84.5 256.5t239.5 90.5q141 0 218 -83.5zM264 485.5q-20 -13.5 -28.5 -47.5t-8.5 -99q0 -83 9 -126t30.5 -60t63.5 -17q39 0 59 13.5t28.5 48t8.5 99.5q0 82 -9 125
t-30.5 60t-63.5 17q-39 0 -59 -13.5zM310.5 -167.5q-33.5 26.5 -33.5 71.5q0 36 27 70t100 72h95q-65 -59 -86.5 -82.5t-21.5 -36.5q0 -17 22 -17q27 0 71 19l9 -3l20 -84q-59 -36 -114 -36t-88.5 26.5z" />
    <glyph glyph-name="uni01EB" unicode="&#x1eb;" horiz-adv-x="497" 
d="M426 424q57 -60 57 -177q0 -128 -61.5 -193.5t-181.5 -65.5q-112 0 -169 59.5t-57 175.5q0 129 61.5 195t181.5 66q112 0 169 -60zM213 345.5q-10 -7.5 -13.5 -27.5t-3.5 -61q0 -61 4.5 -90.5t16.5 -41t37 -11.5q20 0 29.5 7.5t13 28t3.5 61.5q0 60 -4.5 89.5t-16.5 41
t-36 11.5q-20 0 -30 -7.5zM218.5 -165.5q-33.5 26.5 -33.5 71.5q0 36 27 70t100 72h95q-65 -59 -86.5 -82.5t-21.5 -36.5q0 -17 22 -17q27 0 71 19l9 -3l20 -84q-59 -36 -114 -36t-88.5 26.5z" />
    <glyph glyph-name="Aringacute" unicode="&#x1fa;" horiz-adv-x="627" 
d="M218 807l-18 82q117 40 240 91l16 -6l32 -123l-8 -15q-130 -22 -245 -35zM617 0h-203l-18 103l-1 3l-98 2l-82 -4l-17 -104h-196l212 641q-4 15 -4 37q0 55 29 83t85 28q106 0 106 -104q0 -23 -6 -43zM292.5 704.5q-7.5 -6.5 -7.5 -23.5q0 -19 8 -26.5t28 -7.5
q19 0 26.5 7t7.5 24q0 18 -8 25.5t-28 7.5q-19 0 -26.5 -6.5zM365 247l-44 203h-12l-56 -203l56 -1z" />
    <glyph glyph-name="aringacute" unicode="&#x1fb;" horiz-adv-x="503" 
d="M400 446.5q50 -37.5 50 -107.5q0 -20 -4 -106q-4 -76 -4 -85q0 -11 3.5 -16t10.5 -5t17 3l12 -10l-17 -100q-37 -26 -93 -30q-29 2 -51.5 20t-34.5 51h-7q-44 -51 -100 -72q-76 1 -121.5 42.5t-45.5 113.5q0 111 115 127l142 19v12q0 26 -10.5 37t-36.5 11
q-56 0 -145 -48l-12 8l-21 123q46 24 101.5 37t109.5 13q92 0 142 -37.5zM215 198q-14 -2 -20.5 -10.5t-6.5 -25.5q0 -40 37 -40q24 0 47 16v68zM357 651q0 -55 -29 -84.5t-85 -29.5q-106 0 -106 107q0 55 29 83t85 28q106 0 106 -104zM219.5 670.5q-7.5 -6.5 -7.5 -23.5
q0 -19 8 -26.5t28 -7.5q19 0 26.5 7t7.5 24q0 18 -8 25.5t-28 7.5q-19 0 -26.5 -6.5zM382.75 939.507l32.2422 -122.642l-8.16406 -15.0059q-136.519 -23.2266 -245.212 -35.2188l-16.2734 6.32422l-18.7158 82.3799q125.161 42.9932 239.85 90.4854z" />
    <glyph glyph-name="AEacute" unicode="&#x1fc;" horiz-adv-x="840" 
d="M840 146l-12 -146h-436l-5 107l-5 66l-171 -52l-1 -2l-34 -119h-196l276 647h520l11 -14l-13 -146l-149 6h-76l8 -114l169 54l14 -11l18 -138l-190 -55l5 -75h91l165 6zM369 322l-12 146h-12l-67 -174zM620 914l49 -117l-6 -16q-132 -42 -238 -69l-17 4l-30 79
q118 60 225 123z" />
    <glyph glyph-name="aeacute" unicode="&#x1fd;" horiz-adv-x="712" 
d="M671 219l-245 -14q5 -41 27.5 -58.5t70.5 -17.5q62 0 134 24l14 -10l-30 -134q-31 -10 -68 -15.5t-68 -5.5q-125 0 -185 72q-53 -46 -112 -71q-88 1 -141 40t-53 110q0 53 29.5 89.5t85.5 40.5l137 8v26q0 26 -10 36.5t-36 10.5q-55 0 -144 -48l-12 8l-21 125
q44 23 97.5 36t104.5 13q82 0 124 -35q54 34 126 34q92 0 143 -53.5t51 -150.5q0 -12 -2 -38zM441.5 338q-17.5 -19 -18.5 -50l97 9q1 7 1 18q0 22 -8.5 32t-27.5 10q-26 0 -43.5 -19zM278 144q-6 23 -9 49l-53 -5q-14 -2 -20 -9t-6 -21q0 -35 34 -35q22 0 54 21zM451 754
l69 -107l-3 -17q-142 -72 -223 -109l-17 1l-44 72q102 76 201 161z" />
    <glyph glyph-name="Oslashacute" unicode="&#x1fe;" horiz-adv-x="653" 
d="M636 340q0 -168 -84.5 -260t-239.5 -92q-29 0 -61 5l-64 -132l-124 47l-8 17l62 126q-49 41 -74.5 107.5t-25.5 153.5q0 166 84.5 256.5t239.5 90.5q38 0 72 -6l62 126l120 -46l12 -19l-62 -124q91 -85 91 -250zM389 149.5q20 13.5 28.5 48t8.5 99.5q0 82 -9 125
t-30.5 60t-63.5 17q-39 0 -59 -13.5t-28.5 -47.5t-8.5 -99q0 -83 9 -126t30.5 -60t63.5 -17q39 0 59 13.5zM440 917l49 -117l-6 -16q-132 -42 -238 -69l-17 4l-30 79q118 60 225 123z" />
    <glyph glyph-name="oslashacute" unicode="&#x1ff;" horiz-adv-x="497" 
d="M435 413q48 -58 48 -166q0 -128 -61.5 -193.5t-181.5 -65.5q-29 0 -61 5l-78 -128l-110 56l-4 16l74 122q-47 59 -47 164q0 129 61.5 195t181.5 66q30 0 60 -5l71 115l105 -55l9 -17zM283.5 121.5q9.5 7.5 13 28t3.5 61.5q0 60 -4.5 89.5t-16.5 41t-36 11.5
q-20 0 -30 -7.5t-13.5 -27.5t-3.5 -61q0 -61 4.5 -90.5t16.5 -41t37 -11.5q20 0 29.5 7.5zM343 754l69 -107l-3 -17q-142 -72 -223 -109l-17 1l-44 72q102 76 201 161z" />
    <glyph glyph-name="uni0200" unicode="&#x200;" horiz-adv-x="627" 
d="M617 0h-203l-18 107l-1 3l-98 2l-82 -4l-17 -108h-196l196 647h242zM365 256l-44 212h-12l-56 -212l56 -1zM245 711l-15 5q-63 55 -132 122l3 14l91 58l13 -4q40 -62 76 -115l23 -34zM414 711l-16 5q-68 59 -131 122l3 14l90 58l14 -4q31 -51 99 -149z" />
    <glyph glyph-name="uni0201" unicode="&#x201;" horiz-adv-x="503" 
d="M400 446.5q50 -37.5 50 -107.5q0 -20 -4 -106q-4 -76 -4 -85q0 -11 3.5 -16t10.5 -5t17 3l12 -10l-17 -100q-37 -26 -93 -30q-29 2 -51.5 20t-34.5 51h-7q-44 -51 -100 -72q-76 1 -121.5 42.5t-45.5 113.5q0 111 115 127l142 19v12q0 26 -10.5 37t-36.5 11
q-56 0 -145 -48l-12 8l-21 123q46 24 101.5 37t109.5 13q92 0 142 -37.5zM215 198q-14 -2 -20.5 -10.5t-6.5 -25.5q0 -40 37 -40q24 0 47 16v68zM147 759l-13 4l-90 -63l-3 -14q62 -73 145 -159l15 -5l58 46q-59 95 -112 191zM312 759l-13 4l-90 -63l-3 -14q62 -73 145 -159
l15 -5l58 46q-59 95 -112 191z" />
    <glyph glyph-name="uni0202" unicode="&#x202;" horiz-adv-x="627" 
d="M617 0h-203l-18 107l-1 3l-98 2l-82 -4l-17 -108h-196l196 647h242zM365 256l-44 212h-12l-56 -212l56 -1zM137 792q19 58 65 97t118 39q71 0 113.5 -39.5t59.5 -96.5l-45 -62h-26q-16 29 -45 46t-63 17t-62.5 -17t-43.5 -46h-26z" />
    <glyph glyph-name="uni0203" unicode="&#x203;" horiz-adv-x="503" 
d="M400 446.5q50 -37.5 50 -107.5q0 -20 -4 -106q-4 -76 -4 -85q0 -11 3.5 -16t10.5 -5t17 3l12 -10l-17 -100q-37 -26 -93 -30q-29 2 -51.5 20t-34.5 51h-7q-44 -51 -100 -72q-76 1 -121.5 42.5t-45.5 113.5q0 111 115 127l142 19v12q0 26 -10.5 37t-36.5 11
q-56 0 -145 -48l-12 8l-21 123q46 24 101.5 37t109.5 13q92 0 142 -37.5zM215 198q-14 -2 -20.5 -10.5t-6.5 -25.5q0 -40 37 -40q24 0 47 16v68zM68 617q19 58 65 97t118 39q71 0 113.5 -39.5t59.5 -96.5l-45 -62h-26q-16 29 -45 46t-63 17t-62.5 -17t-43.5 -46h-26z" />
    <glyph glyph-name="uni0204" unicode="&#x204;" horiz-adv-x="541" 
d="M517 160l11 -14l-12 -146h-456l10 190l-10 457h464l11 -14l-13 -146l-159 6h-103l-2 -91h99l104 3l11 -14l-12 -146l-116 3h-90l-1 -38l2 -56h96zM222 711l-15 5q-63 55 -132 122l3 14l91 58l13 -4q40 -62 76 -115l23 -34zM391 711l-16 5q-68 59 -131 122l3 14l90 58
l14 -4q31 -51 99 -149z" />
    <glyph glyph-name="uni0205" unicode="&#x205;" horiz-adv-x="485" 
d="M442 196l-248 -2q9 -35 34 -51.5t69 -16.5q49 0 143 25l14 -10l-30 -132q-79 -21 -147 -21q-124 0 -193.5 66t-69.5 182q0 115 66 181t181 66q99 0 153.5 -52t54.5 -145q0 -30 -6 -65zM304 306q0 53 -45 53q-55 0 -67 -71l110 4zM153 758l-13 4l-90 -63l-3 -14
q62 -73 145 -159l15 -5l58 46q-59 95 -112 191zM318 758l-13 4l-90 -63l-3 -14q62 -73 145 -159l15 -5l58 46q-59 95 -112 191z" />
    <glyph glyph-name="uni0206" unicode="&#x206;" horiz-adv-x="541" 
d="M517 160l11 -14l-12 -146h-456l10 190l-10 457h464l11 -14l-13 -146l-159 6h-103l-2 -91h99l104 3l11 -14l-12 -146l-116 3h-90l-1 -38l2 -56h96zM114 792q19 58 65 97t118 39q71 0 113.5 -39.5t59.5 -96.5l-45 -62h-26q-16 29 -45 46t-63 17t-62.5 -17t-43.5 -46h-26z
" />
    <glyph glyph-name="uni0207" unicode="&#x207;" horiz-adv-x="485" 
d="M442 196l-248 -2q9 -35 34 -51.5t69 -16.5q49 0 143 25l14 -10l-30 -132q-79 -21 -147 -21q-124 0 -193.5 66t-69.5 182q0 115 66 181t181 66q99 0 153.5 -52t54.5 -145q0 -30 -6 -65zM304 306q0 53 -45 53q-55 0 -67 -71l110 4zM74 616q19 58 65 97t118 39
q71 0 113.5 -39.5t59.5 -96.5l-45 -62h-26q-16 29 -45 46t-63 17t-62.5 -17t-43.5 -46h-26z" />
    <glyph glyph-name="uni0208" unicode="&#x208;" horiz-adv-x="327" 
d="M253 210l8 -210h-201l10 190l-10 457h204zM92 711l-15 5q-63 55 -132 122l3 14l91 58l13 -4q40 -62 76 -115l23 -34zM261 711l-16 5q-68 59 -131 122l3 14l90 58l14 -4q31 -51 99 -149z" />
    <glyph glyph-name="uni0209" unicode="&#x209;" horiz-adv-x="284" 
d="M52 190l-7 271l194 13l-9 -264l8 -210h-195zM42 759l-13 4l-90 -63l-3 -14q62 -73 145 -159l15 -5l58 46q-59 95 -112 191zM207 759l-13 4l-90 -63l-3 -14q62 -73 145 -159l15 -5l58 46q-59 95 -112 191z" />
    <glyph glyph-name="uni020A" unicode="&#x20a;" horiz-adv-x="327" 
d="M253 210l8 -210h-201l10 190l-10 457h204zM-16 792q19 58 65 97t118 39q71 0 113.5 -39.5t59.5 -96.5l-45 -62h-26q-16 29 -45 46t-63 17t-62.5 -17t-43.5 -46h-26z" />
    <glyph glyph-name="uni020B" unicode="&#x20b;" horiz-adv-x="284" 
d="M52 190l-7 271l194 13l-9 -264l8 -210h-195zM-37 617q19 58 65 97t118 39q71 0 113.5 -39.5t59.5 -96.5l-45 -62h-26q-16 29 -45 46t-63 17t-62.5 -17t-43.5 -46h-26z" />
    <glyph glyph-name="uni020C" unicode="&#x20c;" horiz-adv-x="653" 
d="M559 575.5q77 -83.5 77 -235.5q0 -168 -84.5 -260t-239.5 -92q-141 0 -218 84.5t-77 239.5q0 166 84.5 256.5t239.5 90.5q141 0 218 -83.5zM264 485.5q-20 -13.5 -28.5 -47.5t-8.5 -99q0 -83 9 -126t30.5 -60t63.5 -17q39 0 59 13.5t28.5 48t8.5 99.5q0 82 -9 125
t-30.5 60t-63.5 17q-39 0 -59 -13.5zM257 711l-15 5q-63 55 -132 122l3 14l91 58l13 -4q40 -62 76 -115l23 -34zM426 711l-16 5q-68 59 -131 122l3 14l90 58l14 -4q31 -51 99 -149z" />
    <glyph glyph-name="uni020D" unicode="&#x20d;" horiz-adv-x="497" 
d="M426 424q57 -60 57 -177q0 -128 -61.5 -193.5t-181.5 -65.5q-112 0 -169 59.5t-57 175.5q0 129 61.5 195t181.5 66q112 0 169 -60zM213 345.5q-10 -7.5 -13.5 -27.5t-3.5 -61q0 -61 4.5 -90.5t16.5 -41t37 -11.5q20 0 29.5 7.5t13 28t3.5 61.5q0 60 -4.5 89.5t-16.5 41
t-36 11.5q-20 0 -30 -7.5zM152 759l-13 4l-90 -63l-3 -14q62 -73 145 -159l15 -5l58 46q-59 95 -112 191zM317 759l-13 4l-90 -63l-3 -14q62 -73 145 -159l15 -5l58 46q-59 95 -112 191z" />
    <glyph glyph-name="uni020E" unicode="&#x20e;" horiz-adv-x="653" 
d="M559 575.5q77 -83.5 77 -235.5q0 -168 -84.5 -260t-239.5 -92q-141 0 -218 84.5t-77 239.5q0 166 84.5 256.5t239.5 90.5q141 0 218 -83.5zM264 485.5q-20 -13.5 -28.5 -47.5t-8.5 -99q0 -83 9 -126t30.5 -60t63.5 -17q39 0 59 13.5t28.5 48t8.5 99.5q0 82 -9 125
t-30.5 60t-63.5 17q-39 0 -59 -13.5zM149 792q19 58 65 97t118 39q71 0 113.5 -39.5t59.5 -96.5l-45 -62h-26q-16 29 -45 46t-63 17t-62.5 -17t-43.5 -46h-26z" />
    <glyph glyph-name="uni020F" unicode="&#x20f;" horiz-adv-x="497" 
d="M426 424q57 -60 57 -177q0 -128 -61.5 -193.5t-181.5 -65.5q-112 0 -169 59.5t-57 175.5q0 129 61.5 195t181.5 66q112 0 169 -60zM213 345.5q-10 -7.5 -13.5 -27.5t-3.5 -61q0 -61 4.5 -90.5t16.5 -41t37 -11.5q20 0 29.5 7.5t13 28t3.5 61.5q0 60 -4.5 89.5t-16.5 41
t-36 11.5q-20 0 -30 -7.5zM73 617q19 58 65 97t118 39q71 0 113.5 -39.5t59.5 -96.5l-45 -62h-26q-16 29 -45 46t-63 17t-62.5 -17t-43.5 -46h-26z" />
    <glyph glyph-name="uni0210" unicode="&#x210;" horiz-adv-x="631" 
d="M630 47l-3 -22q-102 -31 -201 -37l-19 16l-12 25q-8 16 -32 67.5t-42 96.5h-67l7 -193h-201l10 190l-10 457l307 1q109 0 168 -51.5t59 -148.5q0 -57 -28.5 -107t-79.5 -86q72 -112 144 -208zM362.5 487.5q-20.5 19.5 -66.5 21.5l-36 -3l-4 -167l73 -4q28 13 41 35t13 58
q0 40 -20.5 59.5zM246 711l-15 5q-63 55 -132 122l3 14l91 58l13 -4q40 -62 76 -115l23 -34zM415 711l-16 5q-68 59 -131 122l3 14l90 58l14 -4q31 -51 99 -149z" />
    <glyph glyph-name="uni0211" unicode="&#x211;" horiz-adv-x="376" 
d="M374 471v-175l-19 -6q-13 8 -36 8q-22 0 -46.5 -10t-45.5 -28v-50l8 -210h-195l9 190l-7 271l185 13v-88h9q43 87 115 87q13 0 23 -2zM113 759l-13 4l-90 -63l-3 -14q62 -73 145 -159l15 -5l58 46q-59 95 -112 191zM278 759l-13 4l-90 -63l-3 -14q62 -73 145 -159l15 -5
l58 46q-59 95 -112 191z" />
    <glyph glyph-name="uni0212" unicode="&#x212;" horiz-adv-x="631" 
d="M630 47l-3 -22q-102 -31 -201 -37l-19 16l-12 25q-8 16 -32 67.5t-42 96.5h-67l7 -193h-201l10 190l-10 457l307 1q109 0 168 -51.5t59 -148.5q0 -57 -28.5 -107t-79.5 -86q72 -112 144 -208zM362.5 487.5q-20.5 19.5 -66.5 21.5l-36 -3l-4 -167l73 -4q28 13 41 35t13 58
q0 40 -20.5 59.5zM138 792q19 58 65 97t118 39q71 0 113.5 -39.5t59.5 -96.5l-45 -62h-26q-16 29 -45 46t-63 17t-62.5 -17t-43.5 -46h-26z" />
    <glyph glyph-name="uni0213" unicode="&#x213;" horiz-adv-x="376" 
d="M374 471v-175l-19 -6q-13 8 -36 8q-22 0 -46.5 -10t-45.5 -28v-50l8 -210h-195l9 190l-7 271l185 13v-88h9q43 87 115 87q13 0 23 -2zM34 617q19 58 65 97t118 39q71 0 113.5 -39.5t59.5 -96.5l-45 -62h-26q-16 29 -45 46t-63 17t-62.5 -17t-43.5 -46h-26z" />
    <glyph glyph-name="uni0214" unicode="&#x214;" horiz-adv-x="653" 
d="M600 319l-1 -103q-1 -110 -74 -169t-209 -59q-131 0 -200.5 59t-66.5 169l3 103l-6 328h201l-9 -404q-1 -51 19.5 -74t66.5 -23q47 0 68 23t20 74l-9 404h204zM257 711l-15 5q-63 55 -132 122l3 14l91 58l13 -4q40 -62 76 -115l23 -34zM426 711l-16 5q-68 59 -131 122
l3 14l90 58l14 -4q31 -51 99 -149z" />
    <glyph glyph-name="uni0215" unicode="&#x215;" horiz-adv-x="536" 
d="M524 120l-17 -100q-48 -31 -100 -30q-58 12 -84 84h-12q-28 -31 -55 -50.5t-60 -29.5q-74 0 -114.5 34t-40.5 98l3 103l-6 232l185 13v-271q0 -30 10 -42.5t31 -12.5q13 0 22.5 3.5t20.5 11.5v298l185 13l-11 -326q0 -11 3.5 -16t10.5 -5t17 3zM164 759l-13 4l-90 -63
l-3 -14q62 -73 145 -159l15 -5l58 46q-59 95 -112 191zM329 759l-13 4l-90 -63l-3 -14q62 -73 145 -159l15 -5l58 46q-59 95 -112 191z" />
    <glyph glyph-name="uni0216" unicode="&#x216;" horiz-adv-x="653" 
d="M600 319l-1 -103q-1 -110 -74 -169t-209 -59q-131 0 -200.5 59t-66.5 169l3 103l-6 328h201l-9 -404q-1 -51 19.5 -74t66.5 -23q47 0 68 23t20 74l-9 404h204zM149 792q19 58 65 97t118 39q71 0 113.5 -39.5t59.5 -96.5l-45 -62h-26q-16 29 -45 46t-63 17t-62.5 -17
t-43.5 -46h-26z" />
    <glyph glyph-name="uni0217" unicode="&#x217;" horiz-adv-x="536" 
d="M524 120l-17 -100q-48 -31 -100 -30q-58 12 -84 84h-12q-28 -31 -55 -50.5t-60 -29.5q-74 0 -114.5 34t-40.5 98l3 103l-6 232l185 13v-271q0 -30 10 -42.5t31 -12.5q13 0 22.5 3.5t20.5 11.5v298l185 13l-11 -326q0 -11 3.5 -16t10.5 -5t17 3zM85 617q19 58 65 97
t118 39q71 0 113.5 -39.5t59.5 -96.5l-45 -62h-26q-16 29 -45 46t-63 17t-62.5 -17t-43.5 -46h-26z" />
    <glyph glyph-name="Scommaaccent" unicode="&#x218;" horiz-adv-x="528" 
d="M493 624l-32 -163l-28 -12q-42 26 -83 41t-66 15q-23 0 -36.5 -9t-13.5 -24q0 -19 20.5 -32.5t68.5 -35.5q56 -25 92 -46.5t63 -59t27 -92.5q0 -61 -33.5 -110.5t-95.5 -78.5t-144 -29q-102 0 -214 38l29 174l20 12q46 -35 98.5 -55.5t87.5 -20.5q28 0 40.5 9.5
t12.5 23.5q0 21 -21.5 35.5t-69.5 35.5q-55 24 -90.5 45.5t-61.5 59t-26 92.5q0 63 34 113.5t95 79.5t139 29q95 0 188 -35zM337 -67q10 -22 10 -49q0 -50 -31.5 -95.5t-98.5 -92.5l-52 46l-2 12q48 42 48 93q0 36 -28 64v14q61 35 123 50q21 -20 31 -42z" />
    <glyph glyph-name="scommaaccent" unicode="&#x219;" horiz-adv-x="402" 
d="M380 458l-25 -135l-22 -7q-34 21 -69 33.5t-55 12.5q-26 0 -26 -18q0 -13 15 -22t49 -21q43 -16 71 -31t49 -43.5t21 -72.5t-22 -81.5t-70 -61t-121 -23.5q-82 0 -168 26l23 143l16 12q37 -29 80.5 -46t72.5 -17q28 0 28 19q0 13 -15 22t-49 21q-43 16 -71.5 31
t-49.5 43.5t-21 73.5q0 47 25 85t72.5 60t113.5 22q73 0 148 -25zM283 -67q10 -22 10 -49q0 -50 -31.5 -95.5t-98.5 -92.5l-52 46l-2 12q48 42 48 93q0 36 -28 64v14q61 35 123 50q21 -20 31 -42z" />
    <glyph glyph-name="uni021A" unicode="&#x21a;" horiz-adv-x="519" 
d="M513 633l-11 -146l-132 6h-12l-5 -283l8 -210h-200l10 190l-5 303h-13l-133 -6l-12 14l11 146h483zM343 -67q10 -22 10 -49q0 -50 -31.5 -95.5t-98.5 -92.5l-52 46l-2 12q48 42 48 93q0 36 -28 64v14q61 35 123 50q21 -20 31 -42z" />
    <glyph glyph-name="uni021B" unicode="&#x21b;" horiz-adv-x="361" 
d="M340 154l12 -15l-18 -108q-21 -13 -50 -23.5t-56 -14.5q-79 0 -124 36t-45 96l6 104l-1 125h-62l-5 10l8 103h59l-1 85l181 48l12 -11l-5 -122h98l5 -10l-8 -103h-99l-6 -169q0 -24 8.5 -33.5t30.5 -9.5q26 0 60 12zM293 -67q10 -22 10 -49q0 -50 -31.5 -95.5
t-98.5 -92.5l-52 46l-2 12q48 42 48 93q0 36 -28 64v14q61 35 123 50q21 -20 31 -42z" />
    <glyph glyph-name="uni022A" unicode="&#x22a;" horiz-adv-x="653" 
d="M559 575.5q77 -83.5 77 -235.5q0 -168 -84.5 -260t-239.5 -92q-141 0 -218 84.5t-77 239.5q0 166 84.5 256.5t239.5 90.5q141 0 218 -83.5zM264 485.5q-20 -13.5 -28.5 -47.5t-8.5 -99q0 -83 9 -126t30.5 -60t63.5 -17q39 0 59 13.5t28.5 48t8.5 99.5q0 82 -9 125
t-30.5 60t-63.5 17q-39 0 -59 -13.5zM491 1026l-10 -107h-303l-13 13l10 107h303zM294 850.5q21 -21.5 21 -60.5q0 -42 -23.5 -66.5t-63.5 -24.5t-61 21.5t-21 61.5q0 41 24 65.5t65 24.5q38 0 59 -21.5zM487 850.5q21 -21.5 21 -60.5q0 -42 -23.5 -66.5t-63.5 -24.5
t-61 21.5t-21 61.5q0 41 24 65.5t65 24.5q38 0 59 -21.5z" />
    <glyph glyph-name="uni022B" unicode="&#x22b;" horiz-adv-x="497" 
d="M426 424q57 -60 57 -177q0 -128 -61.5 -193.5t-181.5 -65.5q-112 0 -169 59.5t-57 175.5q0 129 61.5 195t181.5 66q112 0 169 -60zM213 345.5q-10 -7.5 -13.5 -27.5t-3.5 -61q0 -61 4.5 -90.5t16.5 -41t37 -11.5q20 0 29.5 7.5t13 28t3.5 61.5q0 60 -4.5 89.5t-16.5 41
t-36 11.5q-20 0 -30 -7.5zM415 851l-10 -107h-303l-13 13l10 107h303zM218 675.5q21 -21.5 21 -60.5q0 -42 -23.5 -66.5t-63.5 -24.5t-61 21.5t-21 61.5q0 41 24 65.5t65 24.5q38 0 59 -21.5zM411 675.5q21 -21.5 21 -60.5q0 -42 -23.5 -66.5t-63.5 -24.5t-61 21.5t-21 61.5
q0 41 24 65.5t65 24.5q38 0 59 -21.5z" />
    <glyph glyph-name="uni022C" unicode="&#x22c;" horiz-adv-x="653" 
d="M559 575.5q77 -83.5 77 -235.5q0 -168 -84.5 -260t-239.5 -92q-141 0 -218 84.5t-77 239.5q0 166 84.5 256.5t239.5 90.5q141 0 218 -83.5zM264 485.5q-20 -13.5 -28.5 -47.5t-8.5 -99q0 -83 9 -126t30.5 -60t63.5 -17q39 0 59 13.5t28.5 48t8.5 99.5q0 82 -9 125
t-30.5 60t-63.5 17q-39 0 -59 -13.5zM498 848v-16l-72 -111l-15 -6q-22 4 -72 19q-41 13 -51 13q-17 0 -29 -13.5t-31 -42.5h-16l-56 55v16l72 111l15 6q22 -4 72 -19q41 -13 51 -13q17 0 29 13.5t31 42.5h16zM455 1051l-9 -107h-236l-12 13l9 107h236z" />
    <glyph glyph-name="uni022D" unicode="&#x22d;" horiz-adv-x="497" 
d="M426 424q57 -60 57 -177q0 -128 -61.5 -193.5t-181.5 -65.5q-112 0 -169 59.5t-57 175.5q0 129 61.5 195t181.5 66q112 0 169 -60zM213 345.5q-10 -7.5 -13.5 -27.5t-3.5 -61q0 -61 4.5 -90.5t16.5 -41t37 -11.5q20 0 29.5 7.5t13 28t3.5 61.5q0 60 -4.5 89.5t-16.5 41
t-36 11.5q-20 0 -30 -7.5zM422 673v-16l-72 -111l-15 -6q-22 4 -72 19q-41 13 -51 13q-17 0 -29 -13.5t-31 -42.5h-16l-56 55v16l72 111l15 6q22 -4 72 -19q41 -13 51 -13q17 0 29 13.5t31 42.5h16zM379 876l-9 -107h-236l-12 13l9 107h236z" />
    <glyph glyph-name="uni0230" unicode="&#x230;" horiz-adv-x="653" 
d="M559 575.5q77 -83.5 77 -235.5q0 -168 -84.5 -260t-239.5 -92q-141 0 -218 84.5t-77 239.5q0 166 84.5 256.5t239.5 90.5q141 0 218 -83.5zM264 485.5q-20 -13.5 -28.5 -47.5t-8.5 -99q0 -83 9 -126t30.5 -60t63.5 -17q39 0 59 13.5t28.5 48t8.5 99.5q0 82 -9 125
t-30.5 60t-63.5 17q-39 0 -59 -13.5zM399.5 870q24.5 -25 24.5 -70q0 -48 -27 -76t-74 -28q-46 0 -70 24.5t-24 70.5q0 48 27.5 76t74.5 28q44 0 68.5 -25zM455 1031l-9 -107h-236l-12 13l9 107h236z" />
    <glyph glyph-name="uni0231" unicode="&#x231;" horiz-adv-x="497" 
d="M426 424q57 -60 57 -177q0 -128 -61.5 -193.5t-181.5 -65.5q-112 0 -169 59.5t-57 175.5q0 129 61.5 195t181.5 66q112 0 169 -60zM213 345.5q-10 -7.5 -13.5 -27.5t-3.5 -61q0 -61 4.5 -90.5t16.5 -41t37 -11.5q20 0 29.5 7.5t13 28t3.5 61.5q0 60 -4.5 89.5t-16.5 41
t-36 11.5q-20 0 -30 -7.5zM323.5 695q24.5 -25 24.5 -70q0 -48 -27 -76t-74 -28q-46 0 -70 24.5t-24 70.5q0 48 27.5 76t74.5 28q44 0 68.5 -25zM379 856l-9 -107h-236l-12 13l9 107h236z" />
    <glyph glyph-name="uni0232" unicode="&#x232;" horiz-adv-x="594" 
d="M382 170l8 -170h-200l10 170l-1 31l-207 446h210l16 -54l73 -195h12l84 188l23 61h204l-230 -439zM445 853l-9 -107h-276l-12 13l9 107h276z" />
    <glyph glyph-name="uni0233" unicode="&#x233;" horiz-adv-x="471" 
d="M190 386l51 -197h10l47 179l19 104h164l-138 -423q-23 -69 -55 -113.5t-81 -75t-127 -54.5l-13 2q-50 47 -85 116l7 17q92 14 170 59l-171 469l186 7zM391 678l-9 -107h-276l-12 13l9 107h276z" />
    <glyph glyph-name="uni0237" unicode="&#x237;" horiz-adv-x="306" 
d="M263 472l-9 -262l7 -175q0 -80 -46 -136.5t-143 -95.5l-65 86v16q35 19 52 49.5t17 76.5v159l-4 164h-64l-10 11l8 102h71l181 9z" />
    <glyph glyph-name="uni0259" unicode="&#x259;" horiz-adv-x="485" 
d="M401.5 418q69.5 -66 69.5 -182q0 -115 -66 -181t-181 -66q-99 0 -153.5 52t-54.5 145q0 31 6 65l21 25l248 2q-9 35 -34 51.5t-69 16.5q-49 0 -143 -25l-14 10l30 132q79 21 147 21q124 0 193.5 -66zM293 184l-110 -4l-2 -14q0 -53 45 -53q55 0 67 71z" />
    <glyph glyph-name="uni02B0" unicode="&#x2b0;" horiz-adv-x="398" 
d="M225 322l8 180q0 40 -33 40q-17 0 -33 -8l-1 -67l6 -145h-139l6 131l-4 342l137 9l-4 -204h4q37 35 82 50q53 0 81 -23t26 -66l-3 -94l6 -145h-139z" />
    <glyph glyph-name="uni02B2" unicode="&#x2b2;" horiz-adv-x="235" 
d="M167.5 807q17.5 -18 17.5 -50q0 -34 -19.5 -54t-52.5 -20t-50.5 18t-17.5 50q0 34 20 54t53 20q32 0 49.5 -18zM195 646l-7 -179l6 -120q0 -56 -33 -95t-103 -65l-46 61v11q25 13 37 33.5t12 51.5v109l-1 88l-48 -2l-7 8l7 96h50l129 6z" />
    <glyph glyph-name="uni02B7" unicode="&#x2b7;" horiz-adv-x="511" 
d="M138 587l19 -127h6l26 118l11 68h137l6 -59l20 -126h8l22 117l13 68h116l-97 -324h-132l-29 153h-9l-33 -153h-138l-80 323l127 4z" />
    <glyph glyph-name="uni02B8" unicode="&#x2b8;" horiz-adv-x="324" 
d="M128 587l37 -131h7l33 118l13 72h117l-98 -288q-22 -68 -61.5 -104t-124.5 -65l-10 1q-32 31 -60 83l5 12q65 9 121 37l-122 323l132 4z" />
    <glyph glyph-name="uni02B9" unicode="&#x2b9;" horiz-adv-x="250" 
d="M214 634l-48 -262l-88 -14l-15 11l-10 268l151 9z" />
    <glyph glyph-name="uni02BB" unicode="&#x2bb;" horiz-adv-x="253" 
d="M49.5 391q-14.5 28 -14.5 67q0 49 28 97.5t86 102.5l65 -42l3 -12q-39 -43 -39 -88q0 -30 9.5 -50.5t32.5 -37.5v-15q-66 -49 -125 -71q-31 21 -45.5 49z" />
    <glyph glyph-name="uni02BC" unicode="&#x2bc;" horiz-adv-x="253" 
d="M204.5 610q14.5 -28 14.5 -67q0 -49 -28 -97.5t-86 -102.5l-65 42l-3 12q39 44 39 88q0 30 -9.5 50.5t-32.5 37.5v15q66 49 125 71q31 -21 45.5 -49z" />
    <glyph glyph-name="uni02BE" unicode="&#x2be;" horiz-adv-x="205" 
d="M40 484q5 -1 15 -1q19 0 27.5 8.5t8.5 26.5q0 22 -10.5 30t-40.5 8v90q74 0 105.5 -28t31.5 -92q0 -131 -137 -131v89z" />
    <glyph glyph-name="uni02BF" unicode="&#x2bf;" horiz-adv-x="206" 
d="M165 557q-5 1 -15 1q-19 0 -27.5 -8.5t-8.5 -26.5q0 -22 10.5 -30t40.5 -8v-90q-74 0 -105.5 28t-31.5 92q0 131 137 131v-89z" />
    <glyph glyph-name="circumflex" unicode="&#x2c6;" horiz-adv-x="388" 
d="M13 602q69 58 163 150h34q70 -70 163 -150l-47 -72h-18q-76 48 -115 78q-39 -30 -115 -78h-18z" />
    <glyph glyph-name="caron" unicode="&#x2c7;" horiz-adv-x="388" 
d="M373 676q-69 -58 -163 -150h-34q-70 70 -163 150l47 72h18q76 -48 115 -78q39 30 115 78h18z" />
    <glyph glyph-name="uni02C8" unicode="&#x2c8;" horiz-adv-x="234" 
d="M47 656h140v-184h-140v184z" />
    <glyph glyph-name="uni02C9" unicode="&#x2c9;" horiz-adv-x="388" 
d="M343 678l-9 -107h-276l-12 13l9 107h276z" />
    <glyph glyph-name="uni02CA" unicode="&#x2ca;" horiz-adv-x="388" 
d="M269 754l69 -107l-3 -17q-142 -72 -223 -109l-17 1l-44 72q102 76 201 161z" />
    <glyph glyph-name="uni02CB" unicode="&#x2cb;" horiz-adv-x="388" 
d="M338 594l-44 -72l-17 -1q-81 37 -223 109l-3 17l69 107l17 1q99 -85 201 -161z" />
    <glyph glyph-name="uni02CC" unicode="&#x2cc;" horiz-adv-x="234" 
d="M47 -46h140v-184h-140v184z" />
    <glyph glyph-name="breve" unicode="&#x2d8;" horiz-adv-x="388" 
d="M372 671q-19 -58 -65 -97t-118 -39q-71 0 -113.5 39.5t-59.5 96.5l45 62h26q16 -29 45 -46t63 -17t62.5 17t43.5 46h26z" />
    <glyph glyph-name="dotaccent" unicode="&#x2d9;" horiz-adv-x="269" 
d="M207.5 703q24.5 -25 24.5 -70q0 -48 -27 -76t-74 -28q-46 0 -70 24.5t-24 70.5q0 48 27.5 76t74.5 28q44 0 68.5 -25z" />
    <glyph glyph-name="ring" unicode="&#x2da;" horiz-adv-x="388" 
d="M304 652q0 -55 -29 -84.5t-85 -29.5q-106 0 -106 107q0 55 29 83t85 28q106 0 106 -104zM166.5 671.5q-7.5 -6.5 -7.5 -23.5q0 -19 8 -26.5t28 -7.5q19 0 26.5 7t7.5 24q0 18 -8 25.5t-28 7.5q-19 0 -26.5 -6.5z" />
    <glyph glyph-name="ogonek" unicode="&#x2db;" horiz-adv-x="271" 
d="M50.5 -170.5q-33.5 26.5 -33.5 71.5q0 36 27 70t100 72h95q-65 -59 -86.5 -82.5t-21.5 -36.5q0 -17 22 -17q27 0 71 19l9 -3l20 -84q-59 -36 -114 -36t-88.5 26.5z" />
    <glyph glyph-name="tilde" unicode="&#x2dc;" horiz-adv-x="388" 
d="M389 686v-16l-81 -113l-16 -6q-27 3 -86 20q-8 2 -32.5 8t-34.5 6q-17 0 -30 -13t-39 -45h-16l-57 55v16l81 113l16 6q27 -3 86 -20q8 -2 32.5 -8t34.5 -6q17 0 30 13t39 45h16z" />
    <glyph glyph-name="hungarumlaut" unicode="&#x2dd;" horiz-adv-x="388" 
d="M115 759l13 4l90 -63l3 -14q-62 -73 -145 -159l-15 -5l-58 46q59 95 112 191zM280 759l13 4l90 -63l3 -14q-62 -73 -145 -159l-15 -5l-58 46q59 95 112 191z" />
    <glyph glyph-name="uni02E1" unicode="&#x2e1;" horiz-adv-x="205" 
d="M166 467l5 -145h-138l6 131l-5 342l137 9z" />
    <glyph glyph-name="uni02E2" unicode="&#x2e2;" horiz-adv-x="290" 
d="M271 637l-18 -95l-16 -5q-24 14 -48.5 22.5t-38.5 8.5q-18 0 -18 -10q0 -9 9.5 -14t34.5 -14q46 -15 73 -36t27 -65q0 -48 -37 -81.5t-110 -33.5q-59 0 -121 17l16 102l11 9q27 -20 57 -32.5t51 -12.5q19 0 19 10q0 9 -10 14.5t-34 14.5q-46 16 -73 37t-27 65
q0 51 39.5 83.5t108.5 32.5q48 0 105 -17z" />
    <glyph glyph-name="uni02E3" unicode="&#x2e3;" horiz-adv-x="348" 
d="M163 601l22 -40l26 47l19 38h119l-90 -160l90 -160l-146 -10l-18 51l-21 41l-27 -47l-17 -39h-120l88 161l-89 161l148 4z" />
    <glyph glyph-name="gravecomb" unicode="&#x300;" 
d="M-50 594l-44 -72l-17 -1q-81 37 -223 109l-3 17l69 107l17 1q99 -85 201 -161z" />
    <glyph glyph-name="acutecomb" unicode="&#x301;" 
d="M-119 754l69 -107l-3 -17q-142 -72 -223 -109l-17 1l-44 72q102 76 201 161z" />
    <glyph glyph-name="uni0302" unicode="&#x302;" 
d="M-375 602q69 58 163 150h34q70 -70 163 -150l-47 -72h-18q-76 48 -115 78q-39 -30 -115 -78h-18z" />
    <glyph glyph-name="tildecomb" unicode="&#x303;" 
d="M1 686v-16l-81 -113l-16 -6q-27 3 -86 20q-8 2 -32.5 8t-34.5 6q-17 0 -30 -13t-39 -45h-16l-57 55v16l81 113l16 6q27 -3 86 -20q8 -2 32.5 -8t34.5 -6q17 0 30 13t39 45h16z" />
    <glyph glyph-name="uni0304" unicode="&#x304;" 
d="M-45 678l-9 -107h-276l-12 13l9 107h276z" />
    <glyph glyph-name="uni0306" unicode="&#x306;" 
d="M-16 671q-19 -58 -65 -97t-118 -39q-71 0 -113.5 39.5t-59.5 96.5l45 62h26q16 -29 45 -46t63 -17t62.5 17t43.5 46h26z" />
    <glyph glyph-name="uni0307" unicode="&#x307;" 
d="M-61.5 703q24.5 -25 24.5 -70q0 -48 -27 -76t-74 -28q-46 0 -70 24.5t-24 70.5q0 48 27.5 76t74.5 28q44 0 68.5 -25z" />
    <glyph glyph-name="uni0308" unicode="&#x308;" 
d="M-226.5 695.5q21.5 -21.5 21.5 -60.5q0 -42 -23.5 -66.5t-64.5 -24.5q-40 0 -61 21.5t-21 61.5q0 42 24 66t65 24q38 0 59.5 -21.5zM-33.5 695.5q21.5 -21.5 21.5 -60.5q0 -42 -23.5 -66.5t-64.5 -24.5q-40 0 -61 21.5t-21 61.5q0 42 24 66t65 24q38 0 59.5 -21.5z" />
    <glyph glyph-name="hookabovecomb" unicode="&#x309;" 
d="M-170 581q25 18 39.5 39t14.5 37q0 12 -8 18t-22 6q-16 0 -35 -7t-35 -19l-29 47q26 28 59.5 44.5t67.5 16.5q43 0 71.5 -24.5t28.5 -63.5q0 -22 -13 -41t-48 -51l27 -43l-64 -39z" />
    <glyph glyph-name="uni030A" unicode="&#x30a;" 
d="M-84 652q0 -55 -29 -84.5t-85 -29.5q-106 0 -106 107q0 55 29 83t85 28q106 0 106 -104zM-221.5 671.5q-7.5 -6.5 -7.5 -23.5q0 -19 8 -26.5t28 -7.5q19 0 26.5 7t7.5 24q0 18 -8 25.5t-28 7.5q-19 0 -26.5 -6.5z" />
    <glyph glyph-name="uni030B" unicode="&#x30b;" 
d="M-273 759l13 4l90 -63l3 -14q-62 -73 -145 -159l-15 -5l-58 46q59 95 112 191zM-108 759l13 4l90 -63l3 -14q-62 -73 -145 -159l-15 -5l-58 46q59 95 112 191z" />
    <glyph glyph-name="uni030C" unicode="&#x30c;" 
d="M-15 676q-69 -58 -163 -150h-34q-70 70 -163 150l47 72h18q76 -48 115 -78q39 30 115 78h18z" />
    <glyph glyph-name="uni030F" unicode="&#x30f;" 
d="M-280 759l-13 4l-90 -63l-3 -14q62 -73 145 -159l15 -5l58 46q-59 95 -112 191zM-115 759l-13 4l-90 -63l-3 -14q62 -73 145 -159l15 -5l58 46q-59 95 -112 191z" />
    <glyph glyph-name="uni0311" unicode="&#x311;" 
d="M-372 617q19 58 65 97t118 39q71 0 113.5 -39.5t59.5 -96.5l-45 -62h-26q-16 29 -45 46t-63 17t-62.5 -17t-43.5 -46h-26z" />
    <glyph glyph-name="uni0312" unicode="&#x312;" 
d="M-203.5 391q-14.5 28 -14.5 67q0 49 28 97.5t86 102.5l65 -42l3 -12q-39 -43 -39 -88q0 -30 9.5 -50.5t32.5 -37.5v-15q-66 -49 -125 -71q-31 21 -45.5 49z" />
    <glyph glyph-name="uni031B" unicode="&#x31b;" 
d="M-219 472q23 0 34.5 12t11.5 33q0 17 -7.5 33.5t-21.5 28.5l3 14q51 37 93 37q37 0 60.5 -29t23.5 -74q0 -67 -54.5 -109t-142.5 -42v96z" />
    <glyph glyph-name="dotbelowcomb" unicode="&#x323;" 
d="M-45.5 -57q24.5 -25 24.5 -70q0 -48 -27 -76t-74 -28q-46 0 -70 24.5t-24 70.5q0 48 27.5 76t74.5 28q44 0 68.5 -25z" />
    <glyph glyph-name="uni0324" unicode="&#x324;" 
d="M-226.5 -64.5q21.5 -21.5 21.5 -60.5q0 -42 -23.5 -66.5t-64.5 -24.5q-40 0 -61 21.5t-21 61.5q0 42 24 66t65 24q38 0 59.5 -21.5zM-33.5 -64.5q21.5 -21.5 21.5 -60.5q0 -42 -23.5 -66.5t-64.5 -24.5q-40 0 -61 21.5t-21 61.5q0 42 24 66t65 24q38 0 59.5 -21.5z" />
    <glyph glyph-name="uni0326" unicode="&#x326;" 
d="M-29 -67q10 -22 10 -49q0 -50 -31.5 -95.5t-98.5 -92.5l-52 46l-2 12q48 42 48 93q0 36 -28 64v14q61 35 123 50q21 -20 31 -42z" />
    <glyph glyph-name="uni0327" unicode="&#x327;" 
d="M-166 -43l34 -19q24 -13 34 -28.5t10 -34.5q0 -37 -29.5 -60.5t-80.5 -23.5q-49 0 -92 24l11 75l8 3q15 -13 32 -20.5t28 -7.5q16 0 16 14q0 9 -12 15l-50 27l22 112h83z" />
    <glyph glyph-name="uni0328" unicode="&#x328;" 
d="M-220.5 -170.5q-33.5 26.5 -33.5 71.5q0 36 27 70t100 72h95q-65 -59 -86.5 -82.5t-21.5 -36.5q0 -17 22 -17q27 0 71 19l9 -3l20 -84q-59 -36 -114 -36t-88.5 26.5z" />
    <glyph glyph-name="uni032E" unicode="&#x32e;" 
d="M-12 -111q-19 -58 -65 -97t-118 -39q-71 0 -113.5 39.5t-59.5 96.5l45 62h26q16 -29 45 -46t63 -17t62.5 17t43.5 46h26z" />
    <glyph glyph-name="uni0331" unicode="&#x331;" 
d="M-45 -77l-9 -107h-256l-12 13l9 107h256z" />
    <glyph glyph-name="uni0335" unicode="&#x335;" 
d="M-38 297l-5 -91h-421l-8 10l6 91h420z" />
    <glyph glyph-name="uni0342" unicode="&#x342;" 
d="M1 686v-16l-74 -113l-15 -6q-17 3 -76 20q-40 14 -53 14q-17 0 -29.5 -14t-32.5 -44h-15l-57 55v16l74 113l15 6q30 -5 75 -20q40 -14 54 -14q17 0 29.5 14t32.5 44h15z" />
    <glyph glyph-name="uni0343" unicode="&#x343;" 
d="M-28 751q12 -23 12 -55q0 -41 -23 -81t-71 -85l-61 35l-2 10q29 38 29 77q0 43 -32 69v12q61 42 110 59q26 -18 38 -41z" />
    <glyph glyph-name="uni0344" unicode="&#x344;" 
d="M-318 569q35 116 55 205l11 9l108 -43l7 -13l-97 -180l-22 -6zM-459 572.5q-18 18.5 -18 53.5q0 36 21 57.5t57 21.5q34 0 52.5 -19t18.5 -53q0 -36 -21 -57.5t-57 -21.5q-35 0 -53 18.5zM-139.5 572.5q-18.5 18.5 -18.5 53.5q0 36 21 57.5t57 21.5q34 0 52.5 -19
t18.5 -53q0 -36 -20.5 -57.5t-56.5 -21.5q-35 0 -53.5 18.5z" />
    <glyph glyph-name="uni0345" unicode="&#x345;" 
d="M-185 -227l21 187l96 8l14 -13l24 -186l-143 -7z" />
    <glyph glyph-name="uni0374" unicode="&#x374;" horiz-adv-x="250" 
d="M214 634l-48 -262l-88 -14l-15 11l-10 268l151 9z" />
    <glyph glyph-name="uni0375" unicode="&#x375;" horiz-adv-x="250" 
d="M36 -160l48 262l88 14l15 -11l10 -268l-151 -9z" />
    <glyph glyph-name="uni037A" unicode="&#x37a;" horiz-adv-x="217" 
d="M32 -227l21 187l96 8l14 -13l24 -186l-143 -7z" />
    <glyph glyph-name="uni037E" unicode="&#x37e;" horiz-adv-x="228" 
d="M192.5 134q11.5 -26 11.5 -57q0 -58 -37 -111.5t-115 -107.5l-61 53l-2 14q29 25 42.5 51.5t13.5 57.5q0 42 -33 75l1 16q72 40 143 58q25 -23 36.5 -49zM181.5 420q24.5 -25 24.5 -70q0 -48 -27 -76t-74 -28q-46 0 -70 24.5t-24 70.5q0 48 27.5 76t74.5 28
q44 0 68.5 -25z" />
    <glyph glyph-name="tonos" unicode="&#x384;" horiz-adv-x="215" 
d="M82 777l123 -49l7 -16q-54 -104 -95 -176l-14 -10l-96 38q37 115 60 204z" />
    <glyph glyph-name="dieresistonos" unicode="&#x385;" horiz-adv-x="486" 
d="M168 569q35 116 55 205l11 9l108 -43l7 -13l-97 -180l-22 -6zM27 572.5q-18 18.5 -18 53.5q0 36 21 57.5t57 21.5q34 0 52.5 -19t18.5 -53q0 -36 -21 -57.5t-57 -21.5q-35 0 -53 18.5zM346.5 572.5q-18.5 18.5 -18.5 53.5q0 36 21 57.5t57 21.5q34 0 52.5 -19t18.5 -53
q0 -36 -20.5 -57.5t-56.5 -21.5q-35 0 -53.5 18.5z" />
    <glyph glyph-name="Alphatonos" unicode="&#x386;" horiz-adv-x="680" 
d="M670 0h-203l-18 107l-1 3l-98 2l-82 -4l-17 -108h-196l196 647h242zM418 256l-44 212h-12l-56 -212l56 -1zM42 692l123 -49l7 -16q-54 -104 -95 -176l-14 -10l-96 38q37 115 60 204z" />
    <glyph glyph-name="anoteleia" unicode="&#x387;" horiz-adv-x="228" 
d="M186.5 398q24.5 -25 24.5 -70q0 -48 -27 -76t-74 -28q-46 0 -70 24.5t-24 70.5q0 48 27.5 76t74.5 28q44 0 68.5 -25z" />
    <glyph glyph-name="Epsilontonos" unicode="&#x388;" horiz-adv-x="723" 
d="M699 160l11 -14l-12 -146h-456l10 190l-10 457h464l11 -14l-13 -146l-159 6h-103l-2 -91h99l104 3l11 -14l-12 -146l-116 3h-90l-1 -38l2 -56h96zM72 692l123 -49l7 -16q-54 -104 -95 -176l-14 -10l-96 38q37 115 60 204z" />
    <glyph glyph-name="Etatonos" unicode="&#x389;" horiz-adv-x="893" 
d="M830 210l8 -210h-201l10 190l-1 50l-108 2l-93 -3l-1 -29l8 -210h-201l10 190l-10 457h204l-6 -245l101 -2l92 2l-5 245h204zM72 692l123 -49l7 -16q-54 -104 -95 -176l-14 -10l-96 38q37 115 60 204z" />
    <glyph glyph-name="Iotatonos" unicode="&#x38a;" horiz-adv-x="509" 
d="M435 210l8 -210h-201l10 190l-10 457h204zM72 692l123 -49l7 -16q-54 -104 -95 -176l-14 -10l-96 38q37 115 60 204z" />
    <glyph glyph-name="Omicrontonos" unicode="&#x38c;" horiz-adv-x="764" 
d="M670 575.5q77 -83.5 77 -235.5q0 -168 -84.5 -260t-239.5 -92q-141 0 -218 84.5t-77 239.5q0 166 84.5 256.5t239.5 90.5q141 0 218 -83.5zM375 485.5q-20 -13.5 -28.5 -47.5t-8.5 -99q0 -83 9 -126t30.5 -60t63.5 -17q39 0 59 13.5t28.5 48t8.5 99.5q0 82 -9 125
t-30.5 60t-63.5 17q-39 0 -59 -13.5zM31 692l123 -49l7 -16q-54 -104 -95 -176l-14 -10l-96 38q37 115 60 204z" />
    <glyph glyph-name="Upsilontonos" unicode="&#x38e;" horiz-adv-x="794" 
d="M582 170l8 -170h-200l10 170l-1 31l-207 446h210l16 -54l73 -195h12l84 188l23 61h204l-230 -439zM40 692l123 -49l7 -16q-54 -104 -95 -176l-14 -10l-96 38q37 115 60 204z" />
    <glyph glyph-name="Omegatonos" unicode="&#x38f;" horiz-adv-x="790" 
d="M134 6l18 150l86 -8h45v9q-140 62 -140 220q0 85 38.5 148.5t109 98.5t164.5 35q89 0 156 -32.5t103 -93t36 -141.5q0 -78 -35.5 -136t-108.5 -99v-9h42l98 10l10 -12l-18 -150l-86 4h-139l-40 -3l-7 7l2 187q42 27 57.5 61t15.5 99q0 82 -22.5 115.5t-77.5 33.5
q-52 0 -73 -31t-21 -107q0 -66 17 -104t58 -67l3 -187l-9 -7l-39 3h-135l-98 -6zM37 692l123 -49l7 -16q-54 -104 -95 -176l-14 -10l-96 38q37 115 60 204z" />
    <glyph glyph-name="iotadieresistonos" unicode="&#x390;" horiz-adv-x="281" 
d="M72 28.5q-33 35.5 -33 89.5l4 131l-8 212l194 13l-10 -319q0 -15 3 -21.5t11 -6.5q7 0 17 3l12 -10l-17 -100q-43 -21 -89 -27q-51 0 -84 35.5zM66 569q35 116 55 205l11 9l108 -43l7 -13l-97 -180l-22 -6zM-75 572.5q-18 18.5 -18 53.5q0 36 21 57.5t57 21.5
q34 0 52.5 -19t18.5 -53q0 -36 -21 -57.5t-57 -21.5q-35 0 -53 18.5zM244.5 572.5q-18.5 18.5 -18.5 53.5q0 36 21 57.5t57 21.5q34 0 52.5 -19t18.5 -53q0 -36 -20.5 -57.5t-56.5 -21.5q-35 0 -53.5 18.5z" />
    <glyph glyph-name="Alpha" unicode="&#x391;" horiz-adv-x="627" 
d="M617 0h-203l-18 107l-1 3l-98 2l-82 -4l-17 -108h-196l196 647h242zM365 256l-44 212h-12l-56 -212l56 -1z" />
    <glyph glyph-name="Beta" unicode="&#x392;" horiz-adv-x="629" 
d="M575.5 279.5q28.5 -35.5 28.5 -92.5q0 -101 -82.5 -147.5t-246.5 -46.5q-91 0 -215 7l10 190l-10 457l289 1q110 0 172 -42.5t62 -123.5q0 -50 -25.5 -88.5t-73.5 -60.5q63 -18 91.5 -53.5zM354.5 501.5q-24.5 13.5 -91.5 13.5h-9l-4 -132l75 -3q28 9 41 26t13 47
q0 35 -24.5 48.5zM377.5 143q23.5 18 23.5 52q0 23 -13.5 37t-43.5 24l-97 -2l-1 -44l3 -81q50 -4 64 -4q41 0 64.5 18z" />
    <glyph glyph-name="Gamma" unicode="&#x393;" horiz-adv-x="487" 
d="M478 633l-12 -146l-145 6h-52l-7 -283l8 -210h-201l10 190l-10 457h399z" />
    <glyph glyph-name="uni0394" unicode="&#x394;" horiz-adv-x="621" 
d="M30 128l168 519h242l155 -519v-128h-565v128zM399 154l-78 314h-12l-93 -314h183z" />
    <glyph glyph-name="Epsilon" unicode="&#x395;" horiz-adv-x="541" 
d="M517 160l11 -14l-12 -146h-456l10 190l-10 457h464l11 -14l-13 -146l-159 6h-103l-2 -91h99l104 3l11 -14l-12 -146l-116 3h-90l-1 -38l2 -56h96z" />
    <glyph glyph-name="Zeta" unicode="&#x396;" horiz-adv-x="570" 
d="M538 504l-275 -356h161l123 9l6 -9l-16 -153l-178 5h-230l-101 -6v143l280 362h-157l-120 -10l-7 8l14 153l150 -3h274l76 1v-144z" />
    <glyph glyph-name="Eta" unicode="&#x397;" horiz-adv-x="711" 
d="M648 210l8 -210h-201l10 190l-1 50l-108 2l-93 -3l-1 -29l8 -210h-201l10 190l-10 457h204l-6 -245l101 -2l92 2l-5 245h204z" />
    <glyph glyph-name="Theta" unicode="&#x398;" horiz-adv-x="683" 
d="M522 621q70 -38 107 -110t37 -171q0 -109 -40.5 -188.5t-117 -121.5t-181.5 -42q-96 0 -166 39t-107 112t-37 173q0 108 40.5 186t117 119.5t181.5 41.5q96 0 166 -38zM267.5 484q-25.5 -15 -36.5 -49.5t-11 -94.5q0 -80 11.5 -123.5t38 -62t75.5 -18.5q64 0 91 36.5
t27 123.5q0 79 -11.5 122.5t-38.5 62t-75 18.5q-45 0 -70.5 -15zM259 261l5 125l148 5l12 -12l-5 -125l-148 -5z" />
    <glyph glyph-name="Iota" unicode="&#x399;" horiz-adv-x="327" 
d="M253 210l8 -210h-201l10 190l-10 457h204z" />
    <glyph glyph-name="Kappa" unicode="&#x39a;" horiz-adv-x="628" 
d="M647 42l-3 -22q-105 -23 -200 -32l-22 12q-102 175 -167 297l-2 -87l8 -210h-201l10 190l-10 457h204l-7 -270l124 200l34 70h212l-190 -306q92 -144 210 -299z" />
    <glyph glyph-name="Lambda" unicode="&#x39b;" horiz-adv-x="622" 
d="M612 0h-208l-18 109l-67 355h-13l-83 -343l-19 -121h-202l190 647h249z" />
    <glyph glyph-name="Mu" unicode="&#x39c;" horiz-adv-x="806" 
d="M774 0h-176l-5 196l-11 163h-12l-104 -298h-151l-86 298h-12l-14 -144l-10 -215h-167l63 647h231l19 -92l57 -235h12l63 228l23 99h228z" />
    <glyph glyph-name="Nu" unicode="&#x39d;" horiz-adv-x="710" 
d="M639 211l8 -211h-218l-182 346h-12l-1 -112l8 -234h-182l10 190l-10 457h218l182 -346h12l-6 339l184 11z" />
    <glyph glyph-name="Xi" unicode="&#x39e;" horiz-adv-x="601" 
d="M38 487l15 160h501l12 -15l-14 -161l-237 7l-264 -7zM92 252l14 160l207 -4l179 4l12 -15l-13 -160l-178 3l-208 -3zM38 161l12 15l246 -7l254 7l13 -15l-14 -161h-498z" />
    <glyph glyph-name="Omicron" unicode="&#x39f;" horiz-adv-x="653" 
d="M559 575.5q77 -83.5 77 -235.5q0 -168 -84.5 -260t-239.5 -92q-141 0 -218 84.5t-77 239.5q0 166 84.5 256.5t239.5 90.5q141 0 218 -83.5zM264 485.5q-20 -13.5 -28.5 -47.5t-8.5 -99q0 -83 9 -126t30.5 -60t63.5 -17q39 0 59 13.5t28.5 48t8.5 99.5q0 82 -9 125
t-30.5 60t-63.5 17q-39 0 -59 -13.5z" />
    <glyph glyph-name="Pi" unicode="&#x3a0;" horiz-adv-x="691" 
d="M617 210l8 -210h-201l10 190l-7 305h-167l-7 -285l8 -210h-201l10 190l-10 457h568z" />
    <glyph glyph-name="Rho" unicode="&#x3a1;" horiz-adv-x="593" 
d="M534.5 594.5q58.5 -53.5 58.5 -152.5q0 -77 -36 -135.5t-102 -91t-152 -32.5h-49l7 -183h-201l10 190l-10 457l307 1q109 0 167.5 -53.5zM370.5 361.5q12.5 23.5 12.5 60.5q0 44 -21 64.5t-66 22.5l-36 -3l-4 -179l75 -4q27 15 39.5 38.5z" />
    <glyph glyph-name="Sigma" unicode="&#x3a3;" horiz-adv-x="563" 
d="M524 635l-13 -151l-111 7h-114l119 -124v-31l-147 -180h137l129 10l12 -16l-13 -152l-173 2h-207l-110 -3v141l160 196l-155 163v152l98 -2h245l130 2z" />
    <glyph glyph-name="Tau" unicode="&#x3a4;" horiz-adv-x="519" 
d="M513 633l-11 -146l-132 6h-12l-5 -283l8 -210h-200l10 190l-5 303h-13l-133 -6l-12 14l11 146h483z" />
    <glyph glyph-name="Upsilon" unicode="&#x3a5;" horiz-adv-x="594" 
d="M382 170l8 -170h-200l10 170l-1 31l-207 446h210l16 -54l73 -195h12l84 188l23 61h204l-230 -439z" />
    <glyph glyph-name="Phi" unicode="&#x3a6;" horiz-adv-x="834" 
d="M738 135.5q-78 -69.5 -232 -84.5l2 -89h-184l3 88q-309 26 -309 273q0 136 77 204.5t230 83.5l-1 73h187l-1 -71q306 -29 306 -273q0 -135 -78 -204.5zM238 236.5q29 -31.5 95 -41.5l-5 271q-63 -10 -91 -41.5t-28 -92.5q0 -64 29 -95.5zM596 232.5q29 30.5 29 91.5
q0 64 -27.5 97t-90.5 44l-5 -255v-17q65 9 94 39.5z" />
    <glyph glyph-name="Chi" unicode="&#x3a7;" horiz-adv-x="659" 
d="M458 342l195 -342h-239l-34 79l-58 105l-74 -115l-32 -69h-203l192 311l-198 336h240l35 -81l57 -102l65 113l30 70h209z" />
    <glyph glyph-name="Psi" unicode="&#x3a8;" horiz-adv-x="819" 
d="M787 647l-6 -190l-1 -97q-2 -106 -72 -171t-206 -81l4 -108h-192l6 106q-140 15 -211.5 80t-71.5 174v99l-3 188h195l-8 -258q-2 -52 21.5 -82.5t79.5 -42.5l-8 383h195l-10 -382q56 12 80 42t22 82l-9 258h195z" />
    <glyph glyph-name="uni03A9" unicode="&#x3a9;" horiz-adv-x="689" 
d="M33 6l18 150l86 -8h45v9q-140 62 -140 220q0 85 38.5 148.5t109 98.5t164.5 35q89 0 156 -32.5t103 -93t36 -141.5q0 -78 -35.5 -136t-108.5 -99v-9h42l98 10l10 -12l-18 -150l-86 4h-139l-40 -3l-7 7l2 187q42 27 57.5 61t15.5 99q0 82 -22.5 115.5t-77.5 33.5
q-52 0 -73 -31t-21 -107q0 -66 17 -104t58 -67l3 -187l-9 -7l-39 3h-135l-98 -6z" />
    <glyph glyph-name="Iotadieresis" unicode="&#x3aa;" horiz-adv-x="327" 
d="M253 210l8 -210h-201l10 190l-10 457h204zM130.5 870.5q21.5 -21.5 21.5 -60.5q0 -42 -23.5 -66.5t-64.5 -24.5q-40 0 -61 21.5t-21 61.5q0 42 24 66t65 24q38 0 59.5 -21.5zM323.5 870.5q21.5 -21.5 21.5 -60.5q0 -42 -23.5 -66.5t-64.5 -24.5q-40 0 -61 21.5t-21 61.5
q0 42 24 66t65 24q38 0 59.5 -21.5z" />
    <glyph glyph-name="Upsilondieresis" unicode="&#x3ab;" horiz-adv-x="594" 
d="M382 170l8 -170h-200l10 170l-1 31l-207 446h210l16 -54l73 -195h12l84 188l23 61h204l-230 -439zM263.5 870.5q21.5 -21.5 21.5 -60.5q0 -42 -23.5 -66.5t-64.5 -24.5q-40 0 -61 21.5t-21 61.5q0 42 24 66t65 24q38 0 59.5 -21.5zM456.5 870.5q21.5 -21.5 21.5 -60.5
q0 -42 -23.5 -66.5t-64.5 -24.5q-40 0 -61 21.5t-21 61.5q0 42 24 66t65 24q38 0 59.5 -21.5z" />
    <glyph glyph-name="alphatonos" unicode="&#x3ac;" horiz-adv-x="546" 
d="M526 120l-17 -100q-27 -13 -51.5 -19t-55.5 -8q-51 9 -81 59h-11q-41 -45 -92 -61q-66 0 -112.5 33.5t-69.5 88.5t-23 117q0 67 22.5 123t69 90t115.5 34q47 -14 81 -48l8 1v35l185 12l-11 -329q0 -21 12 -21l19 3zM255 135q27 0 50 17l4 92v73q-17 12 -31.5 17t-31.5 5
q-26 0 -38 -19t-12 -66q0 -119 59 -119zM284 777l123 -49l7 -16q-54 -104 -95 -176l-14 -10l-96 38q37 115 60 204z" />
    <glyph glyph-name="epsilontonos" unicode="&#x3ad;" horiz-adv-x="458" 
d="M419 141l13 -11l-16 -119q-37 -10 -86 -16t-90 -6q-111 0 -169 35.5t-58 103.5q0 84 90 118q-37 18 -54.5 42.5t-17.5 58.5q0 65 59 100.5t164 35.5q50 0 100 -7.5t82 -18.5l-27 -128l-14 -7q-64 31 -121 31q-29 0 -45.5 -8t-16.5 -22q0 -18 26 -31h138l6 -10l-9 -103
h-132q-24 0 -35 -6.5t-11 -20.5q0 -17 18.5 -25t59.5 -8q72 0 146 22zM246 777l123 -49l7 -16q-54 -104 -95 -176l-14 -10l-96 38q37 115 60 204z" />
    <glyph glyph-name="etatonos" unicode="&#x3ae;" horiz-adv-x="547" 
d="M314 -185l10 449q0 61 -47 61q-23 0 -47 -14v-101l8 -210h-195l9 190l-7 271l185 13v-70h7q52 52 117 74q75 0 114.5 -34t37.5 -98l-4 -136l7 -395h-195zM291 777l123 -49l7 -16q-54 -104 -95 -176l-14 -10l-96 38q37 115 60 204z" />
    <glyph glyph-name="iotatonos" unicode="&#x3af;" horiz-adv-x="281" 
d="M72 28.5q-33 35.5 -33 89.5l4 131l-8 212l194 13l-10 -319q0 -15 3 -21.5t11 -6.5q7 0 17 3l12 -10l-17 -100q-43 -21 -89 -27q-51 0 -84 35.5zM158 777l123 -49l7 -16q-54 -104 -95 -176l-14 -10l-96 38q37 115 60 204z" />
    <glyph glyph-name="upsilondieresistonos" unicode="&#x3b0;" horiz-adv-x="512" 
d="M87.5 35q-54.5 46 -52.5 134l2 83l-3 210l184 12l-8 -280q-1 -34 8.5 -46.5t35.5 -12.5q27 0 37.5 13t9.5 46l-4 268l184 13l-8 -306q-2 -87 -60 -133.5t-165 -46.5q-106 0 -160.5 46zM181 569q35 116 55 205l11 9l108 -43l7 -13l-97 -180l-22 -6zM40 572.5
q-18 18.5 -18 53.5q0 36 21 57.5t57 21.5q34 0 52.5 -19t18.5 -53q0 -36 -21 -57.5t-57 -21.5q-35 0 -53 18.5zM359.5 572.5q-18.5 18.5 -18.5 53.5q0 36 21 57.5t57 21.5q34 0 52.5 -19t18.5 -53q0 -36 -20.5 -57.5t-56.5 -21.5q-35 0 -53.5 18.5z" />
    <glyph glyph-name="alpha" unicode="&#x3b1;" horiz-adv-x="546" 
d="M526 120l-17 -100q-27 -13 -51.5 -19t-55.5 -8q-51 9 -81 59h-11q-41 -45 -92 -61q-66 0 -112.5 33.5t-69.5 88.5t-23 117q0 67 22.5 123t69 90t115.5 34q47 -14 81 -48l8 1v35l185 12l-11 -329q0 -21 12 -21l19 3zM255 135q27 0 50 17l4 92v73q-17 12 -31.5 17t-31.5 5
q-26 0 -38 -19t-12 -66q0 -119 59 -119z" />
    <glyph glyph-name="beta" unicode="&#x3b2;" horiz-adv-x="543" 
d="M499 320.5q32 -43.5 32 -109.5q0 -65 -31.5 -115.5t-88.5 -78.5t-131 -28q-23 0 -45 3l2 -177h-193l9 375v245q0 128 64.5 198.5t181.5 70.5q93 0 148 -44.5t55 -120.5q0 -49 -24 -88.5t-71 -68.5q60 -18 92 -61.5zM331.5 141q19.5 23 19.5 65q0 39 -16.5 63.5
t-43.5 24.5h-30l-9 12l6 124h32q36 33 36 78q0 53 -46 53q-26 0 -38.5 -18.5t-12.5 -58.5l4 -360q24 -6 43 -6q36 0 55.5 23z" />
    <glyph glyph-name="gamma" unicode="&#x3b3;" horiz-adv-x="459" 
d="M452 433q0 -43 -13 -91.5t-47 -138.5l-77 -203l4 -185h-194l4 186l-130 468l182 7l13 -95l35 -192h10l19 63q34 109 34 188q0 18 -1 26l9 10l150 -4q2 -28 2 -39z" />
    <glyph glyph-name="delta" unicode="&#x3b4;" horiz-adv-x="478" 
d="M243.5 518.5q18.5 -17.5 59.5 -46.5q50 -34 83 -64t57.5 -78t24.5 -113q0 -69 -28.5 -121t-81 -80t-122.5 -28q-104 0 -165 61t-61 167q0 76 34 124t104 70l2 5q-43 34 -66 67t-23 80q0 70 54.5 108.5t155.5 38.5q43 0 87 -6.5t70 -17.5l-25 -135l-22 -7q-46 24 -71.5 33
t-45.5 9q-39 0 -39 -28q0 -21 18.5 -38.5zM283.5 132.5q11.5 18.5 11.5 58.5q0 52 -17.5 90t-49.5 69q-19 -18 -27.5 -47t-8.5 -76q0 -59 13 -86t42 -27q25 0 36.5 18.5z" />
    <glyph glyph-name="epsilon" unicode="&#x3b5;" horiz-adv-x="458" 
d="M419 141l13 -11l-16 -119q-37 -10 -86 -16t-90 -6q-111 0 -169 35.5t-58 103.5q0 84 90 118q-37 18 -54.5 42.5t-17.5 58.5q0 65 59 100.5t164 35.5q50 0 100 -7.5t82 -18.5l-27 -128l-14 -7q-64 31 -121 31q-29 0 -45.5 -8t-16.5 -22q0 -18 26 -31h138l6 -10l-9 -103
h-132q-24 0 -35 -6.5t-11 -20.5q0 -17 18.5 -25t59.5 -8q72 0 146 22z" />
    <glyph glyph-name="zeta" unicode="&#x3b6;" horiz-adv-x="430" 
d="M133 -79l10 21l53 24q35 16 51.5 24t16.5 12q0 5 -17 6l-51 5q-90 9 -139 61.5t-49 136.5q0 76 52 158.5t180 201.5h-98l-95 -9l-6 7l12 133l120 -2h202l65 1v-126q-140 -146 -195 -218t-55 -115q0 -29 17.5 -47.5t48.5 -23.5l56 -9q55 -9 88 -43.5t33 -83.5
q0 -73 -53.5 -126.5t-172.5 -102.5z" />
    <glyph glyph-name="eta" unicode="&#x3b7;" horiz-adv-x="547" 
d="M314 -185l10 449q0 61 -47 61q-23 0 -47 -14v-101l8 -210h-195l9 190l-7 271l185 13v-70h7q52 52 117 74q75 0 114.5 -34t37.5 -98l-4 -136l7 -395h-195z" />
    <glyph glyph-name="theta" unicode="&#x3b8;" horiz-adv-x="516" 
d="M434.5 623.5q55.5 -83.5 55.5 -261.5q0 -190 -60.5 -279.5t-179.5 -89.5q-111 0 -167 82.5t-56 259.5q0 191 61 281.5t180 90.5q111 0 166.5 -83.5zM219 556.5q-13 -14.5 -18.5 -49.5t-6.5 -100l128 4q-2 63 -8.5 97t-20.5 48.5t-38 14.5q-23 0 -36 -14.5zM298 138.5
q12 14.5 17.5 48t7.5 95.5l-128 -4q2 -60 9 -93t21 -47t39 -14q22 0 34 14.5z" />
    <glyph glyph-name="iota" unicode="&#x3b9;" horiz-adv-x="281" 
d="M72 28.5q-33 35.5 -33 89.5l4 131l-8 212l194 13l-10 -319q0 -15 3 -21.5t11 -6.5q7 0 17 3l12 -10l-17 -100q-43 -21 -89 -27q-51 0 -84 35.5z" />
    <glyph glyph-name="kappa" unicode="&#x3ba;" horiz-adv-x="538" 
d="M535 32l-1 -20q-65 -13 -183 -24l-20 10q-63 116 -101 225v-13l8 -210h-195l9 190l-7 271l194 13l-7 -200l76 142l21 56h199l-120 -209q47 -96 127 -231z" />
    <glyph glyph-name="lambda" unicode="&#x3bb;" horiz-adv-x="499" 
d="M504 119l-18 -103q-14 -8 -38.5 -16t-46.5 -12q-33 2 -52 11.5t-31.5 31t-23.5 63.5l-44 163h-9l-61 -171l-25 -95l-163 16l196 471q-15 38 -39 53.5t-67 15.5q-25 0 -40 -2l-8 15l27 140q29 4 61 4q86 0 135.5 -41t75.5 -134l108 -377q4 -14 10 -20t18 -6q9 0 22 3z" />
    <glyph glyph-name="uni03BC" unicode="&#x3bc;" horiz-adv-x="552" 
d="M534 120l-17 -100q-48 -31 -100 -30q-58 12 -84 84h-12q-26 -46 -63 -80q-21 0 -39 3l14 -182h-184l4 375l-5 271l185 13v-264l-1 -8l1 1q0 -30 10 -42.5t31 -12.5q13 0 22.5 3.5t20.5 11.5v298l185 13l-11 -326q0 -11 3.5 -16t10.5 -5t17 3z" />
    <glyph glyph-name="nu" unicode="&#x3bd;" horiz-adv-x="461" 
d="M453 437q0 -38 -12 -85.5t-46 -154.5l-64 -197h-212l-119 469l182 7l13 -95l35 -202h10l19 68q34 121 34 195q0 16 -1 24l9 10l150 -4q2 -24 2 -35z" />
    <glyph glyph-name="xi" unicode="&#x3be;" horiz-adv-x="447" 
d="M409.5 117.5q31.5 -34.5 31.5 -88.5q0 -67 -54.5 -121t-171.5 -102l-74 115l10 21q78 34 99.5 44.5t21.5 15.5q0 4 -11 5l-53 6q-96 11 -146 57.5t-50 124.5q0 65 34.5 109.5t101.5 66.5q-56 22 -84.5 59.5t-28.5 89.5q0 56 32 97.5t91 64t138 22.5q78 0 158 -26
l-28 -143l-17 -9q-64 20 -110 20q-42 0 -61.5 -11.5t-19.5 -36.5q0 -19 14 -33.5t49 -34.5h112l6 -12l-9 -125h-90q-50 0 -78 -16.5t-28 -46.5q0 -25 20 -39.5t62 -21.5l44 -7q58 -10 89.5 -44.5z" />
    <glyph glyph-name="omicron" unicode="&#x3bf;" horiz-adv-x="499" 
d="M427 424q57 -60 57 -177q0 -128 -61.5 -193.5t-181.5 -65.5q-112 0 -169 59.5t-57 175.5q0 129 61.5 195t181.5 66q112 0 169 -60zM214 345.5q-10 -7.5 -13.5 -27.5t-3.5 -61q0 -61 4.5 -90.5t16.5 -41t37 -11.5q20 0 29.5 7.5t13 28t3.5 61.5q0 60 -4.5 89.5t-16.5 41
t-36 11.5q-20 0 -30 -7.5z" />
    <glyph glyph-name="pi" unicode="&#x3c0;" horiz-adv-x="658" 
d="M554 337l-6 -160q0 -22 6.5 -31t22.5 -9t38 8l12 -14l-18 -101q-45 -30 -82 -37q-72 0 -113.5 37t-41.5 98l5 108l-2 101h-78l1 -337h-189l16 190l-4 141q-39 -9 -74 -29l-18 2l-37 76v19q29 38 66.5 55t91.5 17h488l5 -9l-10 -125h-79z" />
    <glyph glyph-name="rho" unicode="&#x3c1;" horiz-adv-x="520" 
d="M448.5 420.5q57.5 -58.5 57.5 -169.5q0 -125 -64 -194t-180 -69q-23 0 -46 3l3 -176h-194l8 391q0 131 64.5 202t189.5 71q104 0 161.5 -58.5zM306 141q17 23 17 79q0 115 -63 115q-49 0 -49 -75l2 -137q22 -5 37 -5q39 0 56 23z" />
    <glyph glyph-name="uni03C2" unicode="&#x3c2;" horiz-adv-x="410" 
d="M109 -79l10 21q61 27 85.5 40.5t24.5 20.5q0 2 -8 5l-38 12q-173 54 -173 225q0 73 30 127t84 83t123 29q63 0 132 -25l-31 -147l-14 -8q-26 12 -42.5 17t-32.5 5q-32 0 -47 -18t-15 -56q0 -35 12.5 -53t40.5 -25l32 -8q115 -28 115 -128q0 -66 -52 -122.5t-162 -109.5z
" />
    <glyph glyph-name="sigma" unicode="&#x3c3;" horiz-adv-x="537" 
d="M437 334l-3 -9q24 -31 34 -57.5t10 -60.5q0 -65 -30.5 -115t-85.5 -77t-128 -27q-108 0 -164 60t-56 176q0 123 65 185.5t193 62.5h254l5 -10l-9 -128h-85zM289 334h-26q-30 0 -43.5 -6.5t-18 -25.5t-4.5 -61q0 -72 11.5 -99.5t41.5 -27.5q28 0 39.5 22t11.5 74
q0 61 -12 124z" />
    <glyph glyph-name="tau" unicode="&#x3c4;" horiz-adv-x="433" 
d="M309 337l-6 -160q0 -23 7 -31.5t27 -8.5t46 8l12 -14l-17 -101q-19 -12 -45 -22.5t-50 -14.5q-72 0 -114 37t-42 98l5 108l-2 97q-38 -7 -83 -31l-18 2l-37 76v19q29 38 66.5 55t91.5 17h267l5 -9l-10 -125h-103z" />
    <glyph glyph-name="upsilon" unicode="&#x3c5;" horiz-adv-x="512" 
d="M87.5 35q-54.5 46 -52.5 134l2 83l-3 210l184 12l-8 -280q-1 -34 8.5 -46.5t35.5 -12.5q27 0 37.5 13t9.5 46l-4 268l184 13l-8 -306q-2 -87 -60 -133.5t-165 -46.5q-106 0 -160.5 46z" />
    <glyph glyph-name="phi" unicode="&#x3c6;" horiz-adv-x="725" 
d="M447 -14l3 -171h-183l4 170q-131 13 -195 74.5t-64 172.5q0 96 46 161.5t133 94.5l63 -93v-24q-35 -19 -49 -46t-14 -75q0 -56 19 -86.5t64 -43.5l5 184q2 82 60 131t153 49q105 0 163 -61t58 -173q0 -233 -266 -264zM514 152q20 29 20 90q0 55 -13 84t-38 29
q-20 0 -31.5 -18t-10.5 -48l3 -175q50 9 70 38z" />
    <glyph glyph-name="chi" unicode="&#x3c7;" horiz-adv-x="518" 
d="M529 -63l-20 -106q-40 -21 -85 -28q-31 2 -49 10.5t-32.5 30t-32.5 64.5l-53 130l-57 -158l-17 -65h-177l143 332l-71 140q-15 29 -25 39t-26 10q-9 0 -21 -3l-8 15l23 125q28 4 57 4q57 0 90 -24.5t57 -82.5l50 -119l56 156l17 65h177l-142 -332l88 -175q11 -21 28 -21
q8 0 17 3z" />
    <glyph glyph-name="psi" unicode="&#x3c8;" horiz-adv-x="719" 
d="M688 473l-8 -304q-5 -172 -234 -179l3 -175h-181l4 175q-123 1 -181 46t-56 133l2 81l-3 211l171 12l-8 -280q-2 -37 14 -51.5t64 -15.5l2 64l-7 356l180 12l-8 -349l1 -83q46 1 61 15.5t15 51.5l-2 268z" />
    <glyph glyph-name="omega" unicode="&#x3c9;" horiz-adv-x="728" 
d="M645.5 438.5q39.5 -36.5 52 -86.5t12.5 -120q0 -120 -52.5 -179.5t-145.5 -59.5q-110 0 -156 88q-48 -88 -155 -88q-89 0 -136.5 60t-47.5 180q0 103 41 167.5t139 87.5l64 -103v-24q-28 -13 -41 -27t-17 -36t-4 -63q0 -65 8 -90.5t32 -25.5q36 0 36 51v136l171 10l7 -6
v-131q0 -31 9.5 -45.5t24.5 -14.5q23 0 31.5 25t8.5 88q0 49 -3 72t-16 36.5t-42 21.5v24l64 102q76 -13 115.5 -49.5z" />
    <glyph glyph-name="iotadieresis" unicode="&#x3ca;" horiz-adv-x="281" 
d="M72 28.5q-33 35.5 -33 89.5l4 131l-8 212l194 13l-10 -319q0 -15 3 -21.5t11 -6.5q7 0 17 3l12 -10l-17 -100q-43 -21 -89 -27q-51 0 -84 35.5zM107.5 695.5q21.5 -21.5 21.5 -60.5q0 -42 -23.5 -66.5t-64.5 -24.5q-40 0 -61 21.5t-21 61.5q0 42 24 66t65 24
q38 0 59.5 -21.5zM300.5 695.5q21.5 -21.5 21.5 -60.5q0 -42 -23.5 -66.5t-64.5 -24.5q-40 0 -61 21.5t-21 61.5q0 42 24 66t65 24q38 0 59.5 -21.5z" />
    <glyph glyph-name="upsilondieresis" unicode="&#x3cb;" horiz-adv-x="512" 
d="M87.5 35q-54.5 46 -52.5 134l2 83l-3 210l184 12l-8 -280q-1 -34 8.5 -46.5t35.5 -12.5q27 0 37.5 13t9.5 46l-4 268l184 13l-8 -306q-2 -87 -60 -133.5t-165 -46.5q-106 0 -160.5 46zM222.5 695.5q21.5 -21.5 21.5 -60.5q0 -42 -23.5 -66.5t-64.5 -24.5q-40 0 -61 21.5
t-21 61.5q0 42 24 66t65 24q38 0 59.5 -21.5zM415.5 695.5q21.5 -21.5 21.5 -60.5q0 -42 -23.5 -66.5t-64.5 -24.5q-40 0 -61 21.5t-21 61.5q0 42 24 66t65 24q38 0 59.5 -21.5z" />
    <glyph glyph-name="omicrontonos" unicode="&#x3cc;" horiz-adv-x="499" 
d="M427 424q57 -60 57 -177q0 -128 -61.5 -193.5t-181.5 -65.5q-112 0 -169 59.5t-57 175.5q0 129 61.5 195t181.5 66q112 0 169 -60zM214 345.5q-10 -7.5 -13.5 -27.5t-3.5 -61q0 -61 4.5 -90.5t16.5 -41t37 -11.5q20 0 29.5 7.5t13 28t3.5 61.5q0 60 -4.5 89.5t-16.5 41
t-36 11.5q-20 0 -30 -7.5zM267 777l123 -49l7 -16q-54 -104 -95 -176l-14 -10l-96 38q37 115 60 204z" />
    <glyph glyph-name="upsilontonos" unicode="&#x3cd;" horiz-adv-x="512" 
d="M87.5 35q-54.5 46 -52.5 134l2 83l-3 210l184 12l-8 -280q-1 -34 8.5 -46.5t35.5 -12.5q27 0 37.5 13t9.5 46l-4 268l184 13l-8 -306q-2 -87 -60 -133.5t-165 -46.5q-106 0 -160.5 46zM273 777l123 -49l7 -16q-54 -104 -95 -176l-14 -10l-96 38q37 115 60 204z" />
    <glyph glyph-name="omegatonos" unicode="&#x3ce;" horiz-adv-x="728" 
d="M645.5 438.5q39.5 -36.5 52 -86.5t12.5 -120q0 -120 -52.5 -179.5t-145.5 -59.5q-110 0 -156 88q-48 -88 -155 -88q-89 0 -136.5 60t-47.5 180q0 103 41 167.5t139 87.5l64 -103v-24q-28 -13 -41 -27t-17 -36t-4 -63q0 -65 8 -90.5t32 -25.5q36 0 36 51v136l171 10l7 -6
v-131q0 -31 9.5 -45.5t24.5 -14.5q23 0 31.5 25t8.5 88q0 49 -3 72t-16 36.5t-42 21.5v24l64 102q76 -13 115.5 -49.5zM381 746l123 -49l7 -16q-54 -104 -95 -176l-14 -10l-96 38q37 115 60 204z" />
    <glyph glyph-name="uni03CF" unicode="&#x3cf;" horiz-adv-x="653" 
d="M646 42v-18q-42 -134 -113 -198t-173 -60q-67 60 -82 149l16 15q11 -1 31 -1q55 0 87.5 13.5t52.5 45.5l-44 21q-84 137 -167 289l-2 -88l8 -210h-201l10 190l-10 457h204l-7 -270l124 200l34 70h212l-190 -306q91 -147 210 -299z" />
    <glyph glyph-name="uni03D1" unicode="&#x3d1;" horiz-adv-x="516" 
d="M434.5 623.5q55.5 -83.5 55.5 -261.5q0 -190 -60.5 -279.5t-179.5 -89.5q-111 0 -167 82.5t-56 259.5q0 191 61 281.5t180 90.5q111 0 166.5 -83.5zM219 556.5q-13 -14.5 -18.5 -49.5t-6.5 -100l128 4q-2 63 -8.5 97t-20.5 48.5t-38 14.5q-23 0 -36 -14.5zM298 138.5
q12 14.5 17.5 48t7.5 95.5l-128 -4q2 -60 9 -93t21 -47t39 -14q22 0 34 14.5z" />
    <glyph glyph-name="uni03D5" unicode="&#x3d5;" horiz-adv-x="725" 
d="M447 -14l3 -171h-183l4 170q-131 13 -195 74.5t-64 172.5q0 96 46 161.5t133 94.5l63 -93v-24q-35 -19 -49 -46t-14 -75q0 -56 19 -86.5t64 -43.5l5 184q2 82 60 131t153 49q105 0 163 -61t58 -173q0 -233 -266 -264zM514 152q20 29 20 90q0 55 -13 84t-38 29
q-20 0 -31.5 -18t-10.5 -48l3 -175q50 9 70 38z" />
    <glyph glyph-name="uni03D6" unicode="&#x3d6;" horiz-adv-x="658" 
d="M554 337l-6 -160q0 -22 6.5 -31t22.5 -9t38 8l12 -14l-18 -101q-45 -30 -82 -37q-72 0 -113.5 37t-41.5 98l5 108l-2 101h-78l1 -337h-189l16 190l-4 141q-39 -9 -74 -29l-18 2l-37 76v19q29 38 66.5 55t91.5 17h488l5 -9l-10 -125h-79z" />
    <glyph glyph-name="uni03D7" unicode="&#x3d7;" horiz-adv-x="541" 
d="M535 32l-1 -20q-72 -217 -244 -219q-71 58 -89 143l15 14q58 0 94.5 10.5t57.5 32.5l-43 16q-56 104 -95 214v-13l8 -210h-195l9 190l-7 271l194 13l-7 -200l76 142l21 56h199l-120 -209q54 -107 127 -231z" />
    <glyph glyph-name="uni03F0" unicode="&#x3f0;" horiz-adv-x="538" 
d="M535 32l-1 -20q-65 -13 -183 -24l-20 10q-63 116 -101 225v-13l8 -210h-195l9 190l-7 271l194 13l-7 -200l76 142l21 56h199l-120 -209q47 -96 127 -231z" />
    <glyph glyph-name="uni0400" unicode="&#x400;" horiz-adv-x="565" 
d="M516 160l11 -14l-12 -146h-456l10 190l-10 457h464l11 -14l-13 -146l-159 6h-103l-2 -91h99l104 3l11 -14l-12 -146l-116 3h-90l-1 -38l2 -56h96zM438 795l-30 -79l-17 -4q-106 27 -238 69l-6 16l49 117l17 4q107 -63 225 -123z" />
    <glyph glyph-name="uni0401" unicode="&#x401;" horiz-adv-x="565" 
d="M516 160l11 -14l-12 -146h-456l10 190l-10 457h464l11 -14l-13 -146l-159 6h-103l-2 -91h99l104 3l11 -14l-12 -146l-116 3h-90l-1 -38l2 -56h96zM257.5 870.5q21.5 -21.5 21.5 -60.5q0 -42 -23.5 -66.5t-64.5 -24.5q-40 0 -61 21.5t-21 61.5q0 42 24 66t65 24
q38 0 59.5 -21.5zM450.5 870.5q21.5 -21.5 21.5 -60.5q0 -42 -23.5 -66.5t-64.5 -24.5q-40 0 -61 21.5t-21 61.5q0 42 24 66t65 24q38 0 59.5 -21.5z" />
    <glyph glyph-name="uni0402" unicode="&#x402;" horiz-adv-x="712" 
d="M601.5 410q44.5 -24 65 -77.5t20.5 -143.5q0 -136 -46.5 -226t-152.5 -160l-74 79v16q90 82 90 256q0 63 -14 87t-50 24q-39 0 -86 -28l-1 -27l8 -210h-201l10 190l-7 303h-30l-113 -6l-12 14l11 146h533l11 -14l-11 -146l-132 6h-60l-3 -133h10q45 48 114 74
q76 0 120.5 -24z" />
    <glyph glyph-name="uni0403" unicode="&#x403;" horiz-adv-x="477" 
d="M468 633l-12 -146l-145 6h-52l-7 -283l8 -210h-201l10 190l-10 457h399zM382 914l49 -117l-6 -16q-132 -42 -238 -69l-17 4l-30 79q118 60 225 123z" />
    <glyph glyph-name="uni0404" unicode="&#x404;" horiz-adv-x="579" 
d="M524 176l17 -10l-16 -158q-83 -19 -167 -19q-169 0 -251 78.5t-82 240.5q0 172 90.5 261t265.5 89q93 0 177 -27l-34 -159l-14 -8q-31 14 -71.5 22.5t-75.5 8.5q-55 0 -83.5 -21.5t-38.5 -71.5h89l124 3l10 -14l-11 -146l-136 3h-74q10 -50 40 -71t90 -21q58 0 151 20z
" />
    <glyph glyph-name="uni0405" unicode="&#x405;" horiz-adv-x="536" 
d="M499 624l-32 -163l-28 -12q-42 26 -83 41t-66 15q-23 0 -36.5 -9t-13.5 -24q0 -19 20.5 -32.5t68.5 -35.5q56 -25 92 -46.5t63 -59t27 -92.5q0 -61 -33.5 -110.5t-95.5 -78.5t-144 -29q-102 0 -214 38l29 174l20 12q46 -35 98.5 -55.5t87.5 -20.5q28 0 40.5 9.5
t12.5 23.5q0 21 -21.5 35.5t-69.5 35.5q-55 24 -90.5 45.5t-61.5 59t-26 92.5q0 63 34 113.5t95 79.5t139 29q95 0 188 -35z" />
    <glyph glyph-name="uni0406" unicode="&#x406;" horiz-adv-x="321" 
d="M252 210l8 -210h-201l10 190l-10 457h204z" />
    <glyph glyph-name="uni0407" unicode="&#x407;" horiz-adv-x="327" 
d="M253 210l8 -210h-201l10 190l-10 457h204zM128.5 870.5q21.5 -21.5 21.5 -60.5q0 -42 -23.5 -66.5t-64.5 -24.5q-40 0 -61 21.5t-21 61.5q0 42 24 66t65 24q38 0 59.5 -21.5zM321.5 870.5q21.5 -21.5 21.5 -60.5q0 -42 -23.5 -66.5t-64.5 -24.5q-40 0 -61 21.5t-21 61.5
q0 42 24 66t65 24q38 0 59.5 -21.5z" />
    <glyph glyph-name="uni0408" unicode="&#x408;" horiz-adv-x="366" 
d="M301 213l2 -89q0 -63 -21 -106t-69.5 -74t-134.5 -56l-52 103v16q51 25 71.5 52t20.5 71v63l-7 313l-85 -3l-11 13l8 131h289z" />
    <glyph glyph-name="uni0409" unicode="&#x409;" horiz-adv-x="955" 
d="M888 375.5q55 -46.5 55 -134.5q0 -74 -37 -128t-106 -83.5t-164 -29.5h-237l10 190l-7 309h-69l-4 -27q-26 -199 -55 -302t-71.5 -145t-114.5 -42h-49l-32 165q48 8 75 40t44 104.5t34 216.5l16 138h427l-6 -225h131q105 0 160 -46.5zM718 165.5q14 20.5 14 48.5
q0 33 -19 52t-53 18l-66 -2l-2 -72l3 -68l82 -6q27 9 41 29.5z" />
    <glyph glyph-name="uni040A" unicode="&#x40a;" horiz-adv-x="1000" 
d="M933.5 374q54.5 -45 54.5 -133q0 -74 -37 -128t-106 -83.5t-164 -29.5h-236l11 189l-2 75h-108l-93 -3l-1 -51l8 -210h-201l10 190l-10 457h204l-6 -235l101 -2l93 2l-6 236h203l-6 -229h131q106 0 160.5 -45zM763 164.5q14 19.5 14 46.5q0 32 -18.5 49t-53.5 15l-66 -2
l-2 -64l3 -68l82 -5q27 9 41 28.5z" />
    <glyph glyph-name="uni040B" unicode="&#x40b;" horiz-adv-x="720" 
d="M494 0l10 174q0 48 -15.5 69.5t-50.5 21.5q-39 0 -84 -27l-1 -28l8 -210h-201l10 190l-7 303h-29l-113 -6l-12 14l11 146h533l11 -14l-11 -146l-132 6h-61l-3 -133h10q45 48 114 74q108 0 157 -54t49 -172l7 -208h-200z" />
    <glyph glyph-name="uni040C" unicode="&#x40c;" horiz-adv-x="650" 
d="M646 42l-3 -22q-105 -23 -200 -32l-22 12q-102 175 -167 297l-2 -87l8 -210h-201l10 190l-10 457h204l-7 -270l124 200l34 70h212l-190 -306q92 -144 210 -299zM426 914l49 -117l-6 -16q-132 -42 -238 -69l-17 4l-30 79q118 60 225 123z" />
    <glyph glyph-name="uni040D" unicode="&#x40d;" horiz-adv-x="715" 
d="M69 190l-10 452l204 10l-14 -353h12l182 348h214l-11 -437l8 -210h-201l10 190l1 160h-12l-183 -350h-210zM507 795l-30 -79l-17 -4q-106 27 -238 69l-6 16l49 117l17 4q107 -63 225 -123z" />
    <glyph glyph-name="uni040E" unicode="&#x40e;" horiz-adv-x="617" 
d="M615 647l-164 -430q-43 -94 -83.5 -141.5t-97 -67t-148.5 -19.5l-13 2q-23 72 -33 158l7 17q95 6 139 17l-223 464h213l28 -84l80 -219h12l70 231l19 72h194zM501 802q-28 -53 -83.5 -82.5t-128.5 -29.5q-72 0 -125 28.5t-81 83.5l98 67h19q15 -39 35 -53t59 -14
q38 0 57 13.5t34 53.5h17z" />
    <glyph glyph-name="uni040F" unicode="&#x40f;" horiz-adv-x="681" 
d="M612 210l8 -210h-192l-16 -157l-145 -10l-17 167h-191l10 190l-10 457h204l-11 -437l2 -58h173l2 38l-10 457h204z" />
    <glyph glyph-name="uni0410" unicode="&#x410;" horiz-adv-x="626" 
d="M620 0h-203l-18 107l-1 3l-98 2l-82 -4l-17 -108h-196l196 647h242zM368 256l-44 212h-12l-56 -212l56 -1z" />
    <glyph glyph-name="uni0411" unicode="&#x411;" horiz-adv-x="630" 
d="M551 363.5q55 -44.5 55 -130.5q0 -72 -37 -124.5t-107 -80.5t-165 -28h-238l11 189l-11 458h510l10 -14l-12 -146l-167 6h-142l-2 -85h133q107 0 162 -44.5zM380.5 161q14.5 19 14.5 46q0 32 -19 49t-54 16l-69 -2l-2 -61l3 -70l84 -6q28 9 42.5 28z" />
    <glyph glyph-name="uni0412" unicode="&#x412;" horiz-adv-x="626" 
d="M574.5 279.5q28.5 -35.5 28.5 -92.5q0 -101 -82.5 -147.5t-246.5 -46.5q-91 0 -215 7l10 190l-10 457l289 1q110 0 172 -42.5t62 -123.5q0 -50 -25.5 -88.5t-73.5 -60.5q63 -18 91.5 -53.5zM353.5 501.5q-24.5 13.5 -91.5 13.5h-9l-4 -132l75 -3q28 9 41 26t13 47
q0 35 -24.5 48.5zM376.5 143q23.5 18 23.5 52q0 23 -13.5 37t-43.5 24l-97 -2l-1 -44l3 -81q50 -4 64 -4q41 0 64.5 18z" />
    <glyph glyph-name="uni0413" unicode="&#x413;" horiz-adv-x="477" 
d="M468 633l-12 -146l-145 6h-52l-7 -283l8 -210h-201l10 190l-10 457h399z" />
    <glyph glyph-name="uni0414" unicode="&#x414;" horiz-adv-x="737" 
d="M724 162v-299l-145 -10l-25 147h-370l-23 -137l-148 -10v309h51q46 18 70.5 52t40 100t30.5 195l16 138h424l-11 -437l2 -48h88zM450 162l1 28l-7 309h-65l-3 -27q-16 -130 -36.5 -201t-53.5 -109h164z" />
    <glyph glyph-name="uni0415" unicode="&#x415;" horiz-adv-x="565" 
d="M516 160l11 -14l-12 -146h-456l10 190l-10 457h464l11 -14l-13 -146l-159 6h-103l-2 -91h99l104 3l11 -14l-12 -146l-116 3h-90l-1 -38l2 -56h96z" />
    <glyph glyph-name="uni0416" unicode="&#x416;" horiz-adv-x="939" 
d="M934 41l-3 -21q-103 -23 -197 -32l-21 12q-75 136 -152 295l-2 -85l8 -210h-197l9 190l-2 104q-52 -109 -151 -294l-22 -12q-93 9 -196 32l-3 21q106 151 195 300l-176 306h208l32 -70l111 -198l-5 268h200l-7 -269l112 199l32 70h208l-176 -306q89 -149 195 -300z" />
    <glyph glyph-name="uni0417" unicode="&#x417;" horiz-adv-x="550" 
d="M498 279.5q29 -35.5 29 -92.5q0 -97 -79 -148t-226 -51q-57 0 -110 7.5t-91 20.5l34 159l14 8q32 -14 73 -22.5t79 -8.5q49 0 76 14.5t27 40.5q0 29 -35 45h-160l-11 14l12 134l144 -2q28 18 28 51q0 24 -18 33t-65 9q-68 0 -162 -20l-17 10l16 158q76 19 169 19
q136 0 208.5 -45.5t72.5 -130.5q0 -50 -26 -88.5t-74 -60.5q63 -18 92 -53.5z" />
    <glyph glyph-name="uni0418" unicode="&#x418;" horiz-adv-x="715" 
d="M69 190l-10 452l204 10l-14 -353h12l182 348h214l-11 -437l8 -210h-201l10 190l1 160h-12l-183 -350h-210z" />
    <glyph glyph-name="uni0419" unicode="&#x419;" horiz-adv-x="715" 
d="M69 190l-10 452l204 10l-14 -353h12l182 348h214l-11 -437l8 -210h-201l10 190l1 160h-12l-183 -350h-210zM552 802q-28 -53 -83.5 -82.5t-128.5 -29.5q-72 0 -125 28.5t-81 83.5l98 67h19q15 -39 35 -53t59 -14q38 0 57 13.5t34 53.5h17z" />
    <glyph glyph-name="uni041A" unicode="&#x41a;" horiz-adv-x="650" 
d="M646 42l-3 -22q-105 -23 -200 -32l-22 12q-102 175 -167 297l-2 -87l8 -210h-201l10 190l-10 457h204l-7 -270l124 200l34 70h212l-190 -306q92 -144 210 -299z" />
    <glyph glyph-name="uni041B" unicode="&#x41b;" horiz-adv-x="661" 
d="M592 210l8 -210h-201l10 190l-7 309h-69l-4 -27q-26 -199 -55 -302t-71.5 -145t-114.5 -42h-49l-32 165q48 8 75 40t44 104.5t34 216.5l16 138h427z" />
    <glyph glyph-name="uni041C" unicode="&#x41c;" horiz-adv-x="819" 
d="M781 0h-176l-5 196l-11 163h-12l-104 -298h-151l-86 298h-12l-14 -144l-10 -215h-167l63 647h231l19 -92l57 -235h12l63 228l23 99h228z" />
    <glyph glyph-name="uni041D" unicode="&#x41d;" horiz-adv-x="707" 
d="M638 210l8 -210h-201l10 190l-1 50l-108 2l-93 -3l-1 -29l8 -210h-201l10 190l-10 457h204l-6 -245l101 -2l92 2l-5 245h204z" />
    <glyph glyph-name="uni041E" unicode="&#x41e;" horiz-adv-x="669" 
d="M567 575.5q77 -83.5 77 -235.5q0 -168 -84.5 -260t-239.5 -92q-141 0 -218 84.5t-77 239.5q0 166 84.5 256.5t239.5 90.5q141 0 218 -83.5zM272 485.5q-20 -13.5 -28.5 -47.5t-8.5 -99q0 -83 9 -126t30.5 -60t63.5 -17q39 0 59 13.5t28.5 48t8.5 99.5q0 82 -9 125
t-30.5 60t-63.5 17q-39 0 -59 -13.5z" />
    <glyph glyph-name="uni041F" unicode="&#x41f;" horiz-adv-x="685" 
d="M616 210l8 -210h-201l10 190l-7 305h-167l-7 -285l8 -210h-201l10 190l-10 457h568z" />
    <glyph glyph-name="uni0420" unicode="&#x420;" horiz-adv-x="606" 
d="M533.5 594.5q58.5 -53.5 58.5 -152.5q0 -77 -36 -135.5t-102 -91t-152 -32.5h-49l7 -183h-201l10 190l-10 457l307 1q109 0 167.5 -53.5zM369.5 361.5q12.5 23.5 12.5 60.5q0 44 -21 64.5t-66 22.5l-36 -3l-4 -179l75 -4q27 15 39.5 38.5z" />
    <glyph glyph-name="uni0421" unicode="&#x421;" horiz-adv-x="542" 
d="M521 631l-34 -159l-13 -8q-26 14 -60 22.5t-63 8.5q-61 0 -88 -35.5t-27 -118.5q0 -97 31 -141.5t97 -44.5q28 0 62.5 5.5t60.5 15.5l16 -10l-16 -158q-60 -19 -139 -19q-161 0 -242.5 84t-81.5 245q0 162 87.5 251t247.5 89q86 0 162 -27z" />
    <glyph glyph-name="uni0422" unicode="&#x422;" horiz-adv-x="523" 
d="M514 633l-11 -146l-132 6h-12l-5 -283l8 -210h-200l10 190l-5 303h-13l-133 -6l-12 14l11 146h483z" />
    <glyph glyph-name="uni0423" unicode="&#x423;" horiz-adv-x="617" 
d="M615 647l-164 -430q-43 -94 -83.5 -141.5t-97 -67t-148.5 -19.5l-13 2q-23 72 -33 158l7 17q95 6 139 17l-223 464h213l28 -84l80 -219h12l70 231l19 72h194z" />
    <glyph glyph-name="uni0424" unicode="&#x424;" horiz-adv-x="834" 
d="M738 135.5q-78 -69.5 -232 -84.5l2 -89h-184l3 88q-309 26 -309 273q0 136 77 204.5t230 83.5l-1 73h187l-1 -71q306 -29 306 -273q0 -135 -78 -204.5zM238 236.5q29 -31.5 95 -41.5l-5 271q-63 -10 -91 -41.5t-28 -92.5q0 -64 29 -95.5zM596 232.5q29 30.5 29 91.5
q0 64 -27.5 97t-90.5 44l-5 -255v-17q65 9 94 39.5z" />
    <glyph glyph-name="uni0425" unicode="&#x425;" horiz-adv-x="659" 
d="M458 342l195 -342h-239l-34 79l-58 105l-74 -115l-32 -69h-203l192 311l-198 336h240l35 -81l57 -102l65 113l30 70h209z" />
    <glyph glyph-name="uni0426" unicode="&#x426;" horiz-adv-x="704" 
d="M691 162v-299l-145 -10l-25 147h-462l10 190l-10 457h204l-11 -437l2 -48h163l1 28l-10 457h204l-11 -437l2 -48h88z" />
    <glyph glyph-name="uni0427" unicode="&#x427;" horiz-adv-x="630" 
d="M561 210l8 -210h-201l10 190l-1 62h-11q-45 -48 -114 -74q-107 0 -160.5 51t-55.5 155l-6 263h204l-3 -211q-1 -44 15.5 -67t48.5 -23q33 0 79 26l-6 275h204z" />
    <glyph glyph-name="uni0428" unicode="&#x428;" horiz-adv-x="962" 
d="M893 210l8 -210h-842l10 190l-10 457h204l-11 -437l2 -48h134l2 28l-11 457h205l-11 -437l2 -48h134l1 28l-10 457h204z" />
    <glyph glyph-name="uni0429" unicode="&#x429;" horiz-adv-x="1000" 
d="M987 162v-299l-145 -10l-25 147h-758l10 190l-10 457h204l-11 -437l2 -48h134l2 28l-11 457h205l-11 -437l2 -48h134l1 28l-10 457h204l-11 -437l2 -48h92z" />
    <glyph glyph-name="uni042A" unicode="&#x42a;" horiz-adv-x="703" 
d="M637 375.5q54 -46.5 54 -134.5q0 -74 -36.5 -128t-105 -83.5t-161.5 -29.5h-228l11 189l-7 304h-47l-96 -6l-12 14l11 146h343l-6 -225h122q104 0 158 -46.5zM466.5 165.5q13.5 20.5 13.5 48.5q0 33 -18 52t-51 18l-57 -2l-2 -73l3 -68l73 -5q25 9 38.5 29.5z" />
    <glyph glyph-name="uni042B" unicode="&#x42b;" horiz-adv-x="867" 
d="M504.5 375.5q50.5 -46.5 50.5 -134.5q0 -74 -34.5 -128t-100 -83.5t-154.5 -29.5h-220l11 189l-11 459h203l-6 -226h114q97 0 147.5 -46.5zM798 210l8 -210h-201l10 190l-10 457h204zM335.5 166q11.5 21 11.5 48q0 32 -16 51.5t-42 18.5l-49 -2l-2 -73l3 -68l65 -5
q18 9 29.5 30z" />
    <glyph glyph-name="uni042C" unicode="&#x42c;" horiz-adv-x="611" 
d="M545 375.5q54 -46.5 54 -134.5q0 -74 -36.5 -128t-105.5 -83.5t-163 -29.5h-235l11 189l-11 459h203l-6 -226h130q105 0 159 -46.5zM374.5 165.5q13.5 20.5 13.5 48.5q0 33 -19 52t-52 18l-64 -2l-2 -73l3 -67l81 -6q26 9 39.5 29.5z" />
    <glyph glyph-name="uni042D" unicode="&#x42d;" horiz-adv-x="580" 
d="M473 579.5q82 -78.5 82 -240.5q0 -172 -90.5 -261t-265.5 -89q-93 0 -177 27l34 159l14 8q31 -14 71.5 -22.5t75.5 -8.5q56 0 84.5 22t37.5 74h-89l-124 -3l-11 14l12 146l136 -3h74q-11 49 -41 69t-89 20q-58 0 -151 -20l-17 10l16 158q83 19 167 19q169 0 251 -78.5z
" />
    <glyph glyph-name="uni042E" unicode="&#x42e;" horiz-adv-x="924" 
d="M826.5 575.5q71.5 -83.5 71.5 -235.5q0 -168 -79 -260t-223 -92q-114 0 -183.5 66t-85.5 187l-42 1l-32 -2l-1 -30l8 -210h-201l10 190l-10 457h204l-6 -246l37 -1l36 1q20 124 96 191t199 67q130 0 201.5 -83.5zM660.5 149.5q15.5 13.5 21.5 47t6 100.5q0 83 -7 125.5
t-24 59.5t-50 17q-30 0 -45.5 -13.5t-22 -47t-6.5 -99.5q0 -83 7 -126t24 -60t50 -17q31 0 46.5 13.5z" />
    <glyph glyph-name="uni042F" unicode="&#x42f;" horiz-adv-x="637" 
d="M568 190l10 -190h-201l7 193h-67q-18 -45 -42 -96.5t-32 -67.5l-12 -25l-19 -16q-114 6 -201 37l-3 22q70 82 153 197q-115 65 -115 182q0 64 34 115t94.5 79.5t136.5 28.5l267 -2zM274.5 488q-17.5 -19 -17.5 -60q0 -35 14 -56t48 -37l63 5l-5 166l-46 3
q-39 -2 -56.5 -21z" />
    <glyph glyph-name="uni0430" unicode="&#x430;" horiz-adv-x="494" 
d="M396 446.5q50 -37.5 50 -107.5q0 -20 -4 -106q-4 -76 -4 -85q0 -11 3.5 -16t10.5 -5t17 3l12 -10l-17 -100q-37 -26 -93 -30q-29 2 -51.5 20t-34.5 51h-7q-44 -51 -100 -72q-76 1 -121.5 42.5t-45.5 113.5q0 111 115 127l142 19v12q0 26 -10.5 37t-36.5 11
q-56 0 -145 -48l-12 8l-21 123q46 24 101.5 37t109.5 13q92 0 142 -37.5zM211 198q-14 -2 -20.5 -10.5t-6.5 -25.5q0 -40 37 -40q24 0 47 16v68z" />
    <glyph glyph-name="uni0431" unicode="&#x431;" horiz-adv-x="515" 
d="M453 405.5q47 -55.5 47 -164.5q0 -253 -247 -253q-82 0 -130.5 31t-71 99t-22.5 183q0 106 19 172t63 106t121 63l93 28q54 16 99 35l16 -12l7 -153q-25 -6 -96 -20l-88 -18q-29 -6 -40 -20t-11 -43v-47l9 -2q44 54 93 71q92 0 139 -55.5zM307 131.5q10 17.5 10 67.5
q0 63 -14 87.5t-51 24.5q-22 0 -40 -11q0 -79 4.5 -118t16.5 -53.5t36 -14.5q28 0 38 17.5z" />
    <glyph glyph-name="uni0432" unicode="&#x432;" horiz-adv-x="515" 
d="M479 203q19 -25 19 -65q0 -76 -62.5 -110t-185.5 -34q-72 0 -206 6l9 190l-7 282h265q84 0 130 -31.5t46 -91.5q0 -35 -18.5 -63t-52.5 -44q44 -14 63 -39zM227 360l-3 -76l58 -3q15 6 21.5 15.5t6.5 26.5q0 22 -15.5 29.5t-64.5 7.5h-3zM309.5 115q11.5 10 11.5 29
q0 11 -5 18.5t-18 14.5l-76 -1l3 -67q29 -4 54 -4q19 0 30.5 10z" />
    <glyph glyph-name="uni0433" unicode="&#x433;" horiz-adv-x="394" 
d="M394 461l-10 -127l-107 6h-42l-4 -130l8 -210h-195l9 190l-7 282h340z" />
    <glyph glyph-name="uni0434" unicode="&#x434;" horiz-adv-x="582" 
d="M562 137v-263l-122 -8l-22 134h-269l-21 -126l-123 -8v271h33q30 17 46 39.5t26 64t22 125.5l14 105h370l-9 -261l3 -73h52zM330 137l3 53l-4 157h-50l-2 -14q-10 -79 -23 -124.5t-34 -71.5h110z" />
    <glyph glyph-name="uni0435" unicode="&#x435;" horiz-adv-x="486" 
d="M440 196l-248 -2q9 -35 34 -51.5t69 -16.5q49 0 143 25l14 -10l-30 -132q-79 -21 -147 -21q-124 0 -193.5 66t-69.5 182q0 115 66 181t181 66q99 0 153.5 -52t54.5 -145q0 -30 -6 -65zM302 306q0 53 -45 53q-55 0 -67 -71l110 4z" />
    <glyph glyph-name="uni0436" unicode="&#x436;" horiz-adv-x="789" 
d="M785 32l-1 -20q-65 -13 -183 -24l-20 10q-59 110 -97 222v-10l8 -210h-195l9 190l-1 31q-39 -115 -97 -223l-20 -10q-118 11 -183 24l-1 20q78 135 124 231l-117 209h199l20 -56l74 -142l-5 198h194l-7 -195l73 139l20 56h199l-117 -209q46 -96 124 -231z" />
    <glyph glyph-name="uni0437" unicode="&#x437;" horiz-adv-x="424" 
d="M389 203.5q20 -24.5 20 -66.5q0 -72 -61.5 -109t-178.5 -37q-95 0 -154 15l29 135l12 7q24 -7 54.5 -11.5t57.5 -4.5q66 0 66 23q0 7 -11 17h-125l-9 12l11 115l110 -1q10 9 10 21t-10 15t-44 3q-58 0 -120 -6l-14 9l13 134q47 6 126 6q110 0 167.5 -34t57.5 -98
q0 -36 -18.5 -63.5t-53.5 -43.5q45 -13 65 -37.5z" />
    <glyph glyph-name="uni0438" unicode="&#x438;" horiz-adv-x="572" 
d="M53 190l-9 278l194 8l-7 -217h10l93 213h193l-9 -257l9 -215h-194l9 177l1 50h-10l-100 -227h-189z" />
    <glyph glyph-name="uni0439" unicode="&#x439;" horiz-adv-x="572" 
d="M53 190l-9 278l194 8l-7 -217h10l93 213h193l-9 -257l9 -215h-194l9 177l1 50h-10l-100 -227h-189zM480 647q-26 -53 -78 -82.5t-120 -29.5q-66 0 -115 28.5t-76 83.5l98 67h18q14 -39 31 -53t49 -14t47.5 13t30.5 54h16z" />
    <glyph glyph-name="uni043A" unicode="&#x43a;" horiz-adv-x="538" 
d="M535 32l-1 -20q-65 -13 -183 -24l-20 10q-63 116 -101 225v-13l8 -210h-195l9 190l-7 271l194 13l-7 -200l76 142l21 56h199l-120 -209q47 -96 127 -231z" />
    <glyph glyph-name="uni043B" unicode="&#x43b;" horiz-adv-x="531" 
d="M477 210l8 -210h-195l9 190l-4 155h-43l-2 -13q-21 -145 -43 -218t-54 -101.5t-87 -26.5l-41 1l-27 152q34 8 53 28.5t31 65.5t23 132l13 105l-1 2h369z" />
    <glyph glyph-name="uni043C" unicode="&#x43c;" horiz-adv-x="648" 
d="M74 471h195l14 -65l36 -149h9l42 140l18 74h192l38 -471h-154l1 143l-5 89h-11l-73 -191h-124l-59 191h-10l-7 -73l-8 -159h-143z" />
    <glyph glyph-name="uni043D" unicode="&#x43d;" horiz-adv-x="571" 
d="M517 210l8 -210h-195l8 162l-57 1l-48 -3l6 -160h-195l9 190l-7 282h194l-6 -168l57 -1l45 1l-4 168h194z" />
    <glyph glyph-name="uni043E" unicode="&#x43e;" horiz-adv-x="499" 
d="M427 424q57 -60 57 -177q0 -128 -61.5 -193.5t-181.5 -65.5q-112 0 -169 59.5t-57 175.5q0 129 61.5 195t181.5 66q112 0 169 -60zM214 345.5q-10 -7.5 -13.5 -27.5t-3.5 -61q0 -61 4.5 -90.5t16.5 -41t37 -11.5q20 0 29.5 7.5t13 28t3.5 61.5q0 60 -4.5 89.5t-16.5 41
t-36 11.5q-20 0 -30 -7.5z" />
    <glyph glyph-name="uni043F" unicode="&#x43f;" horiz-adv-x="560" 
d="M506 210l8 -210h-195l9 190l-4 148h-89l-4 -128l8 -210h-195l9 190l-7 282h469z" />
    <glyph glyph-name="uni0440" unicode="&#x440;" horiz-adv-x="535" 
d="M471 418q49 -61 49 -170q0 -124 -63.5 -192t-178.5 -68q-20 0 -43 3l4 -176h-194l8 375l-7 271l185 13v-70h7q42 50 96 75q88 0 137 -61zM320.5 134q16.5 26 16.5 83q0 56 -16 82t-51 26q-22 0 -39 -12v-103l2 -97q20 -5 34 -5q37 0 53.5 26z" />
    <glyph glyph-name="uni0441" unicode="&#x441;" horiz-adv-x="400" 
d="M382 460l-31 -148l-14 -7q-27 11 -44 16t-32 5q-31 0 -46 -18.5t-15 -58.5q0 -57 17.5 -83t55.5 -26q31 0 85 15l13 -11l-20 -143q-52 -13 -125 -13q-101 0 -156.5 62.5t-55.5 177.5q0 122 64.5 189t181.5 67q68 0 122 -24z" />
    <glyph glyph-name="uni0442" unicode="&#x442;" horiz-adv-x="428" 
d="M429 461l-10 -126l-101 5h-10l-4 -130l8 -210h-195l9 190l-4 150h-11l-101 -5l-10 12l9 125h410z" />
    <glyph glyph-name="uni0443" unicode="&#x443;" horiz-adv-x="483" 
d="M197 386l51 -197h10l47 179l19 104h164l-138 -423q-23 -69 -55 -113.5t-81 -75t-127 -54.5l-13 2q-50 47 -85 116l7 17q92 14 170 59l-171 469l186 7z" />
    <glyph glyph-name="uni0444" unicode="&#x444;" horiz-adv-x="723" 
d="M454 -11l2 -174h-188l2 172q-131 13 -195.5 73.5t-64.5 170.5q0 109 64 170.5t195 77.5l-2 163l192 13l-3 -176q130 -13 193.5 -73t63.5 -168q0 -218 -259 -249zM211 158.5q18 -28.5 61 -39.5l1 71l-2 156q-44 -9 -61 -33t-17 -73q0 -53 18 -81.5zM512 156.5
q18 27.5 18 78.5q0 50 -17 74.5t-60 34.5l-2 -129l1 -97q42 11 60 38.5z" />
    <glyph glyph-name="uni0445" unicode="&#x445;" horiz-adv-x="498" 
d="M235 407l29 -63l36 72l27 55h167l-125 -233l125 -233l-205 -13l-25 72l-28 64l-38 -73l-24 -55h-168l123 234l-125 234l209 7z" />
    <glyph glyph-name="uni0446" unicode="&#x446;" horiz-adv-x="585" 
d="M570 140v-266l-125 -9l-22 135h-379l9 190l-7 282h194l-9 -262l3 -71h91l2 51l-7 282h194l-9 -262l3 -70h62z" />
    <glyph glyph-name="uni0447" unicode="&#x447;" horiz-adv-x="521" 
d="M467 210l8 -210h-195l8 177h-10q-37 -34 -85 -53q-86 0 -127 36.5t-43 114.5l-5 197h193l-4 -158q0 -23 10.5 -35t28.5 -12q16 0 41 11l-5 194h194z" />
    <glyph glyph-name="uni0448" unicode="&#x448;" horiz-adv-x="772" 
d="M719 209l7 -209h-681l8 190l-6 280h178l-9 -261l3 -70h83l2 51l-7 280h180l-9 -261l2 -70h84l2 51l-6 280h177z" />
    <glyph glyph-name="uni0449" unicode="&#x449;" horiz-adv-x="808" 
d="M801 140v-266l-125 -9l-22 135h-609l8 190l-6 280h178l-9 -261l3 -70h83l2 51l-7 280h180l-9 -261l2 -70h84l2 51l-6 280h177l-8 -261l2 -69h80z" />
    <glyph glyph-name="uni044A" unicode="&#x44a;" horiz-adv-x="557" 
d="M512 285q44 -34 44 -98q0 -86 -65.5 -136.5t-177.5 -50.5h-204l9 190l-4 150h-20l-84 -6l-10 12l9 126h287l-6 -153h94q84 0 128 -34zM364 136q8 14 8 28q0 20 -12 33t-31 12l-43 -1l4 -90l53 -3q13 7 21 21z" />
    <glyph glyph-name="uni044B" unicode="&#x44b;" horiz-adv-x="767" 
d="M713 210l8 -210h-195l9 190l-7 271l194 13zM452.5 285.5q43.5 -33.5 43.5 -98.5q0 -86 -64.5 -136.5t-174.5 -50.5h-213l9 190l-7 282h194l-5 -153h91q83 0 126.5 -33.5zM305 136q7 14 7 28q0 20 -11.5 33t-29.5 12l-40 -1l4 -90l52 -3q11 7 18 21z" />
    <glyph glyph-name="uni044C" unicode="&#x44c;" horiz-adv-x="508" 
d="M462 285.5q45 -33.5 45 -98.5q0 -86 -66.5 -136.5t-180.5 -50.5h-216l9 190l-7 282h194l-5 -153h96q86 0 131 -33.5zM314 136q9 14 9 28q0 20 -13 33t-34 12l-45 -1l4 -90l56 -3q14 7 23 21z" />
    <glyph glyph-name="uni044D" unicode="&#x44d;" horiz-adv-x="450" 
d="M371.5 423q65.5 -61 65.5 -177q0 -123 -71.5 -190.5t-202.5 -67.5q-79 0 -146 24l32 133l15 7q35 -12 56.5 -16.5t44.5 -4.5q35 0 56 10t31 32l-153 -3l-9 12l9 113l97 -2h49q-27 44 -98 44q-46 0 -106 -15l-15 11l20 138q57 13 135 13q125 0 190.5 -61z" />
    <glyph glyph-name="uni044E" unicode="&#x44e;" horiz-adv-x="749" 
d="M677.5 424q55.5 -60 55.5 -177q0 -128 -59.5 -193.5t-177.5 -65.5q-94 0 -148.5 44t-68.5 130l-31 1l-15 -1l6 -162h-195l9 190l-7 282h194l-6 -168l22 -1h26q16 90 74 135.5t156 45.5q110 0 165.5 -60zM536 121.5q8 7.5 11 27.5t3 62q0 61 -3.5 90t-14.5 40.5t-34 11.5
q-18 0 -26.5 -7.5t-11.5 -27t-3 -61.5q0 -62 4 -91t14.5 -40.5t34.5 -11.5q18 0 26 7.5z" />
    <glyph glyph-name="uni044F" unicode="&#x44f;" horiz-adv-x="519" 
d="M465 210l8 -210h-184l7 140h-45q-21 -56 -56 -136l-15 -13q-115 5 -175 31l-3 19q45 49 107 132q-41 20 -59.5 51.5t-18.5 81.5q0 47 26.5 85.5t73 60t104.5 21.5l239 -1zM214 309q0 -25 10.5 -40.5t34.5 -23.5l39 4v104l-41 3q-43 -1 -43 -47z" />
    <glyph glyph-name="uni0450" unicode="&#x450;" horiz-adv-x="486" 
d="M440 196l-248 -2q9 -35 34 -51.5t69 -16.5q49 0 143 25l14 -10l-30 -132q-79 -21 -147 -21q-124 0 -193.5 66t-69.5 182q0 115 66 181t181 66q99 0 153.5 -52t54.5 -145q0 -30 -6 -65zM302 306q0 53 -45 53q-55 0 -67 -71l110 4zM394 593l-44 -72l-17 -1q-81 37 -223 109
l-3 17l69 107l17 1q99 -85 201 -161z" />
    </font>
</defs>
</svg>
