<?xml version="1.0" standalone="no"?>
<!DOCTYPE svg PUBLIC "-//W3C//DTD SVG 1.1//EN" "http://www.w3.org/Graphics/SVG/1.1/DTD/svg11.dtd" >
<svg xmlns="http://www.w3.org/2000/svg" xmlns:xlink="http://www.w3.org/1999/xlink" version="1.1">
<metadata>
Created by FontForge 20170731 at Thu Nov  9 17:49:08 2017
 By Aleksey,,,
Copyright 2013 The Alegreya Sans Project Authors (https://github.com/huertatipografica/Alegreya-Sans)
</metadata>
<defs>
<font id="AlegreyaSans-BlackItalic" horiz-adv-x="0" >
  <font-face 
    font-family="Alegreya Sans Black"
    font-weight="900"
    font-style="italic"
    font-stretch="normal"
    units-per-em="1000"
    panose-1="0 0 10 0 0 0 0 0 0 0"
    ascent="800"
    descent="-200"
    x-height="476"
    cap-height="647"
    bbox="-450 -312 1340 1113"
    underline-thickness="42"
    underline-position="-212"
    slope="-7"
    unicode-range="U+000D-FB02"
  />
<missing-glyph horiz-adv-x="135" 
 />
    <glyph glyph-name="Idieresis" unicode="&#xa8;I" horiz-adv-x="327" 
d="M249 210l-18 -210h-200l34 190l46 457h203zM205 865q20 -20 20 -57q0 -39 -22.5 -62t-60.5 -23q-37 0 -56.5 20t-19.5 57q0 40 22.5 62.5t60.5 22.5q36 0 56 -20zM375 865q20 -20 20 -57q0 -39 -22.5 -62t-60.5 -23t-57.5 20t-19.5 57q0 40 22.5 62.5t60.5 22.5
q37 0 57 -20z" />
    <glyph glyph-name="Odieresis" unicode="&#xa8;O" horiz-adv-x="658" 
d="M582.5 588.5q71.5 -70.5 71.5 -214.5q0 -112 -41.5 -199.5t-121.5 -137t-192 -49.5q-131 0 -203 71.5t-72 216.5q0 112 41.5 198.5t122 135.5t192.5 49q131 0 202.5 -70.5zM290.5 482q-26.5 -18 -42 -67.5t-15.5 -141.5q0 -54 7 -83t25.5 -42t54.5 -13q39 0 66 18
t42.5 67.5t15.5 141.5q0 53 -7 82.5t-25.5 42.5t-54.5 13q-40 0 -66.5 -18zM364.5 868.5q21.5 -21.5 21.5 -59.5q0 -42 -23.5 -66.5t-64.5 -24.5q-40 0 -60.5 21.5t-20.5 61.5q0 42 23.5 65.5t64.5 23.5q38 0 59.5 -21.5zM558 868.5q21 -21.5 21 -59.5q0 -42 -23.5 -66.5
t-63.5 -24.5t-61 21.5t-21 61.5q0 42 24 65.5t65 23.5q38 0 59 -21.5z" />
    <glyph glyph-name="Yacute" unicode="&#xb4;Y" horiz-adv-x="594" 
d="M379 204l-6 -34l-12 -170h-199l30 170l3 37l-152 440h208l9 -54l49 -196h12l109 189l30 61h204zM465 913l49 -116l-6 -16q-132 -42 -238 -69l-17 4l-30 79q114 56 225 122z" />
    <glyph glyph-name="idieresis" unicode="&#xa8;i" horiz-adv-x="260" 
d="M197 116l-5 -109l-177 -11l47 356l4 113l177 11zM150 690q20 -20 20 -57q0 -39 -22.5 -62t-60.5 -23q-37 0 -56.5 20t-19.5 57q0 40 22.5 62.5t60.5 22.5q36 0 56 -20zM320 690q20 -20 20 -57q0 -39 -22.5 -62t-60.5 -23t-57.5 20t-19.5 57q0 40 22.5 62.5t60.5 22.5
q37 0 57 -20z" />
    <glyph glyph-name="odieresis" unicode="&#xa8;o" horiz-adv-x="468" 
d="M306 482q70 -16 110 -61.5t40 -119.5q0 -142 -74 -224t-204 -89l-16 2q-71 16 -110.5 64t-39.5 129q0 88 34 154t96.5 104t147.5 43zM207.5 331.5q-15.5 -16.5 -20.5 -51.5t-5 -101q0 -34 6.5 -46.5t25.5 -12.5q31 0 45.5 16.5t19.5 51.5t5 102q0 33 -6 45.5t-23 12.5
q-32 0 -47.5 -16.5zM252.5 693.5q21.5 -21.5 21.5 -59.5q0 -42 -23.5 -66.5t-64.5 -24.5q-40 0 -60.5 21.5t-20.5 61.5q0 42 23.5 65.5t64.5 23.5q38 0 59.5 -21.5zM446 693.5q21 -21.5 21 -59.5q0 -42 -23.5 -66.5t-63.5 -24.5t-61 21.5t-21 61.5q0 42 24 65.5t65 23.5
q38 0 59 -21.5z" />
    <glyph glyph-name="yacute" unicode="&#xb4;y" horiz-adv-x="484" 
d="M488 401q0 -40 -10.5 -77t-33.5 -77l-100 -198q-65 -129 -132 -187t-151 -58q-49 0 -109 18l7 149l15 16q44 -10 85 -10q46 0 78 16l-106 473l178 10l7 -91l28 -200h13l35 87q25 60 25 110q0 37 -13 60l8 17l162 20q14 -49 14 -78zM366 753l69 -106l-3 -17
q-142 -72 -223 -109l-17 1l-44 72q99 73 201 160z" />
    <glyph glyph-name="Itilde" unicode="&#x7e;I" horiz-adv-x="327" 
d="M249 210l-18 -210h-200l34 190l46 457h203zM402 858v-16l-72 -111l-15 -6q-22 4 -72 19q-41 13 -51 13q-17 0 -29 -13.5t-31 -42.5h-16l-56 55v16l72 110l15 6q22 -4 72 -19q41 -13 51 -13q17 0 29 13.5t31 42.5h16z" />
    <glyph glyph-name="itilde" unicode="&#x7e;i" horiz-adv-x="260" 
d="M197 116l-5 -109l-177 -11l47 356l4 113l177 11zM347 683v-16l-72 -111l-15 -6q-22 4 -72 19q-41 13 -51 13q-17 0 -29 -13.5t-31 -42.5h-16l-56 55v16l72 110l15 6q22 -4 72 -19q41 -13 51 -13q17 0 29 13.5t31 42.5h16z" />
    <glyph glyph-name="Utilde" unicode="&#x7e;U" horiz-adv-x="653" 
d="M610 319l-13 -103q-14 -111 -90 -169.5t-210 -58.5q-119 0 -185.5 48t-66.5 137q0 21 3 43l15 103l34 328h200l-58 -404q-2 -20 -2 -27q0 -37 18 -54t59 -17q47 0 71 23t29 75l40 404h203zM593 861v-16l-81 -113l-16 -6q-27 3 -86 20q-8 2 -32.5 8t-34.5 6q-17 0 -30 -13
t-39 -45h-16l-57 55v16l81 112l16 6q27 -3 86 -20q8 -2 32.5 -8t34.5 -6q17 0 30 13t39 45h16z" />
    <glyph glyph-name="utilde" unicode="&#x7e;u" horiz-adv-x="514" 
d="M498 476l-47 -360l-4 -109l-177 -11l16 121h-13q-51 -70 -104 -120l-13 -1q-64 7 -101 36.5t-37 72.5l2 20l37 226l4 112l181 11l-42 -262l-1 -13q0 -23 18 -23q29 0 89 95l11 81l4 113zM502 686v-16l-81 -113l-16 -6q-27 3 -86 20q-8 2 -32.5 8t-34.5 6q-17 0 -30 -13
t-39 -45h-16l-57 55v16l81 112l16 6q27 -3 86 -20q8 -2 32.5 -8t34.5 -6q17 0 30 13t39 45h16z" />
    <glyph glyph-name="uni1EBC" unicode="&#x7e;E" horiz-adv-x="540" 
d="M291 494l-13 -92h98l105 3l9 -14l-30 -146l-115 3h-90l-6 -38l-5 -57h96l167 6l9 -14l-30 -145h-455l33 190l47 457h463l9 -14l-31 -145l-158 6h-103zM553 861v-16l-81 -113l-16 -6q-27 3 -86 20q-8 2 -32.5 8t-34.5 6q-17 0 -30 -13t-39 -45h-16l-57 55v16l81 112l16 6
q27 -3 86 -20q8 -2 32.5 -8t34.5 -6q17 0 30 13t39 45h16z" />
    <glyph glyph-name="uni1EBD" unicode="&#x7e;e" horiz-adv-x="436" 
d="M352 179l52 -67q-36 -44 -83.5 -75.5t-102.5 -47.5h-16q-97 11 -143.5 58.5t-46.5 135.5q0 87 33.5 153t95.5 104.5t146 43.5l16 -2q59 -11 90 -44t31 -84q0 -62 -56.5 -103t-186.5 -73q4 -28 16 -41t33 -13q20 0 40.5 12t61.5 47zM198 348q-15 -23 -19 -72q49 11 69 26
t20 41q0 15 -6.5 21.5t-20.5 6.5q-28 0 -43 -23zM458 686v-16l-81 -113l-16 -6q-27 3 -86 20q-8 2 -32.5 8t-34.5 6q-17 0 -30 -13t-39 -45h-16l-57 55v16l81 112l16 6q27 -3 86 -20q8 -2 32.5 -8t34.5 -6q17 0 30 13t39 45h16z" />
    <glyph glyph-name="uni1EF8" unicode="&#x7e;Y" horiz-adv-x="594" 
d="M379 204l-6 -34l-12 -170h-199l30 170l3 37l-152 440h208l9 -54l49 -196h12l109 189l30 61h204zM564 861v-16l-81 -113l-16 -6q-27 3 -86 20q-8 2 -32.5 8t-34.5 6q-17 0 -30 -13t-39 -45h-16l-57 55v16l81 112l16 6q27 -3 86 -20q8 -2 32.5 -8t34.5 -6q17 0 30 13t39 45
h16z" />
    <glyph glyph-name="uni1EF9" unicode="&#x7e;y" horiz-adv-x="484" 
d="M488 401q0 -40 -10.5 -77t-33.5 -77l-100 -198q-65 -129 -132 -187t-151 -58q-49 0 -109 18l7 149l15 16q44 -10 85 -10q46 0 78 16l-106 473l178 10l7 -91l28 -200h13l35 87q25 60 25 110q0 37 -13 60l8 17l162 20q14 -49 14 -78zM487 686v-16l-81 -113l-16 -6
q-27 3 -86 20q-8 2 -32.5 8t-34.5 6q-17 0 -30 -13t-39 -45h-16l-57 55v16l81 112l16 6q27 -3 86 -20q8 -2 32.5 -8t34.5 -6q17 0 30 13t39 45h16z" />
    <glyph glyph-name="fi" unicode="fi" horiz-adv-x="592" 
d="M579 471l-45 -355l-5 -109l-177 -11l47 356v10h-133l-22 -152l-25 -198l-4 -109l-177 -11l39 298l18 172h-62l-8 11l12 90h69v3q15 117 84 176.5t186 59.5l137 -22l6 -11l-45 -124l-22 -8q-70 38 -103 38q-26 0 -41 -16t-21 -51l-6 -45h173l118 16z" />
    <glyph glyph-name="fl" unicode="fl" horiz-adv-x="606" 
d="M526 677l-44 -122l-23 -8q-72 34 -109 34q-25 0 -40.5 -16t-21.5 -51l-7 -51h93l12 -14l-13 -87h-107l-22 -152l-25 -198l-4 -109l-177 -11l39 298l18 172h-62l-8 11l12 90h69l1 9q13 117 83.5 176.5t190.5 59.5l136 -17zM537 116l-3 -109l-178 -11l79 584l3 113l178 11z
" />
    <glyph glyph-name="f_j" unicode="fj" horiz-adv-x="600" 
d="M579 471l-45 -355l-8 -82q-10 -80 -58.5 -136t-143.5 -95l-54 80l2 16q37 19 58 49.5t27 75.5l42 328v10h-133l-22 -152l-25 -198l-4 -109l-177 -11l39 298l18 172h-62l-8 11l12 90h69v3q15 117 84 176.5t186 59.5l137 -22l6 -11l-45 -124l-22 -8q-70 38 -103 38
q-26 0 -41 -16t-21 -51l-6 -45h173l118 16z" />
    <glyph glyph-name="Gtilde" unicode="&#x7e;G" horiz-adv-x="599" 
d="M531.5 650q52.5 -8 87.5 -22l-64 -176h-16q-47 25 -82 36t-78 11q-49 0 -80 -18.5t-48.5 -70.5t-17.5 -150q0 -69 25 -95.5t85 -26.5q14 0 36 4l4 33l10 111l184 13l-14 -90l-22 -177q-119 -44 -225 -44q-141 0 -216.5 71t-75.5 199q0 193 103.5 296.5t298.5 103.5
q53 0 105.5 -8zM592 861v-16l-81 -113l-16 -6q-27 3 -86 20q-8 2 -32.5 8t-34.5 6q-17 0 -30 -13t-39 -45h-16l-57 55v16l81 112l16 6q27 -3 86 -20q8 -2 32.5 -8t34.5 -6q17 0 30 13t39 45h16z" />
    <glyph glyph-name="gtilde" unicode="&#x7e;g" horiz-adv-x="480" 
d="M466 476l-46 -343l-3 -83q-10 -79 -48.5 -134.5t-96 -83.5t-125.5 -28q-90 0 -139 45.5t-60 119.5l4 11l132 55l1 12q-58 42 -58 132q0 63 26 122.5t78.5 106.5t126.5 71h6l92 -16l99 21zM190.5 328q-14.5 -30 -14.5 -88q0 -73 22 -73q30 0 95 150l3 26l-63 15
q-28 0 -42.5 -30zM227.5 -55q19.5 18 22.5 54l18 135h-13q-40 -67 -88 -117l-23 -20q-16 -14 -16 -29q0 -17 12 -29t37 -12q31 0 50.5 18zM491 686v-16l-81 -113l-16 -6q-27 3 -86 20q-8 2 -32.5 8t-34.5 6q-17 0 -30 -13t-39 -45h-16l-57 55v16l81 112l16 6q27 -3 86 -20
q8 -2 32.5 -8t34.5 -6q17 0 30 13t39 45h16z" />
    <glyph glyph-name=".notdef" horiz-adv-x="135" 
 />
    <glyph glyph-name=".null" 
 />
    <glyph glyph-name="nonmarkingreturn" unicode="&#xd;" horiz-adv-x="118" 
 />
    <glyph glyph-name="space" unicode=" " horiz-adv-x="118" 
 />
    <glyph glyph-name="exclam" unicode="!" horiz-adv-x="286" 
d="M310 649l-99 -390l-111 -16l-17 18l30 378l19 22l158 11zM202 164q24 -25 24 -69q0 -48 -27 -76t-73 -28t-70 24.5t-24 70.5q0 47 27.5 75t74.5 28q44 0 68 -25z" />
    <glyph glyph-name="quotedbl" unicode="&#x22;" horiz-adv-x="436" 
d="M262 634l-81 -261l-88 -14l-14 11l23 267l151 9zM448 634l-80 -261l-89 -14l-14 11l23 267l151 9z" />
    <glyph glyph-name="numbersign" unicode="#" horiz-adv-x="587" 
d="M467 346l-14 -90h72l11 -12l-8 -96h-92l-19 -117h-111l-8 12l17 105h-92l-19 -117h-110l-9 12l17 105h-71l-11 11l8 97h91l14 90h-72l-11 12l8 97h92l19 117h108l12 -13l-17 -104h91l19 117h107l12 -13l-17 -104h71l11 -12l-8 -97h-91zM346 346h-91l-15 -90h92z" />
    <glyph glyph-name="dollar" unicode="$" horiz-adv-x="469" 
d="M248.5 351q13.5 -8 43.5 -19q40 -15 67.5 -31t48 -44.5t20.5 -72.5q0 -61 -39 -113t-117 -72l-15 -139h-96l-11 14l12 114q-88 4 -162 28l44 160l18 13q36 -31 80 -51t74 -20q26 0 26 19q0 11 -13.5 19t-42.5 19q-41 15 -69 31t-48.5 45t-20.5 74q0 69 46 120.5t127 69.5
l14 130h95l14 -14l-12 -109q64 -6 120 -26l-43 -153l-26 -7q-32 23 -68.5 37t-57.5 14q-22 0 -22 -16q0 -12 13.5 -20z" />
    <glyph glyph-name="percent" unicode="%" horiz-adv-x="896" 
d="M746 647l7 -24l-551 -717l-75 50l-4 17l552 721zM354 617.5q35 -37.5 35 -108.5q0 -106 -54 -167t-151 -61q-67 0 -102.5 37.5t-35.5 107.5q0 107 54.5 168t152.5 61q66 0 101 -37.5zM178.5 516q-15.5 -20 -15.5 -72q0 -27 10 -40t34 -13q39 0 52 22.5t13 68.5
q0 28 -11 41t-36 13q-31 0 -46.5 -20zM835 329.5q35 -37.5 35 -108.5q0 -106 -54 -167t-151 -61q-67 0 -102 37.5t-35 107.5q0 107 54 168t152 61q66 0 101 -37.5zM659.5 227.5q-15.5 -19.5 -15.5 -71.5q0 -28 10 -40.5t34 -12.5q39 0 52.5 23t13.5 68q0 28 -11 40.5
t-37 12.5q-31 0 -46.5 -19.5z" />
    <glyph glyph-name="ampersand" unicode="&#x26;" horiz-adv-x="649" 
d="M511 633l-42 -138l-21 -6q-42 23 -73 34.5t-59 11.5q-71 0 -71 -67q0 -44 18.5 -63.5t55.5 -19.5l197 12l134 18l18 -16l-29 -119l-113 -3l-5 -6q15 -29 15 -73q0 -52 -29 -100t-90 -79t-152 -31q-109 0 -170.5 46t-61.5 128q0 49 33 89t96 68v4q-34 28 -51.5 62.5
t-17.5 79.5q0 58 30.5 101.5t87.5 68t136 24.5q74 0 164 -26zM257 268q-58 -37 -58 -91q0 -37 22 -56t64 -19q55 0 83 26t28 76q0 44 -29 68z" />
    <glyph glyph-name="quotesingle" unicode="'" horiz-adv-x="249" 
d="M262 634l-81 -261l-88 -14l-14 11l23 267l151 9z" />
    <glyph glyph-name="parenleft" unicode="(" horiz-adv-x="307" 
d="M348 602l-2 -15q-75 -71 -106.5 -200.5t-31.5 -246.5q0 -134 58 -205l-2 -15l-76 -57h-17q-59 48 -88 118t-29 167q0 152 48.5 291t166.5 220h17z" />
    <glyph glyph-name="parenright" unicode=")" horiz-adv-x="295" 
d="M-48 -80l2 15q75 71 106.5 200.5t31.5 246.5q0 134 -58 205l2 15l76 57h17q59 -48 88 -118t29 -167q0 -152 -48.5 -291t-166.5 -220h-17z" />
    <glyph glyph-name="asterisk" unicode="*" horiz-adv-x="394" 
d="M301 741l-36 -127l-51 -6l-9 8l-6 118q43 15 97 17zM193 605l-9 -51l-11 -5l-114 30q-1 44 13 97l12 3zM436 561l-7 -8l-132 -4l-23 46l5 11l112 42q27 -39 45 -87zM293 533l75 -93q-24 -33 -69 -70l-10 4l-45 125l37 35zM225 509l2 -11l-64 -100q-38 11 -89 42l1 12
l104 81z" />
    <glyph glyph-name="plus" unicode="+" horiz-adv-x="477" 
d="M332 469l-18 -149h147l11 -13l-24 -117h-150l-19 -152l-118 -9l-12 12l19 149h-149l-10 13l23 117h152l18 152l118 9z" />
    <glyph glyph-name="comma" unicode="," horiz-adv-x="229" 
d="M182.5 133q11.5 -26 11.5 -57q0 -58 -36.5 -111t-114.5 -107l-61 53l-2 14q29 25 42.5 51.5t13.5 57.5q0 42 -33 74l1 16q72 40 143 58q24 -23 35.5 -49z" />
    <glyph glyph-name="hyphen" unicode="-" horiz-adv-x="300" 
d="M284 326l-13 -120l-240 -38l-12 14l14 120l239 38z" />
    <glyph glyph-name="period" unicode="." horiz-adv-x="230" 
d="M169 164q24 -25 24 -69q0 -48 -27 -76t-73 -28t-70 24.5t-24 70.5q0 47 27.5 75t74.5 28q44 0 68 -25z" />
    <glyph glyph-name="slash" unicode="/" horiz-adv-x="280" 
d="M353 667l-263 -785h-135l-10 15l263 786h131z" />
    <glyph glyph-name="zero" unicode="0" horiz-adv-x="517" 
d="M442 467.5q51 -56.5 51 -168.5q0 -91 -32.5 -161.5t-93 -110t-141.5 -39.5q-96 0 -147 57.5t-51 168.5q0 89 32.5 159.5t93 110.5t142.5 40q95 0 146 -56.5zM200 318q-19 -25 -19 -78q0 -44 14.5 -63t54.5 -19q48 0 69 26t21 79q0 45 -15.5 62.5t-55.5 17.5
q-50 0 -69 -25z" />
    <glyph glyph-name="one" unicode="1" horiz-adv-x="379" 
d="M335 502l-46 -292l-18 -210h-197l32 190l13 110l-96 -20l-11 9l19 157l278 76z" />
    <glyph glyph-name="two" unicode="2" horiz-adv-x="490" 
d="M403.5 487.5q50.5 -34.5 50.5 -96.5q0 -40 -29.5 -83t-101.5 -109l-50 -47l3 -5h78l98 10l8 -12l-40 -153l-143 8h-230l-37 -3l-8 7l15 117l140 111q49 38 73 62.5t24 41.5q0 22 -33 22q-27 0 -63 -13.5t-70 -36.5h-21l-14 151q120 63 221 63q79 0 129.5 -34.5z" />
    <glyph glyph-name="three" unicode="3" horiz-adv-x="453" 
d="M343 507q44 -17 68.5 -47.5t24.5 -68.5q0 -42 -29 -87t-79 -69v-6q41 -23 60 -49.5t19 -68.5q0 -60 -36 -106t-102.5 -72t-154.5 -26q-30 0 -65.5 3t-60.5 8l7 143l15 12q66 -20 119 -20q91 0 91 51q0 15 -10 22.5t-33 7.5h-84l-6 12l21 134l60 3q22 1 42.5 17t20.5 37
q0 16 -10 23t-31 7q-42 0 -115 -33h-20l-12 135q104 55 201 55q55 0 99 -17z" />
    <glyph glyph-name="four" unicode="4" horiz-adv-x="528" 
d="M473 28l-69 2l-6 -103l-12 -13l-153 -9l-8 12l19 115h-130l-113 -4l-10 16l15 123l279 347h179l-45 -333h69l9 -17zM175 181h92l15 120h-11z" />
    <glyph glyph-name="five" unicode="5" horiz-adv-x="448" 
d="M456 510l-36 -147l-15 -14l-109 15h-80l-8 -62l59 -13q71 -16 105.5 -51.5t34.5 -93.5q0 -70 -38.5 -124t-107 -84.5t-155.5 -30.5q-60 0 -127 14l7 139l13 13q64 -19 127 -19q44 0 68.5 15t24.5 42q0 18 -13.5 28t-42.5 15l-107 18l-10 14l39 314l21 20l63 -4h161l117 8
z" />
    <glyph glyph-name="six" unicode="6" horiz-adv-x="500" 
d="M398 351.5q37 -24.5 56.5 -64.5t19.5 -85q0 -54 -27.5 -103t-82.5 -80t-132 -31q-102 0 -159.5 56t-57.5 154q0 121 88 225t246 175h9l113 -86l-2 -18q-80 -23 -134.5 -53t-87.5 -69l5 -7q29 11 59 11q50 0 87 -24.5zM282 132q15 20 15 53q0 29 -12 42.5t-38 13.5
q-25 0 -56 -10q-1 -11 -1 -34q0 -46 11 -65.5t38 -19.5q28 0 43 20z" />
    <glyph glyph-name="seven" unicode="7" horiz-adv-x="450" 
d="M193 514h210l58 2l-18 -141l-167 -287l-93 -185l-149 43l-9 30l228 378h-110l-113 -12l-7 15l32 162z" />
    <glyph glyph-name="eight" unicode="8" horiz-adv-x="516" 
d="M438 559q51 -39 51 -106q0 -85 -95 -140l-1 -8q39 -24 60 -54.5t21 -77.5q0 -55 -28.5 -97t-81 -65t-121.5 -23q-102 0 -160.5 40t-58.5 107q0 51 28.5 84.5t88.5 55.5l1 8q-74 46 -74 132q0 54 28.5 95.5t80 64.5t120.5 23q90 0 141 -39zM241.5 454.5
q-14.5 -12.5 -14.5 -31.5q0 -21 16 -35t50 -28q42 33 42 65q0 20 -13.5 31t-38.5 11q-27 0 -41.5 -12.5zM199.5 199.5q-13.5 -14.5 -13.5 -34.5q0 -50 61 -50q33 0 50.5 14t17.5 33q0 21 -18.5 35t-53.5 28q-30 -11 -43.5 -25.5z" />
    <glyph glyph-name="nine" unicode="9" horiz-adv-x="500" 
d="M107 161.5q-37 24.5 -56.5 64.5t-19.5 85q0 54 27.5 103t82.5 80t132 31q102 0 159.5 -56t57.5 -154q0 -121 -88 -225t-246 -175h-9l-113 86l2 18q80 23 134.5 53t87.5 69l-5 7q-29 -11 -59 -11q-50 0 -87 24.5zM223 381q-15 -20 -15 -53q0 -29 12 -42.5t38 -13.5
q25 0 56 10q1 11 1 34q0 46 -11 65.5t-38 19.5q-28 0 -43 -20z" />
    <glyph glyph-name="colon" unicode=":" horiz-adv-x="230" 
d="M170 164q24 -25 24 -69q0 -48 -27 -76t-73 -28t-70 24.5t-24 70.5q0 47 27.5 75t74.5 28q44 0 68 -25zM202 419q24 -25 24 -69q0 -48 -27 -76t-73 -28t-70 24.5t-24 70.5q0 47 27.5 75t74.5 28q44 0 68 -25z" />
    <glyph glyph-name="semicolon" unicode=";" horiz-adv-x="229" 
d="M177.5 133q11.5 -26 11.5 -57q0 -58 -36.5 -111t-114.5 -107l-61 53l-2 14q29 25 42.5 51.5t13.5 57.5q0 42 -33 74l1 16q72 40 143 58q24 -23 35.5 -49zM195 419q24 -25 24 -69q0 -48 -27 -76t-73 -28t-70 24.5t-24 70.5q0 47 27.5 75t74.5 28q44 0 68 -25z" />
    <glyph glyph-name="less" unicode="&#x3c;" horiz-adv-x="492" 
d="M471 369l-9 -12l-288 -93l-1 -9l265 -91l-39 -108l-18 -13l-350 135l19 155l14 17l381 130z" />
    <glyph glyph-name="equal" unicode="=" horiz-adv-x="478" 
d="M481 413l-9 -117h-430l-12 13l9 117h430zM455 200l-9 -117h-430l-12 13l9 117h430z" />
    <glyph glyph-name="greater" unicode="&#x3e;" horiz-adv-x="503" 
d="M461 350l10 -17l-19 -155l-383 -135l-15 13l-12 108l288 91l1 9l-267 93l-5 12l53 111z" />
    <glyph glyph-name="question" unicode="?" horiz-adv-x="352" 
d="M348.5 631.5q72.5 -39.5 72.5 -108.5q0 -47 -31 -88t-87 -68l-63 -30l-3 -6l-2 -71l-138 -20l-11 12l4 136l8 11l88 36q56 22 56 59q0 25 -34 38.5t-121 19.5l-12 17l46 99l18 9q137 -6 209.5 -45.5zM225.5 164q24.5 -25 24.5 -69q0 -48 -27 -76t-73 -28t-70 24.5
t-24 70.5q0 47 27.5 75t74.5 28q43 0 67.5 -25z" />
    <glyph glyph-name="at" unicode="@" horiz-adv-x="866" 
d="M746.5 86q-108.5 -84 -310.5 -84l14 104h-15q-36 -70 -71 -111h-21q-74 18 -102 57t-28 102q0 60 24.5 119.5t76 108.5t126.5 74h6l91 -15l103 21l11 -8l-43 -322q56 13 89.5 65t33.5 124q0 101 -66.5 160t-179.5 59q-101 0 -178 -43.5t-119.5 -120t-42.5 -172.5
q0 -101 47 -174t132.5 -111t199.5 -38l6 -17l-49 -89q-140 0 -244 47t-161 139t-57 222q0 133 59 242t166 171.5t247 62.5q109 0 191.5 -39.5t127.5 -114.5t45 -178q0 -157 -108.5 -241zM423 184.5q21 35.5 52 111.5l3 22l-64 16q-46 0 -46 -111q0 -74 20 -74q14 0 35 35.5z
" />
    <glyph glyph-name="A" unicode="A" horiz-adv-x="626" 
d="M587 0h-202l-4 107v4l-99 2l-83 -4l-31 -109h-195l276 647h241zM368 256l-18 213h-12l-83 -213l57 -1z" />
    <glyph glyph-name="B" unicode="B" horiz-adv-x="630" 
d="M577.5 279q23.5 -31 23.5 -83q0 -101 -84 -152t-266 -51q-57 0 -218 7l33 190l46 457l278 1q104 0 164.5 -38.5t60.5 -112.5q0 -51 -30 -95t-88 -69q57 -23 80.5 -54zM409 460q0 22 -9 34t-31 17t-64 5h-17l-20 -133l75 -3q66 19 66 80zM372 144.5q27 20.5 27 55.5
q0 22 -12 34t-39 22l-99 -2l-6 -44l-7 -82q50 -4 63 -4q46 0 73 20.5z" />
    <glyph glyph-name="C" unicode="C" horiz-adv-x="516" 
d="M485 651q44 -7 79 -20l-53 -159l-14 -7q-24 14 -57 22.5t-62 8.5q-76 0 -107.5 -48t-31.5 -153q0 -73 26.5 -107t82.5 -34q28 0 63.5 5.5t63.5 15.5l14 -9l-35 -158q-35 -11 -65.5 -15t-66.5 -4q-144 0 -220.5 71t-76.5 203q0 186 96.5 290.5t274.5 104.5q45 0 89 -7z
" />
    <glyph glyph-name="D" unicode="D" horiz-adv-x="668" 
d="M593.5 585q71.5 -66 71.5 -188q0 -191 -98 -298.5t-282 -107.5q-114 0 -253 9l33 190l46 457l283 4q128 0 199.5 -66zM422 193q32 54 32 175q0 69 -20.5 98.5t-66.5 29.5q-37 0 -76 -4l-42 -282l-5 -63q60 -8 87 -8q59 0 91 54z" />
    <glyph glyph-name="E" unicode="E" horiz-adv-x="540" 
d="M291 494l-13 -92h98l105 3l9 -14l-30 -146l-115 3h-90l-6 -38l-5 -57h96l167 6l9 -14l-30 -145h-455l33 190l47 457h463l9 -14l-31 -145l-158 6h-103z" />
    <glyph glyph-name="F" unicode="F" horiz-adv-x="480" 
d="M291 494l-17 -117h67l117 3l9 -14l-30 -145l-127 3h-59l-2 -14l-18 -210h-200l33 190l47 457h431l9 -14l-31 -145l-158 6h-71z" />
    <glyph glyph-name="G" unicode="G" horiz-adv-x="599" 
d="M531.5 650q52.5 -8 87.5 -22l-64 -176h-16q-47 25 -82 36t-78 11q-49 0 -80 -18.5t-48.5 -70.5t-17.5 -150q0 -69 25 -95.5t85 -26.5q14 0 36 4l4 33l10 111l184 13l-14 -90l-22 -177q-119 -44 -225 -44q-141 0 -216.5 71t-75.5 199q0 193 103.5 296.5t298.5 103.5
q53 0 105.5 -8z" />
    <glyph glyph-name="H" unicode="H" horiz-adv-x="711" 
d="M700 647l-65 -437l-18 -210h-200l34 190l5 50l-108 2l-95 -3l-4 -29l-18 -210h-200l34 190l46 457h203l-36 -245l101 -2l93 2l25 245h203z" />
    <glyph glyph-name="I" unicode="I" horiz-adv-x="327" 
d="M249 210l-18 -210h-200l34 190l46 457h203z" />
    <glyph glyph-name="J" unicode="J" horiz-adv-x="362" 
d="M282 213l-8 -89q-9 -63 -35 -106t-77.5 -74t-138.5 -56l-40 103l2 15q53 25 76.5 52.5t28.5 71.5l8 63l33 314l-83 -3l-9 13l24 130h285z" />
    <glyph glyph-name="K" unicode="K" horiz-adv-x="630" 
d="M448 330q69 -128 174 -288l-5 -22q-109 -24 -203 -32l-21 12q-80 175 -131 298l-13 -88l-18 -210h-200l34 190l46 457h203l-40 -271l149 201l43 70h211z" />
    <glyph glyph-name="L" unicode="L" horiz-adv-x="452" 
d="M440 149l-29 -149h-385l33 190l46 457h203l-64 -437l-4 -47h191z" />
    <glyph glyph-name="M" unicode="M" horiz-adv-x="806" 
d="M746 0h-176l20 196l9 165h-12l-143 -300h-150l-50 300h-12l-33 -146l-35 -215h-167l142 647h231l8 -92l29 -236h12l91 229l36 99h227z" />
    <glyph glyph-name="N" unicode="N" horiz-adv-x="710" 
d="M636 211l-18 -211h-217l-140 348h-12l-15 -114l-21 -234h-181l33 190l46 457h217l141 -348h12l36 341l184 11z" />
    <glyph glyph-name="O" unicode="O" horiz-adv-x="658" 
d="M582.5 588.5q71.5 -70.5 71.5 -214.5q0 -112 -41.5 -199.5t-121.5 -137t-192 -49.5q-131 0 -203 71.5t-72 216.5q0 112 41.5 198.5t122 135.5t192.5 49q131 0 202.5 -70.5zM290.5 482q-26.5 -18 -42 -67.5t-15.5 -141.5q0 -54 7 -83t25.5 -42t54.5 -13q39 0 66 18
t42.5 67.5t15.5 141.5q0 53 -7 82.5t-25.5 42.5t-54.5 13q-40 0 -66.5 -18z" />
    <glyph glyph-name="P" unicode="P" horiz-adv-x="593" 
d="M563.5 601.5q56.5 -46.5 56.5 -130.5t-39 -149.5t-110.5 -102t-164.5 -36.5h-58l-16 -183h-200l33 190l46 457l296 1q100 0 156.5 -46.5zM392.5 368.5q15.5 27.5 15.5 69.5q0 35 -19 52.5t-59 19.5l-36 -3l-27 -180l74 -4q36 18 51.5 45.5z" />
    <glyph glyph-name="Q" unicode="Q" horiz-adv-x="662" 
d="M704 -79q-50 -77 -111 -126l-14 -7q-159 85 -280 200h-3q-131 0 -201.5 71.5t-70.5 216.5q0 112 42 198.5t123.5 135.5t193.5 49q131 0 201 -70.5t70 -214.5q0 -114 -43.5 -202.5t-124.5 -136.5q100 -57 212 -96zM240 190q7 -29 25.5 -42t54.5 -13q39 0 66 18t42.5 67.5
t15.5 141.5q0 53 -7 82.5t-25.5 42.5t-54.5 13q-40 0 -66.5 -18t-42 -67.5t-15.5 -141.5q0 -54 7 -83z" />
    <glyph glyph-name="R" unicode="R" horiz-adv-x="630" 
d="M587.5 348.5q-34.5 -58.5 -97.5 -98.5q61 -115 116 -203l-5 -22q-106 -31 -205 -37l-17 16l-14 41q-21 61 -49 148h-68l-17 -193h-200l34 190l46 457l296 1q100 0 157.5 -45.5t57.5 -127.5q0 -68 -34.5 -126.5zM389.5 492q-18.5 16 -59.5 18l-37 -3l-25 -168l73 -4
q36 15 51.5 41t15.5 66q0 34 -18.5 50z" />
    <glyph glyph-name="S" unicode="S" horiz-adv-x="528" 
d="M535 624l-50 -162l-28 -12q-39 26 -78.5 41t-64.5 15t-39.5 -10.5t-14.5 -25.5q0 -19 19.5 -32.5t62.5 -33.5q49 -23 81.5 -43.5t56.5 -55t24 -83.5q0 -63 -37.5 -117t-105 -85.5t-153.5 -31.5q-103 0 -211 38l48 173l21 12q43 -36 93 -56t86 -20q29 0 42 10.5t13 25.5
q0 20 -20.5 34.5t-63.5 34.5q-49 23 -80 43t-54 54t-23 83q0 66 38 121t104.5 86.5t148.5 31.5q96 0 185 -35z" />
    <glyph glyph-name="T" unicode="T" horiz-adv-x="518" 
d="M560 633l-28 -145l-131 6h-13l-40 -284l-18 -210h-199l34 190l32 304h-13l-134 -6l-10 14l29 145h482z" />
    <glyph glyph-name="U" unicode="U" horiz-adv-x="653" 
d="M610 319l-13 -103q-14 -111 -90 -169.5t-210 -58.5q-119 0 -185.5 48t-66.5 137q0 21 3 43l15 103l34 328h200l-58 -404q-2 -20 -2 -27q0 -37 18 -54t59 -17q47 0 71 23t29 75l40 404h203z" />
    <glyph glyph-name="V" unicode="V" horiz-adv-x="615" 
d="M394 0h-241l-98 647h202l5 -107l32 -362h11l135 350l34 119h195z" />
    <glyph glyph-name="W" unicode="W" horiz-adv-x="914" 
d="M694 0h-212l-32 234h-11l-86 -234h-213l-72 647h194l-2 -100l21 -346h11l111 296l-16 150h203l-1 -121l28 -325h11l120 334l32 112h184z" />
    <glyph glyph-name="X" unicode="X" horiz-adv-x="634" 
d="M459 332l150 -332h-235l-24 79l-45 106l-89 -116l-41 -69h-202l230 321l-153 326h236l25 -81l44 -103l80 114l39 70h208z" />
    <glyph glyph-name="Y" unicode="Y" horiz-adv-x="594" 
d="M379 204l-6 -34l-12 -170h-199l30 170l3 37l-152 440h208l9 -54l49 -196h12l109 189l30 61h204z" />
    <glyph glyph-name="Z" unicode="Z" horiz-adv-x="569" 
d="M570 505l-319 -358h161l124 9l5 -9l-35 -152l-176 5h-230l-102 -6l18 142l325 364h-158l-121 -10l-6 8l33 152l150 -3h274l75 1z" />
    <glyph glyph-name="bracketleft" unicode="[" horiz-adv-x="302" 
d="M361 640l-11 -86l-97 -14l-67 -554l93 -15l-11 -85l-8 -9l-244 10l57 376l36 376l246 10z" />
    <glyph glyph-name="backslash" unicode="\" horiz-adv-x="455" 
d="M58 667l15 16h130l208 -786l-11 -15h-134z" />
    <glyph glyph-name="bracketright" unicode="]" horiz-adv-x="303" 
d="M-52 -114l11 86l97 14l67 554l-93 15l11 85l8 9l244 -10l-57 -376l-36 -376l-246 -10z" />
    <glyph glyph-name="asciicircum" unicode="^" horiz-adv-x="460" 
d="M440 161l-15 -16l-111 -26l-60 252h-9l-124 -253l-14 -7l-105 40l172 340l18 11h155z" />
    <glyph glyph-name="underscore" unicode="_" horiz-adv-x="438" 
d="M411 -104l-22 -106h-447l-10 13l22 106h447z" />
    <glyph glyph-name="grave" unicode="`" horiz-adv-x="394" 
d="M388 594l-44 -72l-17 -1q-81 37 -223 109l-3 17l69 106l17 1q102 -87 201 -160z" />
    <glyph glyph-name="a" unicode="a" horiz-adv-x="488" 
d="M472 476l-47 -360l-4 -109l-177 -11l15 110h-16q-35 -70 -74 -117h-23q-78 19 -108 60.5t-30 107.5q0 64 26 127.5t80 115t134 78.5h7l97 -17l109 23zM231 190q22 38 55 119l3 22l-68 17q-49 0 -49 -117q0 -79 21 -79q16 0 38 38z" />
    <glyph glyph-name="b" unicode="b" horiz-adv-x="490" 
d="M450.5 419q30.5 -40 30.5 -108q0 -66 -26.5 -130t-79.5 -115.5t-129 -76.5h-7l-220 38l73 553l4 113l177 11l-46 -347h16q35 67 79 121h23q75 -19 105.5 -59zM307 149.5q11 31.5 11 88.5q0 43 -5.5 63t-14.5 20q-15 0 -38 -37.5t-58 -116.5l-4 -29l75 -20q23 0 34 31.5z
" />
    <glyph glyph-name="c" unicode="c" horiz-adv-x="381" 
d="M384 455l4 -18l-51 -129l-39 -1q-19 24 -29 31.5t-24 7.5q-32 0 -47 -30.5t-15 -96.5q0 -45 7 -61.5t26 -16.5q15 0 29 11.5t37 43.5l23 -1l53 -65q-33 -57 -69.5 -88.5t-92.5 -51.5h-23q-84 13 -122.5 58.5t-38.5 134.5t35 156.5t99 104.5t149 37z" />
    <glyph glyph-name="d" unicode="d" horiz-adv-x="486" 
d="M501 704l-78 -588l-4 -109l-177 -11l15 112h-13q-38 -72 -77 -119h-23q-78 19 -107.5 60t-29.5 106q0 64 26.5 128t81.5 116t136 79h7l47 -8l15 110l4 113zM282 295l5 37l-64 17q-53 0 -53 -122q0 -77 21 -77q29 0 91 145z" />
    <glyph glyph-name="e" unicode="e" horiz-adv-x="436" 
d="M352 179l52 -67q-36 -44 -83.5 -75.5t-102.5 -47.5h-16q-97 11 -143.5 58.5t-46.5 135.5q0 87 33.5 153t95.5 104.5t146 43.5l16 -2q59 -11 90 -44t31 -84q0 -62 -56.5 -103t-186.5 -73q4 -28 16 -41t33 -13q20 0 40.5 12t61.5 47zM198 348q-15 -23 -19 -72q49 11 69 26
t20 41q0 15 -6.5 21.5t-20.5 6.5q-28 0 -43 -23z" />
    <glyph glyph-name="f" unicode="f" horiz-adv-x="336" 
d="M492 674l-47 -120l-23 -8q-55 29 -83 29q-21 0 -34 -16t-18 -51l-6 -45h93l12 -14l-13 -87h-107l-22 -152l-25 -198l-4 -109l-177 -11l39 298l18 172h-62l-8 11l12 90h69v3q13 117 81 176.5t183 59.5l113 -14z" />
    <glyph glyph-name="g" unicode="g" horiz-adv-x="480" 
d="M466 476l-46 -343l-3 -83q-10 -79 -48.5 -134.5t-96 -83.5t-125.5 -28q-90 0 -139 45.5t-60 119.5l4 11l132 55l1 12q-58 42 -58 132q0 63 26 122.5t78.5 106.5t126.5 71h6l92 -16l99 21zM190.5 328q-14.5 -30 -14.5 -88q0 -73 22 -73q30 0 95 150l3 26l-63 15
q-28 0 -42.5 -30zM227.5 -55q19.5 18 22.5 54l18 135h-13q-40 -67 -88 -117l-23 -20q-16 -14 -16 -29q0 -17 12 -29t37 -12q31 0 50.5 18z" />
    <glyph glyph-name="h" unicode="h" horiz-adv-x="527" 
d="M469 433.5q36 -29.5 35 -70.5l-1 -14l-38 -230l-4 -112l-181 -11l42 264l2 10q0 22 -17 22q-15 0 -42 -27.5t-61 -83.5l-9 -65l-3 -109l-178 -11l79 584l3 113l178 11l-48 -359h17q57 74 114 128l13 1q63 -11 99 -40.5z" />
    <glyph glyph-name="i" unicode="i" horiz-adv-x="260" 
d="M197 116l-5 -109l-177 -11l47 356l4 113l177 11zM247 696q24 -25 24 -69q0 -48 -27 -76t-73 -28t-70 24.5t-24 70.5q0 47 27.5 75t74.5 28q44 0 68 -25z" />
    <glyph glyph-name="j" unicode="j" horiz-adv-x="286" 
d="M266 472l-49 -354l-8 -82q-10 -80 -59.5 -136t-146.5 -95l-56 80l2 16q40 19 62 49t29 76l43 321l-2 15h-63l-7 11l13 90h73l165 13zM251 696q24 -25 24 -69q0 -48 -27 -76t-73 -28t-70 24.5t-24 70.5q0 47 27.5 75t74.5 28q44 0 68 -25z" />
    <glyph glyph-name="k" unicode="k" horiz-adv-x="540" 
d="M409 180q29 -65 80 -160l-9 -13l-149 -19l-17 8q-44 116 -60 174l6 23q32 19 53.5 43.5t21.5 41.5q0 7 -4.5 12t-11.5 5q-19 0 -49.5 -28t-65.5 -85l-9 -66l-3 -109l-178 -11l79 584l3 113l178 11l-48 -359h17q48 59 126 128l13 1q62 -11 97.5 -42t35.5 -83
q0 -90 -106 -169z" />
    <glyph glyph-name="l" unicode="l" horiz-adv-x="267" 
d="M198 116l-3 -109l-178 -11l79 584l3 113l178 11z" />
    <glyph glyph-name="m" unicode="m" horiz-adv-x="798" 
d="M738.5 433.5q36.5 -29.5 35.5 -70.5l-1 -14l-38 -230l-3 -112l-182 -11l43 264l1 10q0 22 -16 22t-44 -28.5t-61 -84.5l-10 -60l-3 -112l-182 -11l43 264l1 10q0 22 -16 22q-15 0 -41 -26.5t-60 -80.5l-9 -69l-4 -109l-177 -11l47 356l4 113l177 11l-17 -131h16
q57 74 114 128l13 1q62 -11 98 -40.5t35 -70.5l-1 -14l-1 -4h14q53 70 112 128l13 1q63 -11 99.5 -40.5z" />
    <glyph glyph-name="n" unicode="n" horiz-adv-x="525" 
d="M464 433q39 -30 38 -70l-1 -14l-38 -230l-4 -112l-182 -11l44 264l1 10q0 22 -17 22q-15 0 -40.5 -26t-59.5 -79l-9 -71l-4 -109l-177 -11l47 356l4 113l177 11l-17 -131h15q57 74 114 128l13 1q57 -11 96 -41z" />
    <glyph glyph-name="o" unicode="o" horiz-adv-x="468" 
d="M306 482q70 -16 110 -61.5t40 -119.5q0 -142 -74 -224t-204 -89l-16 2q-71 16 -110.5 64t-39.5 129q0 88 34 154t96.5 104t147.5 43zM207.5 331.5q-15.5 -16.5 -20.5 -51.5t-5 -101q0 -34 6.5 -46.5t25.5 -12.5q31 0 45.5 16.5t19.5 51.5t5 102q0 33 -6 45.5t-23 12.5
q-32 0 -47.5 -16.5z" />
    <glyph glyph-name="p" unicode="p" horiz-adv-x="490" 
d="M451.5 419q30.5 -40 30.5 -108q0 -66 -26.5 -130t-79.5 -115.5t-129 -76.5h-7l-59 11l-10 -76l-4 -109l-177 -11l72 548l4 113l177 11l-16 -119h18q37 71 79 121h23q74 -19 104.5 -59zM308.5 150q11.5 32 11.5 88q0 83 -21 83q-15 0 -38.5 -39t-58.5 -119l-3 -25l76 -20
q22 0 33.5 32z" />
    <glyph glyph-name="q" unicode="q" horiz-adv-x="490" 
d="M474 476l-72 -552l-4 -109l-177 -11l40 304h-17q-38 -72 -77 -119h-23q-78 19 -107.5 60t-29.5 106q0 64 26.5 128t81.5 116t136 79h7l97 -17l108 23zM288 308l3 24l-67 17q-54 0 -54 -122q0 -38 6 -57.5t15 -19.5q31 0 97 158z" />
    <glyph glyph-name="r" unicode="r" horiz-adv-x="385" 
d="M398 470l-28 -216l-16 -7l-36 7q-33 -2 -57.5 -13t-53.5 -38l-11 -87l-4 -109l-177 -11l47 356l4 113l177 11l-16 -124h17q28 43 57 72t68 51z" />
    <glyph glyph-name="s" unicode="s" horiz-adv-x="385" 
d="M386 456l-41 -138l-23 -9q-26 26 -55.5 41t-50.5 15q-11 0 -17.5 -5.5t-6.5 -13.5q0 -12 12.5 -21.5t39.5 -23.5q33 -18 55 -33.5t38.5 -41.5t16.5 -63q0 -50 -30 -89.5t-82 -62t-115 -22.5q-76 8 -140 26l42 145l18 9q28 -32 63 -50.5t62 -18.5q13 0 19.5 6t6.5 13
q0 10 -12.5 19.5t-39.5 24.5q-36 20 -58.5 36.5t-39 41.5t-16.5 59q2 56 34 96.5t84.5 62t114.5 21.5q61 -6 121 -24z" />
    <glyph glyph-name="t" unicode="t" horiz-adv-x="366" 
d="M231 165l-1 -8q0 -9 9 -9q6 0 13 7t28 37l13 1l50 -63q-30 -57 -66.5 -91t-83.5 -49q-64 0 -100.5 32t-34.5 85l3 30l32 218l1 7h-62l-9 11l11 90h70l10 97l169 38l12 -10l-19 -125h98l12 -14l-11 -87h-114z" />
    <glyph glyph-name="u" unicode="u" horiz-adv-x="514" 
d="M498 476l-47 -360l-4 -109l-177 -11l16 121h-13q-51 -70 -104 -120l-13 -1q-64 7 -101 36.5t-37 72.5l2 20l37 226l4 112l181 11l-42 -262l-1 -13q0 -23 18 -23q29 0 89 95l11 81l4 113z" />
    <glyph glyph-name="v" unicode="v" horiz-adv-x="471" 
d="M476 401q0 -68 -47 -154l-134 -247h-204l-60 466l177 10v-91l11 -203h14l47 109q25 58 25 95q0 30 -13 56l8 17l162 20q14 -40 14 -78z" />
    <glyph glyph-name="w" unicode="w" horiz-adv-x="746" 
d="M580 0h-197l-11 234h-15l-78 -234h-194l-54 466l175 10v-87l3 -191h15l60 179l27 95h188l1 -83l5 -190h14l36 92q13 31 19 53t6 42q0 30 -13 56l8 17l162 20q14 -40 14 -78q0 -35 -11.5 -72t-34.5 -82z" />
    <glyph glyph-name="x" unicode="x" horiz-adv-x="502" 
d="M460 4l-200 -13l-12 69l-21 69l-38 -64l-27 -65h-193l160 242l-89 225l193 15l13 -56l25 -70l37 66l22 50h186l-160 -239z" />
    <glyph glyph-name="y" unicode="y" horiz-adv-x="484" 
d="M488 401q0 -40 -10.5 -77t-33.5 -77l-100 -198q-65 -129 -132 -187t-151 -58q-49 0 -109 18l7 149l15 16q44 -10 85 -10q46 0 78 16l-106 473l178 10l7 -91l28 -200h13l35 87q25 60 25 110q0 37 -13 60l8 17l162 20q14 -49 14 -78z" />
    <glyph glyph-name="z" unicode="z" horiz-adv-x="446" 
d="M447 442l-237 -296l25 7h38q19 0 29.5 4t17 16.5t10.5 39.5l21 6l69 -18q-1 -115 -39 -163t-106 -48q-25 0 -48 5t-52 14q-18 5 -35.5 9.5t-31.5 4.5q-17 0 -29.5 -6.5t-32.5 -24.5h-22l-52 49l225 285l-70 -3l-76 -15l-14 12l30 153l17 11l105 -8l167 -6l41 23z" />
    <glyph glyph-name="braceleft" unicode="{" horiz-adv-x="303" 
d="M349 647l5 -13l-26 -95q-18 5 -33 5q-25 0 -38.5 -15.5t-13.5 -41.5q0 -13 6 -45t6 -49q0 -34 -21.5 -64t-61.5 -48l-1 -7q28 -15 43 -39t15 -52q0 -17 -5.5 -33.5t-16.5 -37.5q-10 -20 -14.5 -33.5t-4.5 -26.5q0 -41 42 -41q14 0 34 5l3 -95l-9 -13q-40 -12 -81 -12
q-70 0 -107.5 28.5t-37.5 80.5q0 25 6.5 48.5t17.5 51.5q9 23 13 38t4 28q0 42 -47 63l11 87q64 26 64 83q0 13 -1 24.5t-2 20.5q-4 38 -4 61q0 72 46 110.5t131 38.5q41 0 78 -12z" />
    <glyph glyph-name="bar" unicode="|" horiz-adv-x="300" 
d="M295 797l-67 -503l-65 -539l-133 -11l-13 16l65 519l64 520l137 11z" />
    <glyph glyph-name="braceright" unicode="}" horiz-adv-x="302" 
d="M-36 -92l-5 13l26 95q18 -5 33 -5q25 0 38.5 15.5t13.5 41.5q0 13 -6 45t-6 49q0 34 21.5 64t61.5 48l1 7q-28 15 -43 39t-15 52q0 17 5.5 33.5t16.5 37.5q10 20 14.5 33.5t4.5 26.5q0 41 -42 41q-14 0 -34 -5l-3 95l9 13q41 12 81 12q70 0 107.5 -28.5t37.5 -80.5
q0 -25 -6.5 -48.5t-17.5 -51.5q-9 -23 -13 -38t-4 -28q0 -42 47 -63l-11 -87q-64 -26 -64 -83q0 -13 1 -24.5t2 -20.5q4 -38 4 -61q0 -72 -46 -110.5t-131 -38.5q-40 0 -78 12z" />
    <glyph glyph-name="asciitilde" unicode="~" horiz-adv-x="480" 
d="M112.5 198q-17.5 -14 -49.5 -46h-16l-44 62l2 16l107 115l16 7q29 -5 104 -29q33 -10 63.5 -19t42.5 -9q15 0 31 12t32 27.5t22 21.5h16l42 -63l-2 -16l-105 -115l-17 -5q-30 4 -115 31q-6 2 -43 13t-51 11q-18 0 -35.5 -14z" />
    <glyph glyph-name="uni00A0" unicode="&#xa0;" horiz-adv-x="118" 
 />
    <glyph glyph-name="exclamdown" unicode="&#xa1;" horiz-adv-x="286" 
d="M-12 -174l99 390l111 16l17 -18l-30 -378l-19 -22l-158 -11zM96 311q-24 25 -24 69q0 48 27 76t73 28t70 -24.5t24 -70.5q0 -47 -27.5 -75t-74.5 -28q-44 0 -68 25z" />
    <glyph glyph-name="cent" unicode="&#xa2;" horiz-adv-x="384" 
d="M311 231l54 -65q-26 -45 -54.5 -72.5t-66.5 -46.5l-25 -174h-97l-11 14l21 152q-63 19 -91 64t-28 121q0 101 47.5 177t140.5 103l22 156h94l15 -14l-19 -134l73 -20l6 -17l-45 -118l-36 -1q-18 20 -30.5 28.5t-29.5 8.5q-41 0 -61 -34t-20 -103q0 -46 11 -67t36 -21
q18 0 34.5 14t38.5 50z" />
    <glyph glyph-name="sterling" unicode="&#xa3;" horiz-adv-x="479" 
d="M500 584l-25 -134l-14 -8q-67 32 -111 32q-58 0 -65 -51l-10 -70h126l4 -9l-19 -95h-125l-5 -33q-4 -33 -14 -51t-33 -34v-5h120l111 8l4 -8l-28 -131l-154 5h-272l-5 9l20 107q41 11 60.5 32t23.5 59l5 42h-74l-3 9l18 95h71l4 39q11 99 82 152t189 53q60 0 119 -13z
" />
    <glyph glyph-name="currency" unicode="&#xa4;" horiz-adv-x="434" 
d="M474 490l-2 -16l-79 -61q9 -25 9 -57q0 -40 -22 -82l65 -55l1 -17l-95 -88h-16l-50 71q-37 -19 -78 -19q-33 0 -66 15l-62 -70l-18 -3l-78 83l3 16l77 59q-9 24 -9 56q0 44 23 85l-63 55v17l94 89l16 -1l51 -71q37 16 74 16q32 0 63 -13l66 72l18 3zM177.5 389
q-22.5 -22 -22.5 -60q0 -29 16.5 -45.5t47.5 -16.5q38 0 60 22.5t22 59.5q0 29 -17 45.5t-47 16.5q-37 0 -59.5 -22z" />
    <glyph glyph-name="yen" unicode="&#xa5;" horiz-adv-x="585" 
d="M553 326l7 -7l-16 -79h-129l-38 -55h158l7 -7l-14 -79h-182l-7 -99h-169l19 99h-164l-5 9l14 77h150l-22 55h-120l-5 9l15 77h77l-72 185h178l9 -45l51 -145h10l96 139l26 51h173l-127 -185h80z" />
    <glyph glyph-name="brokenbar" unicode="&#xa6;" horiz-adv-x="300" 
d="M295 797l-55 -415l-135 -17l-11 11l52 423l137 11zM210 145l-47 -390l-133 -11l-13 16l48 386l132 15z" />
    <glyph glyph-name="section" unicode="&#xa7;" horiz-adv-x="458" 
d="M254 496.5q15 -9.5 48 -23.5q43 -18 72.5 -35t51 -45.5t21.5 -68.5q0 -48 -31.5 -90.5t-85.5 -67.5q51 -39 51 -94q0 -46 -30.5 -84.5t-83 -61t-115.5 -22.5q-37 0 -84.5 8t-84.5 20l37 135l17 11q33 -28 73 -45t70 -17q21 0 32 7.5t11 17.5q0 12 -15.5 21t-47.5 22
q-43 18 -72.5 35t-51 45.5t-21.5 69.5q0 48 30.5 91t82.5 69q-48 38 -48 93q0 46 31 85.5t84.5 62.5t117.5 23q34 0 73 -7t67 -18l-35 -129l-21 -7q-31 21 -63.5 32t-54.5 11q-18 0 -29 -7t-11 -16q0 -11 15 -20.5zM190 247.5q16 -14.5 46 -30.5q51 26 51 60q0 20 -16 34.5
t-47 29.5q-24 -12 -37 -27.5t-13 -32.5q0 -19 16 -33.5z" />
    <glyph glyph-name="dieresis" unicode="&#xa8;" horiz-adv-x="390" 
d="M210.5 693.5q21.5 -21.5 21.5 -59.5q0 -42 -23.5 -66.5t-64.5 -24.5q-40 0 -60.5 21.5t-20.5 61.5q0 42 23.5 65.5t64.5 23.5q38 0 59.5 -21.5zM404 693.5q21 -21.5 21 -59.5q0 -42 -23.5 -66.5t-63.5 -24.5t-61 21.5t-21 61.5q0 42 24 65.5t65 23.5q38 0 59 -21.5z" />
    <glyph glyph-name="copyright" unicode="&#xa9;" horiz-adv-x="695" 
d="M514 560q69 -38 107 -107t38 -160t-38 -160t-107 -107t-160 -38q-90 0 -159 38t-107 107t-38 160t38 160t107 107t159 38q91 0 160 -38zM228 506.5q-55 -30.5 -85.5 -86t-30.5 -127.5t30.5 -127.5t85.5 -86t126 -30.5q72 0 127 30.5t85.5 86t30.5 127.5t-30.5 127.5
t-85.5 86t-127 30.5q-71 0 -126 -30.5zM468 455l-22 -100l-7 -5q-12 6 -29 9t-31 3q-26 0 -36.5 -11.5t-10.5 -43.5q0 -40 13 -58t43 -18t58 5l10 -6l-10 -99q-12 -2 -35 -2h-33q-179 0 -179 163q0 81 48.5 126.5t136.5 45.5q37 0 84 -9z" />
    <glyph glyph-name="ordfeminine" unicode="&#xaa;" horiz-adv-x="337" 
d="M350 646l-33 -247l-3 -75l-110 -7l12 95h-10q-32 -62 -66 -99h-15q-50 13 -69.5 41t-19.5 73q0 72 43 134.5t125 86.5h5l67 -11l66 14zM186.5 443q20.5 32 46.5 93l3 22l-48 11q-24 0 -37 -26t-13 -72q0 -31 5 -45.5t12 -14.5q11 0 31.5 32z" />
    <glyph glyph-name="guillemotleft" unicode="&#xab;" horiz-adv-x="466" 
d="M258 221l4 27l147 177l85 -47l2 -17l-96 -131l64 -130l-6 -17l-96 -47zM52 221l4 27l147 177l85 -47l2 -17l-96 -131l64 -130l-6 -17l-96 -47z" />
    <glyph glyph-name="logicalnot" unicode="&#xac;" horiz-adv-x="481" 
d="M450 311l-34 -273l-117 -9l-12 12l19 149h-284l-11 13l24 117h410z" />
    <glyph glyph-name="uni00AD" unicode="&#xad;" horiz-adv-x="300" 
d="M284 326l-13 -120l-240 -38l-12 14l14 120l239 38z" />
    <glyph glyph-name="registered" unicode="&#xae;" horiz-adv-x="454" 
d="M366 650q53 -53 53 -139t-53 -139t-139 -53t-139 53t-53 139t53 139t139 53t139 -53zM336 402.5q41 41.5 41 108.5q0 68 -41 109t-109 41q-67 0 -108.5 -41t-41.5 -109q0 -67 41.5 -108.5t108.5 -41.5q68 0 109 41.5zM310.5 520.5q-9.5 -15.5 -26.5 -25.5q25 -35 48 -62
l-1 -7q-19 -7 -62 -11l-8 5q-17 30 -29 56h-25l3 -57h-64l3 56l-3 140l100 1q35 0 54.5 -16.5t19.5 -46.5q0 -17 -9.5 -32.5zM246 564q-7 5 -23 6l-13 -1l-2 -48l27 -2q10 6 14 12t4 17t-7 16z" />
    <glyph glyph-name="macron" unicode="&#xaf;" horiz-adv-x="385" 
d="M390 678l-9 -107h-276l-12 13l9 106h276z" />
    <glyph glyph-name="degree" unicode="&#xb0;" horiz-adv-x="293" 
d="M284 624q34 -35 34 -86q0 -40 -21 -74.5t-56.5 -54.5t-75.5 -20q-51 0 -85 35t-34 86q0 40 21 74.5t56 54.5t75 20q52 0 86 -35zM143 562.5q-18 -17.5 -18 -45.5q0 -23 13.5 -36t36.5 -13q27 0 45 17.5t18 45.5q0 22 -13.5 35.5t-35.5 13.5q-28 0 -46 -17.5z" />
    <glyph glyph-name="plusminus" unicode="&#xb1;" horiz-adv-x="479" 
d="M333 469l-18 -149h147l11 -13l-24 -117h-150l-19 -152l-118 -9l-12 12l19 149h-149l-10 13l23 117h152l18 152l118 9zM427 -28l-9 -117h-430l-12 13l9 117h430z" />
    <glyph glyph-name="uni00B2" unicode="&#xb2;" horiz-adv-x="375" 
d="M340 683q35 -24 35 -68q0 -32 -22 -67t-75 -89l-40 -41l2 -3h57l72 7l6 -9l-29 -112l-108 6h-170l-26 -2l-6 5l10 84l101 89q43 39 59 56t16 32q0 18 -24 18q-19 0 -45.5 -11t-50.5 -29h-16l-12 108q98 50 176 50q55 0 90 -24z" />
    <glyph glyph-name="uni00B3" unicode="&#xb3;" horiz-adv-x="337" 
d="M317 682.5q37 -25.5 37 -66.5q0 -63 -73 -100v-4q58 -19 58 -77q0 -62 -60 -99t-157 -37q-45 0 -85 8l3 102l11 8q46 -13 86 -13q32 0 46.5 6.5t14.5 19.5q0 15 -26 15h-62l-6 8l13 95l33 2q23 1 37 8.5t14 21.5q0 9 -7 12.5t-22 3.5q-26 0 -80 -19h-15l-12 95
q36 17 76 26.5t78 9.5q61 0 98 -25.5z" />
    <glyph glyph-name="acute" unicode="&#xb4;" horiz-adv-x="382" 
d="M313 753l69 -106l-3 -17q-142 -72 -223 -109l-17 1l-44 72q99 73 201 160z" />
    <glyph glyph-name="uni00B5" unicode="&#xb5;" horiz-adv-x="523" 
d="M509 476l-47 -360l-4 -109l-177 -11l16 121h-13q-43 -81 -72 -120l-13 -1q-15 6 -28 16l-3 -197l-177 -11l72 548l4 113l177 11l-36 -276v-5q0 -19 18 -19q29 0 91 96l11 80l4 113z" />
    <glyph glyph-name="paragraph" unicode="&#xb6;" horiz-adv-x="564" 
d="M605 634l-29 -134h-59l-43 -287l-6 -69q-7 -59 -33.5 -101.5t-81 -76t-145.5 -61.5l-39 89l2 16q56 26 81 54t31 73l7 56l31 308h-32q-23 -10 -36 -38t-13 -67q0 -28 9 -56.5t25 -52.5l-81 -97q-78 22 -120 74.5t-42 126.5q0 121 80 188.5t224 67.5h260z" />
    <glyph glyph-name="periodcentered" unicode="&#xb7;" horiz-adv-x="231" 
d="M190 334q24 -25 24 -69q0 -48 -27 -76t-73 -28t-70 24.5t-24 70.5q0 47 27.5 75t74.5 28q44 0 68 -25z" />
    <glyph glyph-name="cedilla" unicode="&#xb8;" horiz-adv-x="381" 
d="M170 -43l34 -19q24 -13 34 -28.5t10 -34.5q0 -37 -29.5 -60.5t-80.5 -23.5q-49 0 -92 24l11 75l8 3q15 -13 32 -20.5t28 -7.5q16 0 16 14q0 9 -12 15l-50 27l22 112h83z" />
    <glyph glyph-name="uni00B9" unicode="&#xb9;" horiz-adv-x="295" 
d="M293 692l-37 -244l-11 -141h-149l21 127l14 114l-81 -12l-9 6l14 112l219 52z" />
    <glyph glyph-name="ordmasculine" unicode="&#xba;" horiz-adv-x="323" 
d="M238 650q48 -9 75 -39.5t27 -81.5q0 -98 -50.5 -155t-139.5 -62l-10 2q-102 19 -102 128q0 92 51 148t138 61zM157.5 540q-13.5 -30 -13.5 -99q0 -28 6 -39t22 -11q35 0 48 30.5t13 99.5q0 28 -5.5 38.5t-20.5 10.5q-36 0 -49.5 -30z" />
    <glyph glyph-name="guillemotright" unicode="&#xbb;" horiz-adv-x="466" 
d="M414 243l-4 -27l-147 -177l-85 47l-2 17l96 131l-64 130l6 17l96 47zM208 243l-4 -27l-147 -177l-85 47l-2 17l96 131l-64 130l6 17l96 47z" />
    <glyph glyph-name="onequarter" unicode="&#xbc;" horiz-adv-x="797" 
d="M286 639l-37 -244l-11 -141h-149l21 127l14 114l-81 -12l-9 6l14 112l219 52zM673 647l7 -24l-551 -717l-75 50l-4 17l552 721zM753 69l-46 1l-3 -61l-9 -9l-115 -6l-7 8l11 70h-86l-84 -3l-7 11l10 88l194 225h135l-30 -215h49l6 -12zM542 178h58l7 65h-8z" />
    <glyph glyph-name="onehalf" unicode="&#xbd;" horiz-adv-x="836" 
d="M286 639l-37 -244l-11 -141h-149l21 127l14 114l-81 -12l-9 6l14 112l219 52zM673 647l7 -24l-551 -717l-75 50l-4 17l552 721zM763 376q35 -24 35 -68q0 -32 -22 -67t-75 -89l-40 -41l2 -3h57l72 7l6 -9l-29 -112l-108 6h-170l-26 -2l-6 5l10 84l101 89q43 39 59 56
t16 32q0 18 -24 18q-19 0 -45.5 -11t-50.5 -29h-16l-12 108q98 50 176 50q55 0 90 -24z" />
    <glyph glyph-name="threequarters" unicode="&#xbe;" horiz-adv-x="839" 
d="M310 629.5q37 -25.5 37 -66.5q0 -63 -73 -100v-4q58 -19 58 -77q0 -62 -60 -99t-157 -37q-45 0 -85 8l3 102l11 8q46 -13 86 -13q32 0 46.5 6.5t14.5 19.5q0 15 -26 15h-62l-6 8l13 95l33 2q23 1 37 8.5t14 21.5q0 9 -7 12.5t-22 3.5q-26 0 -80 -19h-15l-12 95
q36 17 76 26.5t78 9.5q61 0 98 -25.5zM715 647l7 -24l-551 -717l-75 50l-4 17l552 721zM795 69l-46 1l-3 -61l-9 -9l-115 -6l-7 8l11 70h-86l-84 -3l-7 11l10 88l194 225h135l-30 -215h49l6 -12zM584 178h58l7 65h-8z" />
    <glyph glyph-name="questiondown" unicode="&#xbf;" horiz-adv-x="351" 
d="M8.5 -156.5q-72.5 39.5 -72.5 108.5q0 47 31 88t87 68l63 30l3 6l2 71l138 20l11 -12l-4 -136l-8 -11l-88 -36q-56 -22 -56 -59q0 -25 34 -38.5t121 -19.5l12 -17l-46 -99l-18 -9q-137 6 -209.5 45.5zM131.5 311q-24.5 25 -24.5 69q0 48 27 76t73 28t70 -24.5t24 -70.5
q0 -47 -27.5 -75t-74.5 -28q-43 0 -67.5 25z" />
    <glyph glyph-name="Agrave" unicode="&#xc0;" horiz-adv-x="626" 
d="M587 0h-202l-4 107v4l-99 2l-83 -4l-31 -109h-195l276 647h241zM368 256l-18 213h-12l-83 -213l57 -1zM501 795l-30 -79l-17 -4q-106 27 -238 69l-6 16l49 116l17 4q111 -66 225 -122z" />
    <glyph glyph-name="Aacute" unicode="&#xc1;" horiz-adv-x="626" 
d="M587 0h-202l-4 107v4l-99 2l-83 -4l-31 -109h-195l276 647h241zM368 256l-18 213h-12l-83 -213l57 -1zM482 913l49 -116l-6 -16q-132 -42 -238 -69l-17 4l-30 79q114 56 225 122z" />
    <glyph glyph-name="Acircumflex" unicode="&#xc2;" horiz-adv-x="626" 
d="M587 0h-202l-4 107v4l-99 2l-83 -4l-31 -109h-195l276 647h241zM368 256l-18 213h-12l-83 -213l57 -1zM216 787q89 59 158 119h34q58 -55 148 -119l-43 -75h-18l-108 60q-49 -23 -73 -34l-55 -26h-18z" />
    <glyph glyph-name="Atilde" unicode="&#xc3;" horiz-adv-x="626" 
d="M587 0h-202l-4 107v4l-99 2l-83 -4l-31 -109h-195l276 647h241zM368 256l-18 213h-12l-83 -213l57 -1zM581 861v-16l-81 -113l-16 -6q-27 3 -86 20q-8 2 -32.5 8t-34.5 6q-17 0 -30 -13t-39 -45h-16l-57 55v16l81 112l16 6q27 -3 86 -20q8 -2 32.5 -8t34.5 -6q17 0 30 13
t39 45h16z" />
    <glyph glyph-name="Adieresis" unicode="&#xc4;" horiz-adv-x="626" 
d="M587 0h-202l-4 107v4l-99 2l-83 -4l-31 -109h-195l276 647h241zM368 256l-18 213h-12l-83 -213l57 -1zM350.5 868.5q21.5 -21.5 21.5 -59.5q0 -42 -23.5 -66.5t-64.5 -24.5q-40 0 -60.5 21.5t-20.5 61.5q0 42 23.5 65.5t64.5 23.5q38 0 59.5 -21.5zM544 868.5
q21 -21.5 21 -59.5q0 -42 -23.5 -66.5t-63.5 -24.5t-61 21.5t-21 61.5q0 42 24 65.5t65 23.5q38 0 59 -21.5z" />
    <glyph glyph-name="Aring" unicode="&#xc5;" horiz-adv-x="626" 
d="M587 0h-202l-4 107v4l-99 2l-83 -4l-31 -109h-195l276 647h241zM368 256l-18 213h-12l-83 -213l57 -1zM496 827q0 -55 -29 -84.5t-85 -29.5q-106 0 -106 107q0 54 29 82t85 28q106 0 106 -103zM358.5 846.5q-7.5 -6.5 -7.5 -23.5q0 -19 8 -26.5t28 -7.5q19 0 26.5 7
t7.5 24q0 18 -8 25.5t-28 7.5q-19 0 -26.5 -6.5z" />
    <glyph glyph-name="AE" unicode="&#xc6;" horiz-adv-x="838" 
d="M817 159l10 -14l-30 -145h-435l8 107l3 67l-178 -52l-1 -3l-48 -119h-195l355 647h518l9 -14l-30 -145l-149 6h-75l-6 -114l175 53l13 -11l1 -138l-197 -55l-4 -76h91zM379 322l6 147h-12l-90 -175z" />
    <glyph glyph-name="Ccedilla" unicode="&#xc7;" horiz-adv-x="516" 
d="M485 651q44 -7 79 -20l-53 -159l-14 -7q-24 14 -57 22.5t-62 8.5q-76 0 -107.5 -48t-31.5 -153q0 -73 26.5 -107t82.5 -34q28 0 63.5 5.5t63.5 15.5l14 -9l-35 -158q-35 -11 -65.5 -15t-66.5 -4q-144 0 -220.5 71t-76.5 203q0 186 96.5 290.5t274.5 104.5q45 0 89 -7z
M360 -42l34 -19q24 -13 34 -28.5t10 -34.5q0 -37 -29.5 -60.5t-80.5 -23.5q-49 0 -92 24l11 75l8 3q15 -13 32 -20.5t28 -7.5q16 0 16 14q0 9 -12 15l-50 27l22 112h83z" />
    <glyph glyph-name="Egrave" unicode="&#xc8;" horiz-adv-x="540" 
d="M291 494l-13 -92h98l105 3l9 -14l-30 -146l-115 3h-90l-6 -38l-5 -57h96l167 6l9 -14l-30 -145h-455l33 190l47 457h463l9 -14l-31 -145l-158 6h-103zM473 795l-30 -79l-17 -4q-106 27 -238 69l-6 16l49 116l17 4q111 -66 225 -122z" />
    <glyph glyph-name="Eacute" unicode="&#xc9;" horiz-adv-x="540" 
d="M291 494l-13 -92h98l105 3l9 -14l-30 -146l-115 3h-90l-6 -38l-5 -57h96l167 6l9 -14l-30 -145h-455l33 190l47 457h463l9 -14l-31 -145l-158 6h-103zM454 913l49 -116l-6 -16q-132 -42 -238 -69l-17 4l-30 79q114 56 225 122z" />
    <glyph glyph-name="Ecircumflex" unicode="&#xca;" horiz-adv-x="540" 
d="M291 494l-13 -92h98l105 3l9 -14l-30 -146l-115 3h-90l-6 -38l-5 -57h96l167 6l9 -14l-30 -145h-455l33 190l47 457h463l9 -14l-31 -145l-158 6h-103zM188 787q89 59 158 119h34q58 -55 148 -119l-43 -75h-18l-108 60q-49 -23 -73 -34l-55 -26h-18z" />
    <glyph glyph-name="Edieresis" unicode="&#xcb;" horiz-adv-x="540" 
d="M291 494l-13 -92h98l105 3l9 -14l-30 -146l-115 3h-90l-6 -38l-5 -57h96l167 6l9 -14l-30 -145h-455l33 190l47 457h463l9 -14l-31 -145l-158 6h-103zM322.5 868.5q21.5 -21.5 21.5 -59.5q0 -42 -23.5 -66.5t-64.5 -24.5q-40 0 -60.5 21.5t-20.5 61.5q0 42 23.5 65.5
t64.5 23.5q38 0 59.5 -21.5zM516 868.5q21 -21.5 21 -59.5q0 -42 -23.5 -66.5t-63.5 -24.5t-61 21.5t-21 61.5q0 42 24 65.5t65 23.5q38 0 59 -21.5z" />
    <glyph glyph-name="Igrave" unicode="&#xcc;" horiz-adv-x="327" 
d="M249 210l-18 -210h-200l34 190l46 457h203zM347 795l-30 -79l-17 -4q-106 27 -238 69l-6 16l49 116l17 4q111 -66 225 -122z" />
    <glyph glyph-name="Iacute" unicode="&#xcd;" horiz-adv-x="327" 
d="M249 210l-18 -210h-200l34 190l46 457h203zM328 913l49 -116l-6 -16q-132 -42 -238 -69l-17 4l-30 79q114 56 225 122z" />
    <glyph glyph-name="Icircumflex" unicode="&#xce;" horiz-adv-x="327" 
d="M249 210l-18 -210h-200l34 190l46 457h203zM62 787q89 59 158 119h34q58 -55 148 -119l-43 -75h-18l-108 60q-49 -23 -73 -34l-55 -26h-18z" />
    <glyph glyph-name="Eth" unicode="&#xd0;" horiz-adv-x="698" 
d="M624.5 585q71.5 -66 71.5 -188q0 -191 -98 -298.5t-282 -107.5q-114 0 -253 9l33 190l46 457l283 4q128 0 199.5 -66zM453 193q32 54 32 175q0 69 -20.5 98.5t-66.5 29.5q-37 0 -76 -4l-42 -282l-5 -63q60 -8 87 -8q59 0 91 54zM384.79 366l-17.2275 -117h-344.551
l-8.23926 13l17.9766 117h344.551z" />
    <glyph glyph-name="Ntilde" unicode="&#xd1;" horiz-adv-x="710" 
d="M636 211l-18 -211h-217l-140 348h-12l-15 -114l-21 -234h-181l33 190l46 457h217l141 -348h12l36 341l184 11zM622 861v-16l-81 -113l-16 -6q-27 3 -86 20q-8 2 -32.5 8t-34.5 6q-17 0 -30 -13t-39 -45h-16l-57 55v16l81 112l16 6q27 -3 86 -20q8 -2 32.5 -8t34.5 -6
q17 0 30 13t39 45h16z" />
    <glyph glyph-name="Ograve" unicode="&#xd2;" horiz-adv-x="658" 
d="M582.5 588.5q71.5 -70.5 71.5 -214.5q0 -112 -41.5 -199.5t-121.5 -137t-192 -49.5q-131 0 -203 71.5t-72 216.5q0 112 41.5 198.5t122 135.5t192.5 49q131 0 202.5 -70.5zM290.5 482q-26.5 -18 -42 -67.5t-15.5 -141.5q0 -54 7 -83t25.5 -42t54.5 -13q39 0 66 18
t42.5 67.5t15.5 141.5q0 53 -7 82.5t-25.5 42.5t-54.5 13q-40 0 -66.5 -18zM515 795l-30 -79l-17 -4q-106 27 -238 69l-6 16l49 116l17 4q111 -66 225 -122z" />
    <glyph glyph-name="Oacute" unicode="&#xd3;" horiz-adv-x="658" 
d="M582.5 588.5q71.5 -70.5 71.5 -214.5q0 -112 -41.5 -199.5t-121.5 -137t-192 -49.5q-131 0 -203 71.5t-72 216.5q0 112 41.5 198.5t122 135.5t192.5 49q131 0 202.5 -70.5zM290.5 482q-26.5 -18 -42 -67.5t-15.5 -141.5q0 -54 7 -83t25.5 -42t54.5 -13q39 0 66 18
t42.5 67.5t15.5 141.5q0 53 -7 82.5t-25.5 42.5t-54.5 13q-40 0 -66.5 -18zM496 913l49 -116l-6 -16q-132 -42 -238 -69l-17 4l-30 79q114 56 225 122z" />
    <glyph glyph-name="Ocircumflex" unicode="&#xd4;" horiz-adv-x="658" 
d="M582.5 588.5q71.5 -70.5 71.5 -214.5q0 -112 -41.5 -199.5t-121.5 -137t-192 -49.5q-131 0 -203 71.5t-72 216.5q0 112 41.5 198.5t122 135.5t192.5 49q131 0 202.5 -70.5zM290.5 482q-26.5 -18 -42 -67.5t-15.5 -141.5q0 -54 7 -83t25.5 -42t54.5 -13q39 0 66 18
t42.5 67.5t15.5 141.5q0 53 -7 82.5t-25.5 42.5t-54.5 13q-40 0 -66.5 -18zM230 787q89 59 158 119h34q58 -55 148 -119l-43 -75h-18l-108 60q-49 -23 -73 -34l-55 -26h-18z" />
    <glyph glyph-name="Otilde" unicode="&#xd5;" horiz-adv-x="658" 
d="M582.5 588.5q71.5 -70.5 71.5 -214.5q0 -112 -41.5 -199.5t-121.5 -137t-192 -49.5q-131 0 -203 71.5t-72 216.5q0 112 41.5 198.5t122 135.5t192.5 49q131 0 202.5 -70.5zM290.5 482q-26.5 -18 -42 -67.5t-15.5 -141.5q0 -54 7 -83t25.5 -42t54.5 -13q39 0 66 18
t42.5 67.5t15.5 141.5q0 53 -7 82.5t-25.5 42.5t-54.5 13q-40 0 -66.5 -18zM595 861v-16l-81 -113l-16 -6q-27 3 -86 20q-8 2 -32.5 8t-34.5 6q-17 0 -30 -13t-39 -45h-16l-57 55v16l81 112l16 6q27 -3 86 -20q8 -2 32.5 -8t34.5 -6q17 0 30 13t39 45h16z" />
    <glyph glyph-name="multiply" unicode="&#xd7;" horiz-adv-x="481" 
d="M455 378l-1 -18l-118 -105l91 -105l-2 -18l-99 -76l-93 108l-122 -109l-79 77l2 17l119 106l-93 105l2 18l98 76l95 -107l120 107z" />
    <glyph glyph-name="Oslash" unicode="&#xd8;" horiz-adv-x="658" 
d="M654 374q0 -112 -41.5 -199.5t-121.5 -137t-192 -49.5q-42 0 -82 8l-79 -131l-98 47l-6 17l73 120q-83 74 -83 227q0 112 41.5 198.5t122 135.5t192.5 49q48 0 88 -9l62 102l94 -46l9 -19l-56 -93q77 -72 77 -220zM386 153q27 18 42.5 67.5t15.5 141.5q0 53 -7 82.5
t-25.5 42.5t-54.5 13q-40 0 -66.5 -18t-42 -67.5t-15.5 -141.5q0 -54 7 -83t25.5 -42t54.5 -13q39 0 66 18z" />
    <glyph glyph-name="Ugrave" unicode="&#xd9;" horiz-adv-x="653" 
d="M610 319l-13 -103q-14 -111 -90 -169.5t-210 -58.5q-119 0 -185.5 48t-66.5 137q0 21 3 43l15 103l34 328h200l-58 -404q-2 -20 -2 -27q0 -37 18 -54t59 -17q47 0 71 23t29 75l40 404h203zM513 795l-30 -79l-17 -4q-106 27 -238 69l-6 16l49 116l17 4q111 -66 225 -122z
" />
    <glyph glyph-name="Uacute" unicode="&#xda;" horiz-adv-x="653" 
d="M610 319l-13 -103q-14 -111 -90 -169.5t-210 -58.5q-119 0 -185.5 48t-66.5 137q0 21 3 43l15 103l34 328h200l-58 -404q-2 -20 -2 -27q0 -37 18 -54t59 -17q47 0 71 23t29 75l40 404h203zM494 913l49 -116l-6 -16q-132 -42 -238 -69l-17 4l-30 79q114 56 225 122z" />
    <glyph glyph-name="Ucircumflex" unicode="&#xdb;" horiz-adv-x="653" 
d="M610 319l-13 -103q-14 -111 -90 -169.5t-210 -58.5q-119 0 -185.5 48t-66.5 137q0 21 3 43l15 103l34 328h200l-58 -404q-2 -20 -2 -27q0 -37 18 -54t59 -17q47 0 71 23t29 75l40 404h203zM228 787q89 59 158 119h34q58 -55 148 -119l-43 -75h-18l-108 60
q-49 -23 -73 -34l-55 -26h-18z" />
    <glyph glyph-name="Udieresis" unicode="&#xdc;" horiz-adv-x="653" 
d="M610 319l-13 -103q-14 -111 -90 -169.5t-210 -58.5q-119 0 -185.5 48t-66.5 137q0 21 3 43l15 103l34 328h200l-58 -404q-2 -20 -2 -27q0 -37 18 -54t59 -17q47 0 71 23t29 75l40 404h203zM363.5 868.5q21.5 -21.5 21.5 -59.5q0 -42 -23.5 -66.5t-64.5 -24.5
q-40 0 -60.5 21.5t-20.5 61.5q0 42 23.5 65.5t64.5 23.5q38 0 59.5 -21.5zM557 868.5q21 -21.5 21 -59.5q0 -42 -23.5 -66.5t-63.5 -24.5t-61 21.5t-21 61.5q0 42 24 65.5t65 23.5q38 0 59 -21.5z" />
    <glyph glyph-name="Thorn" unicode="&#xde;" horiz-adv-x="603" 
d="M560.5 511q55.5 -45 55.5 -128t-38.5 -147t-108.5 -99.5t-161 -35.5h-66l-9 -101h-202l34 190l46 457h205l-14 -91h105q98 0 153.5 -45zM393 282q15 27 15 69q0 34 -18.5 50.5t-57.5 18.5l-50 -4l-26 -174l86 -5q36 18 51 45z" />
    <glyph glyph-name="germandbls" unicode="&#xdf;" horiz-adv-x="636" 
d="M492 326.5q14 -13.5 45 -32.5q30 -19 49 -34.5t32.5 -40t13.5 -58.5q0 -50 -30 -89t-81.5 -61t-114.5 -22q-70 7 -136 26l38 144l18 9q29 -33 62.5 -51.5t59.5 -18.5q14 0 22 6.5t8 14.5q0 11 -10.5 20t-35.5 24q-34 21 -56 39t-38.5 47t-16.5 69t15 67t45 61
q22 25 32 41t10 37q0 46 -57 46q-33 0 -54 -16.5t-27 -56.5l-41 -287l-25 -198l-4 -109l-177 -11l39 298l18 172h-62l-8 11l12 90h69v4q14 111 87.5 174t193.5 63q97 0 149.5 -40.5t52.5 -103.5q0 -38 -17 -65.5t-49 -60.5q-23 -24 -34 -40.5t-11 -34.5q0 -19 14 -32.5z" />
    <glyph glyph-name="agrave" unicode="&#xe0;" horiz-adv-x="488" 
d="M472 476l-47 -360l-4 -109l-177 -11l15 110h-16q-35 -70 -74 -117h-23q-78 19 -108 60.5t-30 107.5q0 64 26 127.5t80 115t134 78.5h7l97 -17l109 23zM231 190q22 38 55 119l3 22l-68 17q-49 0 -49 -117q0 -79 21 -79q16 0 38 38zM389 594l-44 -72l-17 -1
q-81 37 -223 109l-3 17l69 106l17 1q102 -87 201 -160z" />
    <glyph glyph-name="aacute" unicode="&#xe1;" horiz-adv-x="488" 
d="M472 476l-47 -360l-4 -109l-177 -11l15 110h-16q-35 -70 -74 -117h-23q-78 19 -108 60.5t-30 107.5q0 64 26 127.5t80 115t134 78.5h7l97 -17l109 23zM231 190q22 38 55 119l3 22l-68 17q-49 0 -49 -117q0 -79 21 -79q16 0 38 38zM361 753l69 -106l-3 -17
q-142 -72 -223 -109l-17 1l-44 72q99 73 201 160z" />
    <glyph glyph-name="acircumflex" unicode="&#xe2;" horiz-adv-x="488" 
d="M472 476l-47 -360l-4 -109l-177 -11l15 110h-16q-35 -70 -74 -117h-23q-78 19 -108 60.5t-30 107.5q0 64 26 127.5t80 115t134 78.5h7l97 -17l109 23zM231 190q22 38 55 119l3 22l-68 17q-49 0 -49 -117q0 -79 21 -79q16 0 38 38zM107 597q40 30 92 75t68 59l18 16h34
q47 -54 147 -150l-56 -71h-18q-63 44 -103 78q-32 -22 -108 -67l-18 -11h-18z" />
    <glyph glyph-name="atilde" unicode="&#xe3;" horiz-adv-x="488" 
d="M472 476l-47 -360l-4 -109l-177 -11l15 110h-16q-35 -70 -74 -117h-23q-78 19 -108 60.5t-30 107.5q0 64 26 127.5t80 115t134 78.5h7l97 -17l109 23zM231 190q22 38 55 119l3 22l-68 17q-49 0 -49 -117q0 -79 21 -79q16 0 38 38zM482 686v-16l-81 -113l-16 -6
q-27 3 -86 20q-8 2 -32.5 8t-34.5 6q-17 0 -30 -13t-39 -45h-16l-57 55v16l81 112l16 6q27 -3 86 -20q8 -2 32.5 -8t34.5 -6q17 0 30 13t39 45h16z" />
    <glyph glyph-name="adieresis" unicode="&#xe4;" horiz-adv-x="488" 
d="M472 476l-47 -360l-4 -109l-177 -11l15 110h-16q-35 -70 -74 -117h-23q-78 19 -108 60.5t-30 107.5q0 64 26 127.5t80 115t134 78.5h7l97 -17l109 23zM231 190q22 38 55 119l3 22l-68 17q-49 0 -49 -117q0 -79 21 -79q16 0 38 38zM251.5 693.5q21.5 -21.5 21.5 -59.5
q0 -42 -23.5 -66.5t-64.5 -24.5q-40 0 -60.5 21.5t-20.5 61.5q0 42 23.5 65.5t64.5 23.5q38 0 59.5 -21.5zM445 693.5q21 -21.5 21 -59.5q0 -42 -23.5 -66.5t-63.5 -24.5t-61 21.5t-21 61.5q0 42 24 65.5t65 23.5q38 0 59 -21.5z" />
    <glyph glyph-name="aring" unicode="&#xe5;" horiz-adv-x="488" 
d="M472 476l-47 -360l-4 -109l-177 -11l15 110h-16q-35 -70 -74 -117h-23q-78 19 -108 60.5t-30 107.5q0 64 26 127.5t80 115t134 78.5h7l97 -17l109 23zM231 190q22 38 55 119l3 22l-68 17q-49 0 -49 -117q0 -79 21 -79q16 0 38 38zM397 652q0 -55 -29 -84.5t-85 -29.5
q-106 0 -106 107q0 54 29 82t85 28q106 0 106 -103zM259.5 671.5q-7.5 -6.5 -7.5 -23.5q0 -19 8 -26.5t28 -7.5q19 0 26.5 7t7.5 24q0 18 -8 25.5t-28 7.5q-19 0 -26.5 -6.5z" />
    <glyph glyph-name="ae" unicode="&#xe6;" horiz-adv-x="690" 
d="M541 484l16 -2q55 -10 88 -42t33 -85q0 -60 -55.5 -102t-189.5 -75l4 -17q5 -20 16.5 -29.5t31.5 -9.5q54 0 96 64l21 -3l56 -71q-38 -46 -86.5 -77t-100.5 -46h-16q-81 9 -122 42.5t-59 94.5l-4 17q-46 -85 -103 -154h-23q-78 19 -107.5 61t-29.5 104q0 67 26.5 131
t80.5 115.5t134 77.5h7l156 -27q57 29 130 33zM451 348q-16 -24 -20 -74q51 11 72.5 27t21.5 43q0 15 -7 21.5t-22 6.5q-29 0 -45 -24zM168 228q0 -78 22 -78q31 0 96 160q4 10 5.5 12t4.5 8l-74 19q-54 0 -54 -121z" />
    <glyph glyph-name="ccedilla" unicode="&#xe7;" horiz-adv-x="381" 
d="M384 455l4 -18l-51 -129l-39 -1q-19 24 -29 31.5t-24 7.5q-32 0 -47 -30.5t-15 -96.5q0 -45 7 -61.5t26 -16.5q15 0 29 11.5t37 43.5l23 -1l53 -65q-33 -57 -69.5 -88.5t-92.5 -51.5h-23q-84 13 -122.5 58.5t-38.5 134.5t35 156.5t99 104.5t149 37zM232 -42l34 -19
q24 -13 34 -28.5t10 -34.5q0 -37 -29.5 -60.5t-80.5 -23.5q-49 0 -92 24l11 75l8 3q15 -13 32 -20.5t28 -7.5q16 0 16 14q0 9 -12 15l-50 27l22 112h83z" />
    <glyph glyph-name="egrave" unicode="&#xe8;" horiz-adv-x="436" 
d="M352 179l52 -67q-36 -44 -83.5 -75.5t-102.5 -47.5h-16q-97 11 -143.5 58.5t-46.5 135.5q0 87 33.5 153t95.5 104.5t146 43.5l16 -2q59 -11 90 -44t31 -84q0 -62 -56.5 -103t-186.5 -73q4 -28 16 -41t33 -13q20 0 40.5 12t61.5 47zM198 348q-15 -23 -19 -72q49 11 69 26
t20 41q0 15 -6.5 21.5t-20.5 6.5q-28 0 -43 -23zM365 594l-44 -72l-17 -1q-81 37 -223 109l-3 17l69 106l17 1q102 -87 201 -160z" />
    <glyph glyph-name="eacute" unicode="&#xe9;" horiz-adv-x="436" 
d="M352 179l52 -67q-36 -44 -83.5 -75.5t-102.5 -47.5h-16q-97 11 -143.5 58.5t-46.5 135.5q0 87 33.5 153t95.5 104.5t146 43.5l16 -2q59 -11 90 -44t31 -84q0 -62 -56.5 -103t-186.5 -73q4 -28 16 -41t33 -13q20 0 40.5 12t61.5 47zM198 348q-15 -23 -19 -72q49 11 69 26
t20 41q0 15 -6.5 21.5t-20.5 6.5q-28 0 -43 -23zM337 753l69 -106l-3 -17q-142 -72 -223 -109l-17 1l-44 72q99 73 201 160z" />
    <glyph glyph-name="ecircumflex" unicode="&#xea;" horiz-adv-x="436" 
d="M352 179l52 -67q-36 -44 -83.5 -75.5t-102.5 -47.5h-16q-97 11 -143.5 58.5t-46.5 135.5q0 87 33.5 153t95.5 104.5t146 43.5l16 -2q59 -11 90 -44t31 -84q0 -62 -56.5 -103t-186.5 -73q4 -28 16 -41t33 -13q20 0 40.5 12t61.5 47zM198 348q-15 -23 -19 -72q49 11 69 26
t20 41q0 15 -6.5 21.5t-20.5 6.5q-28 0 -43 -23zM83 597q40 30 92 75t68 59l18 16h34q47 -54 147 -150l-56 -71h-18q-63 44 -103 78q-32 -22 -108 -67l-18 -11h-18z" />
    <glyph glyph-name="edieresis" unicode="&#xeb;" horiz-adv-x="436" 
d="M352 179l52 -67q-36 -44 -83.5 -75.5t-102.5 -47.5h-16q-97 11 -143.5 58.5t-46.5 135.5q0 87 33.5 153t95.5 104.5t146 43.5l16 -2q59 -11 90 -44t31 -84q0 -62 -56.5 -103t-186.5 -73q4 -28 16 -41t33 -13q20 0 40.5 12t61.5 47zM198 348q-15 -23 -19 -72q49 11 69 26
t20 41q0 15 -6.5 21.5t-20.5 6.5q-28 0 -43 -23zM227.5 693.5q21.5 -21.5 21.5 -59.5q0 -42 -23.5 -66.5t-64.5 -24.5q-40 0 -60.5 21.5t-20.5 61.5q0 42 23.5 65.5t64.5 23.5q38 0 59.5 -21.5zM421 693.5q21 -21.5 21 -59.5q0 -42 -23.5 -66.5t-63.5 -24.5t-61 21.5
t-21 61.5q0 42 24 65.5t65 23.5q38 0 59 -21.5z" />
    <glyph glyph-name="igrave" unicode="&#xec;" horiz-adv-x="260" 
d="M197 116l-5 -109l-177 -11l47 356l4 113l177 11zM279 594l-44 -72l-17 -1q-81 37 -223 109l-3 17l69 106l17 1q102 -87 201 -160z" />
    <glyph glyph-name="iacute" unicode="&#xed;" horiz-adv-x="260" 
d="M197 116l-5 -109l-177 -11l47 356l4 113l177 11zM251 753l69 -106l-3 -17q-142 -72 -223 -109l-17 1l-44 72q99 73 201 160z" />
    <glyph glyph-name="icircumflex" unicode="&#xee;" horiz-adv-x="260" 
d="M197 116l-5 -109l-177 -11l47 356l4 113l177 11zM-3 597q40 30 92 75t68 59l18 16h34q47 -54 147 -150l-56 -71h-18q-63 44 -103 78q-32 -22 -108 -67l-18 -11h-18z" />
    <glyph glyph-name="eth" unicode="&#xf0;" horiz-adv-x="492" 
d="M442.5 457q28.5 -75 26.5 -156q0 -142 -73 -224t-201 -89l-16 2q-70 16 -108.5 63.5t-38.5 126.5q0 120 60.5 195.5t165.5 91.5q-17 24 -44 48l-125 -72l-13 4l-28 66l92 54q-28 17 -73 39l3 20l127 86h9q44 -26 85 -57l111 65l14 -4l28 -68l-90 -52q60 -64 88.5 -139z
M277 133q16 18 21.5 54.5t5.5 103.5q0 26 -1 38q-10 21 -31 21q-32 0 -48.5 -17t-22.5 -54t-6 -103q0 -34 7.5 -47.5t26.5 -13.5q32 0 48 18z" />
    <glyph glyph-name="ntilde" unicode="&#xf1;" horiz-adv-x="525" 
d="M464 433q39 -30 38 -70l-1 -14l-38 -230l-4 -112l-182 -11l44 264l1 10q0 22 -17 22q-15 0 -40.5 -26t-59.5 -79l-9 -71l-4 -109l-177 -11l47 356l4 113l177 11l-17 -131h15q57 74 114 128l13 1q57 -11 96 -41zM508 686v-16l-81 -113l-16 -6q-27 3 -86 20q-8 2 -32.5 8
t-34.5 6q-17 0 -30 -13t-39 -45h-16l-57 55v16l81 112l16 6q27 -3 86 -20q8 -2 32.5 -8t34.5 -6q17 0 30 13t39 45h16z" />
    <glyph glyph-name="ograve" unicode="&#xf2;" horiz-adv-x="468" 
d="M306 482q70 -16 110 -61.5t40 -119.5q0 -142 -74 -224t-204 -89l-16 2q-71 16 -110.5 64t-39.5 129q0 88 34 154t96.5 104t147.5 43zM207.5 331.5q-15.5 -16.5 -20.5 -51.5t-5 -101q0 -34 6.5 -46.5t25.5 -12.5q31 0 45.5 16.5t19.5 51.5t5 102q0 33 -6 45.5t-23 12.5
q-32 0 -47.5 -16.5zM390 594l-44 -72l-17 -1q-81 37 -223 109l-3 17l69 106l17 1q102 -87 201 -160z" />
    <glyph glyph-name="oacute" unicode="&#xf3;" horiz-adv-x="468" 
d="M306 482q70 -16 110 -61.5t40 -119.5q0 -142 -74 -224t-204 -89l-16 2q-71 16 -110.5 64t-39.5 129q0 88 34 154t96.5 104t147.5 43zM207.5 331.5q-15.5 -16.5 -20.5 -51.5t-5 -101q0 -34 6.5 -46.5t25.5 -12.5q31 0 45.5 16.5t19.5 51.5t5 102q0 33 -6 45.5t-23 12.5
q-32 0 -47.5 -16.5zM362 753l69 -106l-3 -17q-142 -72 -223 -109l-17 1l-44 72q99 73 201 160z" />
    <glyph glyph-name="ocircumflex" unicode="&#xf4;" horiz-adv-x="468" 
d="M306 482q70 -16 110 -61.5t40 -119.5q0 -142 -74 -224t-204 -89l-16 2q-71 16 -110.5 64t-39.5 129q0 88 34 154t96.5 104t147.5 43zM207.5 331.5q-15.5 -16.5 -20.5 -51.5t-5 -101q0 -34 6.5 -46.5t25.5 -12.5q31 0 45.5 16.5t19.5 51.5t5 102q0 33 -6 45.5t-23 12.5
q-32 0 -47.5 -16.5zM108 597q40 30 92 75t68 59l18 16h34q47 -54 147 -150l-56 -71h-18q-63 44 -103 78q-32 -22 -108 -67l-18 -11h-18z" />
    <glyph glyph-name="otilde" unicode="&#xf5;" horiz-adv-x="468" 
d="M306 482q70 -16 110 -61.5t40 -119.5q0 -142 -74 -224t-204 -89l-16 2q-71 16 -110.5 64t-39.5 129q0 88 34 154t96.5 104t147.5 43zM207.5 331.5q-15.5 -16.5 -20.5 -51.5t-5 -101q0 -34 6.5 -46.5t25.5 -12.5q31 0 45.5 16.5t19.5 51.5t5 102q0 33 -6 45.5t-23 12.5
q-32 0 -47.5 -16.5zM483 686v-16l-81 -113l-16 -6q-27 3 -86 20q-8 2 -32.5 8t-34.5 6q-17 0 -30 -13t-39 -45h-16l-57 55v16l81 112l16 6q27 -3 86 -20q8 -2 32.5 -8t34.5 -6q17 0 30 13t39 45h16z" />
    <glyph glyph-name="divide" unicode="&#xf7;" horiz-adv-x="478" 
d="M468 307l-9 -117h-430l-12 13l9 117h430zM280.437 151.341q19.6602 -20.4785 19.6602 -56.5215q0 -39.3193 -22.1172 -62.2559q-22.1172 -22.9355 -59.7979 -22.9355q-37.6816 0 -57.3408 20.0693q-19.6602 20.0684 -19.6602 57.75q0 38.5 22.5273 61.4365
q22.5264 22.9365 61.0264 22.9365q36.043 0 55.7021 -20.4795zM320.437 477.341q19.6602 -20.4785 19.6602 -56.5215q0 -39.3193 -22.1172 -62.2559q-22.1172 -22.9355 -59.7979 -22.9355q-37.6816 0 -57.3408 20.0693q-19.6602 20.0684 -19.6602 57.75
q0 38.5 22.5273 61.4365q22.5264 22.9365 61.0264 22.9365q36.043 0 55.7021 -20.4795z" />
    <glyph glyph-name="oslash" unicode="&#xf8;" horiz-adv-x="468" 
d="M417 420q39 -47 39 -119q0 -142 -74 -224t-204 -89l-16 2l-7 2l-75 -124l-90 53l-4 16l69 113q-43 49 -43 133q0 88 34 154t96.5 104t147.5 43l16 -2l11 -3l70 115l84 -52l9 -17zM259.5 136.5q14.5 16.5 19.5 51.5t5 102q0 33 -6 45.5t-23 12.5q-32 0 -47.5 -16.5
t-20.5 -51.5t-5 -101q0 -34 6.5 -46.5t25.5 -12.5q31 0 45.5 16.5z" />
    <glyph glyph-name="ugrave" unicode="&#xf9;" horiz-adv-x="514" 
d="M498 476l-47 -360l-4 -109l-177 -11l16 121h-13q-51 -70 -104 -120l-13 -1q-64 7 -101 36.5t-37 72.5l2 20l37 226l4 112l181 11l-42 -262l-1 -13q0 -23 18 -23q29 0 89 95l11 81l4 113zM409 594l-44 -72l-17 -1q-81 37 -223 109l-3 17l69 106l17 1q102 -87 201 -160z
" />
    <glyph glyph-name="uacute" unicode="&#xfa;" horiz-adv-x="514" 
d="M498 476l-47 -360l-4 -109l-177 -11l16 121h-13q-51 -70 -104 -120l-13 -1q-64 7 -101 36.5t-37 72.5l2 20l37 226l4 112l181 11l-42 -262l-1 -13q0 -23 18 -23q29 0 89 95l11 81l4 113zM381 753l69 -106l-3 -17q-142 -72 -223 -109l-17 1l-44 72q99 73 201 160z" />
    <glyph glyph-name="ucircumflex" unicode="&#xfb;" horiz-adv-x="514" 
d="M498 476l-47 -360l-4 -109l-177 -11l16 121h-13q-51 -70 -104 -120l-13 -1q-64 7 -101 36.5t-37 72.5l2 20l37 226l4 112l181 11l-42 -262l-1 -13q0 -23 18 -23q29 0 89 95l11 81l4 113zM127 597q40 30 92 75t68 59l18 16h34q47 -54 147 -150l-56 -71h-18q-63 44 -103 78
q-32 -22 -108 -67l-18 -11h-18z" />
    <glyph glyph-name="udieresis" unicode="&#xfc;" horiz-adv-x="514" 
d="M498 476l-47 -360l-4 -109l-177 -11l16 121h-13q-51 -70 -104 -120l-13 -1q-64 7 -101 36.5t-37 72.5l2 20l37 226l4 112l181 11l-42 -262l-1 -13q0 -23 18 -23q29 0 89 95l11 81l4 113zM271.5 693.5q21.5 -21.5 21.5 -59.5q0 -42 -23.5 -66.5t-64.5 -24.5
q-40 0 -60.5 21.5t-20.5 61.5q0 42 23.5 65.5t64.5 23.5q38 0 59.5 -21.5zM465 693.5q21 -21.5 21 -59.5q0 -42 -23.5 -66.5t-63.5 -24.5t-61 21.5t-21 61.5q0 42 24 65.5t65 23.5q38 0 59 -21.5z" />
    <glyph glyph-name="thorn" unicode="&#xfe;" horiz-adv-x="491" 
d="M451.5 419q30.5 -40 30.5 -108q0 -66 -26.5 -130t-79.5 -115.5t-129 -76.5h-7l-59 11l-10 -76l-4 -109l-177 -11l103 776l4 113l177 11l-46 -347h17q37 71 79 121h23q74 -19 104.5 -59zM308.5 150q11.5 32 11.5 88q0 83 -21 83q-15 0 -38 -38t-58 -119l-4 -26l76 -20
q22 0 33.5 32z" />
    <glyph glyph-name="ydieresis" unicode="&#xff;" horiz-adv-x="484" 
d="M488 401q0 -40 -10.5 -77t-33.5 -77l-100 -198q-65 -129 -132 -187t-151 -58q-49 0 -109 18l7 149l15 16q44 -10 85 -10q46 0 78 16l-106 473l178 10l7 -91l28 -200h13l35 87q25 60 25 110q0 37 -13 60l8 17l162 20q14 -49 14 -78zM256.5 693.5q21.5 -21.5 21.5 -59.5
q0 -42 -23.5 -66.5t-64.5 -24.5q-40 0 -60.5 21.5t-20.5 61.5q0 42 23.5 65.5t64.5 23.5q38 0 59.5 -21.5zM450 693.5q21 -21.5 21 -59.5q0 -42 -23.5 -66.5t-63.5 -24.5t-61 21.5t-21 61.5q0 42 24 65.5t65 23.5q38 0 59 -21.5z" />
    <glyph glyph-name="Amacron" unicode="&#x100;" horiz-adv-x="626" 
d="M587 0h-202l-4 107v4l-99 2l-83 -4l-31 -109h-195l276 647h241zM368 256l-18 213h-12l-83 -213l57 -1zM531 853l-9 -107h-276l-12 13l9 106h276z" />
    <glyph glyph-name="amacron" unicode="&#x101;" horiz-adv-x="488" 
d="M472 476l-47 -360l-4 -109l-177 -11l15 110h-16q-35 -70 -74 -117h-23q-78 19 -108 60.5t-30 107.5q0 64 26 127.5t80 115t134 78.5h7l97 -17l109 23zM231 190q22 38 55 119l3 22l-68 17q-49 0 -49 -117q0 -79 21 -79q16 0 38 38zM434 678l-9 -107h-276l-12 13l9 106h276
z" />
    <glyph glyph-name="Abreve" unicode="&#x102;" horiz-adv-x="626" 
d="M587 0h-202l-4 107v4l-99 2l-83 -4l-31 -109h-195l276 647h241zM368 256l-18 213h-12l-83 -213l57 -1zM561 840q-57 -124 -183 -124q-65 0 -110 32t-62 92l48 59h27q14 -25 42.5 -37.5t64.5 -12.5q37 0 66.5 13t47.5 37h27z" />
    <glyph glyph-name="abreve" unicode="&#x103;" horiz-adv-x="488" 
d="M472 476l-47 -360l-4 -109l-177 -11l15 110h-16q-35 -70 -74 -117h-23q-78 19 -108 60.5t-30 107.5q0 64 26 127.5t80 115t134 78.5h7l97 -17l109 23zM231 190q22 38 55 119l3 22l-68 17q-49 0 -49 -117q0 -79 21 -79q16 0 38 38zM462 671q-23 -57 -71 -96.5t-117 -39.5
q-75 0 -115 40t-51 96l47 61h27q12 -30 40 -46.5t64 -16.5q37 0 68.5 16.5t49.5 46.5h27z" />
    <glyph glyph-name="Aogonek" unicode="&#x104;" horiz-adv-x="626" 
d="M587 0h-202l-4 107v4l-99 2l-83 -4l-31 -109h-195l276 647h241zM368 256l-18 213h-12l-83 -213l57 -1zM497.5 -45q-25.5 -17 -25.5 -33q0 -17 24 -17q23 0 71 19l9 -2l14 -83q-59 -36 -116 -36q-51 0 -82 24.5t-31 65.5q0 40 30 69.5t79 37.5h117q-64 -28 -89.5 -45z" />
    <glyph glyph-name="aogonek" unicode="&#x105;" horiz-adv-x="488" 
d="M472 476l-47 -360l-4 -109l-177 -11l15 110h-16q-35 -70 -74 -117h-23q-78 19 -108 60.5t-30 107.5q0 64 26 127.5t80 115t134 78.5h7l97 -17l109 23zM231 190q22 38 55 119l3 22l-68 17q-49 0 -49 -117q0 -79 21 -79q16 0 38 38zM331.5 -38q-25.5 -17 -25.5 -33
q0 -17 24 -17q23 0 71 19l9 -2l14 -83q-59 -36 -116 -36q-51 0 -82 24.5t-31 65.5q0 40 30 69.5t79 37.5h117q-64 -28 -89.5 -45z" />
    <glyph glyph-name="Cacute" unicode="&#x106;" horiz-adv-x="516" 
d="M485 651q44 -7 79 -20l-53 -159l-14 -7q-24 14 -57 22.5t-62 8.5q-76 0 -107.5 -48t-31.5 -153q0 -73 26.5 -107t82.5 -34q28 0 63.5 5.5t63.5 15.5l14 -9l-35 -158q-35 -11 -65.5 -15t-66.5 -4q-144 0 -220.5 71t-76.5 203q0 186 96.5 290.5t274.5 104.5q45 0 89 -7z
M461 913l49 -116l-6 -16q-132 -42 -238 -69l-17 4l-30 79q114 56 225 122z" />
    <glyph glyph-name="cacute" unicode="&#x107;" horiz-adv-x="381" 
d="M384 455l4 -18l-51 -129l-39 -1q-19 24 -29 31.5t-24 7.5q-32 0 -47 -30.5t-15 -96.5q0 -45 7 -61.5t26 -16.5q15 0 29 11.5t37 43.5l23 -1l53 -65q-33 -57 -69.5 -88.5t-92.5 -51.5h-23q-84 13 -122.5 58.5t-38.5 134.5t35 156.5t99 104.5t149 37zM342 753l69 -106
l-3 -17q-142 -72 -223 -109l-17 1l-44 72q99 73 201 160z" />
    <glyph glyph-name="Ccircumflex" unicode="&#x108;" horiz-adv-x="516" 
d="M485 651q44 -7 79 -20l-53 -159l-14 -7q-24 14 -57 22.5t-62 8.5q-76 0 -107.5 -48t-31.5 -153q0 -73 26.5 -107t82.5 -34q28 0 63.5 5.5t63.5 15.5l14 -9l-35 -158q-35 -11 -65.5 -15t-66.5 -4q-144 0 -220.5 71t-76.5 203q0 186 96.5 290.5t274.5 104.5q45 0 89 -7z
M195 787q89 59 158 119h34q58 -55 148 -119l-43 -75h-18l-108 60q-49 -23 -73 -34l-55 -26h-18z" />
    <glyph glyph-name="ccircumflex" unicode="&#x109;" horiz-adv-x="381" 
d="M384 455l4 -18l-51 -129l-39 -1q-19 24 -29 31.5t-24 7.5q-32 0 -47 -30.5t-15 -96.5q0 -45 7 -61.5t26 -16.5q15 0 29 11.5t37 43.5l23 -1l53 -65q-33 -57 -69.5 -88.5t-92.5 -51.5h-23q-84 13 -122.5 58.5t-38.5 134.5t35 156.5t99 104.5t149 37zM88 597q40 30 92 75
t68 59l18 16h34q47 -54 147 -150l-56 -71h-18q-63 44 -103 78q-32 -22 -108 -67l-18 -11h-18z" />
    <glyph glyph-name="Cdotaccent" unicode="&#x10a;" horiz-adv-x="516" 
d="M485 651q44 -7 79 -20l-53 -159l-14 -7q-24 14 -57 22.5t-62 8.5q-76 0 -107.5 -48t-31.5 -153q0 -73 26.5 -107t82.5 -34q28 0 63.5 5.5t63.5 15.5l14 -9l-35 -158q-35 -11 -65.5 -15t-66.5 -4q-144 0 -220.5 71t-76.5 203q0 186 96.5 290.5t274.5 104.5q45 0 89 -7z
M435 871q24 -25 24 -69q0 -48 -27 -76t-73 -28t-70 24.5t-24 70.5q0 47 27.5 75t74.5 28q44 0 68 -25z" />
    <glyph glyph-name="cdotaccent" unicode="&#x10b;" horiz-adv-x="381" 
d="M384 455l4 -18l-51 -129l-39 -1q-19 24 -29 31.5t-24 7.5q-32 0 -47 -30.5t-15 -96.5q0 -45 7 -61.5t26 -16.5q15 0 29 11.5t37 43.5l23 -1l53 -65q-33 -57 -69.5 -88.5t-92.5 -51.5h-23q-84 13 -122.5 58.5t-38.5 134.5t35 156.5t99 104.5t149 37zM338 696
q24 -25 24 -69q0 -48 -27 -76t-73 -28t-70 24.5t-24 70.5q0 47 27.5 75t74.5 28q44 0 68 -25z" />
    <glyph glyph-name="Ccaron" unicode="&#x10c;" horiz-adv-x="516" 
d="M485 651q44 -7 79 -20l-53 -159l-14 -7q-24 14 -57 22.5t-62 8.5q-76 0 -107.5 -48t-31.5 -153q0 -73 26.5 -107t82.5 -34q28 0 63.5 5.5t63.5 15.5l14 -9l-35 -158q-35 -11 -65.5 -15t-66.5 -4q-144 0 -220.5 71t-76.5 203q0 186 96.5 290.5t274.5 104.5q45 0 89 -7z
M531 831q-89 -59 -158 -119h-34q-58 55 -148 119l43 75h18l108 -60q49 24 73 34l55 26h18z" />
    <glyph glyph-name="ccaron" unicode="&#x10d;" horiz-adv-x="381" 
d="M384 455l4 -18l-51 -129l-39 -1q-19 24 -29 31.5t-24 7.5q-32 0 -47 -30.5t-15 -96.5q0 -45 7 -61.5t26 -16.5q15 0 29 11.5t37 43.5l23 -1l53 -65q-33 -57 -69.5 -88.5t-92.5 -51.5h-23q-84 13 -122.5 58.5t-38.5 134.5t35 156.5t99 104.5t149 37zM447 676
q-40 -30 -92 -75t-68 -59l-18 -16h-34q-47 54 -147 150l56 71h18q63 -44 103 -78q32 22 108 67l18 11h18z" />
    <glyph glyph-name="Dcaron" unicode="&#x10e;" horiz-adv-x="668" 
d="M593.5 585q71.5 -66 71.5 -188q0 -191 -98 -298.5t-282 -107.5q-114 0 -253 9l33 190l46 457l283 4q128 0 199.5 -66zM422 193q32 54 32 175q0 69 -20.5 98.5t-66.5 29.5q-37 0 -76 -4l-42 -282l-5 -63q60 -8 87 -8q59 0 91 54zM539 831q-89 -59 -158 -119h-34
q-58 55 -148 119l43 75h18l108 -60q49 24 73 34l55 26h18z" />
    <glyph glyph-name="dcaron" unicode="&#x10f;" horiz-adv-x="628" 
d="M501 704l-78 -588l-4 -109l-177 -11l15 112h-13q-38 -72 -77 -119h-23q-78 19 -107.5 60t-29.5 106q0 64 26.5 128t81.5 116t136 79h7l47 -8l15 110l4 113zM282 295l5 37l-64 17q-53 0 -53 -122q0 -77 21 -77q29 0 91 145zM700 626l-72 -231l-84 -13l-11 10l19 237l140 8
z" />
    <glyph glyph-name="Dcroat" unicode="&#x110;" horiz-adv-x="698" 
d="M624.5 585q71.5 -66 71.5 -188q0 -191 -98 -298.5t-282 -107.5q-114 0 -253 9l33 190l46 457l283 4q128 0 199.5 -66zM453 193q32 54 32 175q0 69 -20.5 98.5t-66.5 29.5q-37 0 -76 -4l-42 -282l-5 -63q60 -8 87 -8q59 0 91 54zM384.79 366l-17.2275 -117h-344.551
l-8.23926 13l17.9766 117h344.551z" />
    <glyph glyph-name="dcroat" unicode="&#x111;" horiz-adv-x="497" 
d="M553 524h-76l-54 -408l-4 -109l-177 -11l15 112h-13q-38 -72 -77 -119h-23q-78 19 -107.5 60t-29.5 106q0 64 26.5 128t81.5 116t136 79h7l47 -8l8 54h-108l-12 13l7 88h122l2 68l177 11l-10 -79h57l12 -13zM282 295l5 37l-64 17q-53 0 -53 -122q0 -77 21 -77
q29 0 91 145z" />
    <glyph glyph-name="Emacron" unicode="&#x112;" horiz-adv-x="540" 
d="M291 494l-13 -92h98l105 3l9 -14l-30 -146l-115 3h-90l-6 -38l-5 -57h96l167 6l9 -14l-30 -145h-455l33 190l47 457h463l9 -14l-31 -145l-158 6h-103zM503 853l-9 -107h-276l-12 13l9 106h276z" />
    <glyph glyph-name="emacron" unicode="&#x113;" horiz-adv-x="436" 
d="M352 179l52 -67q-36 -44 -83.5 -75.5t-102.5 -47.5h-16q-97 11 -143.5 58.5t-46.5 135.5q0 87 33.5 153t95.5 104.5t146 43.5l16 -2q59 -11 90 -44t31 -84q0 -62 -56.5 -103t-186.5 -73q4 -28 16 -41t33 -13q20 0 40.5 12t61.5 47zM198 348q-15 -23 -19 -72q49 11 69 26
t20 41q0 15 -6.5 21.5t-20.5 6.5q-28 0 -43 -23zM410 678l-9 -107h-276l-12 13l9 106h276z" />
    <glyph glyph-name="Ebreve" unicode="&#x114;" horiz-adv-x="540" 
d="M291 494l-13 -92h98l105 3l9 -14l-30 -146l-115 3h-90l-6 -38l-5 -57h96l167 6l9 -14l-30 -145h-455l33 190l47 457h463l9 -14l-31 -145l-158 6h-103zM533 840q-57 -124 -183 -124q-65 0 -110 32t-62 92l48 59h27q14 -25 42.5 -37.5t64.5 -12.5q37 0 66.5 13t47.5 37h27z
" />
    <glyph glyph-name="ebreve" unicode="&#x115;" horiz-adv-x="436" 
d="M352 179l52 -67q-36 -44 -83.5 -75.5t-102.5 -47.5h-16q-97 11 -143.5 58.5t-46.5 135.5q0 87 33.5 153t95.5 104.5t146 43.5l16 -2q59 -11 90 -44t31 -84q0 -62 -56.5 -103t-186.5 -73q4 -28 16 -41t33 -13q20 0 40.5 12t61.5 47zM198 348q-15 -23 -19 -72q49 11 69 26
t20 41q0 15 -6.5 21.5t-20.5 6.5q-28 0 -43 -23zM438 671q-23 -57 -71 -96.5t-117 -39.5q-75 0 -115 40t-51 96l47 61h27q12 -30 40 -46.5t64 -16.5q37 0 68.5 16.5t49.5 46.5h27z" />
    <glyph glyph-name="Edotaccent" unicode="&#x116;" horiz-adv-x="540" 
d="M291 494l-13 -92h98l105 3l9 -14l-30 -146l-115 3h-90l-6 -38l-5 -57h96l167 6l9 -14l-30 -145h-455l33 190l47 457h463l9 -14l-31 -145l-158 6h-103zM428 871q24 -25 24 -69q0 -48 -27 -76t-73 -28t-70 24.5t-24 70.5q0 47 27.5 75t74.5 28q44 0 68 -25z" />
    <glyph glyph-name="edotaccent" unicode="&#x117;" horiz-adv-x="436" 
d="M352 179l52 -67q-36 -44 -83.5 -75.5t-102.5 -47.5h-16q-97 11 -143.5 58.5t-46.5 135.5q0 87 33.5 153t95.5 104.5t146 43.5l16 -2q59 -11 90 -44t31 -84q0 -62 -56.5 -103t-186.5 -73q4 -28 16 -41t33 -13q20 0 40.5 12t61.5 47zM198 348q-15 -23 -19 -72q49 11 69 26
t20 41q0 15 -6.5 21.5t-20.5 6.5q-28 0 -43 -23zM333 696q24 -25 24 -69q0 -48 -27 -76t-73 -28t-70 24.5t-24 70.5q0 47 27.5 75t74.5 28q44 0 68 -25z" />
    <glyph glyph-name="Eogonek" unicode="&#x118;" horiz-adv-x="540" 
d="M291 494l-13 -92h98l105 3l9 -14l-30 -146l-115 3h-90l-6 -38l-5 -57h96l167 6l9 -14l-30 -145h-455l33 190l47 457h463l9 -14l-31 -145l-158 6h-103zM258 -205.5q-31 24.5 -31 65.5q0 25 10 43.5t38 42t89 64.5h93q-47 -43 -75.5 -70t-34.5 -35t-6 -15q0 -17 23 -17
q26 0 71 19l9 -2l14 -84q-63 -36 -117 -36q-52 0 -83 24.5z" />
    <glyph glyph-name="eogonek" unicode="&#x119;" horiz-adv-x="436" 
d="M352 179l52 -67q-36 -44 -83.5 -75.5t-102.5 -47.5h-16q-97 11 -143.5 58.5t-46.5 135.5q0 87 33.5 153t95.5 104.5t146 43.5l16 -2q59 -11 90 -44t31 -84q0 -62 -56.5 -103t-186.5 -73q4 -28 16 -41t33 -13q20 0 40.5 12t61.5 47zM198 348q-15 -23 -19 -72q49 11 69 26
t20 41q0 15 -6.5 21.5t-20.5 6.5q-28 0 -43 -23zM124 -175.5q-31 24.5 -31 65.5q0 25 10 43.5t38 42t89 64.5h93q-47 -43 -75.5 -70t-34.5 -35t-6 -15q0 -17 23 -17q26 0 71 19l9 -2l14 -84q-63 -36 -117 -36q-52 0 -83 24.5z" />
    <glyph glyph-name="Ecaron" unicode="&#x11a;" horiz-adv-x="540" 
d="M291 494l-13 -92h98l105 3l9 -14l-30 -146l-115 3h-90l-6 -38l-5 -57h96l167 6l9 -14l-30 -145h-455l33 190l47 457h463l9 -14l-31 -145l-158 6h-103zM524 831q-89 -59 -158 -119h-34q-58 55 -148 119l43 75h18l108 -60q49 24 73 34l55 26h18z" />
    <glyph glyph-name="ecaron" unicode="&#x11b;" horiz-adv-x="436" 
d="M352 179l52 -67q-36 -44 -83.5 -75.5t-102.5 -47.5h-16q-97 11 -143.5 58.5t-46.5 135.5q0 87 33.5 153t95.5 104.5t146 43.5l16 -2q59 -11 90 -44t31 -84q0 -62 -56.5 -103t-186.5 -73q4 -28 16 -41t33 -13q20 0 40.5 12t61.5 47zM198 348q-15 -23 -19 -72q49 11 69 26
t20 41q0 15 -6.5 21.5t-20.5 6.5q-28 0 -43 -23zM442 676q-40 -30 -92 -75t-68 -59l-18 -16h-34q-47 54 -147 150l56 71h18q63 -44 103 -78q32 22 108 67l18 11h18z" />
    <glyph glyph-name="Gcircumflex" unicode="&#x11c;" horiz-adv-x="599" 
d="M531.5 650q52.5 -8 87.5 -22l-64 -176h-16q-47 25 -82 36t-78 11q-49 0 -80 -18.5t-48.5 -70.5t-17.5 -150q0 -69 25 -95.5t85 -26.5q14 0 36 4l4 33l10 111l184 13l-14 -90l-22 -177q-119 -44 -225 -44q-141 0 -216.5 71t-75.5 199q0 193 103.5 296.5t298.5 103.5
q53 0 105.5 -8zM227 787q89 59 158 119h34q58 -55 148 -119l-43 -75h-18l-108 60q-49 -23 -73 -34l-55 -26h-18z" />
    <glyph glyph-name="gcircumflex" unicode="&#x11d;" horiz-adv-x="480" 
d="M466 476l-46 -343l-3 -83q-10 -79 -48.5 -134.5t-96 -83.5t-125.5 -28q-90 0 -139 45.5t-60 119.5l4 11l132 55l1 12q-58 42 -58 132q0 63 26 122.5t78.5 106.5t126.5 71h6l92 -16l99 21zM190.5 328q-14.5 -30 -14.5 -88q0 -73 22 -73q30 0 95 150l3 26l-63 15
q-28 0 -42.5 -30zM227.5 -55q19.5 18 22.5 54l18 135h-13q-40 -67 -88 -117l-23 -20q-16 -14 -16 -29q0 -17 12 -29t37 -12q31 0 50.5 18zM116 597q40 30 92 75t68 59l18 16h34q47 -54 147 -150l-56 -71h-18q-63 44 -103 78q-32 -22 -108 -67l-18 -11h-18z" />
    <glyph glyph-name="Gbreve" unicode="&#x11e;" horiz-adv-x="599" 
d="M531.5 650q52.5 -8 87.5 -22l-64 -176h-16q-47 25 -82 36t-78 11q-49 0 -80 -18.5t-48.5 -70.5t-17.5 -150q0 -69 25 -95.5t85 -26.5q14 0 36 4l4 33l10 111l184 13l-14 -90l-22 -177q-119 -44 -225 -44q-141 0 -216.5 71t-75.5 199q0 193 103.5 296.5t298.5 103.5
q53 0 105.5 -8zM572 840q-57 -124 -183 -124q-65 0 -110 32t-62 92l48 59h27q14 -25 42.5 -37.5t64.5 -12.5q37 0 66.5 13t47.5 37h27z" />
    <glyph glyph-name="gbreve" unicode="&#x11f;" horiz-adv-x="480" 
d="M466 476l-46 -343l-3 -83q-10 -79 -48.5 -134.5t-96 -83.5t-125.5 -28q-90 0 -139 45.5t-60 119.5l4 11l132 55l1 12q-58 42 -58 132q0 63 26 122.5t78.5 106.5t126.5 71h6l92 -16l99 21zM190.5 328q-14.5 -30 -14.5 -88q0 -73 22 -73q30 0 95 150l3 26l-63 15
q-28 0 -42.5 -30zM227.5 -55q19.5 18 22.5 54l18 135h-13q-40 -67 -88 -117l-23 -20q-16 -14 -16 -29q0 -17 12 -29t37 -12q31 0 50.5 18zM471 671q-23 -57 -71 -96.5t-117 -39.5q-75 0 -115 40t-51 96l47 61h27q12 -30 40 -46.5t64 -16.5q37 0 68.5 16.5t49.5 46.5h27z" />
    <glyph glyph-name="Gdotaccent" unicode="&#x120;" horiz-adv-x="599" 
d="M531.5 650q52.5 -8 87.5 -22l-64 -176h-16q-47 25 -82 36t-78 11q-49 0 -80 -18.5t-48.5 -70.5t-17.5 -150q0 -69 25 -95.5t85 -26.5q14 0 36 4l4 33l10 111l184 13l-14 -90l-22 -177q-119 -44 -225 -44q-141 0 -216.5 71t-75.5 199q0 193 103.5 296.5t298.5 103.5
q53 0 105.5 -8zM467 871q24 -25 24 -69q0 -48 -27 -76t-73 -28t-70 24.5t-24 70.5q0 47 27.5 75t74.5 28q44 0 68 -25z" />
    <glyph glyph-name="gdotaccent" unicode="&#x121;" horiz-adv-x="480" 
d="M466 476l-46 -343l-3 -83q-10 -79 -48.5 -134.5t-96 -83.5t-125.5 -28q-90 0 -139 45.5t-60 119.5l4 11l132 55l1 12q-58 42 -58 132q0 63 26 122.5t78.5 106.5t126.5 71h6l92 -16l99 21zM190.5 328q-14.5 -30 -14.5 -88q0 -73 22 -73q30 0 95 150l3 26l-63 15
q-28 0 -42.5 -30zM227.5 -55q19.5 18 22.5 54l18 135h-13q-40 -67 -88 -117l-23 -20q-16 -14 -16 -29q0 -17 12 -29t37 -12q31 0 50.5 18zM366 696q24 -25 24 -69q0 -48 -27 -76t-73 -28t-70 24.5t-24 70.5q0 47 27.5 75t74.5 28q44 0 68 -25z" />
    <glyph glyph-name="Gcommaaccent" unicode="&#x122;" horiz-adv-x="599" 
d="M531.5 650q52.5 -8 87.5 -22l-64 -176h-16q-47 25 -82 36t-78 11q-49 0 -80 -18.5t-48.5 -70.5t-17.5 -150q0 -69 25 -95.5t85 -26.5q14 0 36 4l4 33l10 111l184 13l-14 -90l-22 -177q-119 -44 -225 -44q-141 0 -216.5 71t-75.5 199q0 193 103.5 296.5t298.5 103.5
q53 0 105.5 -8zM415 -62.5q10 -23.5 10 -51.5q0 -53 -33 -101.5t-104 -96.5l-55 48l-2 13q51 45 51 99q0 38 -30 67l1 15q65 36 130 53q22 -22 32 -45.5z" />
    <glyph glyph-name="gcommaaccent" unicode="&#x123;" horiz-adv-x="481" 
d="M252.5 562q-13.5 26 -13.5 62q0 45 25.5 90t79.5 94l60 -39l3 -11q-36 -40 -36 -81q0 -27 8.5 -46t30.5 -35v-14q-63 -45 -115 -65q-29 19 -42.5 45zM466 476l-46 -343l-3 -83q-10 -79 -48.5 -134.5t-96 -83.5t-125.5 -28q-90 0 -139 45.5t-60 119.5l4 11l132 55l1 12
q-58 42 -58 132q0 63 26 122.5t78.5 106.5t126.5 71h6l92 -16l99 21zM190.5 328q-14.5 -30 -14.5 -88q0 -73 22 -73q30 0 95 150l3 26l-63 15q-28 0 -42.5 -30zM227.5 -55q19.5 18 22.5 54l18 135h-13q-40 -67 -88 -117l-23 -20q-16 -14 -16 -29q0 -17 12 -29t37 -12
q31 0 50.5 18z" />
    <glyph glyph-name="Hcircumflex" unicode="&#x124;" horiz-adv-x="711" 
d="M700 647l-65 -437l-18 -210h-200l34 190l5 50l-108 2l-95 -3l-4 -29l-18 -210h-200l34 190l46 457h203l-36 -245l101 -2l93 2l25 245h203zM257 787q89 59 158 119h34q58 -55 148 -119l-43 -75h-18l-108 60q-49 -23 -73 -34l-55 -26h-18z" />
    <glyph glyph-name="hcircumflex" unicode="&#x125;" horiz-adv-x="527" 
d="M469 433.5q36 -29.5 35 -70.5l-1 -14l-38 -230l-4 -112l-181 -11l42 264l2 10q0 22 -17 22q-15 0 -42 -27.5t-61 -83.5l-9 -65l-3 -109l-178 -11l79 584l3 113l178 11l-48 -359h17q57 74 114 128l13 1q63 -11 99 -40.5zM29 840q89 59 158 119h34q58 -55 148 -119l-43 -75
h-18l-108 60q-49 -23 -73 -34l-55 -26h-18z" />
    <glyph glyph-name="Hbar" unicode="&#x126;" horiz-adv-x="745" 
d="M763 472h-72l-39 -262l-18 -210h-200l34 190l5 50l-108 2l-95 -3l-4 -29l-18 -210h-200l34 190l28 282h-57l-8 10l6 91h70l7 74h203l-11 -74h187l7 74h203l-11 -74h54l8 -10zM496 472h-191l-10 -70l101 -2l93 2z" />
    <glyph glyph-name="hbar" unicode="&#x127;" horiz-adv-x="563" 
d="M509 433.5q36 -29.5 35 -70.5l-1 -14l-38 -230l-4 -112l-181 -11l42 264l2 10q0 22 -17 22q-15 0 -42 -27.5t-61 -83.5l-9 -65l-3 -109l-178 -11l71 528h-64l-12 13l7 88h78l2 68l178 11l-11 -79h102l12 -13l-7 -88h-120l-24 -179h17q57 74 114 128l13 1q63 -11 99 -40.5
z" />
    <glyph glyph-name="Imacron" unicode="&#x12a;" horiz-adv-x="327" 
d="M249 210l-18 -210h-200l34 190l46 457h203zM359 853l-9 -107h-236l-12 13l9 106h236z" />
    <glyph glyph-name="imacron" unicode="&#x12b;" horiz-adv-x="260" 
d="M197 116l-5 -109l-177 -11l47 356l4 113l177 11zM304 678l-9 -107h-236l-12 13l9 106h236z" />
    <glyph glyph-name="Ibreve" unicode="&#x12c;" horiz-adv-x="327" 
d="M249 210l-18 -210h-200l34 190l46 457h203zM407 840q-57 -124 -183 -124q-65 0 -110 32t-62 92l48 59h27q14 -25 42.5 -37.5t64.5 -12.5q37 0 66.5 13t47.5 37h27z" />
    <glyph glyph-name="ibreve" unicode="&#x12d;" horiz-adv-x="260" 
d="M197 116l-5 -109l-177 -11l47 356l4 113l177 11zM352 671q-23 -57 -71 -96.5t-117 -39.5q-75 0 -115 40t-51 96l47 61h27q12 -30 40 -46.5t64 -16.5q37 0 68.5 16.5t49.5 46.5h27z" />
    <glyph glyph-name="Iogonek" unicode="&#x12e;" horiz-adv-x="327" 
d="M249 210l-18 -210h-200l34 190l46 457h203zM141.5 -45q-25.5 -17 -25.5 -33q0 -17 24 -17q23 0 71 19l9 -2l14 -83q-59 -36 -116 -36q-51 0 -82 24.5t-31 65.5q0 40 30 69.5t79 37.5h117q-64 -28 -89.5 -45z" />
    <glyph glyph-name="iogonek" unicode="&#x12f;" horiz-adv-x="260" 
d="M197 116l-5 -109l-177 -11l47 356l4 113l177 11zM247 696q24 -25 24 -69q0 -48 -27 -76t-73 -28t-70 24.5t-24 70.5q0 47 27.5 75t74.5 28q44 0 68 -25zM102.5 -38q-25.5 -17 -25.5 -33q0 -17 24 -17q23 0 71 19l9 -2l14 -83q-59 -36 -116 -36q-51 0 -82 24.5t-31 65.5
q0 40 30 69.5t79 37.5h117q-64 -28 -89.5 -45z" />
    <glyph glyph-name="Idotaccent" unicode="&#x130;" horiz-adv-x="327" 
d="M249 210l-18 -210h-200l34 190l46 457h203zM302 871q24 -25 24 -69q0 -48 -27 -76t-73 -28t-70 24.5t-24 70.5q0 47 27.5 75t74.5 28q44 0 68 -25z" />
    <glyph glyph-name="dotlessi" unicode="&#x131;" horiz-adv-x="260" 
d="M197 116l-5 -109l-177 -11l47 356l4 113l177 11z" />
    <glyph glyph-name="IJ" unicode="&#x132;" horiz-adv-x="689" 
d="M249 210l-18 -210h-200l34 190l46 457h203zM609 213l-8 -89q-9 -63 -35 -106t-77.5 -74t-138.5 -56l-40 103l2 15q53 25 76.5 52.5t28.5 71.5l8 63l33 314l-83 -3l-9 13l24 130h285z" />
    <glyph glyph-name="ij" unicode="&#x133;" horiz-adv-x="546" 
d="M197 116l-5 -109l-177 -11l47 356l4 113l177 11zM247 696q24 -25 24 -69q0 -48 -27 -76t-73 -28t-70 24.5t-24 70.5q0 47 27.5 75t74.5 28q44 0 68 -25zM526 472l-49 -354l-8 -82q-10 -80 -59.5 -136t-146.5 -95l-56 80l2 16q40 19 62 49t29 76l43 321l-2 15h-63l-7 11
l13 90h73l165 13zM511 696q24 -25 24 -69q0 -48 -27 -76t-73 -28t-70 24.5t-24 70.5q0 47 27.5 75t74.5 28q44 0 68 -25z" />
    <glyph glyph-name="Jcircumflex" unicode="&#x134;" horiz-adv-x="362" 
d="M282 213l-8 -89q-9 -63 -35 -106t-77.5 -74t-138.5 -56l-40 103l2 15q53 25 76.5 52.5t28.5 71.5l8 63l33 314l-83 -3l-9 13l24 130h285zM61 787q89 59 158 119h34q58 -55 148 -119l-43 -75h-18l-108 60q-49 -23 -73 -34l-55 -26h-18z" />
    <glyph glyph-name="jcircumflex" unicode="&#x135;" horiz-adv-x="286" 
d="M266 472l-49 -354l-8 -82q-10 -80 -59.5 -136t-146.5 -95l-56 80l2 16q40 19 62 49t29 76l43 321l-2 15h-63l-7 11l13 90h73l165 13zM1 597q40 30 92 75t68 59l18 16h34q47 -54 147 -150l-56 -71h-18q-63 44 -103 78q-32 -22 -108 -67l-18 -11h-18z" />
    <glyph glyph-name="Kcommaaccent" unicode="&#x136;" horiz-adv-x="630" 
d="M448 330q69 -128 174 -288l-5 -22q-109 -24 -203 -32l-21 12q-80 175 -131 298l-13 -88l-18 -210h-200l34 190l46 457h203l-40 -271l149 201l43 70h211zM403 -62.5q10 -23.5 10 -51.5q0 -53 -33 -101.5t-104 -96.5l-55 48l-2 13q51 45 51 99q0 38 -30 67l1 15
q65 36 130 53q22 -22 32 -45.5z" />
    <glyph glyph-name="kcommaaccent" unicode="&#x137;" horiz-adv-x="540" 
d="M409 180q29 -65 80 -160l-9 -13l-149 -19l-17 8q-44 116 -60 174l6 23q32 19 53.5 43.5t21.5 41.5q0 7 -4.5 12t-11.5 5q-19 0 -49.5 -28t-65.5 -85l-9 -66l-3 -109l-178 -11l79 584l3 113l178 11l-48 -359h17q48 59 126 128l13 1q62 -11 97.5 -42t35.5 -83
q0 -90 -106 -169zM331 -62.5q10 -23.5 10 -51.5q0 -53 -33 -101.5t-104 -96.5l-55 48l-2 13q51 45 51 99q0 38 -30 67l1 15q65 36 130 53q22 -22 32 -45.5z" />
    <glyph glyph-name="kgreenlandic" unicode="&#x138;" horiz-adv-x="540" 
d="M407 180q35 -76 82 -160l-9 -13l-149 -19l-17 8q-42 106 -62 174l6 23q32 19 54.5 43.5t22.5 41.5q0 8 -4.5 12.5t-12.5 4.5q-19 0 -48 -26t-64 -79l-9 -74l-5 -109l-177 -11l47 356l4 113l177 11l-17 -131h14q52 62 128 128l13 1q63 -11 98.5 -42t35.5 -83
q0 -90 -108 -169z" />
    <glyph glyph-name="Lacute" unicode="&#x139;" horiz-adv-x="452" 
d="M440 149l-29 -149h-385l33 190l46 457h203l-64 -437l-4 -47h191zM318 913l49 -116l-6 -16q-132 -42 -238 -69l-17 4l-30 79q114 56 225 122z" />
    <glyph glyph-name="lacute" unicode="&#x13a;" horiz-adv-x="267" 
d="M198 116l-3 -109l-178 -11l79 584l3 113l178 11zM300 966l49 -116l-6 -16q-132 -42 -238 -69l-17 4l-30 79q114 56 225 122z" />
    <glyph glyph-name="Lcommaaccent" unicode="&#x13b;" horiz-adv-x="452" 
d="M440 149l-29 -149h-385l33 190l46 457h203l-64 -437l-4 -47h191zM300 -62.5q10 -23.5 10 -51.5q0 -53 -33 -101.5t-104 -96.5l-55 48l-2 13q51 45 51 99q0 38 -30 67l1 15q65 36 130 53q22 -22 32 -45.5z" />
    <glyph glyph-name="lcommaaccent" unicode="&#x13c;" horiz-adv-x="267" 
d="M198 116l-3 -109l-178 -11l79 584l3 113l178 11zM194 -62.5q10 -23.5 10 -51.5q0 -53 -33 -101.5t-104 -96.5l-55 48l-2 13q51 45 51 99q0 38 -30 67l1 15q65 36 130 53q22 -22 32 -45.5z" />
    <glyph glyph-name="Lcaron" unicode="&#x13d;" horiz-adv-x="502" 
d="M440 149l-29 -149h-385l33 190l46 457h203l-64 -437l-4 -47h191zM528 601l-72 -231l-84 -13l-11 10l19 237l140 8z" />
    <glyph glyph-name="lcaron" unicode="&#x13e;" horiz-adv-x="402" 
d="M198 116l-3 -109l-178 -11l79 584l3 113l178 11zM475 626l-72 -231l-84 -13l-11 10l19 237l140 8z" />
    <glyph glyph-name="Ldot" unicode="&#x13f;" horiz-adv-x="502" 
d="M440 149l-29 -149h-385l33 190l46 457h203l-64 -437l-4 -47h191zM488 475q24 -25 24 -69q0 -48 -27 -76t-73 -28t-70 24.5t-24 70.5q0 47 27.5 75t74.5 28q44 0 68 -25z" />
    <glyph glyph-name="ldot" unicode="&#x140;" horiz-adv-x="388" 
d="M198 116l-3 -109l-178 -11l79 584l3 113l178 11zM409.5 391q24.5 -25 24.5 -69q0 -48 -27 -76t-74 -28q-46 0 -69.5 24.5t-23.5 70.5q0 47 27 75t74 28q44 0 68.5 -25z" />
    <glyph glyph-name="Lslash" unicode="&#x141;" horiz-adv-x="459" 
d="M448 149l-29 -149h-385l33 190l1 12l-50 -24l-15 9l-21 114l101 48l30 298h203l-29 -201l72 34l15 -9l22 -113l-131 -63l-13 -85l-4 -47h191z" />
    <glyph glyph-name="lslash" unicode="&#x142;" horiz-adv-x="338" 
d="M259 317l-27 -201l-3 -109l-178 -11l35 261l-62 -29l-10 2l-24 104l114 54l26 192l3 113l178 11l-34 -256l64 31l9 -4l24 -104z" />
    <glyph glyph-name="Nacute" unicode="&#x143;" horiz-adv-x="710" 
d="M636 211l-18 -211h-217l-140 348h-12l-15 -114l-21 -234h-181l33 190l46 457h217l141 -348h12l36 341l184 11zM523 913l49 -116l-6 -16q-132 -42 -238 -69l-17 4l-30 79q114 56 225 122z" />
    <glyph glyph-name="nacute" unicode="&#x144;" horiz-adv-x="525" 
d="M464 433q39 -30 38 -70l-1 -14l-38 -230l-4 -112l-182 -11l44 264l1 10q0 22 -17 22q-15 0 -40.5 -26t-59.5 -79l-9 -71l-4 -109l-177 -11l47 356l4 113l177 11l-17 -131h15q57 74 114 128l13 1q57 -11 96 -41zM387 753l69 -106l-3 -17q-142 -72 -223 -109l-17 1l-44 72
q99 73 201 160z" />
    <glyph glyph-name="Ncommaaccent" unicode="&#x145;" horiz-adv-x="710" 
d="M636 211l-18 -211h-217l-140 348h-12l-15 -114l-21 -234h-181l33 190l46 457h217l141 -348h12l36 341l184 11zM416 -62.5q10 -23.5 10 -51.5q0 -53 -33 -101.5t-104 -96.5l-55 48l-2 13q51 45 51 99q0 38 -30 67l1 15q65 36 130 53q22 -22 32 -45.5z" />
    <glyph glyph-name="ncommaaccent" unicode="&#x146;" horiz-adv-x="525" 
d="M464 433q39 -30 38 -70l-1 -14l-38 -230l-4 -112l-182 -11l44 264l1 10q0 22 -17 22q-15 0 -40.5 -26t-59.5 -79l-9 -71l-4 -109l-177 -11l47 356l4 113l177 11l-17 -131h15q57 74 114 128l13 1q57 -11 96 -41zM323 -62.5q10 -23.5 10 -51.5q0 -53 -33 -101.5t-104 -96.5
l-55 48l-2 13q51 45 51 99q0 38 -30 67l1 15q65 36 130 53q22 -22 32 -45.5z" />
    <glyph glyph-name="Ncaron" unicode="&#x147;" horiz-adv-x="710" 
d="M636 211l-18 -211h-217l-140 348h-12l-15 -114l-21 -234h-181l33 190l46 457h217l141 -348h12l36 341l184 11zM593 831q-89 -59 -158 -119h-34q-58 55 -148 119l43 75h18l108 -60q49 24 73 34l55 26h18z" />
    <glyph glyph-name="ncaron" unicode="&#x148;" horiz-adv-x="525" 
d="M464 433q39 -30 38 -70l-1 -14l-38 -230l-4 -112l-182 -11l44 264l1 10q0 22 -17 22q-15 0 -40.5 -26t-59.5 -79l-9 -71l-4 -109l-177 -11l47 356l4 113l177 11l-17 -131h15q57 74 114 128l13 1q57 -11 96 -41zM492 676q-40 -30 -92 -75t-68 -59l-18 -16h-34
q-47 54 -147 150l56 71h18q63 -44 103 -78q32 22 108 67l18 11h18z" />
    <glyph glyph-name="Eng" unicode="&#x14a;" horiz-adv-x="715" 
d="M636 211l-13 -157q-8 -63 -34 -106t-78.5 -74t-140.5 -56l-39 103l1 16q63 28 87 63l-158 348h-12l-15 -114l-21 -234h-181l34 190l46 457h217l143 -328h12l33 321l184 11z" />
    <glyph glyph-name="eng" unicode="&#x14b;" horiz-adv-x="536" 
d="M464 433q39 -30 38 -70l-1 -14l-39 -233l-10 -82q-11 -80 -60.5 -136t-144.5 -95l-53 80l2 16q37 19 58.5 49.5t28.5 75.5l38 236l1 10q0 22 -17 22q-15 0 -40.5 -26t-59.5 -79l-9 -71l-4 -109l-177 -11l47 356l4 113l177 11l-17 -131h15q57 74 114 128l13 1
q57 -11 96 -41z" />
    <glyph glyph-name="Omacron" unicode="&#x14c;" horiz-adv-x="658" 
d="M582.5 588.5q71.5 -70.5 71.5 -214.5q0 -112 -41.5 -199.5t-121.5 -137t-192 -49.5q-131 0 -203 71.5t-72 216.5q0 112 41.5 198.5t122 135.5t192.5 49q131 0 202.5 -70.5zM290.5 482q-26.5 -18 -42 -67.5t-15.5 -141.5q0 -54 7 -83t25.5 -42t54.5 -13q39 0 66 18
t42.5 67.5t15.5 141.5q0 53 -7 82.5t-25.5 42.5t-54.5 13q-40 0 -66.5 -18zM545 853l-9 -107h-276l-12 13l9 106h276z" />
    <glyph glyph-name="omacron" unicode="&#x14d;" horiz-adv-x="468" 
d="M306 482q70 -16 110 -61.5t40 -119.5q0 -142 -74 -224t-204 -89l-16 2q-71 16 -110.5 64t-39.5 129q0 88 34 154t96.5 104t147.5 43zM207.5 331.5q-15.5 -16.5 -20.5 -51.5t-5 -101q0 -34 6.5 -46.5t25.5 -12.5q31 0 45.5 16.5t19.5 51.5t5 102q0 33 -6 45.5t-23 12.5
q-32 0 -47.5 -16.5zM435 678l-9 -107h-276l-12 13l9 106h276z" />
    <glyph glyph-name="Obreve" unicode="&#x14e;" horiz-adv-x="658" 
d="M582.5 588.5q71.5 -70.5 71.5 -214.5q0 -112 -41.5 -199.5t-121.5 -137t-192 -49.5q-131 0 -203 71.5t-72 216.5q0 112 41.5 198.5t122 135.5t192.5 49q131 0 202.5 -70.5zM290.5 482q-26.5 -18 -42 -67.5t-15.5 -141.5q0 -54 7 -83t25.5 -42t54.5 -13q39 0 66 18
t42.5 67.5t15.5 141.5q0 53 -7 82.5t-25.5 42.5t-54.5 13q-40 0 -66.5 -18zM575 840q-57 -124 -183 -124q-65 0 -110 32t-62 92l48 59h27q14 -25 42.5 -37.5t64.5 -12.5q37 0 66.5 13t47.5 37h27z" />
    <glyph glyph-name="obreve" unicode="&#x14f;" horiz-adv-x="468" 
d="M306 482q70 -16 110 -61.5t40 -119.5q0 -142 -74 -224t-204 -89l-16 2q-71 16 -110.5 64t-39.5 129q0 88 34 154t96.5 104t147.5 43zM207.5 331.5q-15.5 -16.5 -20.5 -51.5t-5 -101q0 -34 6.5 -46.5t25.5 -12.5q31 0 45.5 16.5t19.5 51.5t5 102q0 33 -6 45.5t-23 12.5
q-32 0 -47.5 -16.5zM463 671q-23 -57 -71 -96.5t-117 -39.5q-75 0 -115 40t-51 96l47 61h27q12 -30 40 -46.5t64 -16.5q37 0 68.5 16.5t49.5 46.5h27z" />
    <glyph glyph-name="Ohungarumlaut" unicode="&#x150;" horiz-adv-x="658" 
d="M582.5 588.5q71.5 -70.5 71.5 -214.5q0 -112 -41.5 -199.5t-121.5 -137t-192 -49.5q-131 0 -203 71.5t-72 216.5q0 112 41.5 198.5t122 135.5t192.5 49q131 0 202.5 -70.5zM290.5 482q-26.5 -18 -42 -67.5t-15.5 -141.5q0 -54 7 -83t25.5 -42t54.5 -13q39 0 66 18
t42.5 67.5t15.5 141.5q0 53 -7 82.5t-25.5 42.5t-54.5 13q-40 0 -66.5 -18zM331 906l14 3l90 -57l3 -14q-64 -64 -131 -122l-16 -5l-59 46q68 98 99 149zM424 791q36 53 76 115l13 3l91 -57l3 -14q-69 -67 -132 -122l-15 -5l-59 46z" />
    <glyph glyph-name="ohungarumlaut" unicode="&#x151;" horiz-adv-x="468" 
d="M306 482q70 -16 110 -61.5t40 -119.5q0 -142 -74 -224t-204 -89l-16 2q-71 16 -110.5 64t-39.5 129q0 88 34 154t96.5 104t147.5 43zM207.5 331.5q-15.5 -16.5 -20.5 -51.5t-5 -101q0 -34 6.5 -46.5t25.5 -12.5q31 0 45.5 16.5t19.5 51.5t5 102q0 33 -6 45.5t-23 12.5
q-32 0 -47.5 -16.5zM246 758l13 4l90 -62l3 -14q-62 -73 -145 -159l-15 -5l-58 46q56 91 112 190zM411 758l13 4l89 -62l3 -14q-62 -73 -145 -159l-15 -5l-57 46q56 91 112 190z" />
    <glyph glyph-name="OE" unicode="&#x152;" horiz-adv-x="890" 
d="M517 652q13 -1 39.5 -3t45.5 -2h321l10 -14l-31 -145l-159 6h-103l-13 -92h99l105 3l9 -14l-30 -146l-116 3h-91l-4 -38l-5 -57h96l167 6l9 -14l-30 -145h-313q-27 2 -64 -1t-48 -4q-66 -7 -118 -7q-129 0 -199 71.5t-70 202.5q0 122 46 211.5t131.5 137.5t200.5 48
q54 0 115 -7zM292 481q-28 -19 -43 -70.5t-15 -146.5q0 -69 21.5 -99t72.5 -30q52 0 68 15t19 54l23 231q1 8 1 21q0 19 -6 28q-13 16 -68 16q-45 0 -73 -19z" />
    <glyph glyph-name="oe" unicode="&#x153;" horiz-adv-x="712" 
d="M624 184l56 -72q-38 -46 -86 -77t-100 -46h-16q-87 10 -130 68q-69 -65 -169 -69l-16 2q-72 16 -111.5 64t-39.5 129q0 133 75 213t204 88l16 -2q64 -14 96 -58q64 54 160 60l16 -2q56 -11 88.5 -43t32.5 -85q0 -60 -56 -102t-187 -74q4 -29 16.5 -41.5t35.5 -12.5
q51 0 93 63zM455 276q48 10 68.5 25t20.5 42q0 15 -6.5 21.5t-20.5 6.5q-55 0 -62 -95zM261 136q15 17 20 52.5t5 102.5q0 33 -6.5 45.5t-23.5 12.5q-32 0 -47.5 -17t-21 -52.5t-5.5 -101.5q0 -34 7 -46.5t26 -12.5q31 0 46 17z" />
    <glyph glyph-name="Racute" unicode="&#x154;" horiz-adv-x="630" 
d="M587.5 348.5q-34.5 -58.5 -97.5 -98.5q61 -115 116 -203l-5 -22q-106 -31 -205 -37l-17 16l-14 41q-21 61 -49 148h-68l-17 -193h-200l34 190l46 457l296 1q100 0 157.5 -45.5t57.5 -127.5q0 -68 -34.5 -126.5zM389.5 492q-18.5 16 -59.5 18l-37 -3l-25 -168l73 -4
q36 15 51.5 41t15.5 66q0 34 -18.5 50zM461 928l69 -106l-3 -17q-142 -72 -223 -109l-17 1l-44 72q99 73 201 160z" />
    <glyph glyph-name="racute" unicode="&#x155;" horiz-adv-x="385" 
d="M398 470l-28 -216l-16 -7l-36 7q-33 -2 -57.5 -13t-53.5 -38l-11 -87l-4 -109l-177 -11l47 356l4 113l177 11l-16 -124h17q28 43 57 72t68 51zM333 753l69 -106l-3 -17q-142 -72 -223 -109l-17 1l-44 72q99 73 201 160z" />
    <glyph glyph-name="Rcommaaccent" unicode="&#x156;" horiz-adv-x="630" 
d="M587.5 348.5q-34.5 -58.5 -97.5 -98.5q61 -115 116 -203l-5 -22q-106 -31 -205 -37l-17 16l-14 41q-21 61 -49 148h-68l-17 -193h-200l34 190l46 457l296 1q100 0 157.5 -45.5t57.5 -127.5q0 -68 -34.5 -126.5zM389.5 492q-18.5 16 -59.5 18l-37 -3l-25 -168l73 -4
q36 15 51.5 41t15.5 66q0 34 -18.5 50zM376 -62.5q10 -23.5 10 -51.5q0 -53 -33 -101.5t-104 -96.5l-55 48l-2 13q51 45 51 99q0 38 -30 67l1 15q65 36 130 53q22 -22 32 -45.5z" />
    <glyph glyph-name="rcommaaccent" unicode="&#x157;" horiz-adv-x="385" 
d="M398 470l-28 -216l-16 -7l-36 7q-33 -2 -57.5 -13t-53.5 -38l-11 -87l-4 -109l-177 -11l47 356l4 113l177 11l-16 -124h17q28 43 57 72t68 51zM199 -62.5q10 -23.5 10 -51.5q0 -53 -33 -101.5t-104 -96.5l-55 48l-2 13q51 45 51 99q0 38 -30 67l1 15q65 36 130 53
q22 -22 32 -45.5z" />
    <glyph glyph-name="Rcaron" unicode="&#x158;" horiz-adv-x="630" 
d="M587.5 348.5q-34.5 -58.5 -97.5 -98.5q61 -115 116 -203l-5 -22q-106 -31 -205 -37l-17 16l-14 41q-21 61 -49 148h-68l-17 -193h-200l34 190l46 457l296 1q100 0 157.5 -45.5t57.5 -127.5q0 -68 -34.5 -126.5zM389.5 492q-18.5 16 -59.5 18l-37 -3l-25 -168l73 -4
q36 15 51.5 41t15.5 66q0 34 -18.5 50zM566 851q-40 -30 -92 -75t-68 -59l-18 -16h-34q-47 54 -147 150l56 71h18q63 -44 103 -78q32 22 108 67l18 11h18z" />
    <glyph glyph-name="rcaron" unicode="&#x159;" horiz-adv-x="385" 
d="M398 470l-28 -216l-16 -7l-36 7q-33 -2 -57.5 -13t-53.5 -38l-11 -87l-4 -109l-177 -11l47 356l4 113l177 11l-16 -124h17q28 43 57 72t68 51zM438 676q-40 -30 -92 -75t-68 -59l-18 -16h-34q-47 54 -147 150l56 71h18q63 -44 103 -78q32 22 108 67l18 11h18z" />
    <glyph glyph-name="Sacute" unicode="&#x15a;" horiz-adv-x="528" 
d="M535 624l-50 -162l-28 -12q-39 26 -78.5 41t-64.5 15t-39.5 -10.5t-14.5 -25.5q0 -19 19.5 -32.5t62.5 -33.5q49 -23 81.5 -43.5t56.5 -55t24 -83.5q0 -63 -37.5 -117t-105 -85.5t-153.5 -31.5q-103 0 -211 38l48 173l21 12q43 -36 93 -56t86 -20q29 0 42 10.5t13 25.5
q0 20 -20.5 34.5t-63.5 34.5q-49 23 -80 43t-54 54t-23 83q0 66 38 121t104.5 86.5t148.5 31.5q96 0 185 -35zM414 928l69 -106l-3 -17q-142 -72 -223 -109l-17 1l-44 72q99 73 201 160z" />
    <glyph glyph-name="sacute" unicode="&#x15b;" horiz-adv-x="385" 
d="M386 456l-41 -138l-23 -9q-26 26 -55.5 41t-50.5 15q-11 0 -17.5 -5.5t-6.5 -13.5q0 -12 12.5 -21.5t39.5 -23.5q33 -18 55 -33.5t38.5 -41.5t16.5 -63q0 -50 -30 -89.5t-82 -62t-115 -22.5q-76 8 -140 26l42 145l18 9q28 -32 63 -50.5t62 -18.5q13 0 19.5 6t6.5 13
q0 10 -12.5 19.5t-39.5 24.5q-36 20 -58.5 36.5t-39 41.5t-16.5 59q2 56 34 96.5t84.5 62t114.5 21.5q61 -6 121 -24zM329 753l69 -106l-3 -17q-142 -72 -223 -109l-17 1l-44 72q99 73 201 160z" />
    <glyph glyph-name="Scircumflex" unicode="&#x15c;" horiz-adv-x="528" 
d="M535 624l-50 -162l-28 -12q-39 26 -78.5 41t-64.5 15t-39.5 -10.5t-14.5 -25.5q0 -19 19.5 -32.5t62.5 -33.5q49 -23 81.5 -43.5t56.5 -55t24 -83.5q0 -63 -37.5 -117t-105 -85.5t-153.5 -31.5q-103 0 -211 38l48 173l21 12q43 -36 93 -56t86 -20q29 0 42 10.5t13 25.5
q0 20 -20.5 34.5t-63.5 34.5q-49 23 -80 43t-54 54t-23 83q0 66 38 121t104.5 86.5t148.5 31.5q96 0 185 -35zM160 772q40 30 92 75t68 59l18 16h34q47 -54 147 -150l-56 -71h-18q-63 44 -103 78q-32 -22 -108 -67l-18 -11h-18z" />
    <glyph glyph-name="scircumflex" unicode="&#x15d;" horiz-adv-x="385" 
d="M386 456l-41 -138l-23 -9q-26 26 -55.5 41t-50.5 15q-11 0 -17.5 -5.5t-6.5 -13.5q0 -12 12.5 -21.5t39.5 -23.5q33 -18 55 -33.5t38.5 -41.5t16.5 -63q0 -50 -30 -89.5t-82 -62t-115 -22.5q-76 8 -140 26l42 145l18 9q28 -32 63 -50.5t62 -18.5q13 0 19.5 6t6.5 13
q0 10 -12.5 19.5t-39.5 24.5q-36 20 -58.5 36.5t-39 41.5t-16.5 59q2 56 34 96.5t84.5 62t114.5 21.5q61 -6 121 -24zM75 597q40 30 92 75t68 59l18 16h34q47 -54 147 -150l-56 -71h-18q-63 44 -103 78q-32 -22 -108 -67l-18 -11h-18z" />
    <glyph glyph-name="Scedilla" unicode="&#x15e;" horiz-adv-x="528" 
d="M535 624l-50 -162l-28 -12q-39 26 -78.5 41t-64.5 15t-39.5 -10.5t-14.5 -25.5q0 -19 19.5 -32.5t62.5 -33.5q49 -23 81.5 -43.5t56.5 -55t24 -83.5q0 -63 -37.5 -117t-105 -85.5t-153.5 -31.5q-103 0 -211 38l48 173l21 12q43 -36 93 -56t86 -20q29 0 42 10.5t13 25.5
q0 20 -20.5 34.5t-63.5 34.5q-49 23 -80 43t-54 54t-23 83q0 66 38 121t104.5 86.5t148.5 31.5q96 0 185 -35zM269 -42l34 -19q24 -13 34 -28.5t10 -34.5q0 -37 -29.5 -60.5t-80.5 -23.5q-49 0 -92 24l11 75l8 3q15 -13 32 -20.5t28 -7.5q16 0 16 14q0 9 -12 15l-50 27
l22 112h83z" />
    <glyph glyph-name="scedilla" unicode="&#x15f;" horiz-adv-x="385" 
d="M386 456l-41 -138l-23 -9q-26 26 -55.5 41t-50.5 15q-11 0 -17.5 -5.5t-6.5 -13.5q0 -12 12.5 -21.5t39.5 -23.5q33 -18 55 -33.5t38.5 -41.5t16.5 -63q0 -50 -30 -89.5t-82 -62t-115 -22.5q-76 8 -140 26l42 145l18 9q28 -32 63 -50.5t62 -18.5q13 0 19.5 6t6.5 13
q0 10 -12.5 19.5t-39.5 24.5q-36 20 -58.5 36.5t-39 41.5t-16.5 59q2 56 34 96.5t84.5 62t114.5 21.5q61 -6 121 -24zM206 -42l34 -19q24 -13 34 -28.5t10 -34.5q0 -37 -29.5 -60.5t-80.5 -23.5q-49 0 -92 24l11 75l8 3q15 -13 32 -20.5t28 -7.5q16 0 16 14q0 9 -12 15
l-50 27l22 112h83z" />
    <glyph glyph-name="Scaron" unicode="&#x160;" horiz-adv-x="528" 
d="M535 624l-50 -162l-28 -12q-39 26 -78.5 41t-64.5 15t-39.5 -10.5t-14.5 -25.5q0 -19 19.5 -32.5t62.5 -33.5q49 -23 81.5 -43.5t56.5 -55t24 -83.5q0 -63 -37.5 -117t-105 -85.5t-153.5 -31.5q-103 0 -211 38l48 173l21 12q43 -36 93 -56t86 -20q29 0 42 10.5t13 25.5
q0 20 -20.5 34.5t-63.5 34.5q-49 23 -80 43t-54 54t-23 83q0 66 38 121t104.5 86.5t148.5 31.5q96 0 185 -35zM506 831q-89 -59 -158 -119h-34q-58 55 -148 119l43 75h18l108 -60q49 24 73 34l55 26h18z" />
    <glyph glyph-name="scaron" unicode="&#x161;" horiz-adv-x="385" 
d="M386 456l-41 -138l-23 -9q-26 26 -55.5 41t-50.5 15q-11 0 -17.5 -5.5t-6.5 -13.5q0 -12 12.5 -21.5t39.5 -23.5q33 -18 55 -33.5t38.5 -41.5t16.5 -63q0 -50 -30 -89.5t-82 -62t-115 -22.5q-76 8 -140 26l42 145l18 9q28 -32 63 -50.5t62 -18.5q13 0 19.5 6t6.5 13
q0 10 -12.5 19.5t-39.5 24.5q-36 20 -58.5 36.5t-39 41.5t-16.5 59q2 56 34 96.5t84.5 62t114.5 21.5q61 -6 121 -24zM434 676q-40 -30 -92 -75t-68 -59l-18 -16h-34q-47 54 -147 150l56 71h18q63 -44 103 -78q32 22 108 67l18 11h18z" />
    <glyph glyph-name="uni0162" unicode="&#x162;" horiz-adv-x="518" 
d="M560 633l-28 -145l-131 6h-13l-40 -284l-18 -210h-59l-8 -42l34 -19q24 -13 33.5 -28.5t9.5 -34.5q0 -37 -29 -60.5t-80 -23.5q-49 0 -92 24l11 75l8 3q15 -13 32 -20.5t28 -7.5q16 0 16 14q0 9 -12 15l-50 27l16 78h-57l34 190l32 304h-13l-134 -6l-10 14l29 145h482z
" />
    <glyph glyph-name="uni0163" unicode="&#x163;" horiz-adv-x="366" 
d="M231 165l-1 -8q0 -9 9 -9q6 0 13 7t28 37l13 1l50 -63q-30 -57 -66.5 -91t-83.5 -49q-64 0 -100.5 32t-34.5 85l3 30l32 218l1 7h-62l-9 11l11 90h70l10 97l169 38l12 -10l-19 -125h98l12 -14l-11 -87h-114zM228 -42l34 -19q24 -13 34 -28.5t10 -34.5q0 -37 -29.5 -60.5
t-80.5 -23.5q-49 0 -92 24l11 75l8 3q15 -13 32 -20.5t28 -7.5q16 0 16 14q0 9 -12 15l-50 27l22 112h83z" />
    <glyph glyph-name="Tcaron" unicode="&#x164;" horiz-adv-x="518" 
d="M560 633l-28 -145l-131 6h-13l-40 -284l-18 -210h-199l34 190l32 304h-13l-134 -6l-10 14l29 145h482zM509 851q-40 -30 -92 -75t-68 -59l-18 -16h-34q-47 54 -147 150l56 71h18q63 -44 103 -78q32 22 108 67l18 11h18z" />
    <glyph glyph-name="tcaron" unicode="&#x165;" horiz-adv-x="391" 
d="M231 165l-1 -8q0 -9 9 -9q6 0 13 7t28 37l13 1l50 -63q-30 -57 -66.5 -91t-83.5 -49q-64 0 -100.5 32t-34.5 85l3 30l32 218l1 7h-62l-9 11l11 90h70l10 97l169 38l12 -10l-19 -125h98l12 -14l-11 -87h-114zM487 745l-72 -231l-84 -13l-11 10l19 237l140 8z" />
    <glyph glyph-name="Tbar" unicode="&#x166;" horiz-adv-x="518" 
d="M388 494l-22 -159h81l12 -13l-7 -87h-100l-4 -25l-18 -210h-199l34 190l5 45h-78l-12 13l7 87h93l17 159h-13l-134 -6l-10 14l29 145h482l9 -14l-28 -145l-131 6h-13z" />
    <glyph glyph-name="tbar" unicode="&#x167;" horiz-adv-x="371" 
d="M264 362l-8 -53h96l11 -13l-10 -87h-112l-7 -44l-1 -8q0 -9 9 -9q6 0 13 5.5t28 28.5l13 1l50 -63q-30 -53 -66.5 -84.5t-83.5 -45.5q-64 0 -100.5 32t-34.5 85l3 30l11 72h-52l-11 13l10 87h67l7 46l1 7h-62l-9 11l11 90h70l10 97l169 38l12 -10l-19 -125h98l12 -14
l-11 -87h-114z" />
    <glyph glyph-name="Umacron" unicode="&#x16a;" horiz-adv-x="653" 
d="M610 319l-13 -103q-14 -111 -90 -169.5t-210 -58.5q-119 0 -185.5 48t-66.5 137q0 21 3 43l15 103l34 328h200l-58 -404q-2 -20 -2 -27q0 -37 18 -54t59 -17q47 0 71 23t29 75l40 404h203zM543 853l-9 -107h-276l-12 13l9 106h276z" />
    <glyph glyph-name="umacron" unicode="&#x16b;" horiz-adv-x="514" 
d="M498 476l-47 -360l-4 -109l-177 -11l16 121h-13q-51 -70 -104 -120l-13 -1q-64 7 -101 36.5t-37 72.5l2 20l37 226l4 112l181 11l-42 -262l-1 -13q0 -23 18 -23q29 0 89 95l11 81l4 113zM454 678l-9 -107h-276l-12 13l9 106h276z" />
    <glyph glyph-name="Ubreve" unicode="&#x16c;" horiz-adv-x="653" 
d="M610 319l-13 -103q-14 -111 -90 -169.5t-210 -58.5q-119 0 -185.5 48t-66.5 137q0 21 3 43l15 103l34 328h200l-58 -404q-2 -20 -2 -27q0 -37 18 -54t59 -17q47 0 71 23t29 75l40 404h203zM573 846q-23 -57 -71 -96.5t-117 -39.5q-75 0 -115 40t-51 96l47 61h27
q12 -30 40 -46.5t64 -16.5q37 0 68.5 16.5t49.5 46.5h27z" />
    <glyph glyph-name="ubreve" unicode="&#x16d;" horiz-adv-x="514" 
d="M498 476l-47 -360l-4 -109l-177 -11l16 121h-13q-51 -70 -104 -120l-13 -1q-64 7 -101 36.5t-37 72.5l2 20l37 226l4 112l181 11l-42 -262l-1 -13q0 -23 18 -23q29 0 89 95l11 81l4 113zM482 671q-23 -57 -71 -96.5t-117 -39.5q-75 0 -115 40t-51 96l47 61h27
q12 -30 40 -46.5t64 -16.5q37 0 68.5 16.5t49.5 46.5h27z" />
    <glyph glyph-name="Uring" unicode="&#x16e;" horiz-adv-x="653" 
d="M610 319l-13 -103q-14 -111 -90 -169.5t-210 -58.5q-119 0 -185.5 48t-66.5 137q0 21 3 43l15 103l34 328h200l-58 -404q-2 -20 -2 -27q0 -37 18 -54t59 -17q47 0 71 23t29 75l40 404h203zM508 827q0 -55 -29 -84.5t-85 -29.5q-106 0 -106 107q0 54 29 82t85 28
q106 0 106 -103zM370.5 846.5q-7.5 -6.5 -7.5 -23.5q0 -19 8 -26.5t28 -7.5q19 0 26.5 7t7.5 24q0 18 -8 25.5t-28 7.5q-19 0 -26.5 -6.5z" />
    <glyph glyph-name="uring" unicode="&#x16f;" horiz-adv-x="514" 
d="M498 476l-47 -360l-4 -109l-177 -11l16 121h-13q-51 -70 -104 -120l-13 -1q-64 7 -101 36.5t-37 72.5l2 20l37 226l4 112l181 11l-42 -262l-1 -13q0 -23 18 -23q29 0 89 95l11 81l4 113zM417 652q0 -55 -29 -84.5t-85 -29.5q-106 0 -106 107q0 54 29 82t85 28
q106 0 106 -103zM279.5 671.5q-7.5 -6.5 -7.5 -23.5q0 -19 8 -26.5t28 -7.5q19 0 26.5 7t7.5 24q0 18 -8 25.5t-28 7.5q-19 0 -26.5 -6.5z" />
    <glyph glyph-name="Uhungarumlaut" unicode="&#x170;" horiz-adv-x="653" 
d="M610 319l-13 -103q-14 -111 -90 -169.5t-210 -58.5q-119 0 -185.5 48t-66.5 137q0 21 3 43l15 103l34 328h200l-58 -404q-2 -20 -2 -27q0 -37 18 -54t59 -17q47 0 71 23t29 75l40 404h203zM329 906l14 3l90 -57l3 -14q-64 -64 -131 -122l-16 -5l-59 46q68 98 99 149z
M422 791q36 53 76 115l13 3l91 -57l3 -14q-69 -67 -132 -122l-15 -5l-59 46z" />
    <glyph glyph-name="uhungarumlaut" unicode="&#x171;" horiz-adv-x="514" 
d="M498 476l-47 -360l-4 -109l-177 -11l16 121h-13q-51 -70 -104 -120l-13 -1q-64 7 -101 36.5t-37 72.5l2 20l37 226l4 112l181 11l-42 -262l-1 -13q0 -23 18 -23q29 0 89 95l11 81l4 113zM265 758l13 4l90 -62l3 -14q-62 -73 -145 -159l-15 -5l-58 46q56 91 112 190z
M430 758l13 4l89 -62l3 -14q-62 -73 -145 -159l-15 -5l-57 46q56 91 112 190z" />
    <glyph glyph-name="Uogonek" unicode="&#x172;" horiz-adv-x="653" 
d="M610 319l-13 -103q-14 -111 -90 -169.5t-210 -58.5q-119 0 -185.5 48t-66.5 137q0 21 3 43l15 103l34 328h200l-58 -404q-2 -20 -2 -27q0 -37 18 -54t59 -17q47 0 71 23t29 75l40 404h203zM229 -205.5q-31 24.5 -31 65.5q0 25 10 43.5t38 42t89 64.5h93
q-47 -43 -75.5 -70t-34.5 -35t-6 -15q0 -17 23 -17q26 0 71 19l9 -2l14 -84q-63 -36 -117 -36q-52 0 -83 24.5z" />
    <glyph glyph-name="uogonek" unicode="&#x173;" horiz-adv-x="514" 
d="M498 476l-47 -360l-4 -109l-177 -11l16 121h-13q-51 -70 -104 -120l-13 -1q-64 7 -101 36.5t-37 72.5l2 20l37 226l4 112l181 11l-42 -262l-1 -13q0 -23 18 -23q29 0 89 95l11 81l4 113zM357.5 -38q-25.5 -17 -25.5 -33q0 -17 24 -17q23 0 71 19l9 -2l14 -83
q-59 -36 -116 -36q-51 0 -82 24.5t-31 65.5q0 40 30 69.5t79 37.5h117q-64 -28 -89.5 -45z" />
    <glyph glyph-name="Wcircumflex" unicode="&#x174;" horiz-adv-x="914" 
d="M694 0h-212l-32 234h-11l-86 -234h-213l-72 647h194l-2 -100l21 -346h11l111 296l-16 150h203l-1 -121l28 -325h11l120 334l32 112h184zM338 787q89 59 158 119h34q58 -55 148 -119l-43 -75h-18l-108 60q-49 -23 -73 -34l-55 -26h-18z" />
    <glyph glyph-name="wcircumflex" unicode="&#x175;" horiz-adv-x="746" 
d="M580 0h-197l-11 234h-15l-78 -234h-194l-54 466l175 10v-87l3 -191h15l60 179l27 95h188l1 -83l5 -190h14l36 92q13 31 19 53t6 42q0 30 -13 56l8 17l162 20q14 -40 14 -78q0 -35 -11.5 -72t-34.5 -82zM242 597q40 30 92 75t68 59l18 16h34q47 -54 147 -150l-56 -71h-18
q-63 44 -103 78q-32 -22 -108 -67l-18 -11h-18z" />
    <glyph glyph-name="Ycircumflex" unicode="&#x176;" horiz-adv-x="594" 
d="M379 204l-6 -34l-12 -170h-199l30 170l3 37l-152 440h208l9 -54l49 -196h12l109 189l30 61h204zM199 787q89 59 158 119h34q58 -55 148 -119l-43 -75h-18l-108 60q-49 -23 -73 -34l-55 -26h-18z" />
    <glyph glyph-name="ycircumflex" unicode="&#x177;" horiz-adv-x="484" 
d="M488 401q0 -40 -10.5 -77t-33.5 -77l-100 -198q-65 -129 -132 -187t-151 -58q-49 0 -109 18l7 149l15 16q44 -10 85 -10q46 0 78 16l-106 473l178 10l7 -91l28 -200h13l35 87q25 60 25 110q0 37 -13 60l8 17l162 20q14 -49 14 -78zM112 597q40 30 92 75t68 59l18 16h34
q47 -54 147 -150l-56 -71h-18q-63 44 -103 78q-32 -22 -108 -67l-18 -11h-18z" />
    <glyph glyph-name="Ydieresis" unicode="&#x178;" horiz-adv-x="594" 
d="M379 204l-6 -34l-12 -170h-199l30 170l3 37l-152 440h208l9 -54l49 -196h12l109 189l30 61h204zM334.5 868.5q21.5 -21.5 21.5 -59.5q0 -42 -23.5 -66.5t-64.5 -24.5q-40 0 -60.5 21.5t-20.5 61.5q0 42 23.5 65.5t64.5 23.5q38 0 59.5 -21.5zM528 868.5
q21 -21.5 21 -59.5q0 -42 -23.5 -66.5t-63.5 -24.5t-61 21.5t-21 61.5q0 42 24 65.5t65 23.5q38 0 59 -21.5z" />
    <glyph glyph-name="Zacute" unicode="&#x179;" horiz-adv-x="569" 
d="M570 505l-319 -358h161l124 9l5 -9l-35 -152l-176 5h-230l-102 -6l18 142l325 364h-158l-121 -10l-6 8l33 152l150 -3h274l75 1zM406 913l49 -116l-6 -16q-132 -42 -238 -69l-17 4l-30 79q114 56 225 122z" />
    <glyph glyph-name="zacute" unicode="&#x17a;" horiz-adv-x="446" 
d="M447 442l-237 -296l25 7h38q19 0 29.5 4t17 16.5t10.5 39.5l21 6l69 -18q-1 -115 -39 -163t-106 -48q-25 0 -48 5t-52 14q-18 5 -35.5 9.5t-31.5 4.5q-17 0 -29.5 -6.5t-32.5 -24.5h-22l-52 49l225 285l-70 -3l-76 -15l-14 12l30 153l17 11l105 -8l167 -6l41 23zM348 753
l69 -106l-3 -17q-142 -72 -223 -109l-17 1l-44 72q99 73 201 160z" />
    <glyph glyph-name="Zdotaccent" unicode="&#x17b;" horiz-adv-x="569" 
d="M570 505l-319 -358h161l124 9l5 -9l-35 -152l-176 5h-230l-102 -6l18 142l325 364h-158l-121 -10l-6 8l33 152l150 -3h274l75 1zM380 871q24 -25 24 -69q0 -48 -27 -76t-73 -28t-70 24.5t-24 70.5q0 47 27.5 75t74.5 28q44 0 68 -25z" />
    <glyph glyph-name="zdotaccent" unicode="&#x17c;" horiz-adv-x="446" 
d="M447 442l-237 -296l25 7h38q19 0 29.5 4t17 16.5t10.5 39.5l21 6l69 -18q-1 -115 -39 -163t-106 -48q-25 0 -48 5t-52 14q-18 5 -35.5 9.5t-31.5 4.5q-17 0 -29.5 -6.5t-32.5 -24.5h-22l-52 49l225 285l-70 -3l-76 -15l-14 12l30 153l17 11l105 -8l167 -6l41 23zM344 696
q24 -25 24 -69q0 -48 -27 -76t-73 -28t-70 24.5t-24 70.5q0 47 27.5 75t74.5 28q44 0 68 -25z" />
    <glyph glyph-name="Zcaron" unicode="&#x17d;" horiz-adv-x="569" 
d="M570 505l-319 -358h161l124 9l5 -9l-35 -152l-176 5h-230l-102 -6l18 142l325 364h-158l-121 -10l-6 8l33 152l150 -3h274l75 1zM476 831q-89 -59 -158 -119h-34q-58 55 -148 119l43 75h18l108 -60q49 24 73 34l55 26h18z" />
    <glyph glyph-name="zcaron" unicode="&#x17e;" horiz-adv-x="446" 
d="M447 442l-237 -296l25 7h38q19 0 29.5 4t17 16.5t10.5 39.5l21 6l69 -18q-1 -115 -39 -163t-106 -48q-25 0 -48 5t-52 14q-18 5 -35.5 9.5t-31.5 4.5q-17 0 -29.5 -6.5t-32.5 -24.5h-22l-52 49l225 285l-70 -3l-76 -15l-14 12l30 153l17 11l105 -8l167 -6l41 23zM453 676
q-40 -30 -92 -75t-68 -59l-18 -16h-34q-47 54 -147 150l56 71h18q63 -44 103 -78q32 22 108 67l18 11h18z" />
    <glyph glyph-name="uni018F" unicode="&#x18f;" horiz-adv-x="643" 
d="M559.5 580q78.5 -76 78.5 -211q0 -114 -45.5 -200t-128 -133t-191.5 -47q-78 0 -135.5 29t-88 81t-30.5 118q0 26 5 51t16 62l28 30l371 3q-1 70 -33.5 102.5t-100.5 32.5q-84 0 -207 -42l-17 12l55 154q102 34 203 34q142 0 220.5 -76zM428 250l-217 -6l-4 -19
q-1 -5 -1 -14q0 -36 23.5 -57.5t64.5 -21.5q106 0 134 118z" />
    <glyph glyph-name="florin" unicode="&#x192;" horiz-adv-x="360" 
d="M445 617l-26 -130l-12 -8q-52 22 -83 22q-43 0 -48 -40l-9 -64h91l4 -10l-10 -97h-100l-13 -104l-13 -122q-9 -76 -46 -126.5t-116 -88.5l-80 79l2 13q33 20 49.5 47.5t23.5 71.5l12 107l12 123h-66l-4 9l10 98h71l4 32q11 95 79 146t179 51q44 0 89 -9z" />
    <glyph glyph-name="Ohorn" unicode="&#x1a0;" horiz-adv-x="698" 
d="M712.5 600q-35.5 -40 -94.5 -60q18 -35 26.5 -73t8.5 -87q0 -118 -43.5 -206.5t-124.5 -137t-188 -48.5q-132 0 -202.5 74.5t-70.5 214.5q0 112 44 198.5t123.5 135t181.5 48.5q30 0 54 -4t42 -8t23 -5q40 -11 60 -11q46 0 46 43q0 36 -29 60l3 14q54 37 94 37
q36 0 59 -26t23 -68q0 -51 -35.5 -91zM415.5 187q29.5 52 29.5 169q0 56 -7.5 86.5t-25.5 44t-52 13.5q-68 0 -97.5 -52.5t-29.5 -168.5q0 -56 7 -86.5t25.5 -44t52.5 -13.5q68 0 97.5 52z" />
    <glyph glyph-name="ohorn" unicode="&#x1a1;" horiz-adv-x="512" 
d="M541 479.5q-19 -29.5 -49.5 -50t-62.5 -23.5q29 -44 29 -105q0 -141 -73.5 -223.5t-205.5 -89.5l-16 2q-74 16 -112.5 65.5t-38.5 127.5q0 133 74.5 213t204.5 88l16 -2q36 -6 62 -6q20 0 30.5 11t10.5 31q0 15 -6.5 26.5t-22.5 25.5l3 14q50 44 95 44q35 0 58 -25
t23 -63q0 -31 -19 -60.5zM259 133.5q15 14.5 21 50.5t6 107q0 33 -6.5 45.5t-23.5 12.5q-30 0 -45.5 -14.5t-22 -51t-6.5 -105.5q0 -33 7 -46t26 -13q29 0 44 14.5z" />
    <glyph glyph-name="Uhorn" unicode="&#x1af;" horiz-adv-x="675" 
d="M713 640.5q-23 -33.5 -65 -56.5l-38 -265l-13 -103q-14 -111 -90 -169.5t-210 -58.5q-119 0 -185.5 48t-66.5 137q0 21 3 43l15 103l34 328h200l-58 -404q-2 -20 -2 -27q0 -37 18 -54t59 -17q47 0 71 23t29 75l40 404h75q31 0 44 11t13 37q0 35 -29 59l3 14q52 37 93 37
q36 0 59.5 -26t23.5 -66q0 -39 -23 -72.5z" />
    <glyph glyph-name="uhorn" unicode="&#x1b0;" horiz-adv-x="543" 
d="M562.5 464q-29.5 -38 -74.5 -62l-37 -286l-4 -109l-177 -11l16 121h-13q-51 -70 -104 -120l-13 -1q-64 7 -101 36.5t-37 72.5l2 20l37 226l4 112l181 11l-42 -262l-1 -13q0 -23 17 -23q30 0 90 95l11 81l4 113l61 7q31 3 45.5 14t14.5 31q0 31 -29 55l3 14q51 44 95 44
q34 0 57.5 -24.5t23.5 -62.5q0 -41 -29.5 -79z" />
    <glyph glyph-name="uni01C4" unicode="&#x1c4;" horiz-adv-x="1237" 
d="M593.5 585q71.5 -66 71.5 -188q0 -191 -98 -298.5t-282 -107.5q-114 0 -253 9l33 190l46 457l283 4q128 0 199.5 -66zM422 193q32 54 32 175q0 69 -20.5 98.5t-66.5 29.5q-37 0 -76 -4l-42 -282l-5 -63q60 -8 87 -8q59 0 91 54zM1238 505l-319 -358h161l124 9l5 -9
l-35 -152l-176 5h-230l-102 -6l18 142l325 364h-158l-121 -10l-6 8l33 152l150 -3h274l75 1zM1144 831q-89 -59 -158 -119h-34q-58 55 -148 119l43 75h18l108 -60q49 24 73 34l55 26h18z" />
    <glyph glyph-name="uni01C5" unicode="&#x1c5;" horiz-adv-x="1114" 
d="M593.5 585q71.5 -66 71.5 -188q0 -191 -98 -298.5t-282 -107.5q-114 0 -253 9l33 190l46 457l283 4q128 0 199.5 -66zM422 193q32 54 32 175q0 69 -20.5 98.5t-66.5 29.5q-37 0 -76 -4l-42 -282l-5 -63q60 -8 87 -8q59 0 91 54zM1115 442l-237 -296l25 7h38q19 0 29.5 4
t17 16.5t10.5 39.5l21 6l69 -18q-1 -115 -39 -163t-106 -48q-25 0 -48 5t-52 14q-18 5 -35.5 9.5t-31.5 4.5q-17 0 -29.5 -6.5t-32.5 -24.5h-22l-52 49l225 285l-70 -3l-76 -15l-14 12l30 153l17 11l105 -8l167 -6l41 23zM1121 676q-40 -30 -92 -75t-68 -59l-18 -16h-34
q-47 54 -147 150l56 71h18q63 -44 103 -78q32 22 108 67l18 11h18z" />
    <glyph glyph-name="uni01C6" unicode="&#x1c6;" horiz-adv-x="932" 
d="M501 704l-78 -588l-4 -109l-177 -11l15 112h-13q-38 -72 -77 -119h-23q-78 19 -107.5 60t-29.5 106q0 64 26.5 128t81.5 116t136 79h7l47 -8l15 110l4 113zM282 295l5 37l-64 17q-53 0 -53 -122q0 -77 21 -77q29 0 91 145zM933 442l-237 -296l25 7h38q19 0 29.5 4
t17 16.5t10.5 39.5l21 6l69 -18q-1 -115 -39 -163t-106 -48q-25 0 -48 5t-52 14q-18 5 -35.5 9.5t-31.5 4.5q-17 0 -29.5 -6.5t-32.5 -24.5h-22l-52 49l225 285l-70 -3l-76 -15l-14 12l30 153l17 11l105 -8l167 -6l41 23zM939 676q-40 -30 -92 -75t-68 -59l-18 -16h-34
q-47 54 -147 150l56 71h18q63 -44 103 -78q32 22 108 67l18 11h18z" />
    <glyph glyph-name="uni01C7" unicode="&#x1c7;" horiz-adv-x="795" 
d="M440 149l-29 -149h-385l33 190l46 457h203l-64 -437l-4 -47h191zM715 213l-8 -89q-9 -63 -35 -106t-77.5 -74t-138.5 -56l-40 103l2 15q53 25 76.5 52.5t28.5 71.5l8 63l33 314l-83 -3l-9 13l24 130h285z" />
    <glyph glyph-name="uni01C8" unicode="&#x1c8;" horiz-adv-x="738" 
d="M440 149l-29 -149h-385l33 190l46 457h203l-64 -437l-4 -47h191zM718 472l-49 -354l-8 -82q-10 -80 -59.5 -136t-146.5 -95l-56 80l2 16q40 19 62 49t29 76l43 321l-2 15h-63l-7 11l13 90h73l165 13zM703 696q24 -25 24 -69q0 -48 -27 -76t-73 -28t-70 24.5t-24 70.5
q0 47 27.5 75t74.5 28q44 0 68 -25z" />
    <glyph glyph-name="uni01C9" unicode="&#x1c9;" horiz-adv-x="553" 
d="M198 116l-3 -109l-178 -11l79 584l3 113l178 11zM533 472l-49 -354l-8 -82q-10 -80 -59.5 -136t-146.5 -95l-56 80l2 16q40 19 62 49t29 76l43 321l-2 15h-63l-7 11l13 90h73l165 13zM518 696q24 -25 24 -69q0 -48 -27 -76t-73 -28t-70 24.5t-24 70.5q0 47 27.5 75
t74.5 28q44 0 68 -25z" />
    <glyph glyph-name="uni01CA" unicode="&#x1ca;" horiz-adv-x="1072" 
d="M636 211l-18 -211h-217l-140 348h-12l-15 -114l-21 -234h-181l33 190l46 457h217l141 -348h12l36 341l184 11zM992 213l-8 -89q-9 -63 -35 -106t-77.5 -74t-138.5 -56l-40 103l2 15q53 25 76.5 52.5t28.5 71.5l8 63l33 314l-83 -3l-9 13l24 130h285z" />
    <glyph glyph-name="uni01CB" unicode="&#x1cb;" horiz-adv-x="996" 
d="M636 211l-18 -211h-217l-140 348h-12l-15 -114l-21 -234h-181l33 190l46 457h217l141 -348h12l36 341l184 11zM976 472l-49 -354l-8 -82q-10 -80 -59.5 -136t-146.5 -95l-56 80l2 16q40 19 62 49t29 76l43 321l-2 15h-63l-7 11l13 90h73l165 13zM961 696q24 -25 24 -69
q0 -48 -27 -76t-73 -28t-70 24.5t-24 70.5q0 47 27.5 75t74.5 28q44 0 68 -25z" />
    <glyph glyph-name="uni01CC" unicode="&#x1cc;" horiz-adv-x="811" 
d="M464 433q39 -30 38 -70l-1 -14l-38 -230l-4 -112l-182 -11l44 264l1 10q0 22 -17 22q-15 0 -40.5 -26t-59.5 -79l-9 -71l-4 -109l-177 -11l47 356l4 113l177 11l-17 -131h15q57 74 114 128l13 1q57 -11 96 -41zM791 472l-49 -354l-8 -82q-10 -80 -59.5 -136t-146.5 -95
l-56 80l2 16q40 19 62 49t29 76l43 321l-2 15h-63l-7 11l13 90h73l165 13zM776 696q24 -25 24 -69q0 -48 -27 -76t-73 -28t-70 24.5t-24 70.5q0 47 27.5 75t74.5 28q44 0 68 -25z" />
    <glyph glyph-name="uni01CD" unicode="&#x1cd;" horiz-adv-x="626" 
d="M587 0h-202l-4 107v4l-99 2l-83 -4l-31 -109h-195l276 647h241zM368 256l-18 213h-12l-83 -213l57 -1zM552 831q-89 -59 -158 -119h-34q-58 55 -148 119l43 75h18l108 -60q49 24 73 34l55 26h18z" />
    <glyph glyph-name="uni01CE" unicode="&#x1ce;" horiz-adv-x="488" 
d="M472 476l-47 -360l-4 -109l-177 -11l15 110h-16q-35 -70 -74 -117h-23q-78 19 -108 60.5t-30 107.5q0 64 26 127.5t80 115t134 78.5h7l97 -17l109 23zM231 190q22 38 55 119l3 22l-68 17q-49 0 -49 -117q0 -79 21 -79q16 0 38 38zM466 676q-40 -30 -92 -75t-68 -59
l-18 -16h-34q-47 54 -147 150l56 71h18q63 -44 103 -78q32 22 108 67l18 11h18z" />
    <glyph glyph-name="uni01CF" unicode="&#x1cf;" horiz-adv-x="327" 
d="M249 210l-18 -210h-200l34 190l46 457h203zM398 831q-89 -59 -158 -119h-34q-58 55 -148 119l43 75h18l108 -60q49 24 73 34l55 26h18z" />
    <glyph glyph-name="uni01D0" unicode="&#x1d0;" horiz-adv-x="260" 
d="M197 116l-5 -109l-177 -11l47 356l4 113l177 11zM356 676q-40 -30 -92 -75t-68 -59l-18 -16h-34q-47 54 -147 150l56 71h18q63 -44 103 -78q32 22 108 67l18 11h18z" />
    <glyph glyph-name="uni01D1" unicode="&#x1d1;" horiz-adv-x="658" 
d="M582.5 588.5q71.5 -70.5 71.5 -214.5q0 -112 -41.5 -199.5t-121.5 -137t-192 -49.5q-131 0 -203 71.5t-72 216.5q0 112 41.5 198.5t122 135.5t192.5 49q131 0 202.5 -70.5zM290.5 482q-26.5 -18 -42 -67.5t-15.5 -141.5q0 -54 7 -83t25.5 -42t54.5 -13q39 0 66 18
t42.5 67.5t15.5 141.5q0 53 -7 82.5t-25.5 42.5t-54.5 13q-40 0 -66.5 -18zM566 831q-89 -59 -158 -119h-34q-58 55 -148 119l43 75h18l108 -60q49 24 73 34l55 26h18z" />
    <glyph glyph-name="uni01D2" unicode="&#x1d2;" horiz-adv-x="468" 
d="M306 482q70 -16 110 -61.5t40 -119.5q0 -142 -74 -224t-204 -89l-16 2q-71 16 -110.5 64t-39.5 129q0 88 34 154t96.5 104t147.5 43zM207.5 331.5q-15.5 -16.5 -20.5 -51.5t-5 -101q0 -34 6.5 -46.5t25.5 -12.5q31 0 45.5 16.5t19.5 51.5t5 102q0 33 -6 45.5t-23 12.5
q-32 0 -47.5 -16.5zM467 676q-40 -30 -92 -75t-68 -59l-18 -16h-34q-47 54 -147 150l56 71h18q63 -44 103 -78q32 22 108 67l18 11h18z" />
    <glyph glyph-name="uni01D3" unicode="&#x1d3;" horiz-adv-x="653" 
d="M610 319l-13 -103q-14 -111 -90 -169.5t-210 -58.5q-119 0 -185.5 48t-66.5 137q0 21 3 43l15 103l34 328h200l-58 -404q-2 -20 -2 -27q0 -37 18 -54t59 -17q47 0 71 23t29 75l40 404h203zM577 851q-40 -30 -92 -75t-68 -59l-18 -16h-34q-47 54 -147 150l56 71h18
q63 -44 103 -78q32 22 108 67l18 11h18z" />
    <glyph glyph-name="uni01D4" unicode="&#x1d4;" horiz-adv-x="514" 
d="M498 476l-47 -360l-4 -109l-177 -11l16 121h-13q-51 -70 -104 -120l-13 -1q-64 7 -101 36.5t-37 72.5l2 20l37 226l4 112l181 11l-42 -262l-1 -13q0 -23 18 -23q29 0 89 95l11 81l4 113zM486 676q-40 -30 -92 -75t-68 -59l-18 -16h-34q-47 54 -147 150l56 71h18
q63 -44 103 -78q32 22 108 67l18 11h18z" />
    <glyph glyph-name="uni01D5" unicode="&#x1d5;" horiz-adv-x="653" 
d="M610 319l-13 -103q-14 -111 -90 -169.5t-210 -58.5q-119 0 -185.5 48t-66.5 137q0 21 3 43l15 103l34 328h200l-58 -404q-2 -20 -2 -27q0 -37 18 -54t59 -17q47 0 71 23t29 75l40 404h203zM571 1025l-10 -106h-303l-13 12l10 107h303zM364 849.5q21 -21.5 21 -59.5
q0 -42 -23.5 -66.5t-63.5 -24.5q-39 0 -60 21.5t-21 61.5q0 41 23.5 65t64.5 24q38 0 59 -21.5zM557 849.5q21 -21.5 21 -59.5q0 -42 -23.5 -66.5t-63.5 -24.5t-61 21.5t-21 61.5q0 41 24 65t65 24q38 0 59 -21.5z" />
    <glyph glyph-name="uni01D6" unicode="&#x1d6;" horiz-adv-x="514" 
d="M498 476l-47 -360l-4 -109l-177 -11l16 121h-13q-51 -70 -104 -120l-13 -1q-64 7 -101 36.5t-37 72.5l2 20l37 226l4 112l181 11l-42 -262l-1 -13q0 -23 18 -23q29 0 89 95l11 81l4 113zM480 850l-10 -106h-303l-13 12l10 107h303zM273 674.5q21 -21.5 21 -59.5
q0 -42 -23.5 -66.5t-63.5 -24.5q-39 0 -60 21.5t-21 61.5q0 41 23.5 65t64.5 24q38 0 59 -21.5zM466 674.5q21 -21.5 21 -59.5q0 -42 -23.5 -66.5t-63.5 -24.5t-61 21.5t-21 61.5q0 41 24 65t65 24q38 0 59 -21.5z" />
    <glyph glyph-name="uni01D7" unicode="&#x1d7;" horiz-adv-x="653" 
d="M610 319l-13 -103q-14 -111 -90 -169.5t-210 -58.5q-119 0 -185.5 48t-66.5 137q0 21 3 43l15 103l34 328h200l-58 -404q-2 -20 -2 -27q0 -37 18 -54t59 -17q47 0 71 23t29 75l40 404h203zM507 1075l28 -123l-9 -15l-21 -3q-133 -16 -225 -24l-16 7l-16 83q130 39 243 82
zM344 849.5q21 -21.5 21 -59.5q0 -42 -23.5 -66.5t-63.5 -24.5t-60.5 21.5t-20.5 61.5q0 41 23.5 65t64.5 24q38 0 59 -21.5zM536.5 849.5q20.5 -21.5 20.5 -59.5q0 -42 -23 -66.5t-63 -24.5t-61 21.5t-21 61.5q0 41 24 65t65 24q38 0 58.5 -21.5z" />
    <glyph glyph-name="uni01D8" unicode="&#x1d8;" horiz-adv-x="514" 
d="M498 476l-47 -360l-4 -109l-177 -11l16 121h-13q-51 -70 -104 -120l-13 -1q-64 7 -101 36.5t-37 72.5l2 20l37 226l4 112l181 11l-42 -262l-1 -13q0 -23 18 -23q29 0 89 95l11 81l4 113zM426 900l28 -123l-9 -15l-21 -3q-133 -16 -225 -24l-16 7l-16 83q130 39 243 82z
M283 674.5q21 -21.5 21 -59.5q0 -42 -23.5 -66.5t-63.5 -24.5t-60.5 21.5t-20.5 61.5q0 41 23.5 65t64.5 24q38 0 59 -21.5zM475.5 674.5q20.5 -21.5 20.5 -59.5q0 -42 -23 -66.5t-63 -24.5t-61 21.5t-21 61.5q0 41 24 65t65 24q38 0 58.5 -21.5z" />
    <glyph glyph-name="uni01D9" unicode="&#x1d9;" horiz-adv-x="653" 
d="M610 319l-13 -103q-14 -111 -90 -169.5t-210 -58.5q-119 0 -185.5 48t-66.5 137q0 21 3 43l15 103l34 328h200l-58 -404q-2 -20 -2 -27q0 -37 18 -54t59 -17q47 0 71 23t29 75l40 404h203zM362.5 855.5q21.5 -21.5 21.5 -59.5q0 -42 -23.5 -66.5t-64.5 -24.5
q-40 0 -60.5 21.5t-20.5 61.5q0 42 23.5 65.5t64.5 23.5q38 0 59.5 -21.5zM556 855.5q21 -21.5 21 -59.5q0 -42 -23.5 -66.5t-63.5 -24.5t-61 21.5t-21 61.5q0 42 24 65.5t65 23.5q38 0 59 -21.5zM574 982q-89 -59 -158 -119h-34q-58 55 -148 119l43 75h18l108 -60
q49 24 73 34l55 26h18z" />
    <glyph glyph-name="uni01DA" unicode="&#x1da;" horiz-adv-x="514" 
d="M498 476l-47 -360l-4 -109l-177 -11l16 121h-13q-51 -70 -104 -120l-13 -1q-64 7 -101 36.5t-37 72.5l2 20l37 226l4 112l181 11l-42 -262l-1 -13q0 -23 18 -23q29 0 89 95l11 81l4 113zM489 818q-87 -57 -158 -118h-34q-59 55 -148 118l43 76h18l108 -60q49 23 73 34
l55 26h18zM282 674.5q21 -21.5 21 -59.5q0 -42 -23.5 -66.5t-63.5 -24.5t-60.5 21.5t-20.5 61.5q0 41 23.5 65t64.5 24q38 0 59 -21.5zM474.5 674.5q20.5 -21.5 20.5 -59.5q0 -42 -23 -66.5t-63 -24.5t-61 21.5t-21 61.5q0 41 24 65t65 24q38 0 58.5 -21.5z" />
    <glyph glyph-name="uni01DB" unicode="&#x1db;" horiz-adv-x="653" 
d="M610 319l-13 -103q-14 -111 -90 -169.5t-210 -58.5q-119 0 -185.5 48t-66.5 137q0 21 3 43l15 103l34 328h200l-58 -404q-2 -20 -2 -27q0 -37 18 -54t59 -17q47 0 71 23t29 75l40 404h203zM258 934l-21 3l-9 15l28 123l16 7q113 -43 243 -82l-16 -83l-16 -7
q-92 8 -225 24zM218 720.5q-21 21.5 -21 61.5q0 41 23.5 65t64.5 24q38 0 59 -21.5t21 -59.5q0 -42 -23.5 -66.5t-63.5 -24.5q-39 0 -60 21.5zM410 720.5q-21 21.5 -21 61.5q0 41 24 65t65 24q38 0 58.5 -21.5t20.5 -59.5q0 -42 -23 -66.5t-63 -24.5t-61 21.5z" />
    <glyph glyph-name="uni01DC" unicode="&#x1dc;" horiz-adv-x="514" 
d="M498 476l-47 -360l-4 -109l-177 -11l16 121h-13q-51 -70 -104 -120l-13 -1q-64 7 -101 36.5t-37 72.5l2 20l37 226l4 112l181 11l-42 -262l-1 -13q0 -23 18 -23q29 0 89 95l11 81l4 113zM197 759l-21 3l-9 15l28 123l16 7q113 -43 243 -82l-16 -83l-16 -7q-92 8 -225 24z
M157 545.5q-21 21.5 -21 61.5q0 41 23.5 65t64.5 24q38 0 59 -21.5t21 -59.5q0 -42 -23.5 -66.5t-63.5 -24.5q-39 0 -60 21.5zM349 545.5q-21 21.5 -21 61.5q0 41 24 65t65 24q38 0 58.5 -21.5t20.5 -59.5q0 -42 -23 -66.5t-63 -24.5t-61 21.5z" />
    <glyph glyph-name="Gcaron" unicode="&#x1e6;" horiz-adv-x="599" 
d="M531.5 650q52.5 -8 87.5 -22l-64 -176h-16q-47 25 -82 36t-78 11q-49 0 -80 -18.5t-48.5 -70.5t-17.5 -150q0 -69 25 -95.5t85 -26.5q14 0 36 4l4 33l10 111l184 13l-14 -90l-22 -177q-119 -44 -225 -44q-141 0 -216.5 71t-75.5 199q0 193 103.5 296.5t298.5 103.5
q53 0 105.5 -8zM563 831q-89 -59 -158 -119h-34q-58 55 -148 119l43 75h18l108 -60q49 24 73 34l55 26h18z" />
    <glyph glyph-name="gcaron" unicode="&#x1e7;" horiz-adv-x="480" 
d="M466 476l-46 -343l-3 -83q-10 -79 -48.5 -134.5t-96 -83.5t-125.5 -28q-90 0 -139 45.5t-60 119.5l4 11l132 55l1 12q-58 42 -58 132q0 63 26 122.5t78.5 106.5t126.5 71h6l92 -16l99 21zM190.5 328q-14.5 -30 -14.5 -88q0 -73 22 -73q30 0 95 150l3 26l-63 15
q-28 0 -42.5 -30zM227.5 -55q19.5 18 22.5 54l18 135h-13q-40 -67 -88 -117l-23 -20q-16 -14 -16 -29q0 -17 12 -29t37 -12q31 0 50.5 18zM475 676q-40 -30 -92 -75t-68 -59l-18 -16h-34q-47 54 -147 150l56 71h18q63 -44 103 -78q32 22 108 67l18 11h18z" />
    <glyph glyph-name="uni01EA" unicode="&#x1ea;" horiz-adv-x="658" 
d="M582.5 588.5q71.5 -70.5 71.5 -214.5q0 -112 -41.5 -199.5t-121.5 -137t-192 -49.5q-131 0 -203 71.5t-72 216.5q0 112 41.5 198.5t122 135.5t192.5 49q131 0 202.5 -70.5zM290.5 482q-26.5 -18 -42 -67.5t-15.5 -141.5q0 -54 7 -83t25.5 -42t54.5 -13q39 0 66 18
t42.5 67.5t15.5 141.5q0 53 -7 82.5t-25.5 42.5t-54.5 13q-40 0 -66.5 -18zM229 -205.5q-31 24.5 -31 65.5q0 25 10 43.5t38 42t89 64.5h93q-47 -43 -75.5 -70t-34.5 -35t-6 -15q0 -17 23 -17q26 0 71 19l9 -2l14 -84q-63 -36 -117 -36q-52 0 -83 24.5z" />
    <glyph glyph-name="uni01EB" unicode="&#x1eb;" horiz-adv-x="468" 
d="M306 482q70 -16 110 -61.5t40 -119.5q0 -142 -74 -224t-204 -89l-16 2q-71 16 -110.5 64t-39.5 129q0 88 34 154t96.5 104t147.5 43zM207.5 331.5q-15.5 -16.5 -20.5 -51.5t-5 -101q0 -34 6.5 -46.5t25.5 -12.5q31 0 45.5 16.5t19.5 51.5t5 102q0 33 -6 45.5t-23 12.5
q-32 0 -47.5 -16.5zM142 -170.5q-31 24.5 -31 65.5q0 25 10 43.5t38 42t89 64.5h93q-47 -43 -75.5 -70t-34.5 -35t-6 -15q0 -17 23 -17q26 0 71 19l9 -2l14 -84q-63 -36 -117 -36q-52 0 -83 24.5z" />
    <glyph glyph-name="Aringacute" unicode="&#x1fa;" horiz-adv-x="657" 
d="M309 831l-20 81q129 47 237 95l17 -6l34 -122l-8 -15q-147 -27 -244 -39zM618 0h-202l-5 103v4l-99 2l-83 -4l-30 -105h-195l296 647h1q-9 21 -9 52q0 55 28.5 83t84.5 28q106 0 106 -104q0 -34 -11 -59zM373.5 725.5q-7.5 -6.5 -7.5 -23.5q0 -19 8 -26.5t28 -7.5
q19 0 26.5 7t7.5 24q0 18 -8 25.5t-28 7.5q-19 0 -26.5 -6.5zM397 247l-20 204h-11l-81 -204l55 -1z" />
    <glyph glyph-name="aringacute" unicode="&#x1fb;" horiz-adv-x="488" 
d="M472 476l-47 -360l-4 -109l-177 -11l15 110h-16q-35 -70 -74 -117h-23q-78 19 -108 60.5t-30 107.5q0 64 26 127.5t80 115t134 78.5h7l97 -17l109 23zM231 190q22 38 55 119l3 22l-68 17q-49 0 -49 -117q0 -79 21 -79q16 0 38 38zM402 652q0 -55 -29 -84.5t-85 -29.5
q-106 0 -106 107q0 54 29 82t85 28q106 0 106 -103zM264.5 671.5q-7.5 -6.5 -7.5 -23.5q0 -19 8 -26.5t28 -7.5q19 0 26.5 7t7.5 24q0 18 -8 25.5t-28 7.5q-19 0 -26.5 -6.5zM433.396 945.923l34.4863 -121.104l-7.90625 -15.1484q-136.131 -25.5879 -244.628 -39.458
l-16.3838 6.04297l-20.1416 82.0654q119.974 41.6777 238.188 93.6455z" />
    <glyph glyph-name="AEacute" unicode="&#x1fc;" horiz-adv-x="838" 
d="M817 159l10 -14l-30 -145h-435l8 107l3 67l-178 -52l-1 -3l-48 -119h-195l355 647h518l9 -14l-30 -145l-149 6h-75l-6 -114l175 53l13 -11l1 -138l-197 -55l-4 -76h91zM379 322l6 147h-12l-90 -175zM672 913l49 -116l-6 -16q-132 -42 -238 -69l-17 4l-30 79
q114 56 225 122z" />
    <glyph glyph-name="aeacute" unicode="&#x1fd;" horiz-adv-x="690" 
d="M541 484l16 -2q55 -10 88 -42t33 -85q0 -60 -55.5 -102t-189.5 -75l4 -17q5 -20 16.5 -29.5t31.5 -9.5q54 0 96 64l21 -3l56 -71q-38 -46 -86.5 -77t-100.5 -46h-16q-81 9 -122 42.5t-59 94.5l-4 17q-46 -85 -103 -154h-23q-78 19 -107.5 61t-29.5 104q0 67 26.5 131
t80.5 115.5t134 77.5h7l156 -27q57 29 130 33zM451 348q-16 -24 -20 -74q51 11 72.5 27t21.5 43q0 15 -7 21.5t-22 6.5q-29 0 -45 -24zM168 228q0 -78 22 -78q31 0 96 160q4 10 5.5 12t4.5 8l-74 19q-54 0 -54 -121zM476 753l69 -106l-3 -17q-142 -72 -223 -109l-17 1
l-44 72q99 73 201 160z" />
    <glyph glyph-name="Oslashacute" unicode="&#x1fe;" horiz-adv-x="658" 
d="M654 374q0 -112 -41.5 -199.5t-121.5 -137t-192 -49.5q-42 0 -82 8l-79 -131l-98 47l-6 17l73 120q-83 74 -83 227q0 112 41.5 198.5t122 135.5t192.5 49q48 0 88 -9l62 102l94 -46l9 -19l-56 -93q77 -72 77 -220zM386 153q27 18 42.5 67.5t15.5 141.5q0 53 -7 82.5
t-25.5 42.5t-54.5 13q-40 0 -66.5 -18t-42 -67.5t-15.5 -141.5q0 -54 7 -83t25.5 -42t54.5 -13q39 0 66 18zM482 916l49 -116l-6 -16q-132 -42 -238 -69l-17 4l-30 79q114 56 225 122z" />
    <glyph glyph-name="oslashacute" unicode="&#x1ff;" horiz-adv-x="468" 
d="M417 420q39 -47 39 -119q0 -142 -74 -224t-204 -89l-16 2l-7 2l-75 -124l-90 53l-4 16l69 113q-43 49 -43 133q0 88 34 154t96.5 104t147.5 43l16 -2l11 -3l70 115l84 -52l9 -17zM259.5 136.5q14.5 16.5 19.5 51.5t5 102q0 33 -6 45.5t-23 12.5q-32 0 -47.5 -16.5
t-20.5 -51.5t-5 -101q0 -34 6.5 -46.5t25.5 -12.5q31 0 45.5 16.5zM333 753l69 -106l-3 -17q-142 -72 -223 -109l-17 1l-44 72q99 73 201 160z" />
    <glyph glyph-name="uni0200" unicode="&#x200;" horiz-adv-x="626" 
d="M587 0h-202l-4 107v4l-99 2l-83 -4l-31 -109h-195l276 647h241zM368 256l-18 213h-12l-83 -213l57 -1zM328 716q-86 75 -144 132l2 13l77 63l12 -3q54 -81 116 -162l-49 -47zM481 716q-86 75 -144 132l2 13l75 63l13 -2q47 -70 116 -163l-48 -47z" />
    <glyph glyph-name="uni0201" unicode="&#x201;" horiz-adv-x="488" 
d="M472 476l-47 -360l-4 -109l-177 -11l15 110h-16q-35 -70 -74 -117h-23q-78 19 -108 60.5t-30 107.5q0 64 26 127.5t80 115t134 78.5h7l97 -17l109 23zM231 190q22 38 55 119l3 22l-68 17q-49 0 -49 -117q0 -79 21 -79q16 0 38 38zM211 527q-83 86 -145 159l3 14l89 62
l13 -4q46 -82 113 -190l-58 -46zM376 527q-83 86 -145 159l3 14l89 62l13 -4q56 -99 112 -190l-57 -46z" />
    <glyph glyph-name="uni0202" unicode="&#x202;" horiz-adv-x="626" 
d="M587 0h-202l-4 107v4l-99 2l-83 -4l-31 -109h-195l276 647h241zM368 256l-18 213h-12l-83 -213l57 -1zM209 771q23 57 71 96.5t117 39.5q75 0 115 -40t51 -96l-47 -61h-27q-12 30 -40 46.5t-64 16.5q-37 0 -68.5 -16.5t-49.5 -46.5h-27z" />
    <glyph glyph-name="uni0203" unicode="&#x203;" horiz-adv-x="488" 
d="M472 476l-47 -360l-4 -109l-177 -11l15 110h-16q-35 -70 -74 -117h-23q-78 19 -108 60.5t-30 107.5q0 64 26 127.5t80 115t134 78.5h7l97 -17l109 23zM231 190q22 38 55 119l3 22l-68 17q-49 0 -49 -117q0 -79 21 -79q16 0 38 38zM110 596q23 57 71 96.5t117 39.5
q75 0 115 -40t51 -96l-47 -61h-27q-12 30 -40 46.5t-64 16.5q-37 0 -68.5 -16.5t-49.5 -46.5h-27z" />
    <glyph glyph-name="uni0204" unicode="&#x204;" horiz-adv-x="540" 
d="M291 494l-13 -92h98l105 3l9 -14l-30 -146l-115 3h-90l-6 -38l-5 -57h96l167 6l9 -14l-30 -145h-455l33 190l47 457h463l9 -14l-31 -145l-158 6h-103zM300 716q-86 75 -144 132l2 13l77 63l12 -3q54 -81 116 -162l-49 -47zM453 716q-86 75 -144 132l2 13l75 63l13 -2
q47 -70 116 -163l-48 -47z" />
    <glyph glyph-name="uni0205" unicode="&#x205;" horiz-adv-x="436" 
d="M352 179l52 -67q-36 -44 -83.5 -75.5t-102.5 -47.5h-16q-97 11 -143.5 58.5t-46.5 135.5q0 87 33.5 153t95.5 104.5t146 43.5l16 -2q59 -11 90 -44t31 -84q0 -62 -56.5 -103t-186.5 -73q4 -28 16 -41t33 -13q20 0 40.5 12t61.5 47zM198 348q-15 -23 -19 -72q49 11 69 26
t20 41q0 15 -6.5 21.5t-20.5 6.5q-28 0 -43 -23zM187 527q-83 86 -145 159l3 14l89 62l13 -4q46 -82 113 -190l-58 -46zM352 527q-83 86 -145 159l3 14l89 62l13 -4q56 -99 112 -190l-57 -46z" />
    <glyph glyph-name="uni0206" unicode="&#x206;" horiz-adv-x="540" 
d="M291 494l-13 -92h98l105 3l9 -14l-30 -146l-115 3h-90l-6 -38l-5 -57h96l167 6l9 -14l-30 -145h-455l33 190l47 457h463l9 -14l-31 -145l-158 6h-103zM181 771q23 57 71 96.5t117 39.5q75 0 115 -40t51 -96l-47 -61h-27q-12 30 -40 46.5t-64 16.5q-37 0 -68.5 -16.5
t-49.5 -46.5h-27z" />
    <glyph glyph-name="uni0207" unicode="&#x207;" horiz-adv-x="436" 
d="M352 179l52 -67q-36 -44 -83.5 -75.5t-102.5 -47.5h-16q-97 11 -143.5 58.5t-46.5 135.5q0 87 33.5 153t95.5 104.5t146 43.5l16 -2q59 -11 90 -44t31 -84q0 -62 -56.5 -103t-186.5 -73q4 -28 16 -41t33 -13q20 0 40.5 12t61.5 47zM198 348q-15 -23 -19 -72q49 11 69 26
t20 41q0 15 -6.5 21.5t-20.5 6.5q-28 0 -43 -23zM86 596q23 57 71 96.5t117 39.5q75 0 115 -40t51 -96l-47 -61h-27q-12 30 -40 46.5t-64 16.5q-37 0 -68.5 -16.5t-49.5 -46.5h-27z" />
    <glyph glyph-name="uni0208" unicode="&#x208;" horiz-adv-x="327" 
d="M249 210l-18 -210h-200l34 190l46 457h203zM174 716q-86 75 -144 132l2 13l77 63l12 -3q54 -81 116 -162l-49 -47zM327 716q-86 75 -144 132l2 13l75 63l13 -2q47 -70 116 -163l-48 -47z" />
    <glyph glyph-name="uni0209" unicode="&#x209;" horiz-adv-x="260" 
d="M197 116l-5 -109l-177 -11l47 356l4 113l177 11zM101 527q-83 86 -145 159l3 14l89 62l13 -4q46 -82 113 -190l-58 -46zM266 527q-83 86 -145 159l3 14l89 62l13 -4q56 -99 112 -190l-57 -46z" />
    <glyph glyph-name="uni020A" unicode="&#x20a;" horiz-adv-x="327" 
d="M249 210l-18 -210h-200l34 190l46 457h203zM55 771q23 57 71 96.5t117 39.5q75 0 115 -40t51 -96l-47 -61h-27q-12 30 -40 46.5t-64 16.5q-37 0 -68.5 -16.5t-49.5 -46.5h-27z" />
    <glyph glyph-name="uni020B" unicode="&#x20b;" horiz-adv-x="260" 
d="M197 116l-5 -109l-177 -11l47 356l4 113l177 11zM0 596q23 57 71 96.5t117 39.5q75 0 115 -40t51 -96l-47 -61h-27q-12 30 -40 46.5t-64 16.5q-37 0 -68.5 -16.5t-49.5 -46.5h-27z" />
    <glyph glyph-name="uni020C" unicode="&#x20c;" horiz-adv-x="658" 
d="M582.5 588.5q71.5 -70.5 71.5 -214.5q0 -112 -41.5 -199.5t-121.5 -137t-192 -49.5q-131 0 -203 71.5t-72 216.5q0 112 41.5 198.5t122 135.5t192.5 49q131 0 202.5 -70.5zM290.5 482q-26.5 -18 -42 -67.5t-15.5 -141.5q0 -54 7 -83t25.5 -42t54.5 -13q39 0 66 18
t42.5 67.5t15.5 141.5q0 53 -7 82.5t-25.5 42.5t-54.5 13q-40 0 -66.5 -18zM342 716q-86 75 -144 132l2 13l77 63l12 -3q54 -81 116 -162l-49 -47zM495 716q-86 75 -144 132l2 13l75 63l13 -2q47 -70 116 -163l-48 -47z" />
    <glyph glyph-name="uni020D" unicode="&#x20d;" horiz-adv-x="468" 
d="M306 482q70 -16 110 -61.5t40 -119.5q0 -142 -74 -224t-204 -89l-16 2q-71 16 -110.5 64t-39.5 129q0 88 34 154t96.5 104t147.5 43zM207.5 331.5q-15.5 -16.5 -20.5 -51.5t-5 -101q0 -34 6.5 -46.5t25.5 -12.5q31 0 45.5 16.5t19.5 51.5t5 102q0 33 -6 45.5t-23 12.5
q-32 0 -47.5 -16.5zM212 527q-83 86 -145 159l3 14l89 62l13 -4q46 -82 113 -190l-58 -46zM377 527q-83 86 -145 159l3 14l89 62l13 -4q56 -99 112 -190l-57 -46z" />
    <glyph glyph-name="uni020E" unicode="&#x20e;" horiz-adv-x="658" 
d="M582.5 588.5q71.5 -70.5 71.5 -214.5q0 -112 -41.5 -199.5t-121.5 -137t-192 -49.5q-131 0 -203 71.5t-72 216.5q0 112 41.5 198.5t122 135.5t192.5 49q131 0 202.5 -70.5zM290.5 482q-26.5 -18 -42 -67.5t-15.5 -141.5q0 -54 7 -83t25.5 -42t54.5 -13q39 0 66 18
t42.5 67.5t15.5 141.5q0 53 -7 82.5t-25.5 42.5t-54.5 13q-40 0 -66.5 -18zM223 771q23 57 71 96.5t117 39.5q75 0 115 -40t51 -96l-47 -61h-27q-12 30 -40 46.5t-64 16.5q-37 0 -68.5 -16.5t-49.5 -46.5h-27z" />
    <glyph glyph-name="uni020F" unicode="&#x20f;" horiz-adv-x="468" 
d="M306 482q70 -16 110 -61.5t40 -119.5q0 -142 -74 -224t-204 -89l-16 2q-71 16 -110.5 64t-39.5 129q0 88 34 154t96.5 104t147.5 43zM207.5 331.5q-15.5 -16.5 -20.5 -51.5t-5 -101q0 -34 6.5 -46.5t25.5 -12.5q31 0 45.5 16.5t19.5 51.5t5 102q0 33 -6 45.5t-23 12.5
q-32 0 -47.5 -16.5zM111 596q23 57 71 96.5t117 39.5q75 0 115 -40t51 -96l-47 -61h-27q-12 30 -40 46.5t-64 16.5q-37 0 -68.5 -16.5t-49.5 -46.5h-27z" />
    <glyph glyph-name="uni0210" unicode="&#x210;" horiz-adv-x="630" 
d="M587.5 348.5q-34.5 -58.5 -97.5 -98.5q61 -115 116 -203l-5 -22q-106 -31 -205 -37l-17 16l-14 41q-21 61 -49 148h-68l-17 -193h-200l34 190l46 457l296 1q100 0 157.5 -45.5t57.5 -127.5q0 -68 -34.5 -126.5zM389.5 492q-18.5 16 -59.5 18l-37 -3l-25 -168l73 -4
q36 15 51.5 41t15.5 66q0 34 -18.5 50zM329 716q-86 75 -144 132l2 13l77 63l12 -3q54 -81 116 -162l-49 -47zM482 716q-86 75 -144 132l2 13l75 63l13 -2q47 -70 116 -163l-48 -47z" />
    <glyph glyph-name="uni0211" unicode="&#x211;" horiz-adv-x="385" 
d="M398 470l-28 -216l-16 -7l-36 7q-33 -2 -57.5 -13t-53.5 -38l-11 -87l-4 -109l-177 -11l47 356l4 113l177 11l-16 -124h17q28 43 57 72t68 51zM183 527q-83 86 -145 159l3 14l89 62l13 -4q46 -82 113 -190l-58 -46zM348 527q-83 86 -145 159l3 14l89 62l13 -4
q56 -99 112 -190l-57 -46z" />
    <glyph glyph-name="uni0212" unicode="&#x212;" horiz-adv-x="630" 
d="M587.5 348.5q-34.5 -58.5 -97.5 -98.5q61 -115 116 -203l-5 -22q-106 -31 -205 -37l-17 16l-14 41q-21 61 -49 148h-68l-17 -193h-200l34 190l46 457l296 1q100 0 157.5 -45.5t57.5 -127.5q0 -68 -34.5 -126.5zM389.5 492q-18.5 16 -59.5 18l-37 -3l-25 -168l73 -4
q36 15 51.5 41t15.5 66q0 34 -18.5 50zM210 771q23 57 71 96.5t117 39.5q75 0 115 -40t51 -96l-47 -61h-27q-12 30 -40 46.5t-64 16.5q-37 0 -68.5 -16.5t-49.5 -46.5h-27z" />
    <glyph glyph-name="uni0213" unicode="&#x213;" horiz-adv-x="385" 
d="M398 470l-28 -216l-16 -7l-36 7q-33 -2 -57.5 -13t-53.5 -38l-11 -87l-4 -109l-177 -11l47 356l4 113l177 11l-16 -124h17q28 43 57 72t68 51zM82 596q23 57 71 96.5t117 39.5q75 0 115 -40t51 -96l-47 -61h-27q-12 30 -40 46.5t-64 16.5q-37 0 -68.5 -16.5t-49.5 -46.5
h-27z" />
    <glyph glyph-name="uni0214" unicode="&#x214;" horiz-adv-x="653" 
d="M610 319l-13 -103q-14 -111 -90 -169.5t-210 -58.5q-119 0 -185.5 48t-66.5 137q0 21 3 43l15 103l34 328h200l-58 -404q-2 -20 -2 -27q0 -37 18 -54t59 -17q47 0 71 23t29 75l40 404h203zM340 716q-86 75 -144 132l2 13l77 63l12 -3q54 -81 116 -162l-49 -47zM493 716
q-86 75 -144 132l2 13l75 63l13 -2q47 -70 116 -163l-48 -47z" />
    <glyph glyph-name="uni0215" unicode="&#x215;" horiz-adv-x="514" 
d="M498 476l-47 -360l-4 -109l-177 -11l16 121h-13q-51 -70 -104 -120l-13 -1q-64 7 -101 36.5t-37 72.5l2 20l37 226l4 112l181 11l-42 -262l-1 -13q0 -23 18 -23q29 0 89 95l11 81l4 113zM231 527q-83 86 -145 159l3 14l89 62l13 -4q46 -82 113 -190l-58 -46zM396 527
q-83 86 -145 159l3 14l89 62l13 -4q56 -99 112 -190l-57 -46z" />
    <glyph glyph-name="uni0216" unicode="&#x216;" horiz-adv-x="653" 
d="M610 319l-13 -103q-14 -111 -90 -169.5t-210 -58.5q-119 0 -185.5 48t-66.5 137q0 21 3 43l15 103l34 328h200l-58 -404q-2 -20 -2 -27q0 -37 18 -54t59 -17q47 0 71 23t29 75l40 404h203zM221 771q23 57 71 96.5t117 39.5q75 0 115 -40t51 -96l-47 -61h-27
q-12 30 -40 46.5t-64 16.5q-37 0 -68.5 -16.5t-49.5 -46.5h-27z" />
    <glyph glyph-name="uni0217" unicode="&#x217;" horiz-adv-x="514" 
d="M498 476l-47 -360l-4 -109l-177 -11l16 121h-13q-51 -70 -104 -120l-13 -1q-64 7 -101 36.5t-37 72.5l2 20l37 226l4 112l181 11l-42 -262l-1 -13q0 -23 18 -23q29 0 89 95l11 81l4 113zM130 596q23 57 71 96.5t117 39.5q75 0 115 -40t51 -96l-47 -61h-27
q-12 30 -40 46.5t-64 16.5q-37 0 -68.5 -16.5t-49.5 -46.5h-27z" />
    <glyph glyph-name="Scommaaccent" unicode="&#x218;" horiz-adv-x="528" 
d="M535 624l-50 -162l-28 -12q-39 26 -78.5 41t-64.5 15t-39.5 -10.5t-14.5 -25.5q0 -19 19.5 -32.5t62.5 -33.5q49 -23 81.5 -43.5t56.5 -55t24 -83.5q0 -63 -37.5 -117t-105 -85.5t-153.5 -31.5q-103 0 -211 38l48 173l21 12q43 -36 93 -56t86 -20q29 0 42 10.5t13 25.5
q0 20 -20.5 34.5t-63.5 34.5q-49 23 -80 43t-54 54t-23 83q0 66 38 121t104.5 86.5t148.5 31.5q96 0 185 -35zM325 -62.5q10 -23.5 10 -51.5q0 -53 -33 -101.5t-104 -96.5l-55 48l-2 13q51 45 51 99q0 38 -30 67l1 15q65 36 130 53q22 -22 32 -45.5z" />
    <glyph glyph-name="scommaaccent" unicode="&#x219;" horiz-adv-x="385" 
d="M386 456l-41 -138l-23 -9q-26 26 -55.5 41t-50.5 15q-11 0 -17.5 -5.5t-6.5 -13.5q0 -12 12.5 -21.5t39.5 -23.5q33 -18 55 -33.5t38.5 -41.5t16.5 -63q0 -50 -30 -89.5t-82 -62t-115 -22.5q-76 8 -140 26l42 145l18 9q28 -32 63 -50.5t62 -18.5q13 0 19.5 6t6.5 13
q0 10 -12.5 19.5t-39.5 24.5q-36 20 -58.5 36.5t-39 41.5t-16.5 59q2 56 34 96.5t84.5 62t114.5 21.5q61 -6 121 -24zM262 -62.5q10 -23.5 10 -51.5q0 -53 -33 -101.5t-104 -96.5l-55 48l-2 13q51 45 51 99q0 38 -30 67l1 15q65 36 130 53q22 -22 32 -45.5z" />
    <glyph glyph-name="uni021A" unicode="&#x21a;" horiz-adv-x="518" 
d="M560 633l-28 -145l-131 6h-13l-40 -284l-18 -210h-199l34 190l32 304h-13l-134 -6l-10 14l29 145h482zM319 -62.5q10 -23.5 10 -51.5q0 -53 -33 -101.5t-104 -96.5l-55 48l-2 13q51 45 51 99q0 38 -30 67l1 15q65 36 130 53q22 -22 32 -45.5z" />
    <glyph glyph-name="uni021B" unicode="&#x21b;" horiz-adv-x="366" 
d="M231 165l-1 -8q0 -9 9 -9q6 0 13 7t28 37l13 1l50 -63q-30 -57 -66.5 -91t-83.5 -49q-64 0 -100.5 32t-34.5 85l3 30l32 218l1 7h-62l-9 11l11 90h70l10 97l169 38l12 -10l-19 -125h98l12 -14l-11 -87h-114zM284 -62.5q10 -23.5 10 -51.5q0 -53 -33 -101.5t-104 -96.5
l-55 48l-2 13q51 45 51 99q0 38 -30 67l1 15q65 36 130 53q22 -22 32 -45.5z" />
    <glyph glyph-name="uni022A" unicode="&#x22a;" horiz-adv-x="658" 
d="M582.5 588.5q71.5 -70.5 71.5 -214.5q0 -112 -41.5 -199.5t-121.5 -137t-192 -49.5q-131 0 -203 71.5t-72 216.5q0 112 41.5 198.5t122 135.5t192.5 49q131 0 202.5 -70.5zM290.5 482q-26.5 -18 -42 -67.5t-15.5 -141.5q0 -54 7 -83t25.5 -42t54.5 -13q39 0 66 18
t42.5 67.5t15.5 141.5q0 53 -7 82.5t-25.5 42.5t-54.5 13q-40 0 -66.5 -18zM573 1025l-10 -106h-303l-13 12l10 107h303zM366 849.5q21 -21.5 21 -59.5q0 -42 -23.5 -66.5t-63.5 -24.5q-39 0 -60 21.5t-21 61.5q0 41 23.5 65t64.5 24q38 0 59 -21.5zM559 849.5
q21 -21.5 21 -59.5q0 -42 -23.5 -66.5t-63.5 -24.5t-61 21.5t-21 61.5q0 41 24 65t65 24q38 0 59 -21.5z" />
    <glyph glyph-name="uni022B" unicode="&#x22b;" horiz-adv-x="468" 
d="M306 482q70 -16 110 -61.5t40 -119.5q0 -142 -74 -224t-204 -89l-16 2q-71 16 -110.5 64t-39.5 129q0 88 34 154t96.5 104t147.5 43zM207.5 331.5q-15.5 -16.5 -20.5 -51.5t-5 -101q0 -34 6.5 -46.5t25.5 -12.5q31 0 45.5 16.5t19.5 51.5t5 102q0 33 -6 45.5t-23 12.5
q-32 0 -47.5 -16.5zM461 850l-10 -106h-303l-13 12l10 107h303zM254 674.5q21 -21.5 21 -59.5q0 -42 -23.5 -66.5t-63.5 -24.5q-39 0 -60 21.5t-21 61.5q0 41 23.5 65t64.5 24q38 0 59 -21.5zM447 674.5q21 -21.5 21 -59.5q0 -42 -23.5 -66.5t-63.5 -24.5t-61 21.5t-21 61.5
q0 41 24 65t65 24q38 0 59 -21.5z" />
    <glyph glyph-name="uni022C" unicode="&#x22c;" horiz-adv-x="658" 
d="M582.5 588.5q71.5 -70.5 71.5 -214.5q0 -112 -41.5 -199.5t-121.5 -137t-192 -49.5q-131 0 -203 71.5t-72 216.5q0 112 41.5 198.5t122 135.5t192.5 49q131 0 202.5 -70.5zM290.5 482q-26.5 -18 -42 -67.5t-15.5 -141.5q0 -54 7 -83t25.5 -42t54.5 -13q39 0 66 18
t42.5 67.5t15.5 141.5q0 53 -7 82.5t-25.5 42.5t-54.5 13q-40 0 -66.5 -18zM573 858v-16l-72 -111l-15 -6q-22 4 -72 19q-41 13 -51 13q-17 0 -29 -13.5t-31 -42.5h-16l-56 55v16l72 110l15 6q22 -4 72 -19q41 -13 51 -13q17 0 29 13.5t31 42.5h16zM563 1055l-9 -107h-236
l-12 13l9 106h236z" />
    <glyph glyph-name="uni022D" unicode="&#x22d;" horiz-adv-x="468" 
d="M306 482q70 -16 110 -61.5t40 -119.5q0 -142 -74 -224t-204 -89l-16 2q-71 16 -110.5 64t-39.5 129q0 88 34 154t96.5 104t147.5 43zM207.5 331.5q-15.5 -16.5 -20.5 -51.5t-5 -101q0 -34 6.5 -46.5t25.5 -12.5q31 0 45.5 16.5t19.5 51.5t5 102q0 33 -6 45.5t-23 12.5
q-32 0 -47.5 -16.5zM461 683v-16l-72 -111l-15 -6q-22 4 -72 19q-41 13 -51 13q-17 0 -29 -13.5t-31 -42.5h-16l-56 55v16l72 110l15 6q22 -4 72 -19q41 -13 51 -13q17 0 29 13.5t31 42.5h16zM451 880l-9 -107h-236l-12 13l9 106h236z" />
    <glyph glyph-name="uni0230" unicode="&#x230;" horiz-adv-x="658" 
d="M582.5 588.5q71.5 -70.5 71.5 -214.5q0 -112 -41.5 -199.5t-121.5 -137t-192 -49.5q-131 0 -203 71.5t-72 216.5q0 112 41.5 198.5t122 135.5t192.5 49q131 0 202.5 -70.5zM290.5 482q-26.5 -18 -42 -67.5t-15.5 -141.5q0 -54 7 -83t25.5 -42t54.5 -13q39 0 66 18
t42.5 67.5t15.5 141.5q0 53 -7 82.5t-25.5 42.5t-54.5 13q-40 0 -66.5 -18zM427 868q24 -25 24 -69q0 -48 -27 -76t-73 -28t-70 24.5t-24 70.5q0 47 27.5 75t74.5 28q44 0 68 -25zM502 1022l-9 -107h-236l-12 13l9 106h236z" />
    <glyph glyph-name="uni0231" unicode="&#x231;" horiz-adv-x="468" 
d="M306 482q70 -16 110 -61.5t40 -119.5q0 -142 -74 -224t-204 -89l-16 2q-71 16 -110.5 64t-39.5 129q0 88 34 154t96.5 104t147.5 43zM207.5 331.5q-15.5 -16.5 -20.5 -51.5t-5 -101q0 -34 6.5 -46.5t25.5 -12.5q31 0 45.5 16.5t19.5 51.5t5 102q0 33 -6 45.5t-23 12.5
q-32 0 -47.5 -16.5zM315 693q24 -25 24 -69q0 -48 -27 -76t-73 -28t-70 24.5t-24 70.5q0 47 27.5 75t74.5 28q44 0 68 -25zM390 847l-9 -107h-236l-12 13l9 106h236z" />
    <glyph glyph-name="uni0232" unicode="&#x232;" horiz-adv-x="594" 
d="M379 204l-6 -34l-12 -170h-199l30 170l3 37l-152 440h208l9 -54l49 -196h12l109 189l30 61h204zM514 853l-9 -107h-276l-12 13l9 106h276z" />
    <glyph glyph-name="uni0233" unicode="&#x233;" horiz-adv-x="484" 
d="M488 401q0 -40 -10.5 -77t-33.5 -77l-100 -198q-65 -129 -132 -187t-151 -58q-49 0 -109 18l7 149l15 16q44 -10 85 -10q46 0 78 16l-106 473l178 10l7 -91l28 -200h13l35 87q25 60 25 110q0 37 -13 60l8 17l162 20q14 -49 14 -78zM439 678l-9 -107h-276l-12 13l9 106
h276z" />
    <glyph glyph-name="uni0237" unicode="&#x237;" horiz-adv-x="286" 
d="M266 472l-49 -354l-8 -82q-10 -80 -59.5 -136t-146.5 -95l-56 80l2 16q40 19 62 49t29 76l43 321l-2 15h-63l-7 11l13 90h73l165 13z" />
    <glyph glyph-name="uni0259" unicode="&#x259;" horiz-adv-x="436" 
d="M377.5 424.5q46.5 -47.5 46.5 -135.5q0 -87 -33.5 -153t-95.5 -104.5t-146 -43.5l-16 2q-59 11 -90 44t-31 84q0 62 56.5 103t186.5 73q-4 28 -16 41t-33 13q-20 0 -40.5 -12t-61.5 -47l-20 4l-52 67q36 44 83.5 75.5t102.5 47.5h16q97 -11 143.5 -58.5zM238 124
q15 23 19 72q-49 -11 -69 -26t-20 -41q0 -15 6.5 -21.5t20.5 -6.5q28 0 43 23z" />
    <glyph glyph-name="uni02B0" unicode="&#x2b0;" horiz-adv-x="361" 
d="M346.5 619.5q23.5 -19.5 22.5 -47.5v-10l-27 -162l-4 -76l-112 -7l31 193l1 7q0 9 -4 14.5t-10 5.5q-11 0 -33.5 -24t-50.5 -70l-6 -44l-3 -75l-110 -7l55 413l3 76l110 7l-36 -272h10q48 68 90 104l9 1q41 -7 64.5 -26.5z" />
    <glyph glyph-name="uni02B2" unicode="&#x2b2;" horiz-adv-x="201" 
d="M202.5 804.5q15.5 -15.5 15.5 -42.5q0 -28 -17 -45t-46 -17t-44.5 14.5t-15.5 42.5q0 29 17.5 46t46.5 17q28 0 43.5 -15.5zM208 643l-33 -245l-6 -56q-7 -55 -39 -92.5t-95 -64.5l-35 47l2 10q28 15 43 37t19 56l30 227l-1 15h-43l-5 7l8 54h50l102 8z" />
    <glyph glyph-name="uni02B7" unicode="&#x2b7;" horiz-adv-x="515" 
d="M544 590q0 -40 -28 -98l-91 -172h-122l-13 182h-9l-68 -182h-120l-40 320l109 6v-55l7 -152h10l54 145l19 59h117l1 -52l8 -152h9l35 79q17 40 17 67q0 22 -11 44l103 19q13 -29 13 -58z" />
    <glyph glyph-name="uni02B8" unicode="&#x2b8;" horiz-adv-x="329" 
d="M359 595q0 -26 -11 -58.5t-36 -77.5l-54 -99q-54 -97 -99.5 -136.5t-102.5 -39.5q-36 0 -70 12l-6 91l9 10q33 -9 62 -9q42 0 76 21l-76 331l111 6l6 -61l23 -152h11l32 74q20 52 20 82q0 21 -10 40l103 19q12 -25 12 -53z" />
    <glyph glyph-name="uni02B9" unicode="&#x2b9;" horiz-adv-x="249" 
d="M262 634l-81 -261l-88 -14l-14 11l23 267l151 9z" />
    <glyph glyph-name="uni02BB" unicode="&#x2bb;" horiz-adv-x="259" 
d="M78.5 391.5q-14.5 27.5 -14.5 66.5q0 49 28 97.5t86 102.5l64 -42l3 -12q-39 -43 -39 -88q0 -30 9.5 -50.5t32.5 -37.5v-14q-67 -50 -124 -71q-31 21 -45.5 48.5z" />
    <glyph glyph-name="uni02BC" unicode="&#x2bc;" horiz-adv-x="259" 
d="M246.5 610q14.5 -28 14.5 -67q0 -49 -27.5 -97t-85.5 -102l-65 42l-3 12q39 44 39 88q0 29 -9.5 49.5t-32.5 37.5v15q66 49 124 71q31 -21 45.5 -49z" />
    <glyph glyph-name="uni02BE" unicode="&#x2be;" horiz-adv-x="208" 
d="M72 484q6 -1 16 -1q21 0 30.5 10.5t9.5 32.5q0 17 -10.5 23.5t-36.5 6.5l11 90q65 0 94 -23t29 -75q0 -75 -39 -113.5t-115 -38.5z" />
    <glyph glyph-name="uni02BF" unicode="&#x2bf;" horiz-adv-x="208" 
d="M206 557q-6 1 -16 1q-21 0 -30.5 -10.5t-9.5 -32.5q0 -17 10.5 -23.5t36.5 -6.5l-11 -89q-65 0 -94.5 22.5t-29.5 74.5q0 75 39 114t116 39z" />
    <glyph glyph-name="circumflex" unicode="&#x2c6;" horiz-adv-x="387" 
d="M57 597q40 30 92 75t68 59l18 16h34q47 -54 147 -150l-56 -71h-18q-63 44 -103 78q-32 -22 -108 -67l-18 -11h-18z" />
    <glyph glyph-name="caron" unicode="&#x2c7;" horiz-adv-x="387" 
d="M426 676q-40 -30 -92 -75t-68 -59l-18 -16h-34q-47 54 -147 150l56 71h18q63 -44 103 -78q32 22 108 67l18 11h18z" />
    <glyph glyph-name="uni02C8" unicode="&#x2c8;" horiz-adv-x="235" 
d="M99 656h140l-22 -184h-140z" />
    <glyph glyph-name="uni02C9" unicode="&#x2c9;" horiz-adv-x="385" 
d="M390 678l-9 -107h-276l-12 13l9 106h276z" />
    <glyph glyph-name="uni02CA" unicode="&#x2ca;" horiz-adv-x="382" 
d="M313 753l69 -106l-3 -17q-142 -72 -223 -109l-17 1l-44 72q99 73 201 160z" />
    <glyph glyph-name="uni02CB" unicode="&#x2cb;" horiz-adv-x="394" 
d="M388 594l-44 -72l-17 -1q-81 37 -223 109l-3 17l69 106l17 1q102 -87 201 -160z" />
    <glyph glyph-name="uni02CC" unicode="&#x2cc;" horiz-adv-x="234" 
d="M12 -46h140l-22 -184h-140z" />
    <glyph glyph-name="breve" unicode="&#x2d8;" horiz-adv-x="387" 
d="M423 671q-23 -57 -71 -96.5t-117 -39.5q-75 0 -115 40t-51 96l47 61h27q12 -30 40 -46.5t64 -16.5q37 0 68.5 16.5t49.5 46.5h27z" />
    <glyph glyph-name="dotaccent" unicode="&#x2d9;" horiz-adv-x="270" 
d="M255 696q24 -25 24 -69q0 -48 -27 -76t-73 -28t-70 24.5t-24 70.5q0 47 27.5 75t74.5 28q44 0 68 -25z" />
    <glyph glyph-name="ring" unicode="&#x2da;" horiz-adv-x="390" 
d="M356 652q0 -55 -29 -84.5t-85 -29.5q-106 0 -106 107q0 54 29 82t85 28q106 0 106 -103zM218.5 671.5q-7.5 -6.5 -7.5 -23.5q0 -19 8 -26.5t28 -7.5q19 0 26.5 7t7.5 24q0 18 -8 25.5t-28 7.5q-19 0 -26.5 -6.5z" />
    <glyph glyph-name="ogonek" unicode="&#x2db;" horiz-adv-x="347" 
d="M45 -172.5q-31 24.5 -31 65.5q0 25 10 43.5t38 42t89 64.5h93q-47 -43 -75.5 -70t-34.5 -35t-6 -15q0 -17 23 -17q26 0 71 19l9 -2l14 -84q-63 -36 -117 -36q-52 0 -83 24.5z" />
    <glyph glyph-name="tilde" unicode="&#x2dc;" horiz-adv-x="379" 
d="M433 686v-16l-81 -113l-16 -6q-27 3 -86 20q-8 2 -32.5 8t-34.5 6q-17 0 -30 -13t-39 -45h-16l-57 55v16l81 112l16 6q27 -3 86 -20q8 -2 32.5 -8t34.5 -6q17 0 30 13t39 45h16z" />
    <glyph glyph-name="hungarumlaut" unicode="&#x2dd;" horiz-adv-x="374" 
d="M198 758l13 4l90 -62l3 -14q-62 -73 -145 -159l-15 -5l-58 46q56 91 112 190zM363 758l13 4l89 -62l3 -14q-62 -73 -145 -159l-15 -5l-57 46q56 91 112 190z" />
    <glyph glyph-name="uni02E1" unicode="&#x2e1;" horiz-adv-x="172" 
d="M153 399l-3 -75l-111 -7l56 413l2 76l111 7z" />
    <glyph glyph-name="uni02E2" unicode="&#x2e2;" horiz-adv-x="265" 
d="M289 632l-23 -81l-15 -6q-19 17 -38.5 26t-33.5 9q-12 0 -19.5 -6.5t-7.5 -15.5q0 -10 9 -17.5t32 -20.5q36 -19 57 -39.5t21 -55.5q0 -49 -43.5 -80.5t-108.5 -31.5q-51 5 -94 19l24 86l11 6q20 -21 43.5 -33t42.5 -12q14 0 22 7.5t7 17.5q-1 9 -11.5 17t-31.5 19
q-37 22 -57 41t-21 50q1 54 45.5 86t108.5 31q38 -3 81 -16z" />
    <glyph glyph-name="uni02E3" unicode="&#x2e3;" horiz-adv-x="345" 
d="M342 323l-124 -9l-9 45l-23 62l-38 -60l-19 -41h-120l116 169l-66 151l119 10l10 -36l24 -57l37 54l15 32h116l-114 -160z" />
    <glyph glyph-name="gravecomb" unicode="&#x300;" 
d="M-6 594l-44 -72l-17 -1q-81 37 -223 109l-3 17l69 106l17 1q102 -87 201 -160z" />
    <glyph glyph-name="acutecomb" unicode="&#x301;" 
d="M-69 753l69 -106l-3 -17q-142 -72 -223 -109l-17 1l-44 72q99 73 201 160z" />
    <glyph glyph-name="uni0302" unicode="&#x302;" 
d="M-328 597q40 30 92 75t68 59l18 16h34q47 -54 147 -150l-56 -71h-18q-63 44 -103 78q-32 -22 -108 -67l-18 -11h-18z" />
    <glyph glyph-name="tildecomb" unicode="&#x303;" 
d="M54 686v-16l-81 -113l-16 -6q-27 3 -86 20q-8 2 -32.5 8t-34.5 6q-17 0 -30 -13t-39 -45h-16l-57 55v16l81 112l16 6q27 -3 86 -20q8 -2 32.5 -8t34.5 -6q17 0 30 13t39 45h16z" />
    <glyph glyph-name="uni0304" unicode="&#x304;" 
d="M5 678l-9 -107h-276l-12 13l9 106h276z" />
    <glyph glyph-name="uni0306" unicode="&#x306;" 
d="M36 671q-23 -57 -71 -96.5t-117 -39.5q-75 0 -115 40t-51 96l47 61h27q12 -30 40 -46.5t64 -16.5q37 0 68.5 16.5t49.5 46.5h27z" />
    <glyph glyph-name="uni0307" unicode="&#x307;" 
d="M-15 696q24 -25 24 -69q0 -48 -27 -76t-73 -28t-70 24.5t-24 70.5q0 47 27.5 75t74.5 28q44 0 68 -25z" />
    <glyph glyph-name="uni0308" unicode="&#x308;" 
d="M-179.5 693.5q21.5 -21.5 21.5 -59.5q0 -42 -23.5 -66.5t-64.5 -24.5q-40 0 -60.5 21.5t-20.5 61.5q0 42 23.5 65.5t64.5 23.5q38 0 59.5 -21.5zM14 693.5q21 -21.5 21 -59.5q0 -42 -23.5 -66.5t-63.5 -24.5t-61 21.5t-21 61.5q0 42 24 65.5t65 23.5q38 0 59 -21.5z" />
    <glyph glyph-name="hookabovecomb" unicode="&#x309;" 
d="M-159 581q25 18 39.5 39t14.5 37q0 12 -8 18t-22 6q-16 0 -35 -7t-35 -19l-29 47q26 28 59.5 44t67.5 16q43 0 71 -24t28 -63q0 -22 -13 -41t-48 -51l27 -43l-63 -39z" />
    <glyph glyph-name="uni030A" unicode="&#x30a;" 
d="M-34 652q0 -55 -29 -84.5t-85 -29.5q-106 0 -106 107q0 54 29 82t85 28q106 0 106 -103zM-171.5 671.5q-7.5 -6.5 -7.5 -23.5q0 -19 8 -26.5t28 -7.5q19 0 26.5 7t7.5 24q0 18 -8 25.5t-28 7.5q-19 0 -26.5 -6.5z" />
    <glyph glyph-name="uni030B" unicode="&#x30b;" 
d="M-256 758l13 4l90 -62l3 -14q-62 -73 -145 -159l-15 -5l-58 46q56 91 112 190zM-91 758l13 4l89 -62l3 -14q-62 -73 -145 -159l-15 -5l-57 46q56 91 112 190z" />
    <glyph glyph-name="uni030C" unicode="&#x30c;" 
d="M39 676q-40 -30 -92 -75t-68 -59l-18 -16h-34q-47 54 -147 150l56 71h18q63 -44 103 -78q32 22 108 67l18 11h18z" />
    <glyph glyph-name="uni030F" unicode="&#x30f;" 
d="M-235 527q-83 86 -145 159l3 14l89 62l13 -4q46 -82 113 -190l-58 -46zM-70 527q-83 86 -145 159l3 14l89 62l13 -4q56 -99 112 -190l-57 -46z" />
    <glyph glyph-name="uni0311" unicode="&#x311;" 
d="M-326 596q23 57 71 96.5t117 39.5q75 0 115 -40t51 -96l-47 -61h-27q-12 30 -40 46.5t-64 16.5q-37 0 -68.5 -16.5t-49.5 -46.5h-27z" />
    <glyph glyph-name="uni0312" unicode="&#x312;" 
d="M-180.5 392q-14.5 28 -14.5 67q0 49 27.5 97t85.5 102l65 -42l3 -12q-39 -43 -39 -88q0 -29 9.5 -49.5t32.5 -37.5v-15q-66 -49 -124 -71q-31 21 -45.5 49z" />
    <glyph glyph-name="uni031B" unicode="&#x31b;" 
d="M-184 472q23 0 34.5 12t11.5 33q0 17 -7.5 33.5t-21.5 28.5l3 14q51 37 93 37q37 0 60.5 -29t23.5 -74q0 -67 -54.5 -109t-142.5 -42v96z" />
    <glyph glyph-name="dotbelowcomb" unicode="&#x323;" 
d="M-91 -55q24 -25 24 -69q0 -48 -27 -76t-73 -28t-70 24.5t-24 70.5q0 47 27.5 75t74.5 28q44 0 68 -25z" />
    <glyph glyph-name="uni0324" unicode="&#x324;" 
d="M-271.5 -58.5q21.5 -21.5 21.5 -59.5q0 -42 -23.5 -66.5t-64.5 -24.5q-40 0 -60.5 21.5t-20.5 61.5q0 42 23.5 65.5t64.5 23.5q38 0 59.5 -21.5zM-78 -58.5q21 -21.5 21 -59.5q0 -42 -23.5 -66.5t-63.5 -24.5t-61 21.5t-21 61.5q0 42 24 65.5t65 23.5q38 0 59 -21.5z" />
    <glyph glyph-name="uni0326" unicode="&#x326;" 
d="M-74 -62.5q10 -23.5 10 -51.5q0 -53 -33 -101.5t-104 -96.5l-55 48l-2 13q51 45 51 99q0 38 -30 67l1 15q65 36 130 53q22 -22 32 -45.5z" />
    <glyph glyph-name="uni0327" unicode="&#x327;" 
d="M-211 -43l34 -19q24 -13 34 -28.5t10 -34.5q0 -37 -29.5 -60.5t-80.5 -23.5q-49 0 -92 24l11 75l8 3q15 -13 32 -20.5t28 -7.5q16 0 16 14q0 9 -12 15l-50 27l22 112h83z" />
    <glyph glyph-name="uni0328" unicode="&#x328;" 
d="M-302 -172.5q-31 24.5 -31 65.5q0 25 10 43.5t38 42t89 64.5h93q-47 -43 -75.5 -70t-34.5 -35t-6 -15q0 -17 23 -17q26 0 71 19l9 -2l14 -84q-63 -36 -117 -36q-52 0 -83 24.5z" />
    <glyph glyph-name="uni032E" unicode="&#x32e;" 
d="M-56 -113q-23 -57 -71 -96.5t-117 -39.5q-75 0 -115 40t-51 96l47 61h27q12 -30 40 -46.5t64 -16.5q37 0 68.5 16.5t49.5 46.5h27z" />
    <glyph glyph-name="uni0331" unicode="&#x331;" 
d="M-88 -78l-9 -107h-244l-12 13l9 107h244z" />
    <glyph glyph-name="uni0335" unicode="&#x335;" 
d="M-27 296l-18 -98h-396l-9 11l20 98h396z" />
    <glyph glyph-name="uni0342" unicode="&#x342;" 
d="M54 686v-16l-74 -113l-15 -6q-17 3 -76 20q-40 14 -53 14q-17 0 -29.5 -14t-32.5 -44h-15l-57 55v16l74 112l15 6q30 -5 75 -20q40 -14 54 -14q17 0 29.5 14t32.5 44h15z" />
    <glyph glyph-name="uni0343" unicode="&#x343;" 
d="M43 711q0 -45 -28 -87.5t-88 -93.5l-56 35l-1 10q39 45 39 87q0 17 -6 33t-18 26l1 12q70 42 118 58q39 -29 39 -80z" />
    <glyph glyph-name="uni0344" unicode="&#x344;" 
d="M-268 569q31 105 54 204l11 9l108 -43l7 -12l-97 -180l-22 -6zM-409 572.5q-18 18.5 -18 53.5t21 56.5t57 21.5q34 0 52 -18.5t18 -52.5q0 -36 -20.5 -57.5t-56.5 -21.5q-35 0 -53 18.5zM-90.5 572.5q-18.5 18.5 -18.5 53.5t21 56.5t57 21.5q33 0 51.5 -18.5t18.5 -52.5
q0 -36 -20.5 -57.5t-55.5 -21.5t-53.5 18.5z" />
    <glyph glyph-name="uni0345" unicode="&#x345;" 
d="M-239 -227l44 187l97 8l12 -13l1 -186l-143 -7z" />
    <glyph glyph-name="uni0374" unicode="&#x374;" horiz-adv-x="249" 
d="M262 634l-81 -261l-88 -14l-14 11l23 267l151 9z" />
    <glyph glyph-name="uni0375" unicode="&#x375;" horiz-adv-x="249" 
d="M-13 -160l80 261l89 14l14 -11l-23 -267l-151 -9z" />
    <glyph glyph-name="uni037A" unicode="&#x37a;" horiz-adv-x="217" 
d="M-28 -227l44 187l97 8l12 -13l1 -186l-143 -7z" />
    <glyph glyph-name="uni037E" unicode="&#x37e;" horiz-adv-x="229" 
d="M177.5 133q11.5 -26 11.5 -57q0 -58 -36.5 -111t-114.5 -107l-61 53l-2 14q29 25 42.5 51.5t13.5 57.5q0 42 -33 74l1 16q72 40 143 58q24 -23 35.5 -49zM195 419q24 -25 24 -69q0 -48 -27 -76t-73 -28t-70 24.5t-24 70.5q0 47 27.5 75t74.5 28q44 0 68 -25z" />
    <glyph glyph-name="tonos" unicode="&#x384;" horiz-adv-x="217" 
d="M151 776l116 -48l5 -16q-51 -81 -115 -176l-16 -10l-91 38q51 116 85 203z" />
    <glyph glyph-name="dieresistonos" unicode="&#x385;" horiz-adv-x="484" 
d="M216 569q31 105 54 204l11 9l108 -43l7 -12l-97 -180l-22 -6zM75 572.5q-18 18.5 -18 53.5t21 56.5t57 21.5q34 0 52 -18.5t18 -52.5q0 -36 -20.5 -57.5t-56.5 -21.5q-35 0 -53 18.5zM393.5 572.5q-18.5 18.5 -18.5 53.5t21 56.5t57 21.5q33 0 51.5 -18.5t18.5 -52.5
q0 -36 -20.5 -57.5t-55.5 -21.5t-53.5 18.5z" />
    <glyph glyph-name="Alphatonos" unicode="&#x386;" horiz-adv-x="680" 
d="M641 0h-202l-4 107v4l-99 2l-83 -4l-31 -109h-195l276 647h241zM422 256l-18 213h-12l-83 -213l57 -1zM100 691l116 -48l5 -16q-51 -81 -115 -176l-16 -10l-91 38q51 116 85 203z" />
    <glyph glyph-name="anoteleia" unicode="&#x387;" horiz-adv-x="230" 
d="M197 394q24 -25 24 -69q0 -48 -27 -76t-73 -28t-70 24.5t-24 70.5q0 47 27.5 75t74.5 28q44 0 68 -25z" />
    <glyph glyph-name="Epsilontonos" unicode="&#x388;" horiz-adv-x="732" 
d="M482 494l-13 -92h98l105 3l9 -14l-30 -146l-115 3h-90l-6 -38l-5 -57h96l167 6l9 -14l-30 -145h-455l33 190l47 457h463l9 -14l-31 -145l-158 6h-103zM137 691l116 -48l5 -16q-51 -81 -115 -176l-16 -10l-91 38q51 116 85 203z" />
    <glyph glyph-name="Etatonos" unicode="&#x389;" horiz-adv-x="903" 
d="M891 647l-65 -437l-18 -210h-200l34 190l5 50l-108 2l-95 -3l-4 -29l-18 -210h-200l34 190l46 457h203l-36 -245l101 -2l93 2l25 245h203zM137 691l116 -48l5 -16q-51 -81 -115 -176l-16 -10l-91 38q51 116 85 203z" />
    <glyph glyph-name="Iotatonos" unicode="&#x38a;" horiz-adv-x="519" 
d="M440 210l-18 -210h-200l34 190l46 457h203zM137 691l116 -48l5 -16q-51 -81 -115 -176l-16 -10l-91 38q51 116 85 203z" />
    <glyph glyph-name="Omicrontonos" unicode="&#x38c;" horiz-adv-x="769" 
d="M694.5 588.5q71.5 -70.5 71.5 -214.5q0 -112 -41.5 -199.5t-121.5 -137t-192 -49.5q-131 0 -203 71.5t-72 216.5q0 112 41.5 198.5t122 135.5t192.5 49q131 0 202.5 -70.5zM402.5 482q-26.5 -18 -42 -67.5t-15.5 -141.5q0 -54 7 -83t25.5 -42t54.5 -13q39 0 66 18
t42.5 67.5t15.5 141.5q0 53 -7 82.5t-25.5 42.5t-54.5 13q-40 0 -66.5 -18zM87 691l116 -48l5 -16q-51 -81 -115 -176l-16 -10l-91 38q51 116 85 203z" />
    <glyph glyph-name="Upsilontonos" unicode="&#x38e;" horiz-adv-x="810" 
d="M595 204l-6 -34l-12 -170h-199l30 170l3 37l-152 440h208l9 -54l49 -196h12l109 189l30 61h204zM126 691l116 -48l5 -16q-51 -81 -115 -176l-16 -10l-91 38q51 116 85 203z" />
    <glyph glyph-name="Omegatonos" unicode="&#x38f;" horiz-adv-x="795" 
d="M107 6l36 149l86 -8h47l2 9q-56 26 -85.5 73t-29.5 111q0 92 44.5 165t123.5 113.5t180 40.5q81 0 141.5 -30t93 -85.5t32.5 -130.5q0 -88 -47.5 -158t-127.5 -99l-2 -9h45l101 10l7 -12l-35 -149l-87 4h-140l-41 -3l-6 7l25 186q56 33 78 77t22 126q0 58 -20.5 82.5
t-70.5 24.5q-56 0 -86 -46.5t-30 -134.5q0 -48 12.5 -76.5t45.5 -52.5l-20 -186l-10 -7l-39 3h-137l-99 -6zM86 691l116 -48l5 -16q-51 -81 -115 -176l-16 -10l-91 38q51 116 85 203z" />
    <glyph glyph-name="iotadieresistonos" unicode="&#x390;" horiz-adv-x="258" 
d="M196 116l-5 -109l-177 -11l47 356l4 113l177 11zM103 569q31 105 54 204l11 9l108 -43l7 -12l-97 -180l-22 -6zM-38 572.5q-18 18.5 -18 53.5t21 56.5t57 21.5q34 0 52 -18.5t18 -52.5q0 -36 -20.5 -57.5t-56.5 -21.5q-35 0 -53 18.5zM280.5 572.5q-18.5 18.5 -18.5 53.5
t21 56.5t57 21.5q33 0 51.5 -18.5t18.5 -52.5q0 -36 -20.5 -57.5t-55.5 -21.5t-53.5 18.5z" />
    <glyph glyph-name="Alpha" unicode="&#x391;" horiz-adv-x="626" 
d="M587 0h-202l-4 107v4l-99 2l-83 -4l-31 -109h-195l276 647h241zM368 256l-18 213h-12l-83 -213l57 -1z" />
    <glyph glyph-name="Beta" unicode="&#x392;" horiz-adv-x="630" 
d="M577.5 279q23.5 -31 23.5 -83q0 -101 -84 -152t-266 -51q-57 0 -218 7l33 190l46 457l278 1q104 0 164.5 -38.5t60.5 -112.5q0 -51 -30 -95t-88 -69q57 -23 80.5 -54zM409 460q0 22 -9 34t-31 17t-64 5h-17l-20 -133l75 -3q66 19 66 80zM372 144.5q27 20.5 27 55.5
q0 22 -12 34t-39 22l-99 -2l-6 -44l-7 -82q50 -4 63 -4q46 0 73 20.5z" />
    <glyph glyph-name="Gamma" unicode="&#x393;" horiz-adv-x="478" 
d="M539 648l-31 -152l-150 6h-67l-43 -298l-19 -220h-210l34 199l49 480h428z" />
    <glyph glyph-name="uni0394" unicode="&#x394;" horiz-adv-x="578" 
d="M6 127l217 520h241l82 -520l-17 -127h-540zM354 153l-31 316h-12l-117 -316h160z" />
    <glyph glyph-name="Epsilon" unicode="&#x395;" horiz-adv-x="540" 
d="M291 494l-13 -92h98l105 3l9 -14l-30 -146l-115 3h-90l-6 -38l-5 -57h96l167 6l9 -14l-30 -145h-455l33 190l47 457h463l9 -14l-31 -145l-158 6h-103z" />
    <glyph glyph-name="Zeta" unicode="&#x396;" horiz-adv-x="569" 
d="M570 505l-319 -358h161l124 9l5 -9l-35 -152l-176 5h-230l-102 -6l18 142l325 364h-158l-121 -10l-6 8l33 152l150 -3h274l75 1z" />
    <glyph glyph-name="Eta" unicode="&#x397;" horiz-adv-x="711" 
d="M700 647l-65 -437l-18 -210h-200l34 190l5 50l-108 2l-95 -3l-4 -29l-18 -210h-200l34 190l46 457h203l-36 -245l101 -2l93 2l25 245h203z" />
    <glyph glyph-name="Theta" unicode="&#x398;" horiz-adv-x="685" 
d="M610 586.5q72 -72.5 72 -200.5q0 -120 -47 -210t-134 -139t-204 -49q-130 0 -202 73t-72 203q0 120 47 209t134 137.5t204 48.5q130 0 202 -72.5zM291.5 481q-31.5 -19 -48.5 -69.5t-17 -141.5q0 -74 24.5 -104.5t82.5 -30.5q59 0 90.5 25t43 73.5t11.5 130.5
q0 75 -25 105.5t-82 30.5q-48 0 -79.5 -19zM261 261l21 125l149 5l11 -12l-20 -125l-150 -5z" />
    <glyph glyph-name="Iota" unicode="&#x399;" horiz-adv-x="327" 
d="M249 210l-18 -210h-200l34 190l46 457h203z" />
    <glyph glyph-name="Kappa" unicode="&#x39a;" horiz-adv-x="630" 
d="M448 330q69 -128 174 -288l-5 -22q-109 -24 -203 -32l-21 12q-80 175 -131 298l-13 -88l-18 -210h-200l34 190l46 457h203l-40 -271l149 201l43 70h211z" />
    <glyph glyph-name="Lambda" unicode="&#x39b;" horiz-adv-x="626" 
d="M248 647h241l98 -647h-200l-5 107l-31 362h-12l-135 -350l-36 -119h-195z" />
    <glyph glyph-name="Mu" unicode="&#x39c;" horiz-adv-x="806" 
d="M746 0h-176l20 196l9 165h-12l-143 -300h-150l-50 300h-12l-33 -146l-35 -215h-167l142 647h231l8 -92l29 -236h12l91 229l36 99h227z" />
    <glyph glyph-name="Nu" unicode="&#x39d;" horiz-adv-x="710" 
d="M636 211l-18 -211h-217l-140 348h-12l-15 -114l-21 -234h-181l33 190l46 457h217l141 -348h12l36 341l184 11z" />
    <glyph glyph-name="Xi" unicode="&#x39e;" horiz-adv-x="550" 
d="M65 488l35 159h457l10 -15l-36 -160l-212 7l-245 -7zM86 252l36 160l189 -4l162 4l9 -15l-36 -159l-158 3l-191 -3zM29 160l14 15l223 -7l232 7l11 -15l-37 -160h-453z" />
    <glyph glyph-name="Omicron" unicode="&#x39f;" horiz-adv-x="658" 
d="M582.5 588.5q71.5 -70.5 71.5 -214.5q0 -112 -41.5 -199.5t-121.5 -137t-192 -49.5q-131 0 -203 71.5t-72 216.5q0 112 41.5 198.5t122 135.5t192.5 49q131 0 202.5 -70.5zM290.5 482q-26.5 -18 -42 -67.5t-15.5 -141.5q0 -54 7 -83t25.5 -42t54.5 -13q39 0 66 18
t42.5 67.5t15.5 141.5q0 53 -7 82.5t-25.5 42.5t-54.5 13q-40 0 -66.5 -18z" />
    <glyph glyph-name="Pi" unicode="&#x3a0;" horiz-adv-x="693" 
d="M616 210l-18 -210h-201l33 190l30 297l-91 3l-80 -5l-40 -275l-18 -210h-200l33 190l46 457h570z" />
    <glyph glyph-name="Rho" unicode="&#x3a1;" horiz-adv-x="593" 
d="M563.5 601.5q56.5 -46.5 56.5 -130.5t-39 -149.5t-110.5 -102t-164.5 -36.5h-58l-16 -183h-200l33 190l46 457l296 1q100 0 156.5 -46.5zM392.5 368.5q15.5 27.5 15.5 69.5q0 35 -19 52.5t-59 19.5l-36 -3l-27 -180l74 -4q36 18 51.5 45.5z" />
    <glyph glyph-name="Sigma" unicode="&#x3a3;" horiz-adv-x="526" 
d="M19 133l160 194l-107 178l20 144l88 -2h231l127 2l11 -14l-31 -146l-107 7h-100l80 -142l-2 -24l-146 -175h104l127 10l9 -16l-32 -151l-156 2h-193l-101 -3z" />
    <glyph glyph-name="Tau" unicode="&#x3a4;" horiz-adv-x="518" 
d="M560 633l-28 -145l-131 6h-13l-40 -284l-18 -210h-199l34 190l32 304h-13l-134 -6l-10 14l29 145h482z" />
    <glyph glyph-name="Upsilon" unicode="&#x3a5;" horiz-adv-x="594" 
d="M379 204l-6 -34l-12 -170h-199l30 170l3 37l-152 440h208l9 -54l49 -196h12l109 189l30 61h204z" />
    <glyph glyph-name="Phi" unicode="&#x3a6;" horiz-adv-x="836" 
d="M760.5 136q-92.5 -82 -274.5 -99l-9 -93h-192l15 92q-145 14 -218.5 76.5t-73.5 173.5q0 160 91 242t272 98l8 76h195l-11 -75q144 -14 217 -76t73 -173q0 -160 -92.5 -242zM237.5 225.5q27.5 -28.5 86.5 -38.5l31 287q-77 -11 -111 -50.5t-34 -116.5q0 -53 27.5 -81.5z
M615.5 234q34.5 38 34.5 117q0 53 -25.5 82t-83.5 40l-38 -269l-2 -19q80 11 114.5 49z" />
    <glyph glyph-name="Chi" unicode="&#x3a7;" horiz-adv-x="634" 
d="M459 332l150 -332h-235l-24 79l-45 106l-89 -116l-41 -69h-202l230 321l-153 326h236l25 -81l44 -103l80 114l39 70h208z" />
    <glyph glyph-name="Psi" unicode="&#x3a8;" horiz-adv-x="796" 
d="M817 647l-27 -180l-13 -97q-14 -102 -92 -167.5t-209 -83.5l-10 -119h-191l20 117q-120 15 -182 73t-62 152q0 18 1 28l9 99l18 178h187l-32 -248q-2 -18 -2 -26q0 -41 20.5 -66.5t63.5 -35.5l38 376h191l-53 -376q52 12 80 43.5t34 84.5l29 248h182z" />
    <glyph glyph-name="uni03A9" unicode="&#x3a9;" horiz-adv-x="689" 
d="M0 6l36 149l86 -8h47l2 9q-56 26 -85.5 73t-29.5 111q0 92 44.5 165t123.5 113.5t180 40.5q81 0 141.5 -30t93 -85.5t32.5 -130.5q0 -88 -47.5 -158t-127.5 -99l-2 -9h45l101 10l7 -12l-35 -149l-87 4h-140l-41 -3l-6 7l25 186q56 33 78 77t22 126q0 58 -20.5 82.5
t-70.5 24.5q-56 0 -86 -46.5t-30 -134.5q0 -48 12.5 -76.5t45.5 -52.5l-20 -186l-10 -7l-39 3h-137l-99 -6z" />
    <glyph glyph-name="Iotadieresis" unicode="&#x3aa;" horiz-adv-x="327" 
d="M249 210l-18 -210h-200l34 190l46 457h203zM200.5 868.5q21.5 -21.5 21.5 -59.5q0 -42 -23.5 -66.5t-64.5 -24.5q-40 0 -60.5 21.5t-20.5 61.5q0 42 23.5 65.5t64.5 23.5q38 0 59.5 -21.5zM394 868.5q21 -21.5 21 -59.5q0 -42 -23.5 -66.5t-63.5 -24.5t-61 21.5t-21 61.5
q0 42 24 65.5t65 23.5q38 0 59 -21.5z" />
    <glyph glyph-name="Upsilondieresis" unicode="&#x3ab;" horiz-adv-x="594" 
d="M379 204l-6 -34l-12 -170h-199l30 170l3 37l-152 440h208l9 -54l49 -196h12l109 189l30 61h204zM334.5 868.5q21.5 -21.5 21.5 -59.5q0 -42 -23.5 -66.5t-64.5 -24.5q-40 0 -60.5 21.5t-20.5 61.5q0 42 23.5 65.5t64.5 23.5q38 0 59.5 -21.5zM528 868.5
q21 -21.5 21 -59.5q0 -42 -23.5 -66.5t-63.5 -24.5t-61 21.5t-21 61.5q0 42 24 65.5t65 23.5q38 0 59 -21.5z" />
    <glyph glyph-name="alphatonos" unicode="&#x3ac;" horiz-adv-x="482" 
d="M466 476l-46 -360l-5 -109l-177 -11l15 110h-15q-35 -70 -74 -117h-23q-78 19 -108 60.5t-30 107.5q0 103 59.5 187t161.5 128h7l64 -40l5 34zM279 304l3 22l-66 22q-25 0 -38 -32.5t-13 -90.5q0 -79 21 -79q29 0 93 158zM339 776l116 -48l5 -16q-51 -81 -115 -176
l-16 -10l-91 38q51 116 85 203z" />
    <glyph glyph-name="epsilontonos" unicode="&#x3ad;" horiz-adv-x="411" 
d="M347 162l40 -88q-76 -69 -187 -85q-104 0 -152 28.5t-48 91.5q0 48 26 82.5t74 53.5q-62 32 -62 91q0 70 65 109t181 39q66 -12 132 -30l-42 -132h-27q-50 32 -95 32q-41 0 -41 -27q0 -14 9.5 -23t26.5 -12h72l4 -10l-21 -103h-80q-18 0 -27.5 -8.5t-9.5 -22.5
q0 -30 39 -30q20 0 47.5 11.5t55.5 32.5h20zM289 776l116 -48l5 -16q-51 -81 -115 -176l-16 -10l-91 38q51 116 85 203z" />
    <glyph glyph-name="etatonos" unicode="&#x3ae;" horiz-adv-x="517" 
d="M463 433q39 -30 38 -70l-1 -14l-68 -415l-4 -112l-182 -11l74 449l1 10q0 22 -17 22q-15 0 -40.5 -26t-59.5 -79l-9 -71l-4 -109l-177 -11l47 356l4 113l177 11l-17 -131h15q57 74 114 128l13 1q57 -11 96 -41zM342 776l116 -48l5 -16q-51 -81 -115 -176l-16 -10l-91 38
q51 116 85 203z" />
    <glyph glyph-name="iotatonos" unicode="&#x3af;" horiz-adv-x="258" 
d="M196 116l-5 -109l-177 -11l47 356l4 113l177 11zM212 776l116 -48l5 -16q-51 -81 -115 -176l-16 -10l-91 38q51 116 85 203z" />
    <glyph glyph-name="upsilondieresistonos" unicode="&#x3b0;" horiz-adv-x="485" 
d="M72 30.5q-48 41.5 -48 111.5q0 8 2 26l24 184l4 113l179 11l-40 -280q-3 -18 -3 -31q0 -23 9 -32t30 -9q19 0 28.5 5.5t14.5 19.5t9 45l21 158l4 113l178 11l-38 -289q-7 -56 -41.5 -101t-88 -71t-115.5 -26q-81 0 -129 41.5zM216 569q31 105 54 204l11 9l108 -43l7 -12
l-97 -180l-22 -6zM75 572.5q-18 18.5 -18 53.5t21 56.5t57 21.5q34 0 52 -18.5t18 -52.5q0 -36 -20.5 -57.5t-56.5 -21.5q-35 0 -53 18.5zM393.5 572.5q-18.5 18.5 -18.5 53.5t21 56.5t57 21.5q33 0 51.5 -18.5t18.5 -52.5q0 -36 -20.5 -57.5t-55.5 -21.5t-53.5 18.5z" />
    <glyph glyph-name="alpha" unicode="&#x3b1;" horiz-adv-x="482" 
d="M466 476l-46 -360l-5 -109l-177 -11l15 110h-15q-35 -70 -74 -117h-23q-78 19 -108 60.5t-30 107.5q0 103 59.5 187t161.5 128h7l64 -40l5 34zM279 304l3 22l-66 22q-25 0 -38 -32.5t-13 -90.5q0 -79 21 -79q29 0 93 158z" />
    <glyph glyph-name="beta" unicode="&#x3b2;" horiz-adv-x="507" 
d="M468 326.5q24 -39.5 24 -91.5q0 -69 -34 -125.5t-93 -88.5t-132 -32q-28 0 -52 4l-8 -69l-4 -109l-177 -11l82 631q17 127 86 198t175 71q79 0 125 -40.5t46 -111.5q0 -51 -29 -94t-80 -69q47 -23 71 -62.5zM244 307l16 123q41 11 58 31.5t17 58.5q0 22 -9.5 32t-29.5 10
q-46 0 -52 -53l-47 -383q26 -9 45 -9q36 0 58 29.5t22 77.5q0 38 -17 54.5t-55 16.5z" />
    <glyph glyph-name="gamma" unicode="&#x3b3;" horiz-adv-x="461" 
d="M425 247l-160 -280l-5 -43l-4 -109l-177 -11l22 166l-74 496l177 10v-91l10 -203h14l48 109q25 58 25 95q0 30 -13 56l8 17l162 20q14 -40 14 -78q0 -72 -47 -154z" />
    <glyph glyph-name="delta" unicode="&#x3b4;" horiz-adv-x="457" 
d="M271.5 522.5q15.5 -18.5 50.5 -49.5q40 -36 64.5 -63.5t43 -68t18.5 -92.5q0 -70 -34.5 -129.5t-94 -94.5t-129.5 -35q-86 0 -134.5 52.5t-48.5 145.5q0 88 40 146.5t116 81.5l3 6q-31 29 -47.5 58t-16.5 69q0 75 58.5 117.5t160.5 42.5q76 -12 142 -34l-40 -139l-22 -3
q-38 31 -63.5 43.5t-48.5 12.5q-33 0 -33 -28q0 -20 15.5 -38.5zM266 142.5q15 22.5 15 69.5q0 75 -40 132q-27 -11 -40.5 -25t-19 -38t-5.5 -66q0 -56 9 -75.5t35 -19.5q31 0 46 22.5z" />
    <glyph glyph-name="epsilon" unicode="&#x3b5;" horiz-adv-x="411" 
d="M347 162l40 -88q-76 -69 -187 -85q-104 0 -152 28.5t-48 91.5q0 48 26 82.5t74 53.5q-62 32 -62 91q0 70 65 109t181 39q66 -12 132 -30l-42 -132h-27q-50 32 -95 32q-41 0 -41 -27q0 -14 9.5 -23t26.5 -12h72l4 -10l-21 -103h-80q-18 0 -27.5 -8.5t-9.5 -22.5
q0 -30 39 -30q20 0 47.5 11.5t55.5 32.5h20z" />
    <glyph glyph-name="zeta" unicode="&#x3b6;" horiz-adv-x="398" 
d="M206 150q14 0 60 4q44 4 51 4q28 0 42.5 -20t14.5 -58q0 -55 -32 -114t-115 -155l-103 66v11q30 32 61 70.5t31 44.5q0 4 -5 4q-10 0 -30 -3q-36 -4 -58 -4q-58 0 -89.5 37.5t-31.5 106.5q0 94 65 205t197 224h-89l-93 -9l-3 5l28 132l291 -1l60 1l-13 -125
q-135 -136 -199 -239t-64 -160q0 -27 24 -27z" />
    <glyph glyph-name="eta" unicode="&#x3b7;" horiz-adv-x="517" 
d="M463 433q39 -30 38 -70l-1 -14l-68 -415l-4 -112l-182 -11l74 449l1 10q0 22 -17 22q-15 0 -40.5 -26t-59.5 -79l-9 -71l-4 -109l-177 -11l47 356l4 113l177 11l-17 -131h15q57 74 114 128l13 1q57 -11 96 -41z" />
    <glyph glyph-name="theta" unicode="&#x3b8;" horiz-adv-x="492" 
d="M444.5 648.5q41.5 -58.5 41.5 -180.5q0 -230 -72 -352.5t-213 -122.5q-83 0 -125 58t-42 179q0 231 73 354t214 123q82 0 123.5 -58.5zM238.5 535.5q-21.5 -36.5 -32.5 -129.5l116 5q1 22 1 72q0 48 -8 68.5t-27 20.5q-28 0 -49.5 -36.5zM313 282l-115 -4q-1 -21 -1 -65
q0 -49 9 -69.5t29 -20.5q57 0 78 159z" />
    <glyph glyph-name="iota" unicode="&#x3b9;" horiz-adv-x="258" 
d="M196 116l-5 -109l-177 -11l47 356l4 113l177 11z" />
    <glyph glyph-name="kappa" unicode="&#x3ba;" horiz-adv-x="496" 
d="M370 250q45 -112 96 -218l-2 -20q-70 -14 -164 -24l-19 10l-73 216l-12 -98l-5 -109l-177 -11l47 356l4 113l177 11l-25 -198l89 138l25 56h189z" />
    <glyph glyph-name="lambda" unicode="&#x3bb;" horiz-adv-x="478" 
d="M467 120l-28 -104q-13 -8 -37 -16t-46 -12q-49 3 -71.5 25t-31.5 82l-18 122h-10l-55 -130l-32 -96l-171 16l229 467q-9 39 -29 55t-61 16q-24 0 -38 -2l-6 16l41 141q28 4 60 4q85 0 129 -41.5t59 -133.5l60 -376q2 -14 8 -20t17 -6q9 0 21 3z" />
    <glyph glyph-name="uni03BC" unicode="&#x3bc;" horiz-adv-x="523" 
d="M509 476l-47 -360l-4 -109l-177 -11l16 121h-13q-43 -81 -72 -120l-13 -1q-15 6 -28 16l-3 -197l-177 -11l72 548l4 113l177 11l-36 -276v-5q0 -19 18 -19q29 0 91 96l11 80l4 113z" />
    <glyph glyph-name="nu" unicode="&#x3bd;" horiz-adv-x="462" 
d="M473 401q0 -68 -47 -154l-134 -247h-204l-60 466l177 10v-91l11 -203h14l47 109q25 58 25 95q0 30 -13 56l8 17l162 20q14 -40 14 -78z" />
    <glyph glyph-name="xi" unicode="&#x3be;" horiz-adv-x="407" 
d="M247 548q-14 -18 -14 -52q0 -35 19 -54.5t53 -19.5h65l8 -12l-23 -110h-34h-16q-60 -25 -94.5 -58t-34.5 -65q0 -14 7 -22t19 -8q13 0 53 5q54 6 67 6q26 0 40 -21t14 -60q0 -53 -32.5 -112t-114.5 -154l-107 66v11q36 37 66 73.5t30 42.5q0 3 -5 3l-26 -3q-56 -7 -77 -7
q-47 0 -76 36t-29 96q0 66 36 121t102 90q-79 46 -79 132q0 61 37.5 115.5t100 87t133.5 32.5q68 -10 115 -33l5 -10l-47 -141h-34q-50 43 -89 43q-24 0 -38 -18z" />
    <glyph glyph-name="omicron" unicode="&#x3bf;" horiz-adv-x="461" 
d="M303 482q70 -16 110 -61.5t40 -119.5q0 -142 -74 -224t-204 -89l-16 2q-71 16 -110.5 64t-39.5 129q0 88 34 154t96.5 104t147.5 43zM204.5 331.5q-15.5 -16.5 -20.5 -51.5t-5 -101q0 -34 6.5 -46.5t25.5 -12.5q31 0 45.5 16.5t19.5 51.5t5 102q0 33 -6 45.5t-23 12.5
q-32 0 -47.5 -16.5z" />
    <glyph glyph-name="pi" unicode="&#x3c0;" horiz-adv-x="592" 
d="M605 351h-88l-30 -235l-5 -109l-177 -11l48 355h-84l-30 -235l-5 -109l-177 -11l48 355h-79l-9 10l13 111h576l12 -11z" />
    <glyph glyph-name="rho" unicode="&#x3c1;" horiz-adv-x="463" 
d="M411 433.5q47 -47.5 47 -133.5q0 -77 -36 -147.5t-95 -115.5t-124 -49l-41 10l-10 -74l-3 -109l-177 -11l55 409q17 124 84.5 196t170.5 72q82 0 129 -47.5zM276.5 160q11.5 38 11.5 113q0 33 -2.5 48.5t-10 21.5t-22.5 6q-25 0 -36.5 -14t-16.5 -50l-20 -149l60 -18
q25 4 36.5 42z" />
    <glyph glyph-name="uni03C2" unicode="&#x3c2;" horiz-adv-x="382" 
d="M87 -123v11q30 31 61 70t31 45q0 4 -5 4q-7 0 -25 -3q-32 -4 -43 -4q-44 0 -71.5 45t-27.5 118q0 89 37.5 161.5t103 114.5t145.5 42l92 -26l4 -18l-51 -129l-39 -1q-19 24 -29 31.5t-24 7.5q-28 0 -48 -43.5t-20 -104.5q0 -27 5.5 -37.5t19.5 -10.5q6 0 38 4t40 4
q28 0 42.5 -20t14.5 -58q0 -54 -32.5 -113t-114.5 -156z" />
    <glyph glyph-name="sigma" unicode="&#x3c3;" horiz-adv-x="494" 
d="M418 345l-4 -9q13 -22 18.5 -46t5.5 -55q0 -66 -34 -123t-92 -90.5t-126 -33.5q-81 0 -128.5 54t-47.5 147q0 135 71.5 209t201.5 74h231l3 -9l-24 -118h-75zM275 345h-17q-34 0 -50 -12.5t-22.5 -45t-6.5 -100.5q0 -29 2.5 -42.5t10 -18.5t22.5 -5q35 0 49 35t14 124
q0 23 -2 65z" />
    <glyph glyph-name="tau" unicode="&#x3c4;" horiz-adv-x="404" 
d="M262 165l-1 -8q0 -9 9 -9q6 0 13 7t28 36l13 1l50 -62q-30 -56 -67 -90.5t-83 -49.5q-64 0 -100.5 32t-34.5 85l3 30l32 214h-98l-9 10l13 111h378l12 -11l-13 -110h-117z" />
    <glyph glyph-name="upsilon" unicode="&#x3c5;" horiz-adv-x="485" 
d="M72 30.5q-48 41.5 -48 111.5q0 8 2 26l24 184l4 113l179 11l-40 -280q-3 -18 -3 -31q0 -23 9 -32t30 -9q19 0 28.5 5.5t14.5 19.5t9 45l21 158l4 113l178 11l-38 -289q-7 -56 -41.5 -101t-88 -71t-115.5 -26q-81 0 -129 41.5z" />
    <glyph glyph-name="phi" unicode="&#x3c6;" horiz-adv-x="633" 
d="M365 -2l-10 -74l-4 -109l-177 -11l26 192q-98 11 -144 60.5t-46 140.5q0 67 23.5 127t65 102t94.5 58l60 -63l-1 -20q-41 -50 -59.5 -94.5t-18.5 -94.5q0 -36 10 -58t33 -33l21 158q12 91 73.5 146.5t149.5 55.5q80 0 122 -47.5t42 -138.5q0 -260 -260 -297zM442.5 176
q18.5 40 18.5 112q0 40 -6 56t-21 16q-21 0 -26 -34l-27 -206q43 16 61.5 56z" />
    <glyph glyph-name="chi" unicode="&#x3c7;" horiz-adv-x="503" 
d="M441 -57q7 0 16 3l10 -10l-33 -105q-43 -21 -87 -28q-30 2 -46.5 10.5t-27.5 30t-22 64.5l-30 122l-69 -150l-22 -65h-180l177 332l-47 141q-9 28 -17.5 38.5t-22.5 10.5q-9 0 -21 -3l-6 15l39 124q28 4 56 4q56 0 84.5 -24t44.5 -83l30 -114l68 151l22 65h180l-177 -332
l58 -176q8 -21 23 -21z" />
    <glyph glyph-name="psi" unicode="&#x3c8;" horiz-adv-x="661" 
d="M662 476l-38 -289q-7 -53 -41 -97t-87 -71t-113 -30l-9 -65l-4 -109l-177 -11l24 185h-8q-84 0 -135 43t-51 112q0 8 2 24l24 184l4 113l179 11l-40 -280q-2 -16 -2 -23q0 -47 45 -49l41 309l4 113l177 11l-57 -433q29 1 41.5 15.5t17.5 54.5l21 158l4 113z" />
    <glyph glyph-name="omega" unicode="&#x3c9;" horiz-adv-x="638" 
d="M591.5 402q31.5 -52 31.5 -144q0 -126 -55.5 -195.5t-155.5 -69.5q-93 0 -124 66q-22 -35 -55 -50.5t-82 -15.5q-73 0 -107 42t-34 133q0 77 23 142.5t64.5 109t95.5 58.5l61 -63l-1 -20q-35 -36 -56.5 -97t-21.5 -122q0 -27 5 -37.5t18 -10.5t19.5 6.5t7.5 20.5l22 171
l151 6l11 -13l-21 -167v-6q0 -18 18 -18q45 0 45 114q0 92 -33 153v20l72 63q70 -24 101.5 -76z" />
    <glyph glyph-name="iotadieresis" unicode="&#x3ca;" horiz-adv-x="258" 
d="M196 116l-5 -109l-177 -11l47 356l4 113l177 11zM143.5 693.5q21.5 -21.5 21.5 -59.5q0 -42 -23.5 -66.5t-64.5 -24.5q-40 0 -60.5 21.5t-20.5 61.5q0 42 23.5 65.5t64.5 23.5q38 0 59.5 -21.5zM337 693.5q21 -21.5 21 -59.5q0 -42 -23.5 -66.5t-63.5 -24.5t-61 21.5
t-21 61.5q0 42 24 65.5t65 23.5q38 0 59 -21.5z" />
    <glyph glyph-name="upsilondieresis" unicode="&#x3cb;" horiz-adv-x="485" 
d="M72 30.5q-48 41.5 -48 111.5q0 8 2 26l24 184l4 113l179 11l-40 -280q-3 -18 -3 -31q0 -23 9 -32t30 -9q19 0 28.5 5.5t14.5 19.5t9 45l21 158l4 113l178 11l-38 -289q-7 -56 -41.5 -101t-88 -71t-115.5 -26q-81 0 -129 41.5zM256.5 693.5q21.5 -21.5 21.5 -59.5
q0 -42 -23.5 -66.5t-64.5 -24.5q-40 0 -60.5 21.5t-20.5 61.5q0 42 23.5 65.5t64.5 23.5q38 0 59.5 -21.5zM450 693.5q21 -21.5 21 -59.5q0 -42 -23.5 -66.5t-63.5 -24.5t-61 21.5t-21 61.5q0 42 24 65.5t65 23.5q38 0 59 -21.5z" />
    <glyph glyph-name="omicrontonos" unicode="&#x3cc;" horiz-adv-x="461" 
d="M303 482q70 -16 110 -61.5t40 -119.5q0 -142 -74 -224t-204 -89l-16 2q-71 16 -110.5 64t-39.5 129q0 88 34 154t96.5 104t147.5 43zM204.5 331.5q-15.5 -16.5 -20.5 -51.5t-5 -101q0 -34 6.5 -46.5t25.5 -12.5q31 0 45.5 16.5t19.5 51.5t5 102q0 33 -6 45.5t-23 12.5
q-32 0 -47.5 -16.5zM325 776l116 -48l5 -16q-51 -81 -115 -176l-16 -10l-91 38q51 116 85 203z" />
    <glyph glyph-name="upsilontonos" unicode="&#x3cd;" horiz-adv-x="485" 
d="M72 30.5q-48 41.5 -48 111.5q0 8 2 26l24 184l4 113l179 11l-40 -280q-3 -18 -3 -31q0 -23 9 -32t30 -9q19 0 28.5 5.5t14.5 19.5t9 45l21 158l4 113l178 11l-38 -289q-7 -56 -41.5 -101t-88 -71t-115.5 -26q-81 0 -129 41.5zM325 776l116 -48l5 -16q-51 -81 -115 -176
l-16 -10l-91 38q51 116 85 203z" />
    <glyph glyph-name="omegatonos" unicode="&#x3ce;" horiz-adv-x="638" 
d="M591.5 402q31.5 -52 31.5 -144q0 -126 -55.5 -195.5t-155.5 -69.5q-93 0 -124 66q-22 -35 -55 -50.5t-82 -15.5q-73 0 -107 42t-34 133q0 77 23 142.5t64.5 109t95.5 58.5l61 -63l-1 -20q-35 -36 -56.5 -97t-21.5 -122q0 -27 5 -37.5t18 -10.5t19.5 6.5t7.5 20.5l22 171
l151 6l11 -13l-21 -167v-6q0 -18 18 -18q45 0 45 114q0 92 -33 153v20l72 63q70 -24 101.5 -76zM397 745l116 -48l5 -16q-51 -81 -115 -176l-16 -10l-91 38q51 116 85 203z" />
    <glyph glyph-name="uni03CF" unicode="&#x3cf;" horiz-adv-x="652" 
d="M569 24l-89 -17l89 13q-58 -133 -135.5 -195t-176.5 -56q-63 58 -69 149l15 11q10 -1 27 -1q55 0 91.5 15t60.5 47l-37 23q-77 158 -134 294l-14 -97l-18 -210h-200l34 190l46 457h203l-40 -271l147 201l44 70h213l-231 -310q78 -155 173 -299z" />
    <glyph glyph-name="uni03D1" unicode="&#x3d1;" horiz-adv-x="492" 
d="M444.5 648.5q41.5 -58.5 41.5 -180.5q0 -230 -72 -352.5t-213 -122.5q-83 0 -125 58t-42 179q0 231 73 354t214 123q82 0 123.5 -58.5zM238.5 535.5q-21.5 -36.5 -32.5 -129.5l116 5q1 22 1 72q0 48 -8 68.5t-27 20.5q-28 0 -49.5 -36.5zM313 282l-115 -4q-1 -21 -1 -65
q0 -49 9 -69.5t29 -20.5q57 0 78 159z" />
    <glyph glyph-name="uni03D5" unicode="&#x3d5;" horiz-adv-x="633" 
d="M365 -2l-10 -74l-4 -109l-177 -11l26 192q-98 11 -144 60.5t-46 140.5q0 67 23.5 127t65 102t94.5 58l60 -63l-1 -20q-41 -50 -59.5 -94.5t-18.5 -94.5q0 -36 10 -58t33 -33l21 158q12 91 73.5 146.5t149.5 55.5q80 0 122 -47.5t42 -138.5q0 -260 -260 -297zM442.5 176
q18.5 40 18.5 112q0 40 -6 56t-21 16q-21 0 -26 -34l-27 -206q43 16 61.5 56z" />
    <glyph glyph-name="uni03D6" unicode="&#x3d6;" horiz-adv-x="592" 
d="M605 351h-88l-30 -235l-5 -109l-177 -11l48 355h-84l-30 -235l-5 -109l-177 -11l48 355h-79l-9 10l13 111h576l12 -11z" />
    <glyph glyph-name="uni03D7" unicode="&#x3d7;" horiz-adv-x="540" 
d="M357 259q45 -115 100 -231l-2 -16l-94 -11l94 7q-97 -215 -265 -212q-67 58 -76 144l13 9q109 0 158 46l-36 18q-46 111 -71 217l-3 -20l-18 -210h-194l33 190l26 271l195 13l-32 -198l93 140l29 56h200z" />
    <glyph glyph-name="uni03F0" unicode="&#x3f0;" horiz-adv-x="496" 
d="M370 250q45 -112 96 -218l-2 -20q-70 -14 -164 -24l-19 10l-73 216l-12 -98l-5 -109l-177 -11l47 356l4 113l177 11l-25 -198l89 138l25 56h189z" />
    <glyph glyph-name="uni0400" unicode="&#x400;" horiz-adv-x="555" 
d="M286 494l-13 -92h98l105 3l9 -14l-30 -146l-115 3h-90l-6 -38l-5 -57h96l167 6l9 -14l-30 -145h-455l33 190l47 457h463l9 -14l-31 -145l-158 6h-103zM468 795l-30 -79l-17 -4q-106 27 -238 69l-6 16l49 116l17 4q111 -66 225 -122z" />
    <glyph glyph-name="uni0401" unicode="&#x401;" horiz-adv-x="555" 
d="M286 494l-13 -92h98l105 3l9 -14l-30 -146l-115 3h-90l-6 -38l-5 -57h96l167 6l9 -14l-30 -145h-455l33 190l47 457h463l9 -14l-31 -145l-158 6h-103zM318.5 868.5q21.5 -21.5 21.5 -59.5q0 -42 -23.5 -66.5t-64.5 -24.5q-40 0 -60.5 21.5t-20.5 61.5q0 42 23.5 65.5
t64.5 23.5q38 0 59.5 -21.5zM512 868.5q21 -21.5 21 -59.5q0 -42 -23.5 -66.5t-63.5 -24.5t-61 21.5t-21 61.5q0 42 24 65.5t65 23.5q38 0 59 -21.5z" />
    <glyph glyph-name="uni0402" unicode="&#x402;" horiz-adv-x="690" 
d="M620.5 392.5q42.5 -41.5 42.5 -137.5q0 -28 -5 -75q-17 -132 -71.5 -220.5t-163.5 -158.5l-64 81l-2 19q100 84 122 262q4 38 4 47q0 31 -11 43.5t-37 12.5q-41 0 -94 -32l-4 -24l-18 -210h-194l33 190l31 304h-29l-110 -6l-10 14l28 145h515l9 -14l-28 -145l-126 6h-59
l-19 -132l8 1q47 45 115 73q95 -2 137.5 -43.5z" />
    <glyph glyph-name="uni0403" unicode="&#x403;" horiz-adv-x="484" 
d="M534 648l-31 -152l-150 6h-67l-43 -298l-19 -220h-210l34 199l49 480h428zM429 913l49 -116l-6 -16q-132 -42 -238 -69l-17 4l-30 79q114 56 225 122z" />
    <glyph glyph-name="uni0404" unicode="&#x404;" horiz-adv-x="564" 
d="M591 630l-50 -158l-13 -5q-28 14 -66 21.5t-72 7.5q-56 0 -87.5 -22t-47.5 -72h84l123 3l8 -14l-28 -146l-135 3h-73q1 -52 26.5 -72.5t84.5 -20.5q58 0 155 21l19 -10l-32 -159q-80 -18 -164 -18q-152 0 -226.5 64t-74.5 194q0 28 5 70q21 168 119.5 254.5t269.5 86.5
q93 0 175 -28z" />
    <glyph glyph-name="uni0405" unicode="&#x405;" horiz-adv-x="528" 
d="M536 624l-50 -162l-28 -12q-39 26 -78.5 41t-64.5 15t-39.5 -10.5t-14.5 -25.5q0 -19 19.5 -32.5t62.5 -33.5q49 -23 81.5 -43.5t56.5 -55t24 -83.5q0 -63 -37.5 -117t-105 -85.5t-153.5 -31.5q-103 0 -211 38l48 173l21 12q43 -36 93 -56t86 -20q29 0 42 10.5t13 25.5
q0 20 -20.5 34.5t-63.5 34.5q-49 23 -80 43t-54 54t-23 83q0 66 38 121t104.5 86.5t148.5 31.5q96 0 185 -35z" />
    <glyph glyph-name="uni0406" unicode="&#x406;" horiz-adv-x="312" 
d="M243 210l-18 -210h-200l34 190l46 457h203z" />
    <glyph glyph-name="uni0407" unicode="&#x407;" horiz-adv-x="327" 
d="M249 210l-18 -210h-200l34 190l46 457h203zM197.5 868.5q21.5 -21.5 21.5 -59.5q0 -42 -23.5 -66.5t-64.5 -24.5q-40 0 -60.5 21.5t-20.5 61.5q0 42 23.5 65.5t64.5 23.5q38 0 59.5 -21.5zM391 868.5q21 -21.5 21 -59.5q0 -42 -23.5 -66.5t-63.5 -24.5t-61 21.5t-21 61.5
q0 42 24 65.5t65 23.5q38 0 59 -21.5z" />
    <glyph glyph-name="uni0408" unicode="&#x408;" horiz-adv-x="357" 
d="M292 213l-8 -89q-9 -63 -35 -106t-77.5 -74t-138.5 -56l-40 103l2 15q53 25 76.5 52.5t28.5 71.5l8 63l33 314l-83 -3l-9 13l24 130h285z" />
    <glyph glyph-name="uni0409" unicode="&#x409;" horiz-adv-x="944" 
d="M884.5 381.5q48.5 -40.5 48.5 -116.5q0 -11 -2 -33q-13 -108 -99 -170t-224 -62h-237l33 190l31 310h-70l-7 -28q-51 -198 -92 -301.5t-89 -145.5t-119 -42h-49l-12 164q49 8 79.5 40t57 105t60.5 217l33 138h426l-33 -225h123q93 0 141.5 -40.5zM715 268.5
q-15 16.5 -48 15.5l-67 -2l-11 -72l-6 -69l76 -5q28 9 45.5 32t22.5 55q3 29 -12 45.5z" />
    <glyph glyph-name="uni040A" unicode="&#x40a;" horiz-adv-x="970" 
d="M913.5 379.5q48.5 -39.5 48.5 -116.5q0 -9 -2 -31q-14 -108 -99.5 -170t-223.5 -62h-231l34 189l8 75h-106l-92 -3l-7 -51l-18 -210h-194l33 190l46 457h197l-34 -235l98 -2l91 2l24 236h195l-34 -229h124q94 0 142.5 -39.5zM694 275l-68 -2l-10 -64l-6 -68l78 -5
q30 10 48.5 35t18.5 60q0 47 -61 44z" />
    <glyph glyph-name="uni040B" unicode="&#x40b;" horiz-adv-x="695" 
d="M632 396.5q46 -44.5 46 -136.5q0 -33 -4 -62l-19 -214h-202l33 188q3 20 3 34q0 30 -12.5 43.5t-39.5 13.5q-44 0 -98 -34l-4 -25l-19 -220h-203l34 199l33 319h-30l-115 -6l-11 15l30 152h541l9 -15l-29 -152l-133 6h-63l-20 -138l9 1q48 48 121 77q97 -1 143 -45.5z
" />
    <glyph glyph-name="uni040C" unicode="&#x40c;" horiz-adv-x="645" 
d="M442 330q69 -128 174 -288l-5 -22q-109 -24 -203 -32l-21 12q-80 175 -131 298l-13 -88l-18 -210h-200l34 190l46 457h203l-40 -271l149 201l43 70h211zM425 913l49 -116l-6 -16q-132 -42 -238 -69l-17 4l-30 79q114 56 225 122z" />
    <glyph glyph-name="uni040D" unicode="&#x40d;" horiz-adv-x="717" 
d="M64 190l46 452l204 10l-57 -355h11l221 350h215l-65 -437l-18 -210h-200l33 190l21 162h-11l-223 -352h-210zM545 795l-30 -79l-17 -4q-106 27 -238 69l-6 16l49 116l17 4q111 -66 225 -122z" />
    <glyph glyph-name="uni040E" unicode="&#x40e;" horiz-adv-x="603" 
d="M648 647l-212 -434q-53 -93 -97.5 -140t-100.5 -65.5t-145 -18.5l-15 6q-14 73 -14 157l6 13q96 6 141 20l-159 462h203l16 -84l53 -220h9l98 232l28 72h189zM563 847q-38 -64 -99.5 -99.5t-125.5 -35.5q-56 0 -100 28t-61 82l92 77h18q58 -67 110 -67t115 65h17z" />
    <glyph glyph-name="uni040F" unicode="&#x40f;" horiz-adv-x="662" 
d="M648 647l-65 -437l-18 -210h-181l-34 -157l-141 -10l4 167h-182l33 190l46 457h197l-64 -437l-5 -59h159l7 39l48 457h196z" />
    <glyph glyph-name="uni0410" unicode="&#x410;" horiz-adv-x="627" 
d="M591 0h-202l-4 107v4l-99 2l-83 -4l-31 -109h-195l276 647h241zM372 256l-18 213h-12l-83 -213l57 -1z" />
    <glyph glyph-name="uni0411" unicode="&#x411;" horiz-adv-x="629" 
d="M568 372q52 -40 52 -118q0 -82 -43.5 -143t-124 -94t-187.5 -33h-249l36 198l47 481h533l10 -15l-32 -152l-174 6h-149l-14 -90h140q103 0 155 -40zM377 155.5q18 23.5 18 55.5q0 28 -18 43.5t-51 14.5l-74 -2l-9 -64l-6 -75l88 -6q34 10 52 33.5z" />
    <glyph glyph-name="uni0412" unicode="&#x412;" horiz-adv-x="620" 
d="M569.5 279q23.5 -31 23.5 -83q0 -101 -84 -152t-266 -51q-57 0 -218 7l33 190l46 457l278 1q104 0 164.5 -38.5t60.5 -112.5q0 -51 -30 -95t-88 -69q57 -23 80.5 -54zM401 460q0 22 -9 34t-31 17t-64 5h-17l-20 -133l75 -3q66 19 66 80zM364 144.5q27 20.5 27 55.5
q0 22 -12 34t-39 22l-99 -2l-6 -44l-7 -82q50 -4 63 -4q46 0 73 20.5z" />
    <glyph glyph-name="uni0413" unicode="&#x413;" horiz-adv-x="484" 
d="M534 648l-31 -152l-150 6h-67l-43 -298l-19 -220h-210l34 199l49 480h428z" />
    <glyph glyph-name="uni0414" unicode="&#x414;" horiz-adv-x="737" 
d="M734 157l-39 -313l-152 -11l-8 155h-389l-42 -144l-156 -11l40 324h54q50 19 80.5 54.5t55.5 105t57 205.5l35 145h444l-68 -459l-4 -51h92zM447 157l5 30l33 325h-70l-7 -29q-33 -137 -63.5 -211.5t-70.5 -114.5h173z" />
    <glyph glyph-name="uni0415" unicode="&#x415;" horiz-adv-x="555" 
d="M286 494l-13 -92h98l105 3l9 -14l-30 -146l-115 3h-90l-6 -38l-5 -57h96l167 6l9 -14l-30 -145h-455l33 190l47 457h463l9 -14l-31 -145l-158 6h-103z" />
    <glyph glyph-name="uni0416" unicode="&#x416;" horiz-adv-x="936" 
d="M747 337q71 -152 157 -300l-1 -18q-96 -21 -198 -31l-22 16q-64 153 -115 296l-13 -90l-18 -210h-196l32 190l10 96q-34 -57 -130 -208q-36 -54 -53 -82l-22 -8q-83 8 -191 33l-5 24q131 161 232 300l-136 302h204l23 -70l88 -200l28 270h199l-39 -264l132 194l41 70h210
z" />
    <glyph glyph-name="uni0417" unicode="&#x417;" horiz-adv-x="547" 
d="M494.5 285.5q25.5 -30.5 25.5 -78.5q0 -105 -86 -162t-244 -57q-57 0 -109.5 7.5t-88.5 20.5l54 158l15 8q30 -14 70 -22.5t78 -8.5q52 0 81 16t29 45q0 25 -30 40h-160l-9 14l28 134l144 -2q35 21 35 57q0 21 -17.5 29t-61.5 8q-69 0 -164 -21l-16 10l35 158
q79 19 172 19q126 0 193 -41t67 -117q0 -57 -31 -100t-89 -68q54 -16 79.5 -46.5z" />
    <glyph glyph-name="uni0418" unicode="&#x418;" horiz-adv-x="717" 
d="M64 190l46 452l204 10l-57 -355h11l221 350h215l-65 -437l-18 -210h-200l33 190l21 162h-11l-223 -352h-210z" />
    <glyph glyph-name="uni0419" unicode="&#x419;" horiz-adv-x="717" 
d="M64 190l46 452l204 10l-57 -355h11l221 350h215l-65 -437l-18 -210h-200l33 190l21 162h-11l-223 -352h-210zM616 847q-38 -64 -98 -99.5t-122 -35.5q-55 0 -97 28t-59 82l92 77h18q56 -67 105 -67q25 0 52 16t59 49h16z" />
    <glyph glyph-name="uni041A" unicode="&#x41a;" horiz-adv-x="645" 
d="M442 330q69 -128 174 -288l-5 -22q-109 -24 -203 -32l-21 12q-80 175 -131 298l-13 -88l-18 -210h-200l34 190l46 457h203l-40 -271l149 201l43 70h211z" />
    <glyph glyph-name="uni041B" unicode="&#x41b;" horiz-adv-x="657" 
d="M602 205l-19 -221h-210l35 200l33 325h-74l-7 -29q-54 -209 -97 -317t-93 -152t-125 -45h-52l-12 173q51 8 83 41.5t59.5 110.5t63.5 228l35 145h447z" />
    <glyph glyph-name="uni041C" unicode="&#x41c;" horiz-adv-x="813" 
d="M749 0h-176l20 196l9 165h-12l-143 -300h-150l-50 300h-12l-33 -146l-35 -215h-167l142 647h231l8 -92l29 -236h12l91 229l36 99h227z" />
    <glyph glyph-name="uni041D" unicode="&#x41d;" horiz-adv-x="698" 
d="M694 647l-65 -437l-18 -210h-200l34 190l5 50l-108 2l-95 -3l-4 -29l-18 -210h-200l34 190l46 457h203l-36 -245l101 -2l93 2l25 245h203z" />
    <glyph glyph-name="uni041E" unicode="&#x41e;" horiz-adv-x="671" 
d="M589.5 588.5q71.5 -70.5 71.5 -214.5q0 -112 -41.5 -199.5t-121.5 -137t-192 -49.5q-131 0 -203 71.5t-72 216.5q0 112 41.5 198.5t122 135.5t192.5 49q131 0 202.5 -70.5zM297.5 482q-26.5 -18 -42 -67.5t-15.5 -141.5q0 -54 7 -83t25.5 -42t54.5 -13q39 0 66 18
t42.5 67.5t15.5 141.5q0 53 -7 82.5t-25.5 42.5t-54.5 13q-40 0 -66.5 -18z" />
    <glyph glyph-name="uni041F" unicode="&#x41f;" horiz-adv-x="680" 
d="M611 210l-18 -210h-201l33 190l30 297l-91 3l-80 -5l-40 -275l-18 -210h-200l33 190l46 457h570z" />
    <glyph glyph-name="uni0420" unicode="&#x420;" horiz-adv-x="603" 
d="M557.5 601.5q56.5 -46.5 56.5 -130.5t-39 -149.5t-110.5 -102t-164.5 -36.5h-58l-16 -183h-200l33 190l46 457l296 1q100 0 156.5 -46.5zM386.5 368.5q15.5 27.5 15.5 69.5q0 35 -19 52.5t-59 19.5l-36 -3l-27 -180l74 -4q36 18 51.5 45.5z" />
    <glyph glyph-name="uni0421" unicode="&#x421;" horiz-adv-x="541" 
d="M491 651q44 -7 79 -20l-53 -159l-14 -7q-24 14 -57 22.5t-62 8.5q-76 0 -107.5 -48t-31.5 -153q0 -73 26.5 -107t82.5 -34q28 0 63.5 5.5t63.5 15.5l14 -9l-35 -158q-35 -11 -65.5 -15t-66.5 -4q-144 0 -220.5 71t-76.5 203q0 186 96.5 290.5t274.5 104.5q45 0 89 -7z
" />
    <glyph glyph-name="uni0422" unicode="&#x422;" horiz-adv-x="524" 
d="M563 633l-28 -145l-131 6h-13l-40 -284l-18 -210h-199l34 190l32 304h-13l-134 -6l-10 14l29 145h482z" />
    <glyph glyph-name="uni0423" unicode="&#x423;" horiz-adv-x="603" 
d="M648 647l-212 -434q-53 -93 -97.5 -140t-100.5 -65.5t-145 -18.5l-15 6q-14 73 -14 157l6 13q96 6 141 20l-159 462h203l16 -84l53 -220h9l98 232l28 72h189z" />
    <glyph glyph-name="uni0424" unicode="&#x424;" horiz-adv-x="836" 
d="M760.5 136q-92.5 -82 -274.5 -99l-9 -93h-192l15 92q-145 14 -218.5 76.5t-73.5 173.5q0 160 91 242t272 98l8 76h195l-11 -75q144 -14 217 -76t73 -173q0 -160 -92.5 -242zM237.5 225.5q27.5 -28.5 86.5 -38.5l31 287q-77 -11 -111 -50.5t-34 -116.5q0 -53 27.5 -81.5z
M615.5 234q34.5 38 34.5 117q0 53 -25.5 82t-83.5 40l-38 -269l-2 -19q80 11 114.5 49z" />
    <glyph glyph-name="uni0425" unicode="&#x425;" horiz-adv-x="654" 
d="M468 332l150 -332h-235l-24 79l-45 106l-89 -116l-41 -69h-202l230 321l-153 326h236l25 -81l44 -103l80 114l39 70h208z" />
    <glyph glyph-name="uni0426" unicode="&#x426;" horiz-adv-x="722" 
d="M699 161l-39 -298l-140 -10l-6 147h-483l33 190l47 457h203l-65 -437l-4 -49h174l5 29l47 457h203l-65 -437l-4 -49h94z" />
    <glyph glyph-name="uni0427" unicode="&#x427;" horiz-adv-x="648" 
d="M650 663l-69 -459l-19 -220h-210l35 199l6 63l-9 -1q-59 -50 -132 -76q-109 1 -163 48t-54 139q0 11 2 35l28 272h214l-32 -226q-2 -18 -2 -26q0 -65 57 -65q21 0 46 8t59 24l29 285h214z" />
    <glyph glyph-name="uni0428" unicode="&#x428;" horiz-adv-x="954" 
d="M941 647l-65 -437l-18 -210h-827l33 190l47 457h203l-65 -437l-4 -49h128l5 29l46 457h204l-65 -437l-4 -49h127l5 29l47 457h203z" />
    <glyph glyph-name="uni0429" unicode="&#x429;" horiz-adv-x="980" 
d="M933 647l-65 -437l-18 -210h-827l33 190l47 457h203l-65 -437l-4 -49h128l5 29l46 457h204l-65 -437l-4 -49h127l5 29l47 457h203zM918 -137l-140 -10l-6 147h-123l69 161h239z" />
    <glyph glyph-name="uni042A" unicode="&#x42a;" horiz-adv-x="703" 
d="M644.5 382q48.5 -40 48.5 -116q0 -80 -41 -140t-116.5 -93t-176.5 -33h-228l35 189l30 305h-47l-97 -6l-10 14l29 145h342l-33 -225h121q95 0 143.5 -40zM462.5 168.5q16.5 23.5 16.5 55.5q0 28 -16 44.5t-46 15.5l-58 -2l-11 -73l-6 -69l73 -5q31 10 47.5 33.5z" />
    <glyph glyph-name="uni042B" unicode="&#x42b;" horiz-adv-x="858" 
d="M511.5 382q45.5 -40 45.5 -115q0 -80 -39.5 -140.5t-112 -93.5t-168.5 -33h-220l34 189l46 459h202l-33 -226h113q87 0 132.5 -40zM854 647l-65 -437l-18 -210h-200l34 190l46 457h203zM330.5 170q14.5 24 14.5 55q0 27 -13.5 43.5t-36.5 15.5l-50 -2l-11 -73l-6 -69
l65 -5q23 11 37.5 35z" />
    <glyph glyph-name="uni042C" unicode="&#x42c;" horiz-adv-x="611" 
d="M563.5 384q51.5 -42 51.5 -121q0 -84 -43 -147t-123 -97.5t-187 -34.5h-245l35 198l49 482h211l-35 -238h136q99 0 150.5 -42zM371.5 161q17.5 25 17.5 58q0 30 -17 47t-49 16l-68 -2l-11 -77l-6 -71l84 -6q32 10 49.5 35z" />
    <glyph glyph-name="uni042D" unicode="&#x42d;" horiz-adv-x="566" 
d="M500.5 607q78.5 -68 78.5 -206q0 -29 -5 -71q-22 -176 -125.5 -267t-282.5 -91q-96 0 -184 30l51 166l14 5q30 -14 70.5 -22.5t74.5 -8.5q59 0 93.5 24t51.5 78h-92l-128 -3l-9 15l29 153l141 -3h79q-3 52 -30.5 73t-87.5 21q-62 0 -163 -23l-19 12l34 166q87 20 172 20
q159 0 237.5 -68z" />
    <glyph glyph-name="uni042E" unicode="&#x42e;" horiz-adv-x="910" 
d="M847 590.5q63 -68.5 63 -193.5q0 -35 -4 -66q-20 -164 -108 -253.5t-229 -89.5q-113 0 -175 66t-64 187l-45 1l-31 -2l-5 -30l-18 -210h-200l33 190l47 457h203l-37 -246l37 -1l35 1q33 124 115 191t204 67q116 0 179 -68.5zM702 419q0 46 -13.5 63.5t-45.5 17.5
t-50.5 -15t-30 -51t-19.5 -104q-10 -80 -10 -114q0 -46 13.5 -63.5t45.5 -17.5q33 0 51.5 14.5t29.5 50.5t20 106q9 72 9 113z" />
    <glyph glyph-name="uni042F" unicode="&#x42f;" horiz-adv-x="630" 
d="M619 646l-67 -456l-13 -190h-200l31 194h-63q-38 -73 -88 -157l-21 -37l-19 -12q-106 6 -195 39l-6 23q67 70 176 198q-91 62 -91 161q0 68 38 123t104 86t146 31l269 -2zM271 402q0 -24 11 -40t38 -29l65 5l17 169l-42 3q-39 -1 -60.5 -23.5t-27.5 -67.5q-1 -6 -1 -17z
" />
    <glyph glyph-name="uni0430" unicode="&#x430;" horiz-adv-x="481" 
d="M467 476l-47 -360l-4 -109l-177 -11l15 110h-16q-35 -70 -74 -117h-23q-78 19 -108 60.5t-30 107.5q0 64 26 127.5t80 115t134 78.5h7l97 -17l109 23zM226 190q22 38 55 119l3 22l-68 17q-49 0 -49 -117q0 -79 21 -79q16 0 38 38z" />
    <glyph glyph-name="uni0431" unicode="&#x431;" horiz-adv-x="477" 
d="M436 404.5q32 -39.5 32 -112.5q0 -89 -32.5 -157.5t-91 -106t-134.5 -37.5q-89 0 -138.5 55t-49.5 153q0 164 68.5 282t192.5 167l96 40q34 14 65 32l50 -36q-30 -87 -68 -150l-96 -12q-47 -5 -75 -39t-39 -99l-8 -47h13q51 79 90 121h22q71 -14 103 -53.5zM286 142
q19 29 19 79q0 40 -5 62t-14 22q-16 0 -42.5 -42t-55.5 -113q5 -19 16 -28t31 -9q32 0 51 29z" />
    <glyph glyph-name="uni0432" unicode="&#x432;" horiz-adv-x="436" 
d="M419 151v-7q-17 -73 -76.5 -114t-146.5 -41q-90 0 -139 51t-49 143q0 87 33.5 153t95.5 104.5t146 43.5l16 -2q58 -11 89.5 -44t31.5 -83q0 -36 -18.5 -64.5t-57.5 -52.5q48 -34 75 -87zM194 348q-15 -23 -19 -72q49 11 69 26t20 41q0 15 -6.5 21.5t-20.5 6.5
q-28 0 -43 -23zM258.5 118.5q11.5 10.5 11.5 27.5q0 25 -18 53q-31 -11 -76 -22q4 -36 17 -52.5t35 -16.5q19 0 30.5 10.5z" />
    <glyph glyph-name="uni0433" unicode="&#x433;" horiz-adv-x="367" 
d="M45.5 22q-44.5 33 -44.5 90q0 40 20.5 70t48.5 50t69 42q31 17 46.5 28.5t15.5 23.5q0 6 -4 9.5t-11 3.5q-9 0 -32 -8t-69 -26l-21 4l-36 82q76 61 165 92q76 0 121 -34t45 -91q0 -39 -20.5 -68.5t-48 -49.5t-69.5 -43q-32 -18 -47.5 -29t-15.5 -23q0 -5 3.5 -9.5
t11.5 -4.5q13 0 38.5 11t74.5 39l21 -5l38 -83q-69 -63 -177 -105q-78 1 -122.5 34z" />
    <glyph glyph-name="uni0434" unicode="&#x434;" horiz-adv-x="463" 
d="M231 707q103 0 163 -70t60 -196q0 -221 -69.5 -333t-210.5 -120q-78 10 -122.5 66t-44.5 143q0 71 33.5 135.5t88 104t114.5 39.5q22 -2 29 -2q-11 60 -50 87.5t-113 27.5q-18 0 -28 -1l-6 6l16 84q74 29 140 29zM246 138.5q14 18.5 20.5 64.5t8.5 134l-44 10
q-22 -1 -33 -16t-16 -51.5t-5 -105.5q0 -31 6 -42.5t23 -11.5q26 0 40 18.5z" />
    <glyph glyph-name="uni0435" unicode="&#x435;" horiz-adv-x="421" 
d="M348 179l52 -67q-36 -44 -83.5 -75.5t-102.5 -47.5h-16q-97 11 -143.5 58.5t-46.5 135.5q0 87 33.5 153t95.5 104.5t146 43.5l16 -2q59 -11 90 -44t31 -84q0 -62 -56.5 -103t-186.5 -73q4 -28 16 -41t33 -13q20 0 40.5 12t61.5 47zM194 348q-15 -23 -19 -72q49 11 69 26
t20 41q0 15 -6.5 21.5t-20.5 6.5q-28 0 -43 -23z" />
    <glyph glyph-name="uni0436" unicode="&#x436;" horiz-adv-x="736" 
d="M617 259q46 -132 90 -231l-2 -17q-89 -17 -171 -23l-18 14q-41 117 -67 227l-14 -113l-5 -109l-177 -11l29 222q-55 -117 -119 -224l-17 -6q-66 5 -164 25l-5 23q86 130 147 232l-82 204h181l12 -56l54 -150l11 86l4 113l177 11l-26 -201l84 141l27 56h188z" />
    <glyph glyph-name="uni0437" unicode="&#x437;" horiz-adv-x="394" 
d="M58.5 -3.5q-42.5 8.5 -75.5 23.5l41 128l38 1q24 -17 40.5 -22t46.5 -5q24 0 40 10.5t16 26.5q0 21 -23 20l-92 -1l-6 11l22 102l68 -2q17 0 27.5 10.5t10.5 27.5q0 23 -25 23q-22 0 -40 -8t-53 -32l-23 1l-44 77q48 50 100 73t116 23t105 -30.5t41 -79.5q0 -39 -25 -71
t-72 -52v-5q75 -31 75 -98q0 -45 -29 -81.5t-80 -57.5t-114 -21q-43 0 -85.5 8.5z" />
    <glyph glyph-name="uni0438" unicode="&#x438;" horiz-adv-x="511" 
d="M496 476l-47 -360l-4 -109l-177 -11l16 121h-13q-51 -70 -104 -120l-13 -1q-64 7 -101 36.5t-37 72.5l2 20l37 226l4 112l181 11l-42 -262l-1 -13q0 -23 18 -23q29 0 89 95l11 81l4 113z" />
    <glyph glyph-name="uni0439" unicode="&#x439;" horiz-adv-x="511" 
d="M496 476l-47 -360l-4 -109l-177 -11l16 121h-13q-51 -70 -104 -120l-13 -1q-64 7 -101 36.5t-37 72.5l2 20l37 226l4 112l181 11l-42 -262l-1 -13q0 -23 18 -23q29 0 89 95l11 81l4 113zM491 672q-38 -64 -98 -99.5t-122 -35.5q-55 0 -97 28t-59 82l92 77h18
q56 -67 105 -67q25 0 52 16t59 49h16z" />
    <glyph glyph-name="uni043A" unicode="&#x43a;" horiz-adv-x="499" 
d="M379 259q46 -128 92 -231l-2 -17q-90 -17 -170 -23l-19 14q-45 128 -69 231l-15 -117l-5 -109l-177 -11l47 356l4 113l177 11l-26 -204l87 144l27 56h188z" />
    <glyph glyph-name="uni043B" unicode="&#x43b;" horiz-adv-x="482" 
d="M277 -4v91l-11 203h-17l-47 -156q-23 -75 -60 -108.5t-100 -33.5q-21 0 -45 3l-11 131l8 17q36 11 54.5 34t37.5 80l74 215h233l61 -466z" />
    <glyph glyph-name="uni043C" unicode="&#x43c;" horiz-adv-x="633" 
d="M96 465l192 12l4 -71l21 -154h9l59 147l25 66l190 12l-17 -477h-148l13 143l5 98h-11l-93 -199h-124l-35 199h-11l-16 -82l-26 -159h-141z" />
    <glyph glyph-name="uni043D" unicode="&#x43d;" horiz-adv-x="526" 
d="M511 476l-46 -360l-5 -109l-177 -11l22 166l-53 1l-50 -2l-6 -45l-5 -109l-177 -11l47 356l4 113l177 11l-22 -172l59 -1l45 1l6 48l4 113z" />
    <glyph glyph-name="uni043E" unicode="&#x43e;" horiz-adv-x="461" 
d="M303 482q70 -16 110 -61.5t40 -119.5q0 -142 -74 -224t-204 -89l-16 2q-71 16 -110.5 64t-39.5 129q0 88 34 154t96.5 104t147.5 43zM204.5 331.5q-15.5 -16.5 -20.5 -51.5t-5 -101q0 -34 6.5 -46.5t25.5 -12.5q31 0 45.5 16.5t19.5 51.5t5 102q0 33 -6 45.5t-23 12.5
q-32 0 -47.5 -16.5z" />
    <glyph glyph-name="uni043F" unicode="&#x43f;" horiz-adv-x="516" 
d="M463 433q39 -30 38 -70l-1 -14l-38 -230l-4 -112l-182 -11l44 264l1 10q0 22 -17 22q-15 0 -40.5 -26t-59.5 -79l-9 -71l-4 -109l-177 -11l47 356l4 113l177 11l-17 -131h15q57 74 114 128l13 1q57 -11 96 -41z" />
    <glyph glyph-name="uni0440" unicode="&#x440;" horiz-adv-x="486" 
d="M452.5 419q30.5 -40 30.5 -108q0 -66 -26.5 -130t-79.5 -115.5t-129 -76.5h-7l-59 11l-10 -76l-4 -109l-177 -11l72 548l4 113l177 11l-16 -119h18q37 71 79 121h23q74 -19 104.5 -59zM309.5 150q11.5 32 11.5 88q0 83 -21 83q-15 0 -38.5 -39t-58.5 -119l-3 -25l76 -20
q22 0 33.5 32z" />
    <glyph glyph-name="uni0441" unicode="&#x441;" horiz-adv-x="375" 
d="M381 455l4 -18l-51 -129l-39 -1q-19 24 -29 31.5t-24 7.5q-32 0 -47 -30.5t-15 -96.5q0 -45 7 -61.5t26 -16.5q15 0 29 11.5t37 43.5l23 -1l53 -65q-33 -57 -69.5 -88.5t-92.5 -51.5h-23q-84 13 -122.5 58.5t-38.5 134.5t35 156.5t99 104.5t149 37z" />
    <glyph glyph-name="uni0442" unicode="&#x442;" horiz-adv-x="789" 
d="M737.5 433.5q36.5 -29.5 35.5 -70.5l-1 -14l-38 -230l-3 -112l-182 -11l43 264l1 10q0 22 -16 22t-44 -28.5t-61 -84.5l-10 -60l-3 -112l-182 -11l43 264l1 10q0 22 -16 22q-15 0 -41 -26.5t-60 -80.5l-9 -69l-4 -109l-177 -11l47 356l4 113l177 11l-17 -131h16
q57 74 114 128l13 1q62 -11 98 -40.5t35 -70.5l-1 -14l-1 -4h14q53 70 112 128l13 1q63 -11 99.5 -40.5z" />
    <glyph glyph-name="uni0443" unicode="&#x443;" horiz-adv-x="487" 
d="M495 401q0 -40 -10.5 -77t-33.5 -77l-100 -198q-65 -129 -132 -187t-151 -58q-49 0 -109 18l7 149l15 16q44 -10 85 -10q46 0 78 16l-106 473l178 10l7 -91l28 -200h13l35 87q25 60 25 110q0 37 -13 60l8 17l162 20q14 -49 14 -78z" />
    <glyph glyph-name="uni0444" unicode="&#x444;" horiz-adv-x="677" 
d="M642.5 425q31.5 -39 31.5 -110t-30.5 -136.5t-86 -114t-126.5 -72.5l-41 8l-10 -76l-4 -109l-177 -11l35 267h-13q-36 -55 -65 -81h-21q-70 17 -101 56t-31 110t30.5 136.5t85.5 114t127 72.5l42 -8l14 109l4 113l177 11l-40 -304h13q38 57 64 81h20q71 -17 102.5 -56z
M251 199l19 137l-51 14q-26 0 -39.5 -31.5t-13.5 -91.5q0 -40 5.5 -58t17.5 -18q20 0 62 48zM510 243q0 41 -5 59t-16 18q-21 0 -63 -46l-18 -139l49 -14q53 0 53 122z" />
    <glyph glyph-name="uni0445" unicode="&#x445;" horiz-adv-x="491" 
d="M461 4l-200 -13l-12 69l-21 69l-38 -64l-27 -65h-193l160 242l-89 225l193 15l13 -56l25 -70l37 66l22 50h186l-160 -239z" />
    <glyph glyph-name="uni0446" unicode="&#x446;" horiz-adv-x="551" 
d="M533 110l-27 -139q-18 -96 -82 -168l-142 68v26q21 16 43.5 40t38.5 47l11 16h-29q-31 0 -48 20t-17 55q0 14 1 21l3 21h-14q-46 -64 -104 -120l-13 -1q-64 7 -101 36.5t-37 72.5l2 20l37 226l4 112l181 11l-42 -262l-1 -13q0 -23 18 -23q26 0 90 96l10 80l4 113l177 11
l-43 -323v-5q0 -14 16 -14h51z" />
    </font>
</defs>
</svg>
