<?xml version="1.0" standalone="no"?>
<!DOCTYPE svg PUBLIC "-//W3C//DTD SVG 1.1//EN" "http://www.w3.org/Graphics/SVG/1.1/DTD/svg11.dtd" >
<svg xmlns="http://www.w3.org/2000/svg" xmlns:xlink="http://www.w3.org/1999/xlink" version="1.1">
<metadata>
Created by FontForge 20170731 at Thu Nov  9 17:49:36 2017
 By Aleksey,,,
Copyright 2013 The Alegreya Sans Project Authors (https://github.com/huertatipografica/Alegreya-Sans)
</metadata>
<defs>
<font id="AlegreyaSans-Bold" horiz-adv-x="0" >
  <font-face 
    font-family="Alegreya Sans"
    font-weight="700"
    font-stretch="normal"
    units-per-em="1000"
    panose-1="0 0 8 0 0 0 0 0 0 0"
    ascent="800"
    descent="-200"
    x-height="467"
    cap-height="644"
    bbox="-446 -272 1240 1058.93"
    underline-thickness="42"
    underline-position="-219"
    unicode-range="U+000D-FB02"
  />
<missing-glyph horiz-adv-x="151" 
 />
    <glyph glyph-name="Idieresis" unicode="&#xa8;I" horiz-adv-x="295" 
d="M208 204l6 -204h-136l7 192l-7 452h138zM124.5 842q14.5 -15 14.5 -43q0 -29 -16 -46t-44 -17t-43 15t-15 44t16.5 45.5t45.5 16.5q27 0 41.5 -15zM259 842q15 -15 15 -43q0 -29 -16.5 -46t-44.5 -17t-43 15.5t-15 43.5q0 29 17 45.5t46 16.5q26 0 41 -15z" />
    <glyph glyph-name="Odieresis" unicode="&#xa8;O" horiz-adv-x="643" 
d="M542.5 570.5q73.5 -82.5 73.5 -234.5q0 -166 -80 -256t-226 -90q-135 0 -208.5 84.5t-73.5 239.5q0 163 79.5 251t225.5 88q136 0 209.5 -82.5zM205 494q-36 -50 -36 -163q0 -129 35.5 -184t117.5 -55q80 0 116 50.5t36 165.5q0 127 -35.5 181.5t-117.5 54.5
q-80 0 -116 -50zM283 845q16 -16 16 -45q0 -31 -17.5 -49t-47.5 -18q-29 0 -45 16t-16 46t17.5 48t48.5 18q28 0 44 -16zM456 845q16 -16 16 -45q0 -31 -17.5 -49t-46.5 -18t-45 16t-16 46t17.5 48t47.5 18q28 0 44 -16z" />
    <glyph glyph-name="Yacute" unicode="&#xb4;Y" horiz-adv-x="558" 
d="M333 179l6 -179h-135l6 179l-1 38l-205 427h144l14 -45l109 -245h9l122 241l19 49h139l-225 -422zM388 886l34 -79l-4 -12q-97 -38 -216 -78l-12 4l-22 55q123 62 207 113z" />
    <glyph glyph-name="idieresis" unicode="&#xa8;i" horiz-adv-x="261" 
d="M70 192l-5 264l131 11l-6 -262l6 -205h-133zM107.5 663q14.5 -15 14.5 -43q0 -29 -16 -46t-44 -17t-43 15t-15 44t16.5 45.5t45.5 16.5q27 0 41.5 -15zM242 663q15 -15 15 -43q0 -29 -16.5 -46t-44.5 -17t-43 15.5t-15 43.5q0 29 17 45.5t46 16.5q26 0 41 -15z" />
    <glyph glyph-name="odieresis" unicode="&#xa8;o" horiz-adv-x="494" 
d="M410 414q54 -60 54 -173q0 -122 -58 -186.5t-167 -64.5q-102 0 -156 60t-54 173q0 122 58 186.5t167 64.5q102 0 156 -60zM175.5 352q-21.5 -32 -21.5 -103q0 -92 22 -131t72 -39q48 0 69.5 31.5t21.5 103.5q0 91 -22.5 130.5t-71.5 39.5q-48 0 -69.5 -32zM209 666
q16 -16 16 -45q0 -31 -17.5 -49t-47.5 -18q-29 0 -45 16t-16 46t17.5 48t48.5 18q28 0 44 -16zM382 666q16 -16 16 -45q0 -31 -17.5 -49t-46.5 -18t-45 16t-16 46t17.5 48t47.5 18q28 0 44 -16z" />
    <glyph glyph-name="yacute" unicode="&#xb4;y" horiz-adv-x="447" 
d="M141 394l83 -260h8l83 249l17 82h114l-152 -434q-24 -68 -54 -109.5t-75 -68t-116 -45.5l-10 1q-34 33 -56 78l4 13q63 11 104 32.5t78 67.5l-170 462l126 6zM325 723l48 -72l-2 -13q-22 -14 -33 -20q-125 -77 -162 -98l-13 1l-32 50q116 93 181 153z" />
    <glyph glyph-name="Itilde" unicode="&#x7e;I" horiz-adv-x="295" 
d="M208 204l6 -204h-136l7 192l-7 452h138zM301 838v-11l-63 -89l-12 -4q-24 4 -70 19q-47 15 -58 15t-21.5 -10t-20.5 -23t-13 -17h-11l-39 39v12l62 87l13 5q24 -4 70 -19q47 -15 58 -15t20.5 9t19.5 22t15 19h11z" />
    <glyph glyph-name="itilde" unicode="&#x7e;i" horiz-adv-x="261" 
d="M70 192l-5 264l131 11l-6 -262l6 -205h-133zM284 659v-11l-63 -89l-12 -4q-24 4 -70 19q-47 15 -58 15t-21.5 -10t-20.5 -23t-13 -17h-11l-39 39v12l62 87l13 5q24 -4 70 -19q47 -15 58 -15t20.5 9t19.5 22t15 19h11z" />
    <glyph glyph-name="Utilde" unicode="&#x7e;U" horiz-adv-x="638" 
d="M573 317l-1 -85q1 -115 -67 -178t-195 -63q-122 0 -186 61t-61 175l1 93l-3 324h136l-7 -399q-1 -73 31 -108t97 -35q130 0 129 136l-7 406h138zM495 841v-11l-70 -89l-13 -5q-27 3 -83 19q-5 1 -32.5 8.5t-38.5 7.5t-21.5 -9t-22.5 -22t-18 -20h-12l-40 39v11l71 89
l12 5q24 -3 85 -20q56 -15 69 -15q12 0 23.5 10t23.5 23t16 18h12z" />
    <glyph glyph-name="utilde" unicode="&#x7e;u" horiz-adv-x="522" 
d="M505 87l-12 -70q-37 -24 -76 -25q-29 5 -48 23t-29 52h-9q-57 -56 -118 -73q-76 0 -115.5 34.5t-38.5 99.5l2 118l-5 210l129 11l-3 -295q-1 -35 14 -53t45 -18q44 0 87 39v316l127 11l-9 -346q0 -16 5.5 -23t17.5 -7q11 0 27 4zM432 662v-11l-70 -89l-13 -5
q-27 3 -83 19q-5 1 -32.5 8.5t-38.5 7.5t-21.5 -9t-22.5 -22t-18 -20h-12l-40 39v11l71 89l12 5q24 -3 85 -20q56 -15 69 -15q12 0 23.5 10t23.5 23t16 18h12z" />
    <glyph glyph-name="uni1EBC" unicode="&#x7e;E" horiz-adv-x="509" 
d="M483 112l8 -11l-9 -101h-404l7 192l-7 452h408l8 -11l-10 -101l-154 5l-116 -1l-3 -155l111 -2l105 3l8 -10l-9 -101l-114 3l-103 -1l-1 -69l3 -97l113 -1zM456 841v-11l-70 -89l-13 -5q-27 3 -83 19q-5 1 -32.5 8.5t-38.5 7.5t-21.5 -9t-22.5 -22t-18 -20h-12l-40 39v11
l71 89l12 5q24 -3 85 -20q56 -15 69 -15q12 0 23.5 10t23.5 23t16 18h12z" />
    <glyph glyph-name="uni1EBD" unicode="&#x7e;e" horiz-adv-x="472" 
d="M421 216l-270 -2q9 -125 127 -125q62 0 138 35l11 -7l-20 -99q-76 -28 -143 -28q-110 0 -172.5 64t-62.5 177q0 112 61 177.5t165 65.5q89 0 137.5 -48.5t48.5 -135.5q0 -23 -5 -58zM325 305q0 40 -18 60.5t-53 20.5q-39 0 -65 -25.5t-35 -73.5l169 4zM419 661v-11
l-70 -89l-13 -5q-27 3 -83 19q-5 1 -32.5 8.5t-38.5 7.5t-21.5 -9t-22.5 -22t-18 -20h-12l-40 39v11l71 89l12 5q24 -3 85 -20q56 -15 69 -15q12 0 23.5 10t23.5 23t16 18h12z" />
    <glyph glyph-name="uni1EF8" unicode="&#x7e;Y" horiz-adv-x="558" 
d="M333 179l6 -179h-135l6 179l-1 38l-205 427h144l14 -45l109 -245h9l122 241l19 49h139l-225 -422zM450 841v-11l-70 -89l-13 -5q-27 3 -83 19q-5 1 -32.5 8.5t-38.5 7.5t-21.5 -9t-22.5 -22t-18 -20h-12l-40 39v11l71 89l12 5q24 -3 85 -20q56 -15 69 -15q12 0 23.5 10
t23.5 23t16 18h12z" />
    <glyph glyph-name="uni1EF9" unicode="&#x7e;y" horiz-adv-x="447" 
d="M141 394l83 -260h8l83 249l17 82h114l-152 -434q-24 -68 -54 -109.5t-75 -68t-116 -45.5l-10 1q-34 33 -56 78l4 13q63 11 104 32.5t78 67.5l-170 462l126 6zM402 662v-11l-70 -89l-13 -5q-27 3 -83 19q-5 1 -32.5 8.5t-38.5 7.5t-21.5 -9t-22.5 -22t-18 -20h-12l-40 39
v11l71 89l12 5q24 -3 85 -20q56 -15 69 -15q12 0 23.5 10t23.5 23t16 18h12z" />
    <glyph glyph-name="fi" unicode="fi" horiz-adv-x="600" 
d="M453 687l-15 -103l-13 -7q-74 34 -121 34q-40 0 -58.5 -20t-19.5 -64l-1 -66h236l73 10l8 -5l-8 -261l7 -205h-132l7 192l-4 189h-188l-3 -176l7 -205h-133l8 193l-2 188h-70l-5 7l7 73h66v38q0 106 53.5 156t166.5 50q58 0 134 -18z" />
    <glyph glyph-name="fl" unicode="fl" horiz-adv-x="612" 
d="M475 685l-27 -96l-10 -6q-73 33 -130 33q-81 0 -82 -83l-1 -72h113l4 -7l-6 -73h-112l-3 -177l7 -204h-133l8 192l-3 189h-69l-5 7l7 73h66l-1 52q0 96 56 146.5t160 50.5q76 0 161 -25zM540 205l7 -205h-133l7 193l-6 499l133 10z" />
    <glyph glyph-name="f_j" unicode="fj" horiz-adv-x="607" 
d="M453 687l-15 -103l-13 -7q-74 34 -121 34q-40 0 -58.5 -20t-19.5 -64l-1 -66h237l72 10l8 -5l-8 -261l6 -178q0 -79 -38 -131t-125 -91l-46 59v12q46 25 65 59t19 88l1 169l-4 189h-188l-3 -176l7 -205h-133l8 193l-2 188h-70l-5 7l7 73h67l-1 38q0 106 53.5 156
t166.5 50q58 0 134 -18z" />
    <glyph glyph-name="Gtilde" unicode="&#x7e;G" horiz-adv-x="598" 
d="M553 613l-29 -122l-13 -2q-49 28 -87.5 40.5t-82.5 12.5q-89 0 -130 -53t-41 -174q0 -80 17.5 -127t54.5 -68.5t98 -21.5q21 0 39.5 3t45.5 11l2 55l-2 102l125 9l-3 -90l3 -157q-120 -40 -221 -40q-150 0 -225.5 82t-75.5 235q0 167 87.5 255.5t248.5 88.5
q105 0 189 -39zM501 841v-11l-70 -89l-13 -5q-27 3 -83 19q-5 1 -32.5 8.5t-38.5 7.5t-21.5 -9t-22.5 -22t-18 -20h-12l-40 39v11l71 89l12 5q24 -3 85 -20q56 -15 69 -15q12 0 23.5 10t23.5 23t16 18h12z" />
    <glyph glyph-name="gtilde" unicode="&#x7e;g" horiz-adv-x="500" 
d="M431 387l-2 -4q15 -30 15 -67q0 -75 -54.5 -119.5t-147.5 -44.5q-28 0 -58 5q-9 -9 -12 -14t-3 -12q0 -18 24 -25t76 -14q59 -7 98.5 -17t68 -35t28.5 -71q0 -47 -29.5 -84.5t-81.5 -58.5t-118 -21q-91 0 -140 37t-49 98q31 43 83 75v5q-34 12 -53 33.5t-19 57.5
q27 33 68 61v5q-36 20 -54.5 52.5t-18.5 76.5q0 78 54 122t147 44q54 0 98 -18q72 13 147 40l10 -9v-83q-27 -7 -77 -15zM308 253q21 21 21 61q0 76 -78 76q-84 0 -84 -77q0 -40 20 -60.5t59 -20.5q41 0 62 21zM323.5 -18q-28.5 10 -87.5 17l-34 5q-24 -16 -36 -31t-12 -32
q0 -26 24 -42t70 -16q47 0 75.5 16.5t28.5 45.5q0 27 -28.5 37zM427 653v-11l-70 -89l-13 -5q-27 3 -83 19q-5 1 -32.5 8.5t-38.5 7.5t-21.5 -9t-22.5 -22t-18 -20h-12l-40 39v11l71 89l12 5q24 -3 85 -20q56 -15 69 -15q12 0 23.5 10t23.5 23t16 18h12z" />
    <glyph glyph-name=".notdef" horiz-adv-x="151" 
 />
    <glyph glyph-name=".null" 
 />
    <glyph glyph-name="nonmarkingreturn" unicode="&#xd;" horiz-adv-x="151" 
 />
    <glyph glyph-name="space" unicode=" " horiz-adv-x="151" 
 />
    <glyph glyph-name="exclam" unicode="!" horiz-adv-x="264" 
d="M210 650l-37 -413l-75 -10l-14 13l-8 404l12 15l106 7zM172.5 117q17.5 -18 17.5 -50q0 -34 -19 -54t-52 -20t-50.5 18t-17.5 51t19.5 53t53.5 20q31 0 48.5 -18z" />
    <glyph glyph-name="quotedbl" unicode="&#x22;" horiz-adv-x="354" 
d="M165 633l-35 -220l-62 -9l-11 9l-2 222l103 7zM315 633l-35 -220l-63 -9l-10 9l-2 222l102 7z" />
    <glyph glyph-name="numbersign" unicode="#" horiz-adv-x="549" 
d="M418 356l-20 -104h90l8 -9l-7 -68h-106l-28 -143h-77l-7 9l26 134h-100l-28 -143h-77l-6 9l26 134h-84l-8 9l6 68h101l20 104h-86l-8 9l6 68h103l27 140h74l9 -10l-25 -130h101l27 140h74l9 -10l-25 -130h87l9 -9l-7 -68h-104zM333 356h-101l-20 -104h100z" />
    <glyph glyph-name="dollar" unicode="$" horiz-adv-x="450" 
d="M364 53.5q-38 -44.5 -111 -57.5l-8 -132h-77l-11 11l8 118q-67 5 -127 29l17 118l13 9q33 -30 74 -48t73 -18q28 0 45.5 14t17.5 35q0 22 -20.5 35.5t-63.5 30.5q-45 19 -73.5 35.5t-49 45.5t-20.5 72q0 58 39.5 100.5t108.5 55.5l8 138h76l12 -12l-8 -123q54 -4 103 -23
l-19 -112l-18 -5q-32 24 -62 36t-55 12q-28 0 -44 -13.5t-16 -32.5q0 -21 20 -34.5t63 -31.5q45 -19 73.5 -35t49 -44.5t20.5 -71.5q0 -57 -38 -101.5z" />
    <glyph glyph-name="percent" unicode="%" horiz-adv-x="854" 
d="M666 653l8 -19l-466 -726l-57 34l-6 14l467 730zM305 605q38 -45 38 -130q0 -91 -41.5 -139.5t-120.5 -48.5q-73 0 -111.5 45t-38.5 130q0 91 42.5 139.5t121.5 48.5q72 0 110 -45zM132 540q-17 -23 -17 -71q0 -52 17.5 -76.5t54.5 -24.5q38 0 55.5 23.5t17.5 71.5
q0 52 -18 76t-56 24q-37 0 -54 -23zM784 312.5q38 -45.5 38 -129.5q0 -92 -41.5 -140.5t-120.5 -48.5q-73 0 -111.5 45t-38.5 130q0 92 42.5 140.5t121.5 48.5q72 0 110 -45.5zM611 247.5q-17 -22.5 -17 -71.5q0 -51 17.5 -76t54.5 -25q38 0 55.5 23.5t17.5 72.5
q0 51 -18 75t-56 24q-37 0 -54 -22.5z" />
    <glyph glyph-name="ampersand" unicode="&#x26;" horiz-adv-x="711" 
d="M560 346l-3 -9q12 -46 12 -90q0 -64 -24 -115l131 -118v-8q-32 -36 -72 -59h-9l-114 103q-76 -59 -198 -59q-110 0 -175.5 48.5t-65.5 132.5q0 110 114 165v7q-34 35 -50 70t-16 74q0 75 54.5 118.5t155.5 43.5q88 0 163 -30l-30 -97h-17q-61 35 -120 35q-44 0 -67 -20
t-23 -57q0 -25 12 -46t44 -48l210 -190q10 29 10 66q0 44 -17 83h-61l-6 8l9 85h289l8 -9l-9 -84h-135zM410 114l-198 179q-56 -39 -56 -99q0 -53 37.5 -82t102.5 -29q69 0 114 31z" />
    <glyph glyph-name="quotesingle" unicode="'" horiz-adv-x="205" 
d="M165 633l-35 -220l-62 -9l-11 9l-2 222l103 7z" />
    <glyph glyph-name="parenleft" unicode="(" horiz-adv-x="295" 
d="M291 620v-11q-60 -54 -87 -138t-27 -217q0 -126 27 -206.5t87 -135.5v-11l-48 -40h-11q-85 62 -123 154.5t-39 237.5q1 153 39 249t123 159h11z" />
    <glyph glyph-name="parenright" unicode=")" horiz-adv-x="300" 
d="M-1 -99v11q60 54 87 138t27 217q0 126 -27 206.5t-87 135.5v11l48 40h11q85 -62 123 -154.5t39 -237.5q-1 -153 -39 -249t-123 -159h-11z" />
    <glyph glyph-name="asterisk" unicode="*" horiz-adv-x="383" 
d="M241 734l-29 -123l-42 -5l-7 7l-4 116q37 13 78 13zM149 600l-6 -42l-10 -4l-106 32q-1 35 10 78l10 3zM368 570l-6 -6l-120 -10l-19 38l4 9l105 40q21 -33 36 -71zM237 535l68 -92q-17 -25 -55 -56l-9 2l-45 119l30 28zM177 516l1 -11l-60 -96q-24 7 -72 35l1 9l92 82z
" />
    <glyph glyph-name="plus" unicode="+" horiz-adv-x="480" 
d="M286 468v-163h162l9 -9l-7 -81h-164v-165l-81 -6l-10 8v163h-163l-9 9l7 81h165v166l81 7z" />
    <glyph glyph-name="comma" unicode="," horiz-adv-x="229" 
d="M188 46q0 -87 -121 -173l-43 38l-1 10q55 46 55 98q0 34 -32 60l1 11q46 28 96 42q45 -36 45 -86z" />
    <glyph glyph-name="hyphen" unicode="-" horiz-adv-x="304" 
d="M276 308v-82l-238 -37l-11 11v83l238 36z" />
    <glyph glyph-name="period" unicode="." horiz-adv-x="229" 
d="M165.5 117q17.5 -18 17.5 -50q0 -34 -19 -54t-52 -20t-50.5 18t-17.5 51t19.5 53t53.5 20q31 0 48.5 -18z" />
    <glyph glyph-name="slash" unicode="/" horiz-adv-x="284" 
d="M306 668l-207 -783h-92l-8 11l206 784h90z" />
    <glyph glyph-name="zero" unicode="0" horiz-adv-x="521" 
d="M427.5 447q55.5 -66 55.5 -187q0 -128 -60 -198.5t-170 -70.5q-102 0 -158 66t-56 185q0 129 60.5 200t170.5 71q102 0 157.5 -66zM171 356.5q-29 -33.5 -29 -105.5q0 -73 29 -108t90 -35q60 0 89.5 33.5t29.5 103.5q0 74 -30 109.5t-90 35.5t-89 -33.5z" />
    <glyph glyph-name="one" unicode="1" horiz-adv-x="360" 
d="M261 497l-8 -289l7 -208h-135l6 194v166l-113 -30l-10 7v107l234 67z" />
    <glyph glyph-name="two" unicode="2" horiz-adv-x="471" 
d="M355 478.5q44 -32.5 44 -89.5q0 -40 -26.5 -88.5t-85.5 -111.5l-75 -83l2 -4h135l90 8l8 -9l-16 -107l-121 6h-227l-37 -2l-7 5v81l135 133q48 49 71 81t23 56q0 20 -15 32t-42 12q-32 0 -67 -16t-65 -43h-15l-22 103q103 69 200 69q69 0 113 -32.5z" />
    <glyph glyph-name="three" unicode="3" horiz-adv-x="431" 
d="M330 475q48 -38 48 -99q0 -41 -23 -79.5t-72 -65.5v-5q109 -31 109 -133q0 -55 -31.5 -98t-88.5 -66.5t-131 -23.5q-53 0 -108 10l-7 103l9 9q59 -21 111 -21q56 0 87.5 22t31.5 62q0 33 -23 51.5t-68 19.5h-70l-7 9l4 91l44 2q38 1 68 24.5t30 59.5q0 27 -18 42t-50 15
q-28 0 -56.5 -11.5t-61.5 -35.5h-14l-20 97q86 59 181 59q78 0 126 -38z" />
    <glyph glyph-name="four" unicode="4" horiz-adv-x="503" 
d="M470 53l-83 2l5 -135l-7 -9l-104 -7l-7 8l3 144h-160l-87 -3l-9 12v84l245 357h122l-3 -348h83l8 -12zM135 158h144v197h-9z" />
    <glyph glyph-name="five" unicode="5" horiz-adv-x="432" 
d="M400 503l-14 -103l-10 -10l-91 10h-116l-3 -112l62 -13q87 -18 125.5 -56.5t38.5 -102.5q0 -63 -32 -111.5t-90.5 -75t-133.5 -26.5q-52 0 -110 12l-7 104l9 9q66 -23 119 -23q55 0 87 25.5t32 67.5q0 34 -23 53.5t-75 28.5l-96 17l-9 11l5 285l16 15l58 -2h146l104 5z
" />
    <glyph glyph-name="six" unicode="6" horiz-adv-x="483" 
d="M405.5 311.5q44.5 -49.5 44.5 -124.5q0 -54 -24.5 -99t-72.5 -71.5t-115 -26.5q-99 0 -152 59.5t-53 165.5q0 122 76 221t215 160h7l91 -59v-13q-105 -40 -163.5 -82t-83.5 -100l8 -9q45 28 101 28q77 0 121.5 -49.5zM307.5 101.5q22.5 24.5 22.5 69.5q0 47 -21.5 72
t-63.5 25q-44 0 -91 -30v-21q0 -71 20.5 -105.5t69.5 -34.5q41 0 63.5 24.5z" />
    <glyph glyph-name="seven" unicode="7" horiz-adv-x="432" 
d="M136 506h221l49 2v-98l-165 -360l-56 -150l-107 30l-8 21l209 444h-165l-91 -9l-8 11l9 112z" />
    <glyph glyph-name="eight" unicode="8" horiz-adv-x="493" 
d="M384.5 556q45.5 -39 45.5 -107q0 -44 -23 -77t-65 -60v-6q49 -24 77 -55.5t28 -84.5q0 -81 -58.5 -128t-155.5 -47q-91 0 -141.5 42t-50.5 109q0 52 29 86t81 57v6q-41 23 -66 55.5t-25 83.5q0 76 54 120.5t144 44.5q81 0 126.5 -39zM190 484.5q-21 -18.5 -21 -50.5
q0 -33 23 -52.5t66 -36.5q32 18 50 38t18 51q0 32 -20.5 50.5t-56.5 18.5q-38 0 -59 -18.5zM173.5 215q-21.5 -20 -21.5 -56t24.5 -57.5t67.5 -21.5q44 0 68.5 21.5t24.5 54.5q0 34 -25 53.5t-77 40.5q-40 -15 -61.5 -35z" />
    <glyph glyph-name="nine" unicode="9" horiz-adv-x="483" 
d="M77.5 194.5q-44.5 49.5 -44.5 124.5q0 54 24.5 99t72.5 71.5t115 26.5q99 0 152 -59.5t53 -165.5q0 -122 -76 -221t-215 -160h-7l-91 59v13q105 40 163.5 82t83.5 100l-8 9q-45 -28 -101 -28q-77 0 -121.5 49.5zM175.5 404.5q-22.5 -24.5 -22.5 -69.5q0 -47 21.5 -72
t63.5 -25q44 0 91 30v21q0 71 -20.5 105.5t-69.5 34.5q-41 0 -63.5 -24.5z" />
    <glyph glyph-name="colon" unicode=":" horiz-adv-x="229" 
d="M161.5 117q17.5 -18 17.5 -50q0 -34 -19 -54t-52 -20t-50.5 18t-17.5 51t19.5 53t53.5 20q31 0 48.5 -18zM161.5 380q17.5 -18 17.5 -50q0 -34 -19 -54t-52 -20t-50.5 18t-17.5 51t19.5 53t53.5 20q31 0 48.5 -18z" />
    <glyph glyph-name="semicolon" unicode=";" horiz-adv-x="229" 
d="M184 46q0 -87 -121 -173l-43 38l-1 10q55 46 55 98q0 34 -32 60l1 11q46 28 96 42q45 -36 45 -86zM161.5 380q17.5 -18 17.5 -50q0 -34 -19 -54t-52 -20t-50.5 18t-17.5 51t19.5 53t53.5 20q31 0 48.5 -18z" />
    <glyph glyph-name="less" unicode="&#x3c;" horiz-adv-x="480" 
d="M445 395l-6 -10l-311 -118v-7l312 -114l-19 -74l-12 -9l-375 143v108l9 12l373 145z" />
    <glyph glyph-name="equal" unicode="=" horiz-adv-x="480" 
d="M457 390l-7 -81h-418l-9 9l7 81h418zM457 201l-7 -81h-418l-9 9l7 81h418z" />
    <glyph glyph-name="greater" unicode="&#x3e;" horiz-adv-x="480" 
d="M437 326l9 -12v-108l-375 -143l-12 9l-19 74l312 114v7l-311 118l-6 10l29 76z" />
    <glyph glyph-name="question" unicode="?" horiz-adv-x="340" 
d="M287 620q71 -41 71 -113q0 -41 -23.5 -77t-67.5 -61l-72 -43l-2 -5l6 -85l-93 -12l-9 9l-10 120l5 10l90 46q56 30 56 77q0 40 -43 61.5t-139 27.5l-9 13l24 74l13 7q132 -8 203 -49zM206.5 117q17.5 -18 17.5 -50q0 -34 -19 -54t-52 -20t-50.5 18t-17.5 51t19.5 53
t53.5 20q31 0 48.5 -18z" />
    <glyph glyph-name="at" unicode="@" horiz-adv-x="844" 
d="M725 83q-98 -81 -279 -84l22 157h-12q-60 -102 -119 -163h-18q-54 20 -77.5 59.5t-23.5 100.5q0 66 26 130t78.5 112.5t128.5 66.5h6l77 -20l72 22l10 -6l-47 -346l-1 -21q79 12 123.5 69.5t44.5 146.5q0 75 -34 131t-97.5 85.5t-147.5 27.5q-101 -2 -178 -47.5
t-119.5 -124.5t-42.5 -178q0 -105 47 -180.5t133 -115.5t200 -40l5 -13l-36 -62q-132 1 -230.5 47.5t-153 135.5t-54.5 212q0 128 55.5 230.5t156.5 161t233 58.5q105 0 184 -39.5t122.5 -112.5t43.5 -171q0 -148 -98 -229zM384.5 135.5q21.5 25.5 50 76t58.5 120.5l2 15v4
l-64 20q-49 0 -77 -49t-28 -127q0 -45 7.5 -65t18.5 -20t32.5 25.5z" />
    <glyph glyph-name="A" unicode="A" horiz-adv-x="600" 
d="M584 0h-138l-16 84l-17 60l-126 3l-111 -3l-17 -53l-17 -91h-134l218 644h161zM384 249l-76 268h-9l-88 -268l86 -2z" />
    <glyph glyph-name="B" unicode="B" horiz-adv-x="579" 
d="M515.5 280.5q31.5 -37.5 31.5 -98.5q0 -187 -293 -187q-86 0 -176 5l7 192l-7 452l229 1q99 0 154 -41.5t55 -119.5q0 -52 -25.5 -91t-72.5 -59q66 -16 97.5 -53.5zM351 528.5q-26 18.5 -91 18.5h-49l-3 -175l94 -3q38 10 56.5 33t18.5 64q0 44 -26 62.5zM374.5 117
q34.5 25 34.5 72q0 71 -92 88l-111 -2l-1 -71l3 -108q35 -4 69 -4q63 0 97.5 25z" />
    <glyph glyph-name="C" unicode="C" horiz-adv-x="517" 
d="M505 613l-24 -113l-11 -5q-30 21 -66 33t-74 12q-159 0 -159 -209q0 -113 41.5 -169.5t121.5 -56.5q37 0 76.5 11.5t71.5 31.5l12 -7l-11 -115q-76 -35 -160 -35q-144 0 -219.5 84t-75.5 241q0 160 80.5 248t227.5 88q94 0 169 -39z" />
    <glyph glyph-name="D" unicode="D" horiz-adv-x="655" 
d="M552 570q75 -78 75 -224q0 -171 -84 -262t-240 -91q-47 0 -112.5 2t-112.5 5l7 192l-7 452l259 4q140 0 215 -78zM486 315q0 118 -38.5 171.5t-120.5 53.5q-53 0 -113 -5l-6 -331l3 -99q70 -7 116 -7q159 0 159 217z" />
    <glyph glyph-name="E" unicode="E" horiz-adv-x="509" 
d="M483 112l8 -11l-9 -101h-404l7 192l-7 452h408l8 -11l-10 -101l-154 5l-116 -1l-3 -155l111 -2l105 3l8 -10l-9 -101l-114 3l-103 -1l-1 -69l3 -97l113 -1z" />
    <glyph glyph-name="F" unicode="F" horiz-adv-x="456" 
d="M214 536l-3 -174l90 -1l109 3l9 -10l-10 -101l-119 3l-81 -1l-1 -51l6 -204h-136l7 192l-7 452h383l8 -11l-10 -102l-153 6z" />
    <glyph glyph-name="G" unicode="G" horiz-adv-x="598" 
d="M553 613l-29 -122l-13 -2q-49 28 -87.5 40.5t-82.5 12.5q-89 0 -130 -53t-41 -174q0 -80 17.5 -127t54.5 -68.5t98 -21.5q21 0 39.5 3t45.5 11l2 55l-2 102l125 9l-3 -90l3 -157q-120 -40 -221 -40q-150 0 -225.5 82t-75.5 235q0 167 87.5 255.5t248.5 88.5
q105 0 189 -39z" />
    <glyph glyph-name="H" unicode="H" horiz-adv-x="696" 
d="M615 204l4 -204h-135l6 192l-1 75l-145 1l-131 -2l-1 -62l5 -204h-135l7 192l-7 452h137l-4 -266l138 -2l135 2l-4 266h138z" />
    <glyph glyph-name="I" unicode="I" horiz-adv-x="295" 
d="M208 204l6 -204h-136l7 192l-7 452h138z" />
    <glyph glyph-name="J" unicode="J" horiz-adv-x="335" 
d="M251 212l2 -91q0 -57 -19 -97t-61.5 -71t-116.5 -59l-41 72v12q62 32 87.5 63.5t25.5 81.5v76l-6 345l-106 -3l-10 10l7 93h245z" />
    <glyph glyph-name="K" unicode="K" horiz-adv-x="584" 
d="M593 28l-2 -15q-56 -14 -132 -23l-16 8q-131 174 -233 334l-2 -128l5 -204h-135l7 192l-7 452h137l-5 -299l181 237l37 62h146l-228 -304q107 -149 247 -312z" />
    <glyph glyph-name="L" unicode="L" horiz-adv-x="433" 
d="M431 101l-9 -101h-348l7 192l-7 452h138l-8 -440l3 -92h216z" />
    <glyph glyph-name="M" unicode="M" horiz-adv-x="797" 
d="M749 0h-120l-10 195l-23 248h-10l-144 -375h-105l-131 375h-9l-25 -235l-14 -208h-114l65 644h156l26 -95l102 -305h9l107 305l29 95h153z" />
    <glyph glyph-name="N" unicode="N" horiz-adv-x="695" 
d="M610 199l5 -199h-146l-263 436h-8l-1 -214l4 -222h-123l7 190l-6 454h145l263 -436h9l-3 430l125 8z" />
    <glyph glyph-name="O" unicode="O" horiz-adv-x="643" 
d="M542.5 570.5q73.5 -82.5 73.5 -234.5q0 -166 -80 -256t-226 -90q-135 0 -208.5 84.5t-73.5 239.5q0 163 79.5 251t225.5 88q136 0 209.5 -82.5zM205 494q-36 -50 -36 -163q0 -129 35.5 -184t117.5 -55q80 0 116 50.5t36 165.5q0 127 -35.5 181.5t-117.5 54.5
q-80 0 -116 -50z" />
    <glyph glyph-name="P" unicode="P" horiz-adv-x="553" 
d="M480.5 594q54.5 -51 54.5 -146q0 -73 -32 -127.5t-91.5 -84.5t-139.5 -30h-64v-2l6 -204h-136l7 192l-7 452l247 1q101 0 155.5 -51zM394 436q0 54 -27.5 80.5t-84.5 28.5l-68 -4l-4 -232l92 -4q92 26 92 131z" />
    <glyph glyph-name="Q" unicode="Q" horiz-adv-x="649" 
d="M736 -110q-27 -53 -63 -87l-11 -4q-186 69 -329 191h-21q-136 0 -210 84.5t-74 239.5q0 163 79.5 251t225.5 88q136 0 209.5 -82.5t73.5 -236.5q0 -116 -42 -197t-120 -118q131 -80 277 -115zM205 149q36 -54 118 -54q78 0 114.5 51t36.5 165q0 125 -36 178.5t-118 53.5
q-80 0 -115.5 -50t-35.5 -164q0 -126 36 -180z" />
    <glyph glyph-name="R" unicode="R" horiz-adv-x="590" 
d="M571 32l-2 -15q-65 -23 -133 -27l-14 11q-72 124 -117 216h-97v-13l6 -204h-136l7 192l-7 452l247 1q101 0 156 -49.5t55 -141.5q0 -62 -31.5 -113.5t-88.5 -84.5q78 -124 155 -224zM210 322l99 -4q85 29 85 123q0 51 -27.5 76.5t-84.5 27.5l-68 -4z" />
    <glyph glyph-name="S" unicode="S" horiz-adv-x="498" 
d="M448 619l-22 -117l-20 -8q-34 24 -70.5 38t-66.5 14q-40 0 -64 -21.5t-24 -49.5q0 -29 26.5 -49t83.5 -47q55 -25 89.5 -46.5t59 -56.5t24.5 -86q0 -55 -30 -100.5t-85 -72t-127 -26.5q-95 0 -191 41l19 126l15 8q40 -35 87.5 -53.5t84.5 -18.5q44 0 68.5 21.5t24.5 51.5
q0 32 -26.5 52t-85.5 48q-54 24 -88 45t-58 56t-24 85q0 56 30 101.5t84 71.5t123 26q82 0 163 -33z" />
    <glyph glyph-name="T" unicode="T" horiz-adv-x="503" 
d="M489 633l-8 -101l-121 6h-40l-5 -334l6 -204h-136l7 192l-5 346h-40l-123 -6l-9 11l9 101h457z" />
    <glyph glyph-name="U" unicode="U" horiz-adv-x="638" 
d="M573 317l-1 -85q1 -115 -67 -178t-195 -63q-122 0 -186 61t-61 175l1 93l-3 324h136l-7 -399q-1 -73 31 -108t97 -35q130 0 129 136l-7 406h138z" />
    <glyph glyph-name="V" unicode="V" horiz-adv-x="587" 
d="M369 0h-162l-197 644h138l16 -85l122 -433h9l140 426l17 92h134z" />
    <glyph glyph-name="W" unicode="W" horiz-adv-x="903" 
d="M686 0h-142l-96 308h-9l-97 -308h-143l-180 644h133l10 -79l114 -425h9l109 347l-46 157h138l15 -93l116 -411h9l130 416l16 88h126z" />
    <glyph glyph-name="X" unicode="X" horiz-adv-x="623" 
d="M398 337l208 -337h-163l-30 64l-107 167l-116 -174l-29 -57h-140l206 318l-204 326h163l30 -65l101 -157l105 162l27 60h144z" />
    <glyph glyph-name="Y" unicode="Y" horiz-adv-x="558" 
d="M333 179l6 -179h-135l6 179l-1 38l-205 427h144l14 -45l109 -245h9l122 241l19 49h139l-225 -422z" />
    <glyph glyph-name="Z" unicode="Z" horiz-adv-x="547" 
d="M510 546l-320 -443h216l109 9l5 -8l-11 -107l-145 3h-257l-77 -4v97l323 447h-204l-109 -9l-6 7l10 107l404 -1l62 1v-99z" />
    <glyph glyph-name="bracketleft" unicode="[" horiz-adv-x="295" 
d="M295 641v-60l-107 -14v-613l107 -13v-61l-6 -6l-209 10l7 377l-7 377l209 10z" />
    <glyph glyph-name="backslash" unicode="\" horiz-adv-x="284" 
d="M-10 668l11 12h89l207 -784l-9 -11h-92z" />
    <glyph glyph-name="bracketright" unicode="]" horiz-adv-x="295" 
d="M0 -120v60l107 14v613l-107 13v61l6 6l209 -10l-7 -377l7 -377l-209 -10z" />
    <glyph glyph-name="asciicircum" unicode="^" horiz-adv-x="441" 
d="M425 146l-9 -11l-75 -18l-113 286h-7l-118 -286l-11 -5l-75 28l144 349l13 7h107z" />
    <glyph glyph-name="underscore" unicode="_" horiz-adv-x="444" 
d="M459 -98l-7 -75h-458l-9 10l7 74h459z" />
    <glyph glyph-name="grave" unicode="`" horiz-adv-x="389" 
d="M315 571l-32 -50l-12 -1q-78 45 -195 118l-2 13l48 72l12 1q73 -67 181 -153z" />
    <glyph glyph-name="a" unicode="a" horiz-adv-x="481" 
d="M364.5 439.5q43.5 -34.5 43.5 -96.5q0 -18 -6 -114q-1 -28 -3 -57.5t-2 -50.5q0 -17 5 -23.5t18 -6.5q10 0 26 4l10 -8l-12 -70q-32 -21 -73 -25q-30 3 -50 21.5t-27 51.5h-7q-50 -53 -103 -74q-72 1 -113 38t-41 101q0 50 25.5 78.5t77.5 38.5l153 29v41q0 65 -64 65
q-31 0 -65.5 -14t-77.5 -44l-10 6l-15 88q43 27 92 41.5t98 14.5q77 0 120.5 -34.5zM179 186q-16 -4 -23.5 -13.5t-7.5 -28.5q0 -26 14 -40.5t39 -14.5q39 0 82 46l2 74z" />
    <glyph glyph-name="b" unicode="b" horiz-adv-x="523" 
d="M446.5 411.5q46.5 -59.5 46.5 -165.5q0 -123 -61 -189.5t-169 -66.5q-51 0 -112 23l-70 -25l-16 13l7 190l-6 501l132 10l-4 -303h6q28 27 54 43.5t58 28.5q88 0 134.5 -59.5zM341 113q28 36 28 110q0 69 -22.5 105t-67.5 36q-41 0 -86 -42l-2 -114l2 -113q37 -18 70 -18
q50 0 78 36z" />
    <glyph glyph-name="c" unicode="c" horiz-adv-x="385" 
d="M317.5 467.5q32.5 -6.5 57.5 -18.5l-22 -106l-11 -5q-51 28 -91 28q-46 0 -71 -33t-25 -94q0 -70 27 -107t77 -37q45 0 100 25l10 -8l-13 -103q-60 -19 -123 -19q-96 0 -150 62.5t-54 174.5q0 116 59 181.5t164 65.5q33 0 65.5 -6.5z" />
    <glyph glyph-name="d" unicode="d" horiz-adv-x="526" 
d="M449 205l3 -84q0 -17 4.5 -23.5t16.5 -6.5q11 0 27 4l9 -8l-11 -70q-34 -21 -74 -25q-31 3 -52 21t-29 49h-8q-49 -45 -100 -69q-98 0 -152 62.5t-54 173.5q0 118 62 181t172 63q29 0 64 -6l-2 225l132 10zM154 256q0 -79 24 -119t70 -40q44 0 81 41l2 55l-3 172
q-39 18 -74 18q-100 0 -100 -127z" />
    <glyph glyph-name="e" unicode="e" horiz-adv-x="472" 
d="M421 216l-270 -2q9 -125 127 -125q62 0 138 35l11 -7l-20 -99q-76 -28 -143 -28q-110 0 -172.5 64t-62.5 177q0 112 61 177.5t165 65.5q89 0 137.5 -48.5t48.5 -135.5q0 -23 -5 -58zM325 305q0 40 -18 60.5t-53 20.5q-39 0 -65 -25.5t-35 -73.5l169 4z" />
    <glyph glyph-name="f" unicode="f" horiz-adv-x="329" 
d="M390 695l-9 -99l-9 -6q-47 20 -82 20q-62 0 -63 -71l-1 -78h113l4 -7l-6 -73h-113l-3 -176l7 -205h-133l8 193l-2 188h-70l-5 7l7 73h67l-1 55q0 90 53.5 139t150.5 49q41 0 87 -9z" />
    <glyph glyph-name="g" unicode="g" horiz-adv-x="500" 
d="M431 387l-2 -4q15 -30 15 -67q0 -75 -54.5 -119.5t-147.5 -44.5q-28 0 -58 5q-9 -9 -12 -14t-3 -12q0 -18 24 -25t76 -14q59 -7 98.5 -17t68 -35t28.5 -71q0 -47 -29.5 -84.5t-81.5 -58.5t-118 -21q-91 0 -140 37t-49 98q31 43 83 75v5q-34 12 -53 33.5t-19 57.5
q27 33 68 61v5q-36 20 -54.5 52.5t-18.5 76.5q0 78 54 122t147 44q54 0 98 -18q72 13 147 40l10 -9v-83q-27 -7 -77 -15zM308 253q21 21 21 61q0 76 -78 76q-84 0 -84 -77q0 -40 20 -60.5t59 -20.5q41 0 62 21zM323.5 -18q-28.5 10 -87.5 17l-34 5q-24 -16 -36 -31t-12 -32
q0 -26 24 -42t70 -16q47 0 75.5 16.5t28.5 45.5q0 27 -28.5 37z" />
    <glyph glyph-name="h" unicode="h" horiz-adv-x="533" 
d="M351 290q1 36 -15 55t-47 19q-45 0 -96 -43l-2 -116l7 -205h-133l7 193l-6 499l133 10l-5 -303h6q55 50 121 72q76 0 115.5 -34.5t38.5 -99.5l-3 -133l5 -204h-133z" />
    <glyph glyph-name="i" unicode="i" horiz-adv-x="261" 
d="M70 192l-5 264l131 11l-6 -262l6 -205h-133zM181.5 675q17.5 -18 17.5 -50q0 -34 -19 -54t-52 -20t-50.5 18t-17.5 51t19.5 53t53.5 20q31 0 48.5 -18z" />
    <glyph glyph-name="j" unicode="j" horiz-adv-x="285" 
d="M220 465l-8 -260l6 -178q0 -79 -38 -131t-125 -91l-46 59v12q45 25 64 59t19 88l2 169l-4 189h-81l-8 8l7 72h84l124 7zM191.5 675q17.5 -18 17.5 -50q0 -34 -19 -54t-52 -20t-50.5 18t-17.5 51t19.5 53t53.5 20q31 0 48.5 -18z" />
    <glyph glyph-name="k" unicode="k" horiz-adv-x="495" 
d="M191 205l7 -205h-133l7 193l-6 499l133 10zM326 255q54 -87 162 -233l-1 -14q-35 -8 -74.5 -12.5t-48.5 -5.5l-14 6q-88 124 -152 247v9l116 165l24 48h140z" />
    <glyph glyph-name="l" unicode="l" horiz-adv-x="263" 
d="M191 205l7 -205h-133l7 193l-6 499l133 10z" />
    <glyph glyph-name="m" unicode="m" horiz-adv-x="807" 
d="M618 0l8 290q0 74 -63 74q-45 0 -94 -40l-3 -120l6 -204h-133l8 290q1 36 -15.5 55t-47.5 19q-44 0 -97 -42v-117l6 -205h-132l7 192l-5 264l125 11v-68h7q55 50 121 72q112 0 143 -75h6q57 53 130 75q76 0 115.5 -34.5t37.5 -99.5l-3 -133l6 -204h-133z" />
    <glyph glyph-name="n" unicode="n" horiz-adv-x="529" 
d="M347 290q1 35 -15.5 54.5t-47.5 19.5q-45 0 -96 -43v-116l6 -205h-133l7 192l-5 264l126 11v-68h7q55 50 120 72q76 0 116 -34.5t38 -99.5l-3 -133l6 -204h-134z" />
    <glyph glyph-name="o" unicode="o" horiz-adv-x="494" 
d="M410 414q54 -60 54 -173q0 -122 -58 -186.5t-167 -64.5q-102 0 -156 60t-54 173q0 122 58 186.5t167 64.5q102 0 156 -60zM175.5 352q-21.5 -32 -21.5 -103q0 -92 22 -131t72 -39q48 0 69.5 31.5t21.5 103.5q0 91 -22.5 130.5t-71.5 39.5q-48 0 -69.5 -32z" />
    <glyph glyph-name="p" unicode="p" horiz-adv-x="518" 
d="M441 412q47 -59 47 -167q0 -122 -60.5 -188.5t-170.5 -66.5q-32 0 -67 6l3 -181h-132l7 377l-6 264l127 11l-1 -68h7q28 27 54 43.5t58 28.5q87 0 134 -59zM337 114q27 37 27 109q0 70 -22.5 105.5t-66.5 35.5q-43 0 -87 -43l-1 -116l2 -113q36 -15 69 -15q52 0 79 37z
" />
    <glyph glyph-name="q" unicode="q" horiz-adv-x="519" 
d="M446 473l11 -6l-8 -262l7 -390h-132l6 210v25h-8q-41 -35 -90 -57q-97 0 -150 62.5t-53 171.5q0 119 62 182.5t166 63.5q54 0 120 -22zM154 251q0 -75 23.5 -114.5t68.5 -39.5q21 0 41.5 9.5t42.5 31.5l1 53l-3 171q-40 21 -75 21q-99 0 -99 -132z" />
    <glyph glyph-name="r" unicode="r" horiz-adv-x="348" 
d="M343 464v-123l-14 -5q-17 7 -37 7q-58 0 -105 -75v-63l7 -205h-133l8 192l-6 264l126 11l-1 -91h8q49 90 122 90q9 0 25 -2z" />
    <glyph glyph-name="s" unicode="s" horiz-adv-x="384" 
d="M345 450l-18 -98l-16 -5q-29 19 -58 29t-51 10q-24 0 -38 -12.5t-14 -30.5q0 -21 18.5 -34t58.5 -29t66 -31t44.5 -41.5t18.5 -65.5q0 -40 -20.5 -74.5t-62.5 -56t-103 -21.5q-72 0 -149 30l15 104l13 8q31 -26 69 -41.5t67 -15.5q27 0 42 13.5t15 32.5q0 21 -18.5 34
t-58.5 29q-41 18 -67 32.5t-44.5 41.5t-18.5 67q0 65 49 106.5t133 41.5q68 0 128 -23z" />
    <glyph glyph-name="t" unicode="t" horiz-adv-x="338" 
d="M316 115l11 -10l-13 -79q-51 -26 -104 -32q-135 14 -135 132l5 83l-1 172h-62l-5 7l7 73h59v77l121 39l9 -8l-3 -108h119l4 -7l-6 -73h-119l-6 -224q0 -32 12 -45.5t40 -13.5q32 0 67 17z" />
    <glyph glyph-name="u" unicode="u" horiz-adv-x="522" 
d="M505 87l-12 -70q-37 -24 -76 -25q-29 5 -48 23t-29 52h-9q-57 -56 -118 -73q-76 0 -115.5 34.5t-38.5 99.5l2 118l-5 210l129 11l-3 -295q-1 -35 14 -53t45 -18q44 0 87 39v316l127 11l-9 -346q0 -16 5.5 -23t17.5 -7q11 0 27 4z" />
    <glyph glyph-name="v" unicode="v" horiz-adv-x="445" 
d="M148 391l70 -266h7l84 259l17 81h116l-156 -465h-143l-132 462l124 6z" />
    <glyph glyph-name="w" unicode="w" horiz-adv-x="698" 
d="M145 395l57 -261h8l70 254l16 77h129l10 -70l59 -260h8l68 253l16 77h112l-145 -465h-125l-71 299h-9l-83 -299h-131l-121 462l121 6z" />
    <glyph glyph-name="x" unicode="x" horiz-adv-x="461" 
d="M176 413l64 -104l63 108l25 47h117l-134 -228l140 -232l-140 -10l-23 59l-66 107l-69 -113l-22 -47h-117l135 233l-136 228l142 7z" />
    <glyph glyph-name="y" unicode="y" horiz-adv-x="447" 
d="M141 394l83 -260h8l83 249l17 82h114l-152 -434q-24 -68 -54 -109.5t-75 -68t-116 -45.5l-10 1q-34 33 -56 78l4 13q63 11 104 32.5t78 67.5l-170 462l126 6z" />
    <glyph glyph-name="z" unicode="z" horiz-adv-x="424" 
d="M138 465h202l51 1l1 -79l-225 -302h141l85 8l7 -9l-9 -86l-116 2h-184l-64 -3v78l227 304h-134l-83 -7l-8 9l10 86z" />
    <glyph glyph-name="braceleft" unicode="{" horiz-adv-x="295" 
d="M284 648l6 -10l-11 -68q-22 5 -36 5q-54 0 -54 -61q0 -21 12 -71q1 -5 6 -28.5t5 -40.5q0 -35 -17 -61t-51 -42v-5q33 -15 50.5 -41.5t17.5 -59.5q0 -23 -12 -71q-1 -7 -6 -30t-5 -40q0 -62 54 -62q14 0 36 5l11 -67l-6 -10q-30 -9 -64 -9q-66 0 -101 30.5t-35 87.5
q0 35 12 93q9 45 9 66q0 61 -69 79v63q69 18 69 79q0 22 -9 67q-12 58 -12 93q0 57 35 87.5t101 30.5q28 0 64 -9z" />
    <glyph glyph-name="bar" unicode="|" horiz-adv-x="307" 
d="M206 794l-3 -503v-543l-90 -7l-11 12l1 528l1 515l92 7z" />
    <glyph glyph-name="braceright" unicode="}" horiz-adv-x="295" 
d="M11 -111l-6 10l11 68q22 -5 36 -5q54 0 54 61q0 21 -12 71q-1 5 -6 28.5t-5 40.5q0 35 17 61t51 42v5q-33 15 -50.5 41.5t-17.5 59.5q0 23 12 71q1 7 6 30t5 40q0 62 -54 62q-14 0 -36 -5l-11 67l6 10q30 9 64 9q66 0 101 -30.5t35 -87.5q0 -35 -12 -93q-9 -45 -9 -66
q0 -61 69 -79v-63q-69 -18 -69 -79q0 -22 9 -67q12 -58 12 -93q0 -57 -35 -87.5t-101 -30.5q-28 0 -64 9z" />
    <glyph glyph-name="asciitilde" unicode="~" horiz-adv-x="480" 
d="M121.5 224q-13.5 -12 -43.5 -44h-13l-35 44v12l82 93l12 5q22 -3 103 -27q9 -2 49 -14t56 -12q11 0 23.5 9.5t34.5 31.5l14 15h12l35 -43v-12l-82 -93l-12 -5q-29 4 -108 28q-31 9 -59.5 16.5t-39.5 7.5q-15 0 -28.5 -12z" />
    <glyph glyph-name="uni00A0" unicode="&#xa0;" horiz-adv-x="151" 
 />
    <glyph glyph-name="exclamdown" unicode="&#xa1;" horiz-adv-x="264" 
d="M60 -181l37 413l75 10l14 -13l8 -404l-12 -15l-106 -7zM97.5 352q-17.5 18 -17.5 50q0 34 19 54t52 20t50.5 -18t17.5 -51t-19.5 -53t-53.5 -20q-31 0 -48.5 18z" />
    <glyph glyph-name="cent" unicode="&#xa2;" horiz-adv-x="383" 
d="M359 159l10 -8l-13 -103q-40 -12 -83 -17l-10 -155h-86l-10 11l9 149q-70 17 -108.5 77t-38.5 153q0 102 46.5 165.5t130.5 77.5l9 148h83l14 -12l-9 -136q41 -6 72 -21l-22 -106l-11 -5q-51 28 -91 28q-46 0 -71 -33t-25 -94q0 -70 27 -107t77 -37q45 0 100 25z" />
    <glyph glyph-name="sterling" unicode="&#xa3;" horiz-adv-x="446" 
d="M420 87l-10 -90l-126 3h-260l-6 7l7 74q37 9 54.5 33t17.5 66v90h-73l-5 7l6 67h71v68q-1 88 51.5 135.5t150.5 47.5q57 0 114 -16l-8 -93l-8 -5q-62 28 -108 28q-76 0 -76 -78l-1 -87h139l4 -7l-6 -67h-137l-1 -65q0 -41 -8.5 -65t-31.5 -48v-3h149l96 5z" />
    <glyph glyph-name="currency" unicode="&#xa4;" horiz-adv-x="435" 
d="M426 501v-12l-69 -62q22 -36 22 -78q0 -35 -20 -72l70 -59l1 -12l-57 -61l-12 1l-61 69q-37 -24 -78 -24q-39 0 -73 21l-59 -69l-12 -1l-61 57l1 13l68 60q-22 35 -22 77q0 38 21 74l-69 59l-2 12l57 60h12l63 -69q33 21 76 21q38 0 71 -19l60 69l13 2zM160 411
q-24 -24 -24 -62t24 -61.5t62 -23.5t62 24t24 61q0 38 -24 62t-62 24t-62 -24z" />
    <glyph glyph-name="yen" unicode="&#xa5;" horiz-adv-x="526" 
d="M363 247l-43 -75h180l6 -6l-5 -55h-187l4 -111h-114l5 111h-176l-5 7l4 54h171l-39 75h-131l-5 8l4 53h100l-102 196h120l12 -36l99 -186h8l108 182l17 40h117l-113 -196h102l6 -5l-5 -56h-138z" />
    <glyph glyph-name="brokenbar" unicode="&#xa6;" horiz-adv-x="307" 
d="M206 794l-3 -417l-91 -11l-9 8v422l93 7zM203 148v-400l-90 -7l-11 12l1 397l89 10z" />
    <glyph glyph-name="section" unicode="&#xa7;" horiz-adv-x="431" 
d="M361 54q0 -41 -24.5 -76t-67.5 -55.5t-97 -20.5q-34 0 -76 8t-75 21l17 105l12 8q32 -27 68.5 -43t66.5 -16t46.5 14t16.5 32q0 20 -19.5 34.5t-61.5 35.5q-45 23 -72.5 41.5t-48 47.5t-20.5 69q0 43 24 82t66 64q-48 39 -48 94q0 41 24.5 76t67.5 56t96 21q29 0 63 -6
t62 -17l-16 -101l-16 -5q-31 21 -60.5 32t-50.5 11q-26 0 -42 -14t-16 -32q0 -19 18.5 -32.5t62.5 -36.5q44 -22 72.5 -40.5t49 -48t20.5 -68.5q0 -42 -25 -80.5t-67 -62.5q50 -41 50 -97zM151.5 254.5q13.5 -15.5 31.5 -26.5t58 -33q49 28 49 67q0 20 -14 36.5t-32.5 28.5
t-57.5 33q-48 -31 -48 -70q0 -20 13.5 -35.5z" />
    <glyph glyph-name="dieresis" unicode="&#xa8;" horiz-adv-x="389" 
d="M155 666q16 -16 16 -45q0 -31 -17.5 -49t-47.5 -18q-29 0 -45 16t-16 46t17.5 48t48.5 18q28 0 44 -16zM328 666q16 -16 16 -45q0 -31 -17.5 -49t-46.5 -18t-45 16t-16 46t17.5 48t47.5 18q28 0 44 -16z" />
    <glyph glyph-name="copyright" unicode="&#xa9;" horiz-adv-x="687" 
d="M500 560q68 -38 105.5 -107t37.5 -160t-37.5 -160t-105.5 -107t-157 -38t-157 38t-105.5 107t-37.5 160t37.5 160t105.5 107t157 38t157 -38zM210.5 519.5q-57.5 -32.5 -89 -91t-31.5 -135.5t31.5 -135.5t89 -91t132.5 -32.5t132.5 32.5t89 91t31.5 135.5t-31.5 135.5
t-89 91t-132.5 32.5t-132.5 -32.5zM454 448l-16 -70l-6 -4q-15 8 -34 13t-36 5q-39 0 -58 -21.5t-19 -68.5q0 -102 81 -102q17 0 36.5 4t35.5 11l8 -4l-7 -70q-36 -14 -80 -14q-83 0 -125 42.5t-42 123.5q0 82 45 127t128 45q43 0 89 -17z" />
    <glyph glyph-name="ordfeminine" unicode="&#xaa;" horiz-adv-x="340" 
d="M262.5 628q30.5 -24 30.5 -68l-3 -77q-3 -42 -3 -62q0 -22 13 -22q11 0 16 4l7 -6l-10 -55q-23 -17 -50 -17q-25 0 -38 11t-20 37h-4q-30 -36 -72 -49q-48 1 -76 27t-28 71q0 69 73 81l99 16l1 21q0 21 -9.5 30.5t-30.5 9.5q-37 0 -96 -34l-7 3l-11 67q30 17 64.5 26.5
t67.5 9.5q56 0 86.5 -24zM143 461q-25 -5 -25 -30q0 -17 8.5 -26.5t24.5 -9.5q23 0 45 24l1 52z" />
    <glyph glyph-name="guillemotleft" unicode="&#xab;" horiz-adv-x="428" 
d="M230 215v22l135 178l63 -33l2 -13l-103 -141l103 -140l-2 -13l-63 -34zM45 215v22l135 178l63 -33l2 -13l-103 -141l103 -140l-2 -13l-63 -34z" />
    <glyph glyph-name="logicalnot" unicode="&#xac;" horiz-adv-x="480" 
d="M432 297v-247l-81 -6l-10 8v163h-310l-9 9l7 81h397z" />
    <glyph glyph-name="uni00AD" unicode="&#xad;" horiz-adv-x="304" 
d="M276 308v-82l-238 -37l-11 11v83l238 36z" />
    <glyph glyph-name="registered" unicode="&#xae;" horiz-adv-x="446" 
d="M358 651q51 -51 51 -134q0 -85 -51 -136t-135 -51t-135 51t-51 136q0 83 51 134t135 51t135 -51zM334 405q42 42 42 112q0 68 -42 110t-110 42q-69 0 -111 -42t-42 -110q0 -70 42 -112t111 -42q68 0 110 42zM295 528q-10 -15 -27 -26q18 -28 49 -66l-1 -5q-17 -7 -47 -9
l-6 4q-20 32 -35 62h-31l2 -63h-48l1 57l-1 138l85 1q33 0 51 -16t18 -45q0 -17 -10 -32zM198 526l31 -2q13 5 19 12.5t6 19.5q0 28 -35 29l-20 -1z" />
    <glyph glyph-name="macron" unicode="&#xaf;" horiz-adv-x="389" 
d="M342 651l-6 -74h-280l-9 9l6 74h280z" />
    <glyph glyph-name="degree" unicode="&#xb0;" horiz-adv-x="293" 
d="M238.5 615.5q37.5 -37.5 37.5 -92.5q0 -54 -37.5 -91.5t-91.5 -37.5q-55 0 -93 37.5t-38 91.5q0 55 38 92.5t93 37.5q54 0 91.5 -37.5zM94.5 574.5q-20.5 -20.5 -20.5 -51.5q0 -30 20.5 -50.5t51.5 -20.5t51.5 20.5t20.5 50.5q0 31 -20.5 51.5t-51.5 20.5t-51.5 -20.5z
" />
    <glyph glyph-name="plusminus" unicode="&#xb1;" horiz-adv-x="480" 
d="M286 468v-163h162l9 -9l-7 -81h-164v-165l-81 -6l-10 8v163h-163l-9 9l7 81h165v166l81 7zM457 -36l-7 -81h-418l-9 9l7 81h418z" />
    <glyph glyph-name="uni00B2" unicode="&#xb2;" horiz-adv-x="361" 
d="M270 680q34 -25 34 -69q0 -29 -19 -63t-62 -86l-51 -64l2 -2h91l67 4l5 -7l-11 -82l-94 4h-167l-26 -1l-6 3v62l94 102q39 45 54.5 66.5t15.5 39.5q0 14 -10.5 23.5t-29.5 9.5q-21 0 -46.5 -12.5t-47.5 -33.5h-12l-18 79q77 52 151 52q52 0 86 -25z" />
    <glyph glyph-name="uni00B3" unicode="&#xb3;" horiz-adv-x="321" 
d="M242.5 680.5q34.5 -25.5 34.5 -67.5q0 -25 -14.5 -49.5t-46.5 -41.5v-4q72 -21 72 -90q0 -53 -49 -86t-129 -33q-39 0 -76 8l-7 74l8 7q39 -11 77 -11q35 0 54 11.5t19 32.5q0 18 -13 28t-37 10h-52l-5 7l1 69l31 1q24 1 41.5 14t17.5 33q0 31 -42 31q-31 0 -78 -25h-11
l-16 70q60 37 129 37q57 0 91.5 -25.5z" />
    <glyph glyph-name="acute" unicode="&#xb4;" horiz-adv-x="389" 
d="M268 723l48 -72l-2 -13q-22 -14 -33 -20q-125 -77 -162 -98l-13 1l-32 50q116 93 181 153z" />
    <glyph glyph-name="uni00B5" unicode="&#xb5;" horiz-adv-x="541" 
d="M516 87l-12 -70q-37 -24 -76 -25q-30 5 -49 23.5t-29 51.5h-9q-41 -45 -95 -73q-37 0 -67 11l13 -190h-125l4 377l-4 264l125 11v-292l-1 -3h1q0 -71 60 -71q44 0 87 39v316l126 11l-8 -346q0 -17 5 -23.5t18 -6.5q10 0 26 4z" />
    <glyph glyph-name="paragraph" unicode="&#xb6;" horiz-adv-x="522" 
d="M504 633l-9 -92h-67l-5 -344l1 -61q0 -77 -43 -128t-149 -93l-36 60v13q55 30 79 63t24 79v51l-5 361h-45q-40 -6 -61 -35.5t-21 -79.5q0 -47 24 -85t70 -61l-46 -70q-91 21 -140.5 78t-49.5 143q0 101 63.5 156.5t180.5 55.5h226z" />
    <glyph glyph-name="periodcentered" unicode="&#xb7;" horiz-adv-x="229" 
d="M165.5 305q17.5 -18 17.5 -50q0 -34 -19 -54t-52 -20t-50.5 18t-17.5 51t19.5 53t53.5 20q31 0 48.5 -18z" />
    <glyph glyph-name="cedilla" unicode="&#xb8;" horiz-adv-x="389" 
d="M210 -48l34 -19q22 -12 31.5 -26.5t9.5 -32.5q0 -33 -26 -54t-68 -21q-45 0 -82 28l9 56l6 3q30 -30 59 -30q24 0 24 21q0 7 -4 11.5t-13 8.5l-49 28l23 101h64z" />
    <glyph glyph-name="uni00B9" unicode="&#xb9;" horiz-adv-x="276" 
d="M201 695l-5 -242l4 -138h-108l4 126v149l-79 -18l-7 5v83l176 46z" />
    <glyph glyph-name="ordmasculine" unicode="&#xba;" horiz-adv-x="347" 
d="M287 611.5q37 -40.5 37 -118.5q0 -83 -40 -126.5t-116 -43.5q-71 0 -108 40.5t-37 118.5q0 83 40 126.5t116 43.5q71 0 108 -40.5zM133 561q-12 -20 -12 -68q0 -56 12.5 -78.5t41.5 -22.5t41 20t12 69q0 55 -12.5 77.5t-42.5 22.5q-28 0 -40 -20z" />
    <glyph glyph-name="guillemotright" unicode="&#xbb;" horiz-adv-x="428" 
d="M383 243v-22l-135 -178l-63 33l-2 13l103 141l-103 140l2 13l63 34zM199 243v-22l-135 -178l-63 33l-2 13l103 141l-103 140l2 13l63 34z" />
    <glyph glyph-name="onequarter" unicode="&#xbc;" horiz-adv-x="747" 
d="M201 639l-5 -242l4 -138h-108l4 126v149l-79 -18l-7 5v83l176 46zM568 653l7 -19l-466 -726l-57 34l-6 14l468 730zM715 84l-53 2l5 -79l-6 -7l-83 -4l-6 5l2 86h-101l-66 -3l-7 9v65l165 228h98l-3 -221h54l6 -9zM492 165h84l-1 108h-6z" />
    <glyph glyph-name="onehalf" unicode="&#xbd;" horiz-adv-x="741" 
d="M201 639l-5 -242l4 -138h-108l4 126v149l-79 -18l-7 5v83l176 46zM568 653l7 -19l-466 -726l-57 34l-6 14l468 730zM650 365q34 -25 34 -69q0 -29 -19 -63t-62 -86l-51 -64l2 -2h91l67 4l5 -7l-11 -82l-94 4h-167l-26 -1l-6 3v62l94 102q39 45 54.5 66.5t15.5 39.5
q0 14 -10.5 23.5t-29.5 9.5q-21 0 -46.5 -12.5t-47.5 -33.5h-12l-18 79q77 52 151 52q52 0 86 -25z" />
    <glyph glyph-name="threequarters" unicode="&#xbe;" horiz-adv-x="792" 
d="M242.5 624.5q34.5 -25.5 34.5 -67.5q0 -25 -14.5 -49.5t-46.5 -41.5v-4q72 -21 72 -90q0 -53 -49 -86t-129 -33q-39 0 -76 8l-7 74l8 7q39 -11 77 -11q35 0 54 11.5t19 32.5q0 18 -13 28t-37 10h-52l-5 7l1 69l31 1q24 1 41.5 14t17.5 33q0 31 -42 31q-31 0 -78 -25h-11
l-16 70q60 37 129 37q57 0 91.5 -25.5zM613 653l7 -19l-466 -726l-57 34l-6 14l468 730zM760 84l-53 2l5 -79l-6 -7l-83 -4l-6 5l2 86h-101l-66 -3l-7 9v65l165 228h98l-3 -221h54l6 -9zM537 165h84l-1 108h-6z" />
    <glyph glyph-name="questiondown" unicode="&#xbf;" horiz-adv-x="340" 
d="M58 -151q-71 41 -71 113q0 41 23.5 77t67.5 61l72 43l2 5l-6 85l93 12l9 -9l10 -120l-5 -10l-90 -46q-56 -30 -56 -77q0 -40 43 -61.5t139 -27.5l9 -13l-24 -74l-13 -7q-132 8 -203 49zM138.5 352q-17.5 18 -17.5 50q0 34 19 54t52 20t50.5 -18t17.5 -51t-19.5 -53
t-53.5 -20q-31 0 -48.5 18z" />
    <glyph glyph-name="Agrave" unicode="&#xc0;" horiz-adv-x="600" 
d="M584 0h-138l-16 84l-17 60l-126 3l-111 -3l-17 -53l-17 -91h-134l218 644h161zM384 249l-76 268h-9l-88 -268l86 -2zM428 776l-21 -55l-13 -4q-121 41 -215 78l-4 12l33 79l13 3q82 -49 207 -113z" />
    <glyph glyph-name="Aacute" unicode="&#xc1;" horiz-adv-x="600" 
d="M584 0h-138l-16 84l-17 60l-126 3l-111 -3l-17 -53l-17 -91h-134l218 644h161zM384 249l-76 268h-9l-88 -268l86 -2zM413 886l34 -79l-4 -12q-97 -38 -216 -78l-12 4l-22 55q123 62 207 113z" />
    <glyph glyph-name="Acircumflex" unicode="&#xc2;" horiz-adv-x="600" 
d="M584 0h-138l-16 84l-17 60l-126 3l-111 -3l-17 -53l-17 -91h-134l218 644h161zM384 249l-76 268h-9l-88 -268l86 -2zM155 781q69 47 133 104h27q70 -60 134 -104l-24 -53h-13l-26 15q-42 23 -84 48q-38 -23 -110 -63h-13z" />
    <glyph glyph-name="Atilde" unicode="&#xc3;" horiz-adv-x="600" 
d="M584 0h-138l-16 84l-17 60l-126 3l-111 -3l-17 -53l-17 -91h-134l218 644h161zM384 249l-76 268h-9l-88 -268l86 -2zM475 841v-11l-70 -89l-13 -5q-27 3 -83 19q-5 1 -32.5 8.5t-38.5 7.5t-21.5 -9t-22.5 -22t-18 -20h-12l-40 39v11l71 89l12 5q24 -3 85 -20
q56 -15 69 -15q12 0 23.5 10t23.5 23t16 18h12z" />
    <glyph glyph-name="Adieresis" unicode="&#xc4;" horiz-adv-x="600" 
d="M584 0h-138l-16 84l-17 60l-126 3l-111 -3l-17 -53l-17 -91h-134l218 644h161zM384 249l-76 268h-9l-88 -268l86 -2zM262 845q16 -16 16 -45q0 -31 -17.5 -49t-47.5 -18q-29 0 -45 16t-16 46t17.5 48t48.5 18q28 0 44 -16zM435 845q16 -16 16 -45q0 -31 -17.5 -49
t-46.5 -18t-45 16t-16 46t17.5 48t47.5 18q28 0 44 -16z" />
    <glyph glyph-name="Aring" unicode="&#xc5;" horiz-adv-x="600" 
d="M584 0h-138l-16 84l-17 60l-126 3l-111 -3l-17 -53l-17 -91h-134l218 644h161zM384 249l-76 268h-9l-88 -268l86 -2zM372 879q24 -24 24 -67q0 -47 -26.5 -72.5t-72.5 -25.5q-44 0 -68.5 24t-24.5 70q0 45 25.5 70t72.5 25q46 0 70 -24zM259 809q0 -40 41 -40t41 38
q0 39 -42 39q-40 0 -40 -37z" />
    <glyph glyph-name="AE" unicode="&#xc6;" horiz-adv-x="822" 
d="M814 101l-9 -101h-389l-5 84l-17 137l-212 -56l-35 -74l-30 -91h-135l310 644h440l9 -11l-11 -101l-155 5h-88l22 -181l194 50l10 -8l11 -95l-203 -48l18 -149h102l165 6zM382 323l-24 194h-9l-109 -231z" />
    <glyph glyph-name="Ccedilla" unicode="&#xc7;" horiz-adv-x="517" 
d="M505 613l-24 -113l-11 -5q-30 21 -66 33t-74 12q-159 0 -159 -209q0 -113 41.5 -169.5t121.5 -56.5q37 0 76.5 11.5t71.5 31.5l12 -7l-11 -115q-76 -35 -160 -35q-144 0 -219.5 84t-75.5 241q0 160 80.5 248t227.5 88q94 0 169 -39zM333 -48l34 -19q22 -12 31.5 -26.5
t9.5 -32.5q0 -33 -26 -54t-68 -21q-45 0 -82 28l9 56l6 3q30 -30 59 -30q24 0 24 21q0 7 -4 11.5t-13 8.5l-49 28l23 101h64z" />
    <glyph glyph-name="Egrave" unicode="&#xc8;" horiz-adv-x="509" 
d="M483 112l8 -11l-9 -101h-404l7 192l-7 452h408l8 -11l-10 -101l-154 5l-116 -1l-3 -155l111 -2l105 3l8 -10l-9 -101l-114 3l-103 -1l-1 -69l3 -97l113 -1zM409 776l-21 -55l-13 -4q-121 41 -215 78l-4 12l33 79l13 3q82 -49 207 -113z" />
    <glyph glyph-name="Eacute" unicode="&#xc9;" horiz-adv-x="509" 
d="M483 112l8 -11l-9 -101h-404l7 192l-7 452h408l8 -11l-10 -101l-154 5l-116 -1l-3 -155l111 -2l105 3l8 -10l-9 -101l-114 3l-103 -1l-1 -69l3 -97l113 -1zM394 886l34 -79l-4 -12q-97 -38 -216 -78l-12 4l-22 55q123 62 207 113z" />
    <glyph glyph-name="Ecircumflex" unicode="&#xca;" horiz-adv-x="509" 
d="M483 112l8 -11l-9 -101h-404l7 192l-7 452h408l8 -11l-10 -101l-154 5l-116 -1l-3 -155l111 -2l105 3l8 -10l-9 -101l-114 3l-103 -1l-1 -69l3 -97l113 -1zM136 781q69 47 133 104h27q70 -60 134 -104l-24 -53h-13l-26 15q-42 23 -84 48q-38 -23 -110 -63h-13z" />
    <glyph glyph-name="Edieresis" unicode="&#xcb;" horiz-adv-x="509" 
d="M483 112l8 -11l-9 -101h-404l7 192l-7 452h408l8 -11l-10 -101l-154 5l-116 -1l-3 -155l111 -2l105 3l8 -10l-9 -101l-114 3l-103 -1l-1 -69l3 -97l113 -1zM243 845q16 -16 16 -45q0 -31 -17.5 -49t-47.5 -18q-29 0 -45 16t-16 46t17.5 48t48.5 18q28 0 44 -16zM416 845
q16 -16 16 -45q0 -31 -17.5 -49t-46.5 -18t-45 16t-16 46t17.5 48t47.5 18q28 0 44 -16z" />
    <glyph glyph-name="Igrave" unicode="&#xcc;" horiz-adv-x="295" 
d="M208 204l6 -204h-136l7 192l-7 452h138zM274 776l-21 -55l-13 -4q-121 41 -215 78l-4 12l33 79l13 3q82 -49 207 -113z" />
    <glyph glyph-name="Iacute" unicode="&#xcd;" horiz-adv-x="295" 
d="M208 204l6 -204h-136l7 192l-7 452h138zM259 886l34 -79l-4 -12q-97 -38 -216 -78l-12 4l-22 55q123 62 207 113z" />
    <glyph glyph-name="Icircumflex" unicode="&#xce;" horiz-adv-x="295" 
d="M208 204l6 -204h-136l7 192l-7 452h138zM1 781q69 47 133 104h27q70 -60 134 -104l-24 -53h-13l-26 15q-42 23 -84 48q-38 -23 -110 -63h-13z" />
    <glyph glyph-name="Eth" unicode="&#xd0;" horiz-adv-x="680" 
d="M577 570q75 -78 75 -224q0 -171 -84 -262t-240 -91q-47 0 -112.5 2t-112.5 5l7 192l-7 452l259 4q140 0 215 -78zM511 315q0 118 -38.5 171.5t-120.5 53.5q-53 0 -113 -5l-6 -331l3 -99q70 -7 116 -7q159 0 159 217zM357.534 355l-4.17383 -80h-334.621l-5.56543 9
l4.17383 81h334.621z" />
    <glyph glyph-name="Ntilde" unicode="&#xd1;" horiz-adv-x="695" 
d="M610 199l5 -199h-146l-263 436h-8l-1 -214l4 -222h-123l7 190l-6 454h145l263 -436h9l-3 430l125 8zM521 841v-11l-70 -89l-13 -5q-27 3 -83 19q-5 1 -32.5 8.5t-38.5 7.5t-21.5 -9t-22.5 -22t-18 -20h-12l-40 39v11l71 89l12 5q24 -3 85 -20q56 -15 69 -15q12 0 23.5 10
t23.5 23t16 18h12z" />
    <glyph glyph-name="Ograve" unicode="&#xd2;" horiz-adv-x="643" 
d="M542.5 570.5q73.5 -82.5 73.5 -234.5q0 -166 -80 -256t-226 -90q-135 0 -208.5 84.5t-73.5 239.5q0 163 79.5 251t225.5 88q136 0 209.5 -82.5zM205 494q-36 -50 -36 -163q0 -129 35.5 -184t117.5 -55q80 0 116 50.5t36 165.5q0 127 -35.5 181.5t-117.5 54.5
q-80 0 -116 -50zM449 776l-21 -55l-13 -4q-121 41 -215 78l-4 12l33 79l13 3q82 -49 207 -113z" />
    <glyph glyph-name="Oacute" unicode="&#xd3;" horiz-adv-x="643" 
d="M542.5 570.5q73.5 -82.5 73.5 -234.5q0 -166 -80 -256t-226 -90q-135 0 -208.5 84.5t-73.5 239.5q0 163 79.5 251t225.5 88q136 0 209.5 -82.5zM205 494q-36 -50 -36 -163q0 -129 35.5 -184t117.5 -55q80 0 116 50.5t36 165.5q0 127 -35.5 181.5t-117.5 54.5
q-80 0 -116 -50zM434 886l34 -79l-4 -12q-97 -38 -216 -78l-12 4l-22 55q123 62 207 113z" />
    <glyph glyph-name="Ocircumflex" unicode="&#xd4;" horiz-adv-x="643" 
d="M542.5 570.5q73.5 -82.5 73.5 -234.5q0 -166 -80 -256t-226 -90q-135 0 -208.5 84.5t-73.5 239.5q0 163 79.5 251t225.5 88q136 0 209.5 -82.5zM205 494q-36 -50 -36 -163q0 -129 35.5 -184t117.5 -55q80 0 116 50.5t36 165.5q0 127 -35.5 181.5t-117.5 54.5
q-80 0 -116 -50zM176 781q69 47 133 104h27q70 -60 134 -104l-24 -53h-13l-26 15q-42 23 -84 48q-38 -23 -110 -63h-13z" />
    <glyph glyph-name="Otilde" unicode="&#xd5;" horiz-adv-x="643" 
d="M542.5 570.5q73.5 -82.5 73.5 -234.5q0 -166 -80 -256t-226 -90q-135 0 -208.5 84.5t-73.5 239.5q0 163 79.5 251t225.5 88q136 0 209.5 -82.5zM205 494q-36 -50 -36 -163q0 -129 35.5 -184t117.5 -55q80 0 116 50.5t36 165.5q0 127 -35.5 181.5t-117.5 54.5
q-80 0 -116 -50zM496 841v-11l-70 -89l-13 -5q-27 3 -83 19q-5 1 -32.5 8.5t-38.5 7.5t-21.5 -9t-22.5 -22t-18 -20h-12l-40 39v11l71 89l12 5q24 -3 85 -20q56 -15 69 -15q12 0 23.5 10t23.5 23t16 18h12z" />
    <glyph glyph-name="multiply" unicode="&#xd7;" horiz-adv-x="480" 
d="M419 389v-14l-115 -114l115 -116v-12l-62 -53l-117 116l-117 -117l-61 54v11l115 117l-115 114v14l61 52l117 -117l117 117z" />
    <glyph glyph-name="Oslash" unicode="&#xd8;" horiz-adv-x="643" 
d="M589.5 492.5q26.5 -66.5 26.5 -156.5q0 -166 -80 -256t-226 -90q-48 0 -85 10l-57 -119l-85 31l-5 12l57 119q-53 41 -80 109.5t-27 161.5q0 163 79.5 251t225.5 88q46 0 88 -11l51 106l83 -30l8 -14l-51 -105q51 -40 77.5 -106.5zM438 142.5q36 50.5 36 165.5
q0 127 -35.5 181.5t-117.5 54.5q-80 0 -116 -50t-36 -163q0 -129 35.5 -184t117.5 -55q80 0 116 50.5z" />
    <glyph glyph-name="Ugrave" unicode="&#xd9;" horiz-adv-x="638" 
d="M573 317l-1 -85q1 -115 -67 -178t-195 -63q-122 0 -186 61t-61 175l1 93l-3 324h136l-7 -399q-1 -73 31 -108t97 -35q130 0 129 136l-7 406h138zM448 776l-21 -55l-13 -4q-121 41 -215 78l-4 12l33 79l13 3q82 -49 207 -113z" />
    <glyph glyph-name="Uacute" unicode="&#xda;" horiz-adv-x="638" 
d="M573 317l-1 -85q1 -115 -67 -178t-195 -63q-122 0 -186 61t-61 175l1 93l-3 324h136l-7 -399q-1 -73 31 -108t97 -35q130 0 129 136l-7 406h138zM433 886l34 -79l-4 -12q-97 -38 -216 -78l-12 4l-22 55q123 62 207 113z" />
    <glyph glyph-name="Ucircumflex" unicode="&#xdb;" horiz-adv-x="638" 
d="M573 317l-1 -85q1 -115 -67 -178t-195 -63q-122 0 -186 61t-61 175l1 93l-3 324h136l-7 -399q-1 -73 31 -108t97 -35q130 0 129 136l-7 406h138zM175 781q69 47 133 104h27q70 -60 134 -104l-24 -53h-13l-26 15q-42 23 -84 48q-38 -23 -110 -63h-13z" />
    <glyph glyph-name="Udieresis" unicode="&#xdc;" horiz-adv-x="638" 
d="M573 317l-1 -85q1 -115 -67 -178t-195 -63q-122 0 -186 61t-61 175l1 93l-3 324h136l-7 -399q-1 -73 31 -108t97 -35q130 0 129 136l-7 406h138zM282 845q16 -16 16 -45q0 -31 -17.5 -49t-47.5 -18q-29 0 -45 16t-16 46t17.5 48t48.5 18q28 0 44 -16zM455 845
q16 -16 16 -45q0 -31 -17.5 -49t-46.5 -18t-45 16t-16 46t17.5 48t47.5 18q28 0 44 -16z" />
    <glyph glyph-name="Thorn" unicode="&#xde;" horiz-adv-x="561" 
d="M486 493q54 -50 54 -148q0 -113 -68.5 -175t-195.5 -62l-64 -1l3 -107h-137l7 192l-5 349l-1 1h1l-2 102h139l-2 -101h114q103 0 157 -50zM373.5 251q23.5 31 23.5 84q0 55 -27 80.5t-84 27.5l-72 -3l-4 -228l94 -4q46 12 69.5 43z" />
    <glyph glyph-name="germandbls" unicode="&#xdf;" horiz-adv-x="608" 
d="M435.5 329q19.5 -18 60.5 -43q35 -20 57 -37t37.5 -43t15.5 -63q0 -41 -20.5 -76t-62 -56t-101.5 -21q-69 0 -143 30l16 104l12 8q30 -27 65 -42t63 -15q26 0 41.5 13t15.5 32q0 21 -16.5 35.5t-54.5 37.5q-37 22 -61 40.5t-41 47.5t-17 69q0 38 14 60.5t42 49.5
q24 23 35 40t11 43q0 33 -21 50t-60 17q-46 0 -72 -25.5t-27 -79.5l-4 -301l7 -204h-133l7 190l-3 191h-67l-5 7l7 73h64v29q0 101 63.5 157.5t169.5 56.5q90 0 137 -39.5t47 -101.5q0 -38 -14.5 -62.5t-42.5 -53.5q-21 -22 -31 -37.5t-10 -35.5q0 -27 19.5 -45z" />
    <glyph glyph-name="agrave" unicode="&#xe0;" horiz-adv-x="481" 
d="M364.5 439.5q43.5 -34.5 43.5 -96.5q0 -18 -6 -114q-1 -28 -3 -57.5t-2 -50.5q0 -17 5 -23.5t18 -6.5q10 0 26 4l10 -8l-12 -70q-32 -21 -73 -25q-30 3 -50 21.5t-27 51.5h-7q-50 -53 -103 -74q-72 1 -113 38t-41 101q0 50 25.5 78.5t77.5 38.5l153 29v41q0 65 -64 65
q-31 0 -65.5 -14t-77.5 -44l-10 6l-15 88q43 27 92 41.5t98 14.5q77 0 120.5 -34.5zM179 186q-16 -4 -23.5 -13.5t-7.5 -28.5q0 -26 14 -40.5t39 -14.5q39 0 82 46l2 74zM354 571l-32 -50l-12 -1q-78 45 -195 118l-2 13l48 72l12 1q73 -67 181 -153z" />
    <glyph glyph-name="aacute" unicode="&#xe1;" horiz-adv-x="481" 
d="M364.5 439.5q43.5 -34.5 43.5 -96.5q0 -18 -6 -114q-1 -28 -3 -57.5t-2 -50.5q0 -17 5 -23.5t18 -6.5q10 0 26 4l10 -8l-12 -70q-32 -21 -73 -25q-30 3 -50 21.5t-27 51.5h-7q-50 -53 -103 -74q-72 1 -113 38t-41 101q0 50 25.5 78.5t77.5 38.5l153 29v41q0 65 -64 65
q-31 0 -65.5 -14t-77.5 -44l-10 6l-15 88q43 27 92 41.5t98 14.5q77 0 120.5 -34.5zM179 186q-16 -4 -23.5 -13.5t-7.5 -28.5q0 -26 14 -40.5t39 -14.5q39 0 82 46l2 74zM331 723l48 -72l-2 -13q-22 -14 -33 -20q-125 -77 -162 -98l-13 1l-32 50q116 93 181 153z" />
    <glyph glyph-name="acircumflex" unicode="&#xe2;" horiz-adv-x="481" 
d="M364.5 439.5q43.5 -34.5 43.5 -96.5q0 -18 -6 -114q-1 -28 -3 -57.5t-2 -50.5q0 -17 5 -23.5t18 -6.5q10 0 26 4l10 -8l-12 -70q-32 -21 -73 -25q-30 3 -50 21.5t-27 51.5h-7q-50 -53 -103 -74q-72 1 -113 38t-41 101q0 50 25.5 78.5t77.5 38.5l153 29v41q0 65 -64 65
q-31 0 -65.5 -14t-77.5 -44l-10 6l-15 88q43 27 92 41.5t98 14.5q77 0 120.5 -34.5zM179 186q-16 -4 -23.5 -13.5t-7.5 -28.5q0 -26 14 -40.5t39 -14.5q39 0 82 46l2 74zM79 577q57 52 141 141h29q78 -86 140 -141l-33 -51h-13q-66 52 -109 92q-39 -37 -108 -92h-13z" />
    <glyph glyph-name="atilde" unicode="&#xe3;" horiz-adv-x="481" 
d="M364.5 439.5q43.5 -34.5 43.5 -96.5q0 -18 -6 -114q-1 -28 -3 -57.5t-2 -50.5q0 -17 5 -23.5t18 -6.5q10 0 26 4l10 -8l-12 -70q-32 -21 -73 -25q-30 3 -50 21.5t-27 51.5h-7q-50 -53 -103 -74q-72 1 -113 38t-41 101q0 50 25.5 78.5t77.5 38.5l153 29v41q0 65 -64 65
q-31 0 -65.5 -14t-77.5 -44l-10 6l-15 88q43 27 92 41.5t98 14.5q77 0 120.5 -34.5zM179 186q-16 -4 -23.5 -13.5t-7.5 -28.5q0 -26 14 -40.5t39 -14.5q39 0 82 46l2 74zM408 662v-11l-70 -89l-13 -5q-27 3 -83 19q-5 1 -32.5 8.5t-38.5 7.5t-21.5 -9t-22.5 -22t-18 -20h-12
l-40 39v11l71 89l12 5q24 -3 85 -20q56 -15 69 -15q12 0 23.5 10t23.5 23t16 18h12z" />
    <glyph glyph-name="adieresis" unicode="&#xe4;" horiz-adv-x="481" 
d="M364.5 439.5q43.5 -34.5 43.5 -96.5q0 -18 -6 -114q-1 -28 -3 -57.5t-2 -50.5q0 -17 5 -23.5t18 -6.5q10 0 26 4l10 -8l-12 -70q-32 -21 -73 -25q-30 3 -50 21.5t-27 51.5h-7q-50 -53 -103 -74q-72 1 -113 38t-41 101q0 50 25.5 78.5t77.5 38.5l153 29v41q0 65 -64 65
q-31 0 -65.5 -14t-77.5 -44l-10 6l-15 88q43 27 92 41.5t98 14.5q77 0 120.5 -34.5zM179 186q-16 -4 -23.5 -13.5t-7.5 -28.5q0 -26 14 -40.5t39 -14.5q39 0 82 46l2 74zM195 666q16 -16 16 -45q0 -31 -17.5 -49t-47.5 -18q-29 0 -45 16t-16 46t17.5 48t48.5 18q28 0 44 -16
zM368 666q16 -16 16 -45q0 -31 -17.5 -49t-46.5 -18t-45 16t-16 46t17.5 48t47.5 18q28 0 44 -16z" />
    <glyph glyph-name="aring" unicode="&#xe5;" horiz-adv-x="481" 
d="M364.5 439.5q43.5 -34.5 43.5 -96.5q0 -18 -6 -114q-1 -28 -3 -57.5t-2 -50.5q0 -17 5 -23.5t18 -6.5q10 0 26 4l10 -8l-12 -70q-32 -21 -73 -25q-30 3 -50 21.5t-27 51.5h-7q-50 -53 -103 -74q-72 1 -113 38t-41 101q0 50 25.5 78.5t77.5 38.5l153 29v41q0 65 -64 65
q-31 0 -65.5 -14t-77.5 -44l-10 6l-15 88q43 27 92 41.5t98 14.5q77 0 120.5 -34.5zM179 186q-16 -4 -23.5 -13.5t-7.5 -28.5q0 -26 14 -40.5t39 -14.5q39 0 82 46l2 74zM305 700q24 -24 24 -67q0 -47 -26.5 -72.5t-72.5 -25.5q-44 0 -68.5 24t-24.5 70q0 45 25.5 70
t72.5 25q46 0 70 -24zM192 630q0 -40 41 -40t41 38q0 39 -42 39q-40 0 -40 -37z" />
    <glyph glyph-name="ae" unicode="&#xe6;" horiz-adv-x="694" 
d="M621 423.5q47 -49.5 47 -140.5q0 -15 -1 -23l-13 -16l-266 -31q5 -64 33 -94.5t85 -30.5q30 0 64.5 9t66.5 27l11 -7l-19 -97q-30 -14 -66.5 -22t-67.5 -8q-58 0 -102 21.5t-71 64.5q-55 -58 -125 -85q-77 1 -123 36.5t-46 100.5q0 49 26.5 81.5t76.5 38.5l150 16v53
q0 33 -15.5 49t-47.5 16q-59 0 -142 -59l-9 6l-16 90q42 27 89.5 41t93.5 14q86 0 122 -53q26 25 61.5 38.5t75.5 13.5q81 0 128 -49.5zM414 354.5q-27 -30.5 -27 -75.5v-1l163 23q1 43 -17.5 64t-52.5 21q-39 -1 -66 -31.5zM240 100.5q19 10.5 50 38.5q-7 38 -8 59l-96 -14
q-21 -4 -30 -14t-9 -28q0 -25 14.5 -38.5t39.5 -13.5q20 0 39 10.5z" />
    <glyph glyph-name="ccedilla" unicode="&#xe7;" horiz-adv-x="385" 
d="M317.5 467.5q32.5 -6.5 57.5 -18.5l-22 -106l-11 -5q-51 28 -91 28q-46 0 -71 -33t-25 -94q0 -70 27 -107t77 -37q45 0 100 25l10 -8l-13 -103q-60 -19 -123 -19q-96 0 -150 62.5t-54 174.5q0 116 59 181.5t164 65.5q33 0 65.5 -6.5zM251 -48l34 -19q22 -12 31.5 -26.5
t9.5 -32.5q0 -33 -26 -54t-68 -21q-45 0 -82 28l9 56l6 3q30 -30 59 -30q24 0 24 21q0 7 -4 11.5t-13 8.5l-49 28l23 101h64z" />
    <glyph glyph-name="egrave" unicode="&#xe8;" horiz-adv-x="472" 
d="M421 216l-270 -2q9 -125 127 -125q62 0 138 35l11 -7l-20 -99q-76 -28 -143 -28q-110 0 -172.5 64t-62.5 177q0 112 61 177.5t165 65.5q89 0 137.5 -48.5t48.5 -135.5q0 -23 -5 -58zM325 305q0 40 -18 60.5t-53 20.5q-39 0 -65 -25.5t-35 -73.5l169 4zM365 570l-32 -50
l-12 -1q-78 45 -195 118l-2 13l48 72l12 1q73 -67 181 -153z" />
    <glyph glyph-name="eacute" unicode="&#xe9;" horiz-adv-x="472" 
d="M421 216l-270 -2q9 -125 127 -125q62 0 138 35l11 -7l-20 -99q-76 -28 -143 -28q-110 0 -172.5 64t-62.5 177q0 112 61 177.5t165 65.5q89 0 137.5 -48.5t48.5 -135.5q0 -23 -5 -58zM325 305q0 40 -18 60.5t-53 20.5q-39 0 -65 -25.5t-35 -73.5l169 4zM342 722l48 -72
l-2 -13q-22 -14 -33 -20q-125 -77 -162 -98l-13 1l-32 50q116 93 181 153z" />
    <glyph glyph-name="ecircumflex" unicode="&#xea;" horiz-adv-x="472" 
d="M421 216l-270 -2q9 -125 127 -125q62 0 138 35l11 -7l-20 -99q-76 -28 -143 -28q-110 0 -172.5 64t-62.5 177q0 112 61 177.5t165 65.5q89 0 137.5 -48.5t48.5 -135.5q0 -23 -5 -58zM325 305q0 40 -18 60.5t-53 20.5q-39 0 -65 -25.5t-35 -73.5l169 4zM90 576
q57 52 141 141h29q78 -86 140 -141l-33 -51h-13q-66 52 -109 92q-39 -37 -108 -92h-13z" />
    <glyph glyph-name="edieresis" unicode="&#xeb;" horiz-adv-x="472" 
d="M421 216l-270 -2q9 -125 127 -125q62 0 138 35l11 -7l-20 -99q-76 -28 -143 -28q-110 0 -172.5 64t-62.5 177q0 112 61 177.5t165 65.5q89 0 137.5 -48.5t48.5 -135.5q0 -23 -5 -58zM325 305q0 40 -18 60.5t-53 20.5q-39 0 -65 -25.5t-35 -73.5l169 4zM206 665
q16 -16 16 -45q0 -31 -17.5 -49t-47.5 -18q-29 0 -45 16t-16 46t17.5 48t48.5 18q28 0 44 -16zM379 665q16 -16 16 -45q0 -31 -17.5 -49t-46.5 -18t-45 16t-16 46t17.5 48t47.5 18q28 0 44 -16z" />
    <glyph glyph-name="igrave" unicode="&#xec;" horiz-adv-x="261" 
d="M70 192l-5 264l131 11l-6 -262l6 -205h-133zM250 571l-32 -50l-12 -1q-78 45 -195 118l-2 13l48 72l12 1q73 -67 181 -153z" />
    <glyph glyph-name="iacute" unicode="&#xed;" horiz-adv-x="261" 
d="M70 192l-5 264l131 11l-6 -262l6 -205h-133zM227 723l48 -72l-2 -13q-22 -14 -33 -20q-125 -77 -162 -98l-13 1l-32 50q116 93 181 153z" />
    <glyph glyph-name="icircumflex" unicode="&#xee;" horiz-adv-x="261" 
d="M70 192l-5 264l131 11l-6 -262l6 -205h-133zM-25 577q57 52 141 141h29q78 -86 140 -141l-33 -51h-13q-66 52 -109 92q-39 -37 -108 -92h-13z" />
    <glyph glyph-name="eth" unicode="&#xf0;" horiz-adv-x="497" 
d="M424 435.5q38 -87.5 38 -187.5q0 -124 -57 -191t-163 -67q-99 0 -154 60t-55 174q0 113 54.5 174t157.5 61q26 0 45 -4q-28 45 -76 83l-116 -66l-11 4l-27 53l91 52q-47 27 -99 50v16l83 62h8q69 -35 112 -68l109 62l11 -3l27 -54l-91 -52q75 -71 113 -158.5zM321.5 113
q21.5 37 21.5 122q0 58 -9 104q-34 30 -82 30q-52 0 -76 -34.5t-24 -110.5q0 -78 24.5 -113t73.5 -35q50 0 71.5 37z" />
    <glyph glyph-name="ntilde" unicode="&#xf1;" horiz-adv-x="529" 
d="M347 290q1 35 -15.5 54.5t-47.5 19.5q-45 0 -96 -43v-116l6 -205h-133l7 192l-5 264l126 11v-68h7q55 50 120 72q76 0 116 -34.5t38 -99.5l-3 -133l6 -204h-134zM456 662v-11l-70 -89l-13 -5q-27 3 -83 19q-5 1 -32.5 8.5t-38.5 7.5t-21.5 -9t-22.5 -22t-18 -20h-12
l-40 39v11l71 89l12 5q24 -3 85 -20q56 -15 69 -15q12 0 23.5 10t23.5 23t16 18h12z" />
    <glyph glyph-name="ograve" unicode="&#xf2;" horiz-adv-x="494" 
d="M410 414q54 -60 54 -173q0 -122 -58 -186.5t-167 -64.5q-102 0 -156 60t-54 173q0 122 58 186.5t167 64.5q102 0 156 -60zM175.5 352q-21.5 -32 -21.5 -103q0 -92 22 -131t72 -39q48 0 69.5 31.5t21.5 103.5q0 91 -22.5 130.5t-71.5 39.5q-48 0 -69.5 -32zM368 571
l-32 -50l-12 -1q-78 45 -195 118l-2 13l48 72l12 1q73 -67 181 -153z" />
    <glyph glyph-name="oacute" unicode="&#xf3;" horiz-adv-x="494" 
d="M410 414q54 -60 54 -173q0 -122 -58 -186.5t-167 -64.5q-102 0 -156 60t-54 173q0 122 58 186.5t167 64.5q102 0 156 -60zM175.5 352q-21.5 -32 -21.5 -103q0 -92 22 -131t72 -39q48 0 69.5 31.5t21.5 103.5q0 91 -22.5 130.5t-71.5 39.5q-48 0 -69.5 -32zM345 723
l48 -72l-2 -13q-22 -14 -33 -20q-125 -77 -162 -98l-13 1l-32 50q116 93 181 153z" />
    <glyph glyph-name="ocircumflex" unicode="&#xf4;" horiz-adv-x="494" 
d="M410 414q54 -60 54 -173q0 -122 -58 -186.5t-167 -64.5q-102 0 -156 60t-54 173q0 122 58 186.5t167 64.5q102 0 156 -60zM175.5 352q-21.5 -32 -21.5 -103q0 -92 22 -131t72 -39q48 0 69.5 31.5t21.5 103.5q0 91 -22.5 130.5t-71.5 39.5q-48 0 -69.5 -32zM93 577
q57 52 141 141h29q78 -86 140 -141l-33 -51h-13q-66 52 -109 92q-39 -37 -108 -92h-13z" />
    <glyph glyph-name="otilde" unicode="&#xf5;" horiz-adv-x="494" 
d="M410 414q54 -60 54 -173q0 -122 -58 -186.5t-167 -64.5q-102 0 -156 60t-54 173q0 122 58 186.5t167 64.5q102 0 156 -60zM175.5 352q-21.5 -32 -21.5 -103q0 -92 22 -131t72 -39q48 0 69.5 31.5t21.5 103.5q0 91 -22.5 130.5t-71.5 39.5q-48 0 -69.5 -32zM422 662v-11
l-70 -89l-13 -5q-27 3 -83 19q-5 1 -32.5 8.5t-38.5 7.5t-21.5 -9t-22.5 -22t-18 -20h-12l-40 39v11l71 89l12 5q24 -3 85 -20q56 -15 69 -15q12 0 23.5 10t23.5 23t16 18h12z" />
    <glyph glyph-name="divide" unicode="&#xf7;" horiz-adv-x="480" 
d="M463 296l-7 -81h-418l-9 9l7 81h418zM300.236 139.382q15.4639 -15.9053 15.4639 -44.1807q0 -30.042 -16.7891 -47.7139q-16.7881 -17.6729 -45.9473 -17.6729t-44.6221 15.9053t-15.4629 45.0635q0 29.1592 17.2305 46.8311q17.2295 17.6729 47.2725 17.6729
q27.3916 0 42.8545 -15.9053zM300.236 478.382q15.4639 -15.9053 15.4639 -44.1807q0 -30.042 -16.7891 -47.7139q-16.7881 -17.6729 -45.9473 -17.6729t-44.6221 15.9053t-15.4629 45.0635q0 29.1592 17.2305 46.8311q17.2295 17.6729 47.2725 17.6729
q27.3916 0 42.8545 -15.9053z" />
    <glyph glyph-name="oslash" unicode="&#xf8;" horiz-adv-x="494" 
d="M464 241q0 -122 -58 -186.5t-167 -64.5q-34 0 -68 8l-68 -123l-76 37l-3 11l66 120q-61 59 -61 180q0 122 58 186.5t167 64.5q34 0 68 -8l59 105l72 -36l7 -12l-57 -102q61 -59 61 -180zM317.5 110.5q21.5 31.5 21.5 103.5q0 91 -22.5 130.5t-71.5 39.5q-48 0 -69.5 -32
t-21.5 -103q0 -92 22 -131t72 -39q48 0 69.5 31.5z" />
    <glyph glyph-name="ugrave" unicode="&#xf9;" horiz-adv-x="522" 
d="M505 87l-12 -70q-37 -24 -76 -25q-29 5 -48 23t-29 52h-9q-57 -56 -118 -73q-76 0 -115.5 34.5t-38.5 99.5l2 118l-5 210l129 11l-3 -295q-1 -35 14 -53t45 -18q44 0 87 39v316l127 11l-9 -346q0 -16 5.5 -23t17.5 -7q11 0 27 4zM378 571l-32 -50l-12 -1q-78 45 -195 118
l-2 13l48 72l12 1q73 -67 181 -153z" />
    <glyph glyph-name="uacute" unicode="&#xfa;" horiz-adv-x="522" 
d="M505 87l-12 -70q-37 -24 -76 -25q-29 5 -48 23t-29 52h-9q-57 -56 -118 -73q-76 0 -115.5 34.5t-38.5 99.5l2 118l-5 210l129 11l-3 -295q-1 -35 14 -53t45 -18q44 0 87 39v316l127 11l-9 -346q0 -16 5.5 -23t17.5 -7q11 0 27 4zM355 723l48 -72l-2 -13q-22 -14 -33 -20
q-125 -77 -162 -98l-13 1l-32 50q116 93 181 153z" />
    <glyph glyph-name="ucircumflex" unicode="&#xfb;" horiz-adv-x="522" 
d="M505 87l-12 -70q-37 -24 -76 -25q-29 5 -48 23t-29 52h-9q-57 -56 -118 -73q-76 0 -115.5 34.5t-38.5 99.5l2 118l-5 210l129 11l-3 -295q-1 -35 14 -53t45 -18q44 0 87 39v316l127 11l-9 -346q0 -16 5.5 -23t17.5 -7q11 0 27 4zM103 577q57 52 141 141h29
q78 -86 140 -141l-33 -51h-13q-66 52 -109 92q-39 -37 -108 -92h-13z" />
    <glyph glyph-name="udieresis" unicode="&#xfc;" horiz-adv-x="522" 
d="M505 87l-12 -70q-37 -24 -76 -25q-29 5 -48 23t-29 52h-9q-57 -56 -118 -73q-76 0 -115.5 34.5t-38.5 99.5l2 118l-5 210l129 11l-3 -295q-1 -35 14 -53t45 -18q44 0 87 39v316l127 11l-9 -346q0 -16 5.5 -23t17.5 -7q11 0 27 4zM219 666q16 -16 16 -45q0 -31 -17.5 -49
t-47.5 -18q-29 0 -45 16t-16 46t17.5 48t48.5 18q28 0 44 -16zM392 666q16 -16 16 -45q0 -31 -17.5 -49t-46.5 -18t-45 16t-16 46t17.5 48t47.5 18q28 0 44 -16z" />
    <glyph glyph-name="thorn" unicode="&#xfe;" horiz-adv-x="522" 
d="M445.5 411.5q46.5 -59.5 46.5 -165.5q0 -123 -61 -189.5t-169 -66.5q-34 0 -69 9l3 -184h-131l6 377l-6 500l132 10l-4 -303h6q28 27 54 43.5t58 28.5q88 0 134.5 -59.5zM339.5 113q28.5 36 28.5 112q0 68 -22.5 103.5t-66.5 35.5q-41 0 -87 -43l-2 -114l2 -112
q38 -18 69 -18q50 0 78.5 36z" />
    <glyph glyph-name="ydieresis" unicode="&#xff;" horiz-adv-x="447" 
d="M141 394l83 -260h8l83 249l17 82h114l-152 -434q-24 -68 -54 -109.5t-75 -68t-116 -45.5l-10 1q-34 33 -56 78l4 13q63 11 104 32.5t78 67.5l-170 462l126 6zM189 666q16 -16 16 -45q0 -31 -17.5 -49t-47.5 -18q-29 0 -45 16t-16 46t17.5 48t48.5 18q28 0 44 -16z
M362 666q16 -16 16 -45q0 -31 -17.5 -49t-46.5 -18t-45 16t-16 46t17.5 48t47.5 18q28 0 44 -16z" />
    <glyph glyph-name="Amacron" unicode="&#x100;" horiz-adv-x="600" 
d="M584 0h-138l-16 84l-17 60l-126 3l-111 -3l-17 -53l-17 -91h-134l218 644h161zM384 249l-76 268h-9l-88 -268l86 -2zM448 830l-6 -74h-280l-9 9l6 74h280z" />
    <glyph glyph-name="amacron" unicode="&#x101;" horiz-adv-x="481" 
d="M364.5 439.5q43.5 -34.5 43.5 -96.5q0 -18 -6 -114q-1 -28 -3 -57.5t-2 -50.5q0 -17 5 -23.5t18 -6.5q10 0 26 4l10 -8l-12 -70q-32 -21 -73 -25q-30 3 -50 21.5t-27 51.5h-7q-50 -53 -103 -74q-72 1 -113 38t-41 101q0 50 25.5 78.5t77.5 38.5l153 29v41q0 65 -64 65
q-31 0 -65.5 -14t-77.5 -44l-10 6l-15 88q43 27 92 41.5t98 14.5q77 0 120.5 -34.5zM179 186q-16 -4 -23.5 -13.5t-7.5 -28.5q0 -26 14 -40.5t39 -14.5q39 0 82 46l2 74zM381 651l-6 -74h-280l-9 9l6 74h280z" />
    <glyph glyph-name="Abreve" unicode="&#x102;" horiz-adv-x="600" 
d="M584 0h-138l-16 84l-17 60l-126 3l-111 -3l-17 -53l-17 -91h-134l218 644h161zM384 249l-76 268h-9l-88 -268l86 -2zM451 826q-18 -51 -57 -78t-95 -27q-54 0 -92.5 27t-55.5 78l31 43h19q13 -26 39.5 -41t62.5 -15q35 0 60.5 14.5t38.5 41.5h19z" />
    <glyph glyph-name="abreve" unicode="&#x103;" horiz-adv-x="481" 
d="M364.5 439.5q43.5 -34.5 43.5 -96.5q0 -18 -6 -114q-1 -28 -3 -57.5t-2 -50.5q0 -17 5 -23.5t18 -6.5q10 0 26 4l10 -8l-12 -70q-32 -21 -73 -25q-30 3 -50 21.5t-27 51.5h-7q-50 -53 -103 -74q-72 1 -113 38t-41 101q0 50 25.5 78.5t77.5 38.5l153 29v41q0 65 -64 65
q-31 0 -65.5 -14t-77.5 -44l-10 6l-15 88q43 27 92 41.5t98 14.5q77 0 120.5 -34.5zM179 186q-16 -4 -23.5 -13.5t-7.5 -28.5q0 -26 14 -40.5t39 -14.5q39 0 82 46l2 74zM385 655q-15 -57 -53.5 -91t-100.5 -34q-60 0 -96.5 35t-50.5 90l33 45h18q13 -37 38.5 -56.5
t61.5 -19.5t61.5 19.5t37.5 56.5h18z" />
    <glyph glyph-name="Aogonek" unicode="&#x104;" horiz-adv-x="600" 
d="M584 0h-138l-16 84l-17 60l-126 3l-111 -3l-17 -53l-17 -91h-134l218 644h161zM384 249l-76 268h-9l-88 -268l86 -2zM508 -67q-18 -18 -18 -32q0 -20 24 -20q27 0 63 29l7 -1l18 -59q-47 -44 -105 -44q-39 0 -62.5 20.5t-23.5 54.5q0 32 22.5 60t70.5 59h80
q-58 -49 -76 -67z" />
    <glyph glyph-name="aogonek" unicode="&#x105;" horiz-adv-x="481" 
d="M364.5 439.5q43.5 -34.5 43.5 -96.5q0 -18 -6 -114q-1 -28 -3 -57.5t-2 -50.5q0 -17 5 -23.5t18 -6.5q10 0 26 4l10 -8l-12 -70q-32 -21 -73 -25q-30 3 -50 21.5t-27 51.5h-7q-50 -53 -103 -74q-72 1 -113 38t-41 101q0 50 25.5 78.5t77.5 38.5l153 29v41q0 65 -64 65
q-31 0 -65.5 -14t-77.5 -44l-10 6l-15 88q43 27 92 41.5t98 14.5q77 0 120.5 -34.5zM179 186q-16 -4 -23.5 -13.5t-7.5 -28.5q0 -26 14 -40.5t39 -14.5q39 0 82 46l2 74zM282 -193q-28 23 -28 62q0 33 24.5 65.5t93.5 82.5h72q-67 -67 -86.5 -91.5t-19.5 -39.5q0 -25 29 -25
q31 0 73 30l7 -2l16 -62q-53 -43 -106 -43q-47 0 -75 23z" />
    <glyph glyph-name="Cacute" unicode="&#x106;" horiz-adv-x="517" 
d="M505 613l-24 -113l-11 -5q-30 21 -66 33t-74 12q-159 0 -159 -209q0 -113 41.5 -169.5t121.5 -56.5q37 0 76.5 11.5t71.5 31.5l12 -7l-11 -115q-76 -35 -160 -35q-144 0 -219.5 84t-75.5 241q0 160 80.5 248t227.5 88q94 0 169 -39zM427 886l34 -79l-4 -12
q-97 -38 -216 -78l-12 4l-22 55q123 62 207 113z" />
    <glyph glyph-name="cacute" unicode="&#x107;" horiz-adv-x="385" 
d="M317.5 467.5q32.5 -6.5 57.5 -18.5l-22 -106l-11 -5q-51 28 -91 28q-46 0 -71 -33t-25 -94q0 -70 27 -107t77 -37q45 0 100 25l10 -8l-13 -103q-60 -19 -123 -19q-96 0 -150 62.5t-54 174.5q0 116 59 181.5t164 65.5q33 0 65.5 -6.5zM335 723l48 -72l-2 -13
q-22 -14 -33 -20q-125 -77 -162 -98l-13 1l-32 50q116 93 181 153z" />
    <glyph glyph-name="Ccircumflex" unicode="&#x108;" horiz-adv-x="517" 
d="M505 613l-24 -113l-11 -5q-30 21 -66 33t-74 12q-159 0 -159 -209q0 -113 41.5 -169.5t121.5 -56.5q37 0 76.5 11.5t71.5 31.5l12 -7l-11 -115q-76 -35 -160 -35q-144 0 -219.5 84t-75.5 241q0 160 80.5 248t227.5 88q94 0 169 -39zM169 781q69 47 133 104h27
q70 -60 134 -104l-24 -53h-13l-26 15q-42 23 -84 48q-38 -23 -110 -63h-13z" />
    <glyph glyph-name="ccircumflex" unicode="&#x109;" horiz-adv-x="385" 
d="M317.5 467.5q32.5 -6.5 57.5 -18.5l-22 -106l-11 -5q-51 28 -91 28q-46 0 -71 -33t-25 -94q0 -70 27 -107t77 -37q45 0 100 25l10 -8l-13 -103q-60 -19 -123 -19q-96 0 -150 62.5t-54 174.5q0 116 59 181.5t164 65.5q33 0 65.5 -6.5zM83 577q57 52 141 141h29
q78 -86 140 -141l-33 -51h-13q-66 52 -109 92q-39 -37 -108 -92h-13z" />
    <glyph glyph-name="Cdotaccent" unicode="&#x10a;" horiz-adv-x="517" 
d="M505 613l-24 -113l-11 -5q-30 21 -66 33t-74 12q-159 0 -159 -209q0 -113 41.5 -169.5t121.5 -56.5q37 0 76.5 11.5t71.5 31.5l12 -7l-11 -115q-76 -35 -160 -35q-144 0 -219.5 84t-75.5 241q0 160 80.5 248t227.5 88q94 0 169 -39zM366.5 854q17.5 -18 17.5 -50
q0 -34 -19 -54t-52 -20t-50.5 18t-17.5 51t19.5 53t53.5 20q31 0 48.5 -18z" />
    <glyph glyph-name="cdotaccent" unicode="&#x10b;" horiz-adv-x="385" 
d="M317.5 467.5q32.5 -6.5 57.5 -18.5l-22 -106l-11 -5q-51 28 -91 28q-46 0 -71 -33t-25 -94q0 -70 27 -107t77 -37q45 0 100 25l10 -8l-13 -103q-60 -19 -123 -19q-96 0 -150 62.5t-54 174.5q0 116 59 181.5t164 65.5q33 0 65.5 -6.5zM289.5 675q17.5 -18 17.5 -50
q0 -34 -19 -54t-52 -20t-50.5 18t-17.5 51t19.5 53t53.5 20q31 0 48.5 -18z" />
    <glyph glyph-name="Ccaron" unicode="&#x10c;" horiz-adv-x="517" 
d="M505 613l-24 -113l-11 -5q-30 21 -66 33t-74 12q-159 0 -159 -209q0 -113 41.5 -169.5t121.5 -56.5q37 0 76.5 11.5t71.5 31.5l12 -7l-11 -115q-76 -35 -160 -35q-144 0 -219.5 84t-75.5 241q0 160 80.5 248t227.5 88q94 0 169 -39zM462 822q-69 -47 -133 -104h-27
q-70 60 -134 104l24 53h13l26 -15q42 -23 84 -48q38 23 110 63h13z" />
    <glyph glyph-name="ccaron" unicode="&#x10d;" horiz-adv-x="385" 
d="M317.5 467.5q32.5 -6.5 57.5 -18.5l-22 -106l-11 -5q-51 28 -91 28q-46 0 -71 -33t-25 -94q0 -70 27 -107t77 -37q45 0 100 25l10 -8l-13 -103q-60 -19 -123 -19q-96 0 -150 62.5t-54 174.5q0 116 59 181.5t164 65.5q33 0 65.5 -6.5zM393 665q-57 -52 -141 -141h-29
q-78 86 -140 141l33 51h13q66 -52 109 -92q39 37 108 92h13z" />
    <glyph glyph-name="Dcaron" unicode="&#x10e;" horiz-adv-x="655" 
d="M552 570q75 -78 75 -224q0 -171 -84 -262t-240 -91q-47 0 -112.5 2t-112.5 5l7 192l-7 452l259 4q140 0 215 -78zM486 315q0 118 -38.5 171.5t-120.5 53.5q-53 0 -113 -5l-6 -331l3 -99q70 -7 116 -7q159 0 159 217zM475 822q-69 -47 -133 -104h-27q-70 60 -134 104
l24 53h13l26 -15q42 -23 84 -48q38 23 110 63h13z" />
    <glyph glyph-name="dcaron" unicode="&#x10f;" horiz-adv-x="598" 
d="M449 205l3 -84q0 -17 4.5 -23.5t16.5 -6.5q11 0 27 4l9 -8l-11 -70q-34 -21 -74 -25q-31 3 -52 21t-29 49h-8q-49 -45 -100 -69q-98 0 -152 62.5t-54 173.5q0 118 62 181t172 63q29 0 64 -6l-2 225l132 10zM616 635l-33 -199l-58 -9l-10 7l-2 204l95 6zM154 256
q0 -79 24 -119t70 -40q44 0 81 41l2 55l-3 172q-39 18 -74 18q-100 0 -100 -127z" />
    <glyph glyph-name="Dcroat" unicode="&#x110;" horiz-adv-x="680" 
d="M577 570q75 -78 75 -224q0 -171 -84 -262t-240 -91q-47 0 -112.5 2t-112.5 5l7 192l-7 452l259 4q140 0 215 -78zM511 315q0 118 -38.5 171.5t-120.5 53.5q-53 0 -113 -5l-6 -331l3 -99q70 -7 116 -7q159 0 159 217zM357.534 355l-4.17383 -80h-334.621l-5.56543 9
l4.17383 81h334.621z" />
    <glyph glyph-name="dcroat" unicode="&#x111;" horiz-adv-x="531" 
d="M454 542l-5 -337l3 -84q0 -17 4.5 -23.5t16.5 -6.5q11 0 27 4l9 -8l-11 -70q-34 -21 -74 -25q-31 3 -52 21t-29 49h-8q-49 -45 -100 -69q-98 0 -152 62.5t-54 173.5q0 118 62 181t172 63q29 0 64 -6l-1 75h-111l-8 9l6 64h113l-1 77l132 10l-1 -87h65l9 -10l-6 -63h-70z
M331 193l-3 172q-39 18 -74 18q-100 0 -100 -127q0 -79 24 -119t70 -40q44 0 81 41z" />
    <glyph glyph-name="Emacron" unicode="&#x112;" horiz-adv-x="509" 
d="M483 112l8 -11l-9 -101h-404l7 192l-7 452h408l8 -11l-10 -101l-154 5l-116 -1l-3 -155l111 -2l105 3l8 -10l-9 -101l-114 3l-103 -1l-1 -69l3 -97l113 -1zM429 830l-6 -74h-280l-9 9l6 74h280z" />
    <glyph glyph-name="emacron" unicode="&#x113;" horiz-adv-x="472" 
d="M421 216l-270 -2q9 -125 127 -125q62 0 138 35l11 -7l-20 -99q-76 -28 -143 -28q-110 0 -172.5 64t-62.5 177q0 112 61 177.5t165 65.5q89 0 137.5 -48.5t48.5 -135.5q0 -23 -5 -58zM325 305q0 40 -18 60.5t-53 20.5q-39 0 -65 -25.5t-35 -73.5l169 4zM392 650l-6 -74
h-280l-9 9l6 74h280z" />
    <glyph glyph-name="Ebreve" unicode="&#x114;" horiz-adv-x="509" 
d="M483 112l8 -11l-9 -101h-404l7 192l-7 452h408l8 -11l-10 -101l-154 5l-116 -1l-3 -155l111 -2l105 3l8 -10l-9 -101l-114 3l-103 -1l-1 -69l3 -97l113 -1zM432 826q-18 -51 -57 -78t-95 -27q-54 0 -92.5 27t-55.5 78l31 43h19q13 -26 39.5 -41t62.5 -15q35 0 60.5 14.5
t38.5 41.5h19z" />
    <glyph glyph-name="ebreve" unicode="&#x115;" horiz-adv-x="472" 
d="M421 216l-270 -2q9 -125 127 -125q62 0 138 35l11 -7l-20 -99q-76 -28 -143 -28q-110 0 -172.5 64t-62.5 177q0 112 61 177.5t165 65.5q89 0 137.5 -48.5t48.5 -135.5q0 -23 -5 -58zM325 305q0 40 -18 60.5t-53 20.5q-39 0 -65 -25.5t-35 -73.5l169 4zM396 654
q-15 -57 -53.5 -91t-100.5 -34q-60 0 -96.5 35t-50.5 90l33 45h18q13 -37 38.5 -56.5t61.5 -19.5t61.5 19.5t37.5 56.5h18z" />
    <glyph glyph-name="Edotaccent" unicode="&#x116;" horiz-adv-x="509" 
d="M483 112l8 -11l-9 -101h-404l7 192l-7 452h408l8 -11l-10 -101l-154 5l-116 -1l-3 -155l111 -2l105 3l8 -10l-9 -101l-114 3l-103 -1l-1 -69l3 -97l113 -1zM333.5 854q17.5 -18 17.5 -50q0 -34 -19 -54t-52 -20t-50.5 18t-17.5 51t19.5 53t53.5 20q31 0 48.5 -18z" />
    <glyph glyph-name="edotaccent" unicode="&#x117;" horiz-adv-x="472" 
d="M421 216l-270 -2q9 -125 127 -125q62 0 138 35l11 -7l-20 -99q-76 -28 -143 -28q-110 0 -172.5 64t-62.5 177q0 112 61 177.5t165 65.5q89 0 137.5 -48.5t48.5 -135.5q0 -23 -5 -58zM325 305q0 40 -18 60.5t-53 20.5q-39 0 -65 -25.5t-35 -73.5l169 4zM296.5 674
q17.5 -18 17.5 -50q0 -34 -19 -54t-52 -20t-50.5 18t-17.5 51t19.5 53t53.5 20q31 0 48.5 -18z" />
    <glyph glyph-name="Eogonek" unicode="&#x118;" horiz-adv-x="509" 
d="M483 112l8 -11l-9 -101h-404l7 192l-7 452h408l8 -11l-10 -101l-154 5l-116 -1l-3 -155l111 -2l105 3l8 -10l-9 -101l-114 3l-103 -1l-1 -69l3 -97l113 -1zM292 -197q-28 23 -28 62q0 33 24.5 65.5t93.5 82.5h72q-67 -67 -86.5 -91.5t-19.5 -39.5q0 -25 29 -25
q31 0 73 30l7 -2l16 -62q-53 -43 -106 -43q-47 0 -75 23z" />
    <glyph glyph-name="eogonek" unicode="&#x119;" horiz-adv-x="472" 
d="M421 216l-270 -2q9 -125 127 -125q62 0 138 35l11 -7l-20 -99q-76 -28 -143 -28q-110 0 -172.5 64t-62.5 177q0 112 61 177.5t165 65.5q89 0 137.5 -48.5t48.5 -135.5q0 -23 -5 -58zM325 305q0 40 -18 60.5t-53 20.5q-39 0 -65 -25.5t-35 -73.5l169 4zM245 -192
q-28 23 -28 62q0 33 24.5 65.5t93.5 82.5h72q-67 -67 -86.5 -91.5t-19.5 -39.5q0 -25 29 -25q31 0 73 30l7 -2l16 -62q-53 -43 -106 -43q-47 0 -75 23z" />
    <glyph glyph-name="Ecaron" unicode="&#x11a;" horiz-adv-x="509" 
d="M483 112l8 -11l-9 -101h-404l7 192l-7 452h408l8 -11l-10 -101l-154 5l-116 -1l-3 -155l111 -2l105 3l8 -10l-9 -101l-114 3l-103 -1l-1 -69l3 -97l113 -1zM429 822q-69 -47 -133 -104h-27q-70 60 -134 104l24 53h13l26 -15q42 -23 84 -48q38 23 110 63h13z" />
    <glyph glyph-name="ecaron" unicode="&#x11b;" horiz-adv-x="472" 
d="M421 216l-270 -2q9 -125 127 -125q62 0 138 35l11 -7l-20 -99q-76 -28 -143 -28q-110 0 -172.5 64t-62.5 177q0 112 61 177.5t165 65.5q89 0 137.5 -48.5t48.5 -135.5q0 -23 -5 -58zM325 305q0 40 -18 60.5t-53 20.5q-39 0 -65 -25.5t-35 -73.5l169 4zM400 664
q-57 -52 -141 -141h-29q-78 86 -140 141l33 51h13q66 -52 109 -92q39 37 108 92h13z" />
    <glyph glyph-name="Gcircumflex" unicode="&#x11c;" horiz-adv-x="598" 
d="M553 613l-29 -122l-13 -2q-49 28 -87.5 40.5t-82.5 12.5q-89 0 -130 -53t-41 -174q0 -80 17.5 -127t54.5 -68.5t98 -21.5q21 0 39.5 3t45.5 11l2 55l-2 102l125 9l-3 -90l3 -157q-120 -40 -221 -40q-150 0 -225.5 82t-75.5 235q0 167 87.5 255.5t248.5 88.5
q105 0 189 -39zM181 781q69 47 133 104h27q70 -60 134 -104l-24 -53h-13l-26 15q-42 23 -84 48q-38 -23 -110 -63h-13z" />
    <glyph glyph-name="gcircumflex" unicode="&#x11d;" horiz-adv-x="500" 
d="M431 387l-2 -4q15 -30 15 -67q0 -75 -54.5 -119.5t-147.5 -44.5q-28 0 -58 5q-9 -9 -12 -14t-3 -12q0 -18 24 -25t76 -14q59 -7 98.5 -17t68 -35t28.5 -71q0 -47 -29.5 -84.5t-81.5 -58.5t-118 -21q-91 0 -140 37t-49 98q31 43 83 75v5q-34 12 -53 33.5t-19 57.5
q27 33 68 61v5q-36 20 -54.5 52.5t-18.5 76.5q0 78 54 122t147 44q54 0 98 -18q72 13 147 40l10 -9v-83q-27 -7 -77 -15zM308 253q21 21 21 61q0 76 -78 76q-84 0 -84 -77q0 -40 20 -60.5t59 -20.5q41 0 62 21zM323.5 -18q-28.5 10 -87.5 17l-34 5q-24 -16 -36 -31t-12 -32
q0 -26 24 -42t70 -16q47 0 75.5 16.5t28.5 45.5q0 27 -28.5 37zM98 568q57 52 141 141h29q78 -86 140 -141l-33 -51h-13q-66 52 -109 92q-39 -37 -108 -92h-13z" />
    <glyph glyph-name="Gbreve" unicode="&#x11e;" horiz-adv-x="598" 
d="M553 613l-29 -122l-13 -2q-49 28 -87.5 40.5t-82.5 12.5q-89 0 -130 -53t-41 -174q0 -80 17.5 -127t54.5 -68.5t98 -21.5q21 0 39.5 3t45.5 11l2 55l-2 102l125 9l-3 -90l3 -157q-120 -40 -221 -40q-150 0 -225.5 82t-75.5 235q0 167 87.5 255.5t248.5 88.5
q105 0 189 -39zM477 826q-18 -51 -57 -78t-95 -27q-54 0 -92.5 27t-55.5 78l31 43h19q13 -26 39.5 -41t62.5 -15q35 0 60.5 14.5t38.5 41.5h19z" />
    <glyph glyph-name="gbreve" unicode="&#x11f;" horiz-adv-x="500" 
d="M431 387l-2 -4q15 -30 15 -67q0 -75 -54.5 -119.5t-147.5 -44.5q-28 0 -58 5q-9 -9 -12 -14t-3 -12q0 -18 24 -25t76 -14q59 -7 98.5 -17t68 -35t28.5 -71q0 -47 -29.5 -84.5t-81.5 -58.5t-118 -21q-91 0 -140 37t-49 98q31 43 83 75v5q-34 12 -53 33.5t-19 57.5
q27 33 68 61v5q-36 20 -54.5 52.5t-18.5 76.5q0 78 54 122t147 44q54 0 98 -18q72 13 147 40l10 -9v-83q-27 -7 -77 -15zM308 253q21 21 21 61q0 76 -78 76q-84 0 -84 -77q0 -40 20 -60.5t59 -20.5q41 0 62 21zM323.5 -18q-28.5 10 -87.5 17l-34 5q-24 -16 -36 -31t-12 -32
q0 -26 24 -42t70 -16q47 0 75.5 16.5t28.5 45.5q0 27 -28.5 37zM404 646q-15 -57 -53.5 -91t-100.5 -34q-60 0 -96.5 35t-50.5 90l33 45h18q13 -37 38.5 -56.5t61.5 -19.5t61.5 19.5t37.5 56.5h18z" />
    <glyph glyph-name="Gdotaccent" unicode="&#x120;" horiz-adv-x="598" 
d="M553 613l-29 -122l-13 -2q-49 28 -87.5 40.5t-82.5 12.5q-89 0 -130 -53t-41 -174q0 -80 17.5 -127t54.5 -68.5t98 -21.5q21 0 39.5 3t45.5 11l2 55l-2 102l125 9l-3 -90l3 -157q-120 -40 -221 -40q-150 0 -225.5 82t-75.5 235q0 167 87.5 255.5t248.5 88.5
q105 0 189 -39zM378.5 854q17.5 -18 17.5 -50q0 -34 -19 -54t-52 -20t-50.5 18t-17.5 51t19.5 53t53.5 20q31 0 48.5 -18z" />
    <glyph glyph-name="gdotaccent" unicode="&#x121;" horiz-adv-x="500" 
d="M431 387l-2 -4q15 -30 15 -67q0 -75 -54.5 -119.5t-147.5 -44.5q-28 0 -58 5q-9 -9 -12 -14t-3 -12q0 -18 24 -25t76 -14q59 -7 98.5 -17t68 -35t28.5 -71q0 -47 -29.5 -84.5t-81.5 -58.5t-118 -21q-91 0 -140 37t-49 98q31 43 83 75v5q-34 12 -53 33.5t-19 57.5
q27 33 68 61v5q-36 20 -54.5 52.5t-18.5 76.5q0 78 54 122t147 44q54 0 98 -18q72 13 147 40l10 -9v-83q-27 -7 -77 -15zM308 253q21 21 21 61q0 76 -78 76q-84 0 -84 -77q0 -40 20 -60.5t59 -20.5q41 0 62 21zM323.5 -18q-28.5 10 -87.5 17l-34 5q-24 -16 -36 -31t-12 -32
q0 -26 24 -42t70 -16q47 0 75.5 16.5t28.5 45.5q0 27 -28.5 37zM304.5 666q17.5 -18 17.5 -50q0 -34 -19 -54t-52 -20t-50.5 18t-17.5 51t19.5 53t53.5 20q31 0 48.5 -18z" />
    <glyph glyph-name="Gcommaaccent" unicode="&#x122;" horiz-adv-x="598" 
d="M553 613l-29 -122l-13 -2q-49 28 -87.5 40.5t-82.5 12.5q-89 0 -130 -53t-41 -174q0 -80 17.5 -127t54.5 -68.5t98 -21.5q21 0 39.5 3t45.5 11l2 55l-2 102l125 9l-3 -90l3 -157q-120 -40 -221 -40q-150 0 -225.5 82t-75.5 235q0 167 87.5 255.5t248.5 88.5
q105 0 189 -39zM377 -117q0 -40 -26.5 -78t-81.5 -77l-38 34l-1 9q49 42 49 88q0 31 -29 54l1 10q40 24 86 37q40 -31 40 -77z" />
    <glyph glyph-name="gcommaaccent" unicode="&#x123;" horiz-adv-x="500" 
d="M200 551q-13 21 -13 52q0 70 86 152l42 -28l2 -9q-37 -41 -37 -79q0 -23 8.5 -38.5t28.5 -27.5v-10q-41 -30 -77 -47q-27 14 -40 35zM431 387l-2 -4q15 -30 15 -67q0 -75 -54.5 -119.5t-147.5 -44.5q-28 0 -58 5q-9 -9 -12 -14t-3 -12q0 -18 24 -25t76 -14
q59 -7 98.5 -17t68 -35t28.5 -71q0 -47 -29.5 -84.5t-81.5 -58.5t-118 -21q-91 0 -140 37t-49 98q31 43 83 75v5q-34 12 -53 33.5t-19 57.5q27 33 68 61v5q-36 20 -54.5 52.5t-18.5 76.5q0 78 54 122t147 44q54 0 98 -18q72 13 147 40l10 -9v-83q-27 -7 -77 -15zM308 253
q21 21 21 61q0 76 -78 76q-84 0 -84 -77q0 -40 20 -60.5t59 -20.5q41 0 62 21zM323.5 -18q-28.5 10 -87.5 17l-34 5q-24 -16 -36 -31t-12 -32q0 -26 24 -42t70 -16q47 0 75.5 16.5t28.5 45.5q0 27 -28.5 37z" />
    <glyph glyph-name="Hcircumflex" unicode="&#x124;" horiz-adv-x="696" 
d="M615 204l4 -204h-135l6 192l-1 75l-145 1l-131 -2l-1 -62l5 -204h-135l7 192l-7 452h137l-4 -266l138 -2l135 2l-4 266h138zM203 781q69 47 133 104h27q70 -60 134 -104l-24 -53h-13l-26 15q-42 23 -84 48q-38 -23 -110 -63h-13z" />
    <glyph glyph-name="hcircumflex" unicode="&#x125;" horiz-adv-x="533" 
d="M351 290q1 36 -15 55t-47 19q-45 0 -96 -43l-2 -116l7 -205h-133l7 193l-6 499l133 10l-5 -303h6q55 50 121 72q76 0 115.5 -34.5t38.5 -99.5l-3 -133l5 -204h-133zM-16 790q69 47 133 104h27q70 -60 134 -104l-24 -53h-13l-26 15q-42 23 -84 48q-38 -23 -110 -63h-13z
" />
    <glyph glyph-name="Hbar" unicode="&#x126;" horiz-adv-x="728" 
d="M628 475l-4 -271l5 -204h-135l6 192l-1 75l-145 1l-131 -2l-1 -62l5 -204h-135l6 192l-4 283h-61l-7 7l5 71h62l-1 91h137l-1 -91h267l-1 91h137l-1 -91h66l6 -8l-4 -70h-70zM496 475h-270l-1 -97l138 -2l135 2z" />
    <glyph glyph-name="hbar" unicode="&#x127;" horiz-adv-x="532" 
d="M345 0l8 290q0 36 -16 55t-47 19q-45 0 -96 -43l-2 -116l7 -205h-133l8 193l-4 334h-64l-10 9l6 63h67l-1 93l132 10l-2 -103h125l8 -10l-4 -62h-130l-2 -128h6q57 51 121 72q76 0 115.5 -34.5t38.5 -99.5l-3 -133l5 -204h-133z" />
    <glyph glyph-name="Imacron" unicode="&#x12a;" horiz-adv-x="295" 
d="M208 204l6 -204h-136l7 192l-7 452h138zM267 830l-7 -74h-225l-9 9l7 74h225z" />
    <glyph glyph-name="imacron" unicode="&#x12b;" horiz-adv-x="261" 
d="M70 192l-5 264l131 11l-6 -262l6 -205h-133zM250 651l-7 -74h-225l-9 9l7 74h225z" />
    <glyph glyph-name="Ibreve" unicode="&#x12c;" horiz-adv-x="295" 
d="M208 204l6 -204h-136l7 192l-7 452h138zM297 826q-18 -51 -57 -78t-95 -27q-54 0 -92.5 27t-55.5 78l31 43h19q13 -26 39.5 -41t62.5 -15q35 0 60.5 14.5t38.5 41.5h19z" />
    <glyph glyph-name="ibreve" unicode="&#x12d;" horiz-adv-x="261" 
d="M70 192l-5 264l131 11l-6 -262l6 -205h-133zM281 655q-15 -57 -53.5 -91t-100.5 -34q-60 0 -96.5 35t-50.5 90l33 45h18q13 -37 38.5 -56.5t61.5 -19.5t61.5 19.5t37.5 56.5h18z" />
    <glyph glyph-name="Iogonek" unicode="&#x12e;" horiz-adv-x="295" 
d="M208 204l6 -204h-136l7 192l-7 452h138zM138 -67q-18 -18 -18 -32q0 -20 24 -20q27 0 63 29l7 -1l18 -59q-47 -44 -105 -44q-39 0 -62.5 20.5t-23.5 54.5q0 32 22.5 60t70.5 59h80q-58 -49 -76 -67z" />
    <glyph glyph-name="iogonek" unicode="&#x12f;" horiz-adv-x="261" 
d="M70 192l-5 264l131 11l-6 -262l6 -205h-133zM181.5 675q17.5 -18 17.5 -50q0 -34 -19 -54t-52 -20t-50.5 18t-17.5 51t19.5 53t53.5 20q31 0 48.5 -18zM120 -67q-18 -18 -18 -32q0 -20 24 -20q27 0 63 29l7 -1l18 -59q-47 -44 -105 -44q-39 0 -62.5 20.5t-23.5 54.5
q0 32 22.5 60t70.5 59h80q-58 -49 -76 -67z" />
    <glyph glyph-name="Idotaccent" unicode="&#x130;" horiz-adv-x="295" 
d="M208 204l6 -204h-136l7 192l-7 452h138zM198.5 854q17.5 -18 17.5 -50q0 -34 -19 -54t-52 -20t-50.5 18t-17.5 51t19.5 53t53.5 20q31 0 48.5 -18z" />
    <glyph glyph-name="dotlessi" unicode="&#x131;" horiz-adv-x="261" 
d="M70 192l-5 264l131 11l-6 -262l6 -205h-133z" />
    <glyph glyph-name="IJ" unicode="&#x132;" horiz-adv-x="630" 
d="M208 204l6 -204h-136l7 192l-7 452h138zM546 212l2 -91q0 -57 -19 -97t-61.5 -71t-116.5 -59l-41 72v12q62 32 87.5 63.5t25.5 81.5v76l-6 345l-106 -3l-10 10l7 93h245z" />
    <glyph glyph-name="ij" unicode="&#x133;" horiz-adv-x="546" 
d="M70 192l-5 264l131 11l-6 -262l6 -205h-133zM181.5 675q17.5 -18 17.5 -50q0 -34 -19 -54t-52 -20t-50.5 18t-17.5 51t19.5 53t53.5 20q31 0 48.5 -18zM481 465l-8 -260l6 -178q0 -79 -38 -131t-125 -91l-46 59v12q45 25 64 59t19 88l2 169l-4 189h-81l-8 8l7 72h84
l124 7zM452.5 675q17.5 -18 17.5 -50q0 -34 -19 -54t-52 -20t-50.5 18t-17.5 51t19.5 53t53.5 20q31 0 48.5 -18z" />
    <glyph glyph-name="Jcircumflex" unicode="&#x134;" horiz-adv-x="335" 
d="M251 212l2 -91q0 -57 -19 -97t-61.5 -71t-116.5 -59l-41 72v12q62 32 87.5 63.5t25.5 81.5v76l-6 345l-106 -3l-10 10l7 93h245zM2 781q69 47 133 104h27q70 -60 134 -104l-24 -53h-13l-26 15q-42 23 -84 48q-38 -23 -110 -63h-13z" />
    <glyph glyph-name="jcircumflex" unicode="&#x135;" horiz-adv-x="285" 
d="M220 465l-8 -260l6 -178q0 -79 -38 -131t-125 -91l-46 59v12q45 25 64 59t19 88l2 169l-4 189h-81l-8 8l7 72h84l124 7zM-15 577q57 52 141 141h29q78 -86 140 -141l-33 -51h-13q-66 52 -109 92q-39 -37 -108 -92h-13z" />
    <glyph glyph-name="Kcommaaccent" unicode="&#x136;" horiz-adv-x="584" 
d="M593 28l-2 -15q-56 -14 -132 -23l-16 8q-131 174 -233 334l-2 -128l5 -204h-135l7 192l-7 452h137l-5 -299l181 237l37 62h146l-228 -304q107 -149 247 -312zM373 -117q0 -40 -26.5 -78t-81.5 -77l-38 34l-1 9q49 42 49 88q0 31 -29 54l1 10q40 24 86 37q40 -31 40 -77z
" />
    <glyph glyph-name="kcommaaccent" unicode="&#x137;" horiz-adv-x="495" 
d="M191 205l7 -205h-133l7 193l-6 499l133 10zM326 255q54 -87 162 -233l-1 -14q-35 -8 -74.5 -12.5t-48.5 -5.5l-14 6q-88 124 -152 247v9l116 165l24 48h140zM339 -117q0 -40 -26.5 -78t-81.5 -77l-38 34l-1 9q49 42 49 88q0 31 -29 54l1 10q40 24 86 37q40 -31 40 -77z
" />
    <glyph glyph-name="kgreenlandic" unicode="&#x138;" horiz-adv-x="492" 
d="M67 192l-4 264l131 11l-5 -262l4 -205h-132zM322 255q56 -88 163 -233v-14q-35 -8 -74.5 -12.5t-48.5 -5.5l-14 6q-90 128 -153 247v9l118 165l24 48h138z" />
    <glyph glyph-name="Lacute" unicode="&#x139;" horiz-adv-x="433" 
d="M431 101l-9 -101h-348l7 192l-7 452h138l-8 -440l3 -92h216zM259 886l34 -79l-4 -12q-97 -38 -216 -78l-12 4l-22 55q123 62 207 113z" />
    <glyph glyph-name="lacute" unicode="&#x13a;" horiz-adv-x="263" 
d="M191 205l7 -205h-133l7 193l-6 499l133 10zM243 922l34 -79l-4 -12q-97 -38 -216 -78l-12 4l-22 55q123 62 207 113z" />
    <glyph glyph-name="Lcommaaccent" unicode="&#x13b;" horiz-adv-x="433" 
d="M431 101l-9 -101h-348l7 192l-7 452h138l-8 -440l3 -92h216zM308 -117q0 -40 -26.5 -78t-81.5 -77l-38 34l-1 9q49 42 49 88q0 31 -29 54l1 10q40 24 86 37q40 -31 40 -77z" />
    <glyph glyph-name="lcommaaccent" unicode="&#x13c;" horiz-adv-x="263" 
d="M191 205l7 -205h-133l7 193l-6 499l133 10zM205 -117q0 -40 -26.5 -78t-81.5 -77l-38 34l-1 9q49 42 49 88q0 31 -29 54l1 10q40 24 86 37q40 -31 40 -77z" />
    <glyph glyph-name="Lcaron" unicode="&#x13d;" horiz-adv-x="480" 
d="M423 112l8 -11l-9 -101h-348l7 192l-7 452h138l-8 -440l3 -92h216zM332 381l-2 204l95 6l8 -9l-33 -200l-58 -9z" />
    <glyph glyph-name="lcaron" unicode="&#x13e;" horiz-adv-x="333" 
d="M191 205l7 -205h-133l7 193l-6 499l133 10zM355 637l-33 -200l-58 -9l-10 8l-2 204l95 6z" />
    <glyph glyph-name="Ldot" unicode="&#x13f;" horiz-adv-x="455" 
d="M431 101l-9 -101h-348l7 192l-7 452h138l-8 -440l3 -92h216zM416.5 441q17.5 -18 17.5 -50q0 -34 -19 -54t-52 -20t-50.5 18t-17.5 51t19.5 53t53.5 20q31 0 48.5 -18z" />
    <glyph glyph-name="ldot" unicode="&#x140;" horiz-adv-x="314" 
d="M191 205l7 -205h-133l7 193l-6 499l133 10zM338.5 345q17.5 -18 17.5 -50q0 -34 -19.5 -54t-52.5 -20q-32 0 -49.5 18t-17.5 51t19.5 53t53.5 20q31 0 48.5 -18z" />
    <glyph glyph-name="Lslash" unicode="&#x141;" horiz-adv-x="449" 
d="M448 101l-9 -101h-349l8 192l-1 57l-61 -32l-13 6l-24 79l96 49l-5 293h139l-4 -226l101 52l13 -6l24 -78l-140 -72l-2 -110l3 -92h216z" />
    <glyph glyph-name="lslash" unicode="&#x142;" horiz-adv-x="288" 
d="M204 205l6 -205h-132l7 193l-1 101l-59 -30l-7 2l-26 77l91 46l-4 303l132 10l-4 -260l57 29l6 -3l27 -77l-91 -47z" />
    <glyph glyph-name="Nacute" unicode="&#x143;" horiz-adv-x="695" 
d="M610 199l5 -199h-146l-263 436h-8l-1 -214l4 -222h-123l7 190l-6 454h145l263 -436h9l-3 430l125 8zM459 886l34 -79l-4 -12q-97 -38 -216 -78l-12 4l-22 55q123 62 207 113z" />
    <glyph glyph-name="nacute" unicode="&#x144;" horiz-adv-x="529" 
d="M347 290q1 35 -15.5 54.5t-47.5 19.5q-45 0 -96 -43v-116l6 -205h-133l7 192l-5 264l126 11v-68h7q55 50 120 72q76 0 116 -34.5t38 -99.5l-3 -133l6 -204h-134zM379 723l48 -72l-2 -13q-22 -14 -33 -20q-125 -77 -162 -98l-13 1l-32 50q116 93 181 153z" />
    <glyph glyph-name="Ncommaaccent" unicode="&#x145;" horiz-adv-x="695" 
d="M610 199l5 -199h-146l-263 436h-8l-1 -214l4 -222h-123l7 190l-6 454h145l263 -436h9l-3 430l125 8zM420 -117q0 -40 -26.5 -78t-81.5 -77l-38 34l-1 9q49 42 49 88q0 31 -29 54l1 10q40 24 86 37q40 -31 40 -77z" />
    <glyph glyph-name="ncommaaccent" unicode="&#x146;" horiz-adv-x="529" 
d="M347 290q1 35 -15.5 54.5t-47.5 19.5q-45 0 -96 -43v-116l6 -205h-133l7 192l-5 264l126 11v-68h7q55 50 120 72q76 0 116 -34.5t38 -99.5l-3 -133l6 -204h-134zM343 -117q0 -40 -26.5 -78t-81.5 -77l-38 34l-1 9q49 42 49 88q0 31 -29 54l1 10q40 24 86 37
q40 -31 40 -77z" />
    <glyph glyph-name="Ncaron" unicode="&#x147;" horiz-adv-x="695" 
d="M610 199l5 -199h-146l-263 436h-8l-1 -214l4 -222h-123l7 190l-6 454h145l263 -436h9l-3 430l125 8zM494 822q-69 -47 -133 -104h-27q-70 60 -134 104l24 53h13l26 -15q42 -23 84 -48q38 23 110 63h13z" />
    <glyph glyph-name="ncaron" unicode="&#x148;" horiz-adv-x="529" 
d="M347 290q1 35 -15.5 54.5t-47.5 19.5q-45 0 -96 -43v-116l6 -205h-133l7 192l-5 264l126 11v-68h7q55 50 120 72q76 0 116 -34.5t38 -99.5l-3 -133l6 -204h-134zM437 665q-57 -52 -141 -141h-29q-78 86 -140 141l33 51h13q66 -52 109 -92q39 37 108 92h13z" />
    <glyph glyph-name="Eng" unicode="&#x14a;" horiz-adv-x="695" 
d="M610 199l3 -143q0 -56 -18.5 -96t-61 -71.5t-116.5 -59.5l-41 72v13q41 21 65 41.5t36 45.5l-270 435h-9l-1 -214l5 -222h-124l7 190l-6 454h146l262 -427h9l-4 421l126 8z" />
    <glyph glyph-name="eng" unicode="&#x14b;" horiz-adv-x="538" 
d="M473 27q0 -79 -37.5 -131t-123.5 -91l-47 59v12q45 25 64 59t19 88l-1 267q0 36 -16 55t-47 19q-45 0 -96 -43v-116l6 -205h-133l7 192l-5 264l126 11v-68h7q55 50 120 72q76 0 116 -34.5t38 -99.5l-3 -133z" />
    <glyph glyph-name="Omacron" unicode="&#x14c;" horiz-adv-x="643" 
d="M542.5 570.5q73.5 -82.5 73.5 -234.5q0 -166 -80 -256t-226 -90q-135 0 -208.5 84.5t-73.5 239.5q0 163 79.5 251t225.5 88q136 0 209.5 -82.5zM205 494q-36 -50 -36 -163q0 -129 35.5 -184t117.5 -55q80 0 116 50.5t36 165.5q0 127 -35.5 181.5t-117.5 54.5
q-80 0 -116 -50zM469 830l-6 -74h-280l-9 9l6 74h280z" />
    <glyph glyph-name="omacron" unicode="&#x14d;" horiz-adv-x="494" 
d="M410 414q54 -60 54 -173q0 -122 -58 -186.5t-167 -64.5q-102 0 -156 60t-54 173q0 122 58 186.5t167 64.5q102 0 156 -60zM175.5 352q-21.5 -32 -21.5 -103q0 -92 22 -131t72 -39q48 0 69.5 31.5t21.5 103.5q0 91 -22.5 130.5t-71.5 39.5q-48 0 -69.5 -32zM395 651
l-6 -74h-280l-9 9l6 74h280z" />
    <glyph glyph-name="Obreve" unicode="&#x14e;" horiz-adv-x="643" 
d="M542.5 570.5q73.5 -82.5 73.5 -234.5q0 -166 -80 -256t-226 -90q-135 0 -208.5 84.5t-73.5 239.5q0 163 79.5 251t225.5 88q136 0 209.5 -82.5zM205 494q-36 -50 -36 -163q0 -129 35.5 -184t117.5 -55q80 0 116 50.5t36 165.5q0 127 -35.5 181.5t-117.5 54.5
q-80 0 -116 -50zM472 826q-18 -51 -57 -78t-95 -27q-54 0 -92.5 27t-55.5 78l31 43h19q13 -26 39.5 -41t62.5 -15q35 0 60.5 14.5t38.5 41.5h19z" />
    <glyph glyph-name="obreve" unicode="&#x14f;" horiz-adv-x="494" 
d="M410 414q54 -60 54 -173q0 -122 -58 -186.5t-167 -64.5q-102 0 -156 60t-54 173q0 122 58 186.5t167 64.5q102 0 156 -60zM175.5 352q-21.5 -32 -21.5 -103q0 -92 22 -131t72 -39q48 0 69.5 31.5t21.5 103.5q0 91 -22.5 130.5t-71.5 39.5q-48 0 -69.5 -32zM399 655
q-15 -57 -53.5 -91t-100.5 -34q-60 0 -96.5 35t-50.5 90l33 45h18q13 -37 38.5 -56.5t61.5 -19.5t61.5 19.5t37.5 56.5h18z" />
    <glyph glyph-name="Ohungarumlaut" unicode="&#x150;" horiz-adv-x="643" 
d="M542.5 570.5q73.5 -82.5 73.5 -234.5q0 -166 -80 -256t-226 -90q-135 0 -208.5 84.5t-73.5 239.5q0 163 79.5 251t225.5 88q136 0 209.5 -82.5zM205 494q-36 -50 -36 -163q0 -129 35.5 -184t117.5 -55q80 0 116 50.5t36 165.5q0 127 -35.5 181.5t-117.5 54.5
q-80 0 -116 -50zM204 769q48 59 89 114l11 2l60 -40l2 -11q-55 -55 -124 -116l-12 -3l-42 34zM356 765q62 78 91 118l11 2l62 -40l1 -11q-60 -59 -125 -116l-11 -3l-42 34z" />
    <glyph glyph-name="ohungarumlaut" unicode="&#x151;" horiz-adv-x="494" 
d="M410 414q54 -60 54 -173q0 -122 -58 -186.5t-167 -64.5q-102 0 -156 60t-54 173q0 122 58 186.5t167 64.5q102 0 156 -60zM175.5 352q-21.5 -32 -21.5 -103q0 -92 22 -131t72 -39q48 0 69.5 31.5t21.5 103.5q0 91 -22.5 130.5t-71.5 39.5q-48 0 -69.5 -32zM223 726l10 2
l61 -44l1 -10q-55 -62 -144 -151l-12 -3l-41 34q69 89 125 172zM375 726l11 2l61 -44l1 -10q-55 -62 -144 -151l-12 -3l-41 34q73 97 124 172z" />
    <glyph glyph-name="OE" unicode="&#x152;" horiz-adv-x="869" 
d="M454 650q56 -6 82 -6h309l8 -11l-10 -101l-150 5h-121l-1 -156l107 -2l109 3l8 -10l-10 -101l-116 3l-101 -1v-71l1 -94l112 -2l161 6l8 -11l-9 -101h-305q-37 1 -102 -6q-66 -6 -102 -6q-145 0 -224.5 86t-79.5 241q0 162 85.5 251.5t238.5 89.5q38 0 102 -6zM210 493.5
q-41 -52.5 -41 -168.5q0 -121 41.5 -177t132.5 -56q28 0 50 3.5t32 9.5q11 5 15.5 15t3.5 28l-4 341q-1 34 -13 43q-9 6 -32.5 10t-53.5 4q-90 0 -131 -52.5z" />
    <glyph glyph-name="oe" unicode="&#x153;" horiz-adv-x="770" 
d="M715 216l-268 -1q4 -63 35 -94.5t92 -31.5q65 0 134 36l12 -7l-19 -98q-70 -30 -140 -30q-55 0 -97.5 19.5t-69.5 56.5q-53 -76 -161 -76q-99 0 -153 61t-54 175q0 119 57.5 183t161.5 64q103 0 153 -72q55 72 160 72q86 0 133 -48.5t47 -134.5q0 -36 -4 -55zM623 305
q0 40 -18.5 60.5t-51.5 20.5q-41 0 -67.5 -25.5t-35.5 -73.5l171 5zM317.5 110.5q21.5 31.5 21.5 103.5q0 91 -22.5 130.5t-71.5 39.5q-48 0 -69.5 -32t-21.5 -103q0 -92 22 -131t72 -39q48 0 69.5 31.5z" />
    <glyph glyph-name="Racute" unicode="&#x154;" horiz-adv-x="590" 
d="M571 32l-2 -15q-65 -23 -133 -27l-14 11q-72 124 -117 216h-97v-13l6 -204h-136l7 192l-7 452l247 1q101 0 156 -49.5t55 -141.5q0 -62 -31.5 -113.5t-88.5 -84.5q78 -124 155 -224zM210 322l99 -4q85 29 85 123q0 51 -27.5 76.5t-84.5 27.5l-68 -4zM393 902l48 -72
l-2 -13q-22 -14 -33 -20q-125 -77 -162 -98l-13 1l-32 50q116 93 181 153z" />
    <glyph glyph-name="racute" unicode="&#x155;" horiz-adv-x="348" 
d="M343 464v-123l-14 -5q-17 7 -37 7q-58 0 -105 -75v-63l7 -205h-133l8 192l-6 264l126 11l-1 -91h8q49 90 122 90q9 0 25 -2zM300 723l48 -72l-2 -13q-22 -14 -33 -20q-125 -77 -162 -98l-13 1l-32 50q116 93 181 153z" />
    <glyph glyph-name="Rcommaaccent" unicode="&#x156;" horiz-adv-x="590" 
d="M571 32l-2 -15q-65 -23 -133 -27l-14 11q-72 124 -117 216h-97v-13l6 -204h-136l7 192l-7 452l247 1q101 0 156 -49.5t55 -141.5q0 -62 -31.5 -113.5t-88.5 -84.5q78 -124 155 -224zM210 322l99 -4q85 29 85 123q0 51 -27.5 76.5t-84.5 27.5l-68 -4zM370 -117
q0 -40 -26.5 -78t-81.5 -77l-38 34l-1 9q49 42 49 88q0 31 -29 54l1 10q40 24 86 37q40 -31 40 -77z" />
    <glyph glyph-name="rcommaaccent" unicode="&#x157;" horiz-adv-x="348" 
d="M343 464v-123l-14 -5q-17 7 -37 7q-58 0 -105 -75v-63l7 -205h-133l8 192l-6 264l126 11l-1 -91h8q49 90 122 90q9 0 25 -2zM202 -117q0 -40 -26.5 -78t-81.5 -77l-38 34l-1 9q49 42 49 88q0 31 -29 54l1 10q40 24 86 37q40 -31 40 -77z" />
    <glyph glyph-name="Rcaron" unicode="&#x158;" horiz-adv-x="590" 
d="M571 32l-2 -15q-65 -23 -133 -27l-14 11q-72 124 -117 216h-97v-13l6 -204h-136l7 192l-7 452l247 1q101 0 156 -49.5t55 -141.5q0 -62 -31.5 -113.5t-88.5 -84.5q78 -124 155 -224zM210 322l99 -4q85 29 85 123q0 51 -27.5 76.5t-84.5 27.5l-68 -4zM443 822
q-69 -47 -133 -104h-27q-70 60 -134 104l24 53h13l26 -15q42 -23 84 -48q38 23 110 63h13z" />
    <glyph glyph-name="rcaron" unicode="&#x159;" horiz-adv-x="348" 
d="M343 464v-123l-14 -5q-17 7 -37 7q-58 0 -105 -75v-63l7 -205h-133l8 192l-6 264l126 11l-1 -91h8q49 90 122 90q9 0 25 -2zM358 665q-57 -52 -141 -141h-29q-78 86 -140 141l33 51h13q66 -52 109 -92q39 37 108 92h13z" />
    <glyph glyph-name="Sacute" unicode="&#x15a;" horiz-adv-x="498" 
d="M448 619l-22 -117l-20 -8q-34 24 -70.5 38t-66.5 14q-40 0 -64 -21.5t-24 -49.5q0 -29 26.5 -49t83.5 -47q55 -25 89.5 -46.5t59 -56.5t24.5 -86q0 -55 -30 -100.5t-85 -72t-127 -26.5q-95 0 -191 41l19 126l15 8q40 -35 87.5 -53.5t84.5 -18.5q44 0 68.5 21.5t24.5 51.5
q0 32 -26.5 52t-85.5 48q-54 24 -88 45t-58 56t-24 85q0 56 30 101.5t84 71.5t123 26q82 0 163 -33zM357 902l48 -72l-2 -13q-22 -14 -33 -20q-125 -77 -162 -98l-13 1l-32 50q116 93 181 153z" />
    <glyph glyph-name="sacute" unicode="&#x15b;" horiz-adv-x="384" 
d="M345 450l-18 -98l-16 -5q-29 19 -58 29t-51 10q-24 0 -38 -12.5t-14 -30.5q0 -21 18.5 -34t58.5 -29t66 -31t44.5 -41.5t18.5 -65.5q0 -40 -20.5 -74.5t-62.5 -56t-103 -21.5q-72 0 -149 30l15 104l13 8q31 -26 69 -41.5t67 -15.5q27 0 42 13.5t15 32.5q0 21 -18.5 34
t-58.5 29q-41 18 -67 32.5t-44.5 41.5t-18.5 67q0 65 49 106.5t133 41.5q68 0 128 -23zM290 723l48 -72l-2 -13q-22 -14 -33 -20q-125 -77 -162 -98l-13 1l-32 50q116 93 181 153z" />
    <glyph glyph-name="Scircumflex" unicode="&#x15c;" horiz-adv-x="498" 
d="M448 619l-22 -117l-20 -8q-34 24 -70.5 38t-66.5 14q-40 0 -64 -21.5t-24 -49.5q0 -29 26.5 -49t83.5 -47q55 -25 89.5 -46.5t59 -56.5t24.5 -86q0 -55 -30 -100.5t-85 -72t-127 -26.5q-95 0 -191 41l19 126l15 8q40 -35 87.5 -53.5t84.5 -18.5q44 0 68.5 21.5t24.5 51.5
q0 32 -26.5 52t-85.5 48q-54 24 -88 45t-58 56t-24 85q0 56 30 101.5t84 71.5t123 26q82 0 163 -33zM105 756q57 52 141 141h29q78 -86 140 -141l-33 -51h-13q-66 52 -109 92q-39 -37 -108 -92h-13z" />
    <glyph glyph-name="scircumflex" unicode="&#x15d;" horiz-adv-x="384" 
d="M345 450l-18 -98l-16 -5q-29 19 -58 29t-51 10q-24 0 -38 -12.5t-14 -30.5q0 -21 18.5 -34t58.5 -29t66 -31t44.5 -41.5t18.5 -65.5q0 -40 -20.5 -74.5t-62.5 -56t-103 -21.5q-72 0 -149 30l15 104l13 8q31 -26 69 -41.5t67 -15.5q27 0 42 13.5t15 32.5q0 21 -18.5 34
t-58.5 29q-41 18 -67 32.5t-44.5 41.5t-18.5 67q0 65 49 106.5t133 41.5q68 0 128 -23zM38 577q57 52 141 141h29q78 -86 140 -141l-33 -51h-13q-66 52 -109 92q-39 -37 -108 -92h-13z" />
    <glyph glyph-name="Scedilla" unicode="&#x15e;" horiz-adv-x="498" 
d="M448 619l-22 -117l-20 -8q-34 24 -70.5 38t-66.5 14q-40 0 -64 -21.5t-24 -49.5q0 -29 26.5 -49t83.5 -47q55 -25 89.5 -46.5t59 -56.5t24.5 -86q0 -55 -30 -100.5t-85 -72t-127 -26.5q-95 0 -191 41l19 126l15 8q40 -35 87.5 -53.5t84.5 -18.5q44 0 68.5 21.5t24.5 51.5
q0 32 -26.5 52t-85.5 48q-54 24 -88 45t-58 56t-24 85q0 56 30 101.5t84 71.5t123 26q82 0 163 -33zM261 -48l34 -19q22 -12 31.5 -26.5t9.5 -32.5q0 -33 -26 -54t-68 -21q-45 0 -82 28l9 56l6 3q30 -30 59 -30q24 0 24 21q0 7 -4 11.5t-13 8.5l-49 28l23 101h64z" />
    <glyph glyph-name="scedilla" unicode="&#x15f;" horiz-adv-x="384" 
d="M345 450l-18 -98l-16 -5q-29 19 -58 29t-51 10q-24 0 -38 -12.5t-14 -30.5q0 -21 18.5 -34t58.5 -29t66 -31t44.5 -41.5t18.5 -65.5q0 -40 -20.5 -74.5t-62.5 -56t-103 -21.5q-72 0 -149 30l15 104l13 8q31 -26 69 -41.5t67 -15.5q27 0 42 13.5t15 32.5q0 21 -18.5 34
t-58.5 29q-41 18 -67 32.5t-44.5 41.5t-18.5 67q0 65 49 106.5t133 41.5q68 0 128 -23zM206 -48l34 -19q22 -12 31.5 -26.5t9.5 -32.5q0 -33 -26 -54t-68 -21q-45 0 -82 28l9 56l6 3q30 -30 59 -30q24 0 24 21q0 7 -4 11.5t-13 8.5l-49 28l23 101h64z" />
    <glyph glyph-name="Scaron" unicode="&#x160;" horiz-adv-x="498" 
d="M448 619l-22 -117l-20 -8q-34 24 -70.5 38t-66.5 14q-40 0 -64 -21.5t-24 -49.5q0 -29 26.5 -49t83.5 -47q55 -25 89.5 -46.5t59 -56.5t24.5 -86q0 -55 -30 -100.5t-85 -72t-127 -26.5q-95 0 -191 41l19 126l15 8q40 -35 87.5 -53.5t84.5 -18.5q44 0 68.5 21.5t24.5 51.5
q0 32 -26.5 52t-85.5 48q-54 24 -88 45t-58 56t-24 85q0 56 30 101.5t84 71.5t123 26q82 0 163 -33zM407 822q-69 -47 -133 -104h-27q-70 60 -134 104l24 53h13l26 -15q42 -23 84 -48q38 23 110 63h13z" />
    <glyph glyph-name="scaron" unicode="&#x161;" horiz-adv-x="384" 
d="M345 450l-18 -98l-16 -5q-29 19 -58 29t-51 10q-24 0 -38 -12.5t-14 -30.5q0 -21 18.5 -34t58.5 -29t66 -31t44.5 -41.5t18.5 -65.5q0 -40 -20.5 -74.5t-62.5 -56t-103 -21.5q-72 0 -149 30l15 104l13 8q31 -26 69 -41.5t67 -15.5q27 0 42 13.5t15 32.5q0 21 -18.5 34
t-58.5 29q-41 18 -67 32.5t-44.5 41.5t-18.5 67q0 65 49 106.5t133 41.5q68 0 128 -23zM348 665q-57 -52 -141 -141h-29q-78 86 -140 141l33 51h13q66 -52 109 -92q39 37 108 92h13z" />
    <glyph glyph-name="uni0162" unicode="&#x162;" horiz-adv-x="503" 
d="M489 633l-8 -101l-121 6h-40l-5 -334l6 -204h-39l-12 -47l34 -20q22 -12 31.5 -26.5t9.5 -32.5q0 -33 -26 -54t-69 -21t-82 28l10 57l6 2q32 -30 58 -30q11 0 18 5.5t7 15.5q0 7 -4 11.5t-13 8.5l-49 28l17 75h-33l7 192l-5 346h-40l-123 -6l-9 11l9 101h457z" />
    <glyph glyph-name="uni0163" unicode="&#x163;" horiz-adv-x="338" 
d="M316 115l11 -10l-13 -79q-51 -26 -104 -32q-135 14 -135 132l5 83l-1 172h-62l-5 7l7 73h59v77l121 39l9 -8l-3 -108h119l4 -7l-6 -73h-119l-6 -224q0 -32 12 -45.5t40 -13.5q32 0 67 17zM226 -48l34 -19q22 -12 31.5 -26.5t9.5 -32.5q0 -33 -26 -54t-68 -21
q-45 0 -82 28l9 56l6 3q30 -30 59 -30q24 0 24 21q0 7 -4 11.5t-13 8.5l-49 28l23 101h64z" />
    <glyph glyph-name="Tcaron" unicode="&#x164;" horiz-adv-x="503" 
d="M489 633l-8 -101l-121 6h-40l-5 -334l6 -204h-136l7 192l-5 346h-40l-123 -6l-9 11l9 101h457zM401 822q-69 -47 -133 -104h-27q-70 60 -134 104l24 53h13l26 -15q42 -23 84 -48q38 23 110 63h13z" />
    <glyph glyph-name="tcaron" unicode="&#x165;" horiz-adv-x="363" 
d="M316 115l11 -10l-13 -79q-51 -26 -104 -32q-135 14 -135 132l5 83l-1 172h-62l-5 7l7 73h59v77l121 39l9 -8l-3 -108h119l4 -7l-6 -73h-119l-6 -224q0 -32 12 -45.5t40 -13.5q32 0 67 17zM375 711l-33 -199l-58 -9l-10 7l-2 204l95 6z" />
    <glyph glyph-name="Tbar" unicode="&#x166;" horiz-adv-x="503" 
d="M320 538l-3 -197h98l9 -9l-5 -65h-103l-1 -63l6 -204h-136l7 192l-1 75h-89l-9 9l6 65h91l-3 197h-40l-123 -6l-9 11l9 101h457l8 -11l-8 -101l-121 6h-40z" />
    <glyph glyph-name="tbar" unicode="&#x167;" horiz-adv-x="343" 
d="M319 115l10 -10l-12 -79q-53 -26 -104 -32q-135 13 -135 132l5 83v14h-58l-9 9l5 65h61v84h-63l-4 7l6 73h60v77l120 39l10 -8l-3 -108h118l4 -7l-6 -73h-118l-2 -84h104l9 -9l-5 -65h-110l-2 -66q-1 -32 11.5 -45.5t40.5 -13.5q32 0 67 17z" />
    <glyph glyph-name="Umacron" unicode="&#x16a;" horiz-adv-x="638" 
d="M573 317l-1 -85q1 -115 -67 -178t-195 -63q-122 0 -186 61t-61 175l1 93l-3 324h136l-7 -399q-1 -73 31 -108t97 -35q130 0 129 136l-7 406h138zM468 830l-6 -74h-280l-9 9l6 74h280z" />
    <glyph glyph-name="umacron" unicode="&#x16b;" horiz-adv-x="522" 
d="M505 87l-12 -70q-37 -24 -76 -25q-29 5 -48 23t-29 52h-9q-57 -56 -118 -73q-76 0 -115.5 34.5t-38.5 99.5l2 118l-5 210l129 11l-3 -295q-1 -35 14 -53t45 -18q44 0 87 39v316l127 11l-9 -346q0 -16 5.5 -23t17.5 -7q11 0 27 4zM405 651l-6 -74h-280l-9 9l6 74h280z" />
    <glyph glyph-name="Ubreve" unicode="&#x16c;" horiz-adv-x="638" 
d="M573 317l-1 -85q1 -115 -67 -178t-195 -63q-122 0 -186 61t-61 175l1 93l-3 324h136l-7 -399q-1 -73 31 -108t97 -35q130 0 129 136l-7 406h138zM472 834q-15 -57 -53.5 -91t-100.5 -34q-60 0 -96.5 35t-50.5 90l33 45h18q13 -37 38.5 -56.5t61.5 -19.5t61.5 19.5
t37.5 56.5h18z" />
    <glyph glyph-name="ubreve" unicode="&#x16d;" horiz-adv-x="522" 
d="M505 87l-12 -70q-37 -24 -76 -25q-29 5 -48 23t-29 52h-9q-57 -56 -118 -73q-76 0 -115.5 34.5t-38.5 99.5l2 118l-5 210l129 11l-3 -295q-1 -35 14 -53t45 -18q44 0 87 39v316l127 11l-9 -346q0 -16 5.5 -23t17.5 -7q11 0 27 4zM409 655q-15 -57 -53.5 -91t-100.5 -34
q-60 0 -96.5 35t-50.5 90l33 45h18q13 -37 38.5 -56.5t61.5 -19.5t61.5 19.5t37.5 56.5h18z" />
    <glyph glyph-name="Uring" unicode="&#x16e;" horiz-adv-x="638" 
d="M573 317l-1 -85q1 -115 -67 -178t-195 -63q-122 0 -186 61t-61 175l1 93l-3 324h136l-7 -399q-1 -73 31 -108t97 -35q130 0 129 136l-7 406h138zM392 879q24 -24 24 -67q0 -47 -26.5 -72.5t-72.5 -25.5q-44 0 -68.5 24t-24.5 70q0 45 25.5 70t72.5 25q46 0 70 -24z
M279 809q0 -40 41 -40t41 38q0 39 -42 39q-40 0 -40 -37z" />
    <glyph glyph-name="uring" unicode="&#x16f;" horiz-adv-x="522" 
d="M505 87l-12 -70q-37 -24 -76 -25q-29 5 -48 23t-29 52h-9q-57 -56 -118 -73q-76 0 -115.5 34.5t-38.5 99.5l2 118l-5 210l129 11l-3 -295q-1 -35 14 -53t45 -18q44 0 87 39v316l127 11l-9 -346q0 -16 5.5 -23t17.5 -7q11 0 27 4zM329 700q24 -24 24 -67
q0 -47 -26.5 -72.5t-72.5 -25.5q-44 0 -68.5 24t-24.5 70q0 45 25.5 70t72.5 25q46 0 70 -24zM216 630q0 -40 41 -40t41 38q0 39 -42 39q-40 0 -40 -37z" />
    <glyph glyph-name="Uhungarumlaut" unicode="&#x170;" horiz-adv-x="638" 
d="M573 317l-1 -85q1 -115 -67 -178t-195 -63q-122 0 -186 61t-61 175l1 93l-3 324h136l-7 -399q-1 -73 31 -108t97 -35q130 0 129 136l-7 406h138zM203 769q48 59 89 114l11 2l60 -40l2 -11q-55 -55 -124 -116l-12 -3l-42 34zM355 765q62 78 91 118l11 2l62 -40l1 -11
q-60 -59 -125 -116l-11 -3l-42 34z" />
    <glyph glyph-name="uhungarumlaut" unicode="&#x171;" horiz-adv-x="522" 
d="M505 87l-12 -70q-37 -24 -76 -25q-29 5 -48 23t-29 52h-9q-57 -56 -118 -73q-76 0 -115.5 34.5t-38.5 99.5l2 118l-5 210l129 11l-3 -295q-1 -35 14 -53t45 -18q44 0 87 39v316l127 11l-9 -346q0 -16 5.5 -23t17.5 -7q11 0 27 4zM233 726l10 2l61 -44l1 -10
q-55 -62 -144 -151l-12 -3l-41 34q69 89 125 172zM385 726l11 2l61 -44l1 -10q-55 -62 -144 -151l-12 -3l-41 34q73 97 124 172z" />
    <glyph glyph-name="Uogonek" unicode="&#x172;" horiz-adv-x="638" 
d="M573 317l-1 -85q1 -115 -67 -178t-195 -63q-122 0 -186 61t-61 175l1 93l-3 324h136l-7 -399q-1 -73 31 -108t97 -35q130 0 129 136l-7 406h138zM323 -169q-28 23 -28 62q0 33 24.5 65.5t93.5 82.5h72q-67 -67 -86.5 -91.5t-19.5 -39.5q0 -25 29 -25q31 0 73 30l7 -2
l16 -62q-53 -43 -106 -43q-47 0 -75 23z" />
    <glyph glyph-name="uogonek" unicode="&#x173;" horiz-adv-x="522" 
d="M505 87l-12 -70q-37 -24 -76 -25q-29 5 -48 23t-29 52h-9q-57 -56 -118 -73q-76 0 -115.5 34.5t-38.5 99.5l2 118l-5 210l129 11l-3 -295q-1 -35 14 -53t45 -18q44 0 87 39v316l127 11l-9 -346q0 -16 5.5 -23t17.5 -7q11 0 27 4zM331 -193q-28 23 -28 62q0 33 24.5 65.5
t93.5 82.5h72q-67 -67 -86.5 -91.5t-19.5 -39.5q0 -25 29 -25q31 0 73 30l7 -2l16 -62q-53 -43 -106 -43q-47 0 -75 23z" />
    <glyph glyph-name="Wcircumflex" unicode="&#x174;" horiz-adv-x="903" 
d="M686 0h-142l-96 308h-9l-97 -308h-143l-180 644h133l10 -79l114 -425h9l109 347l-46 157h138l15 -93l116 -411h9l130 416l16 88h126zM299 781q69 47 133 104h27q70 -60 134 -104l-24 -53h-13l-26 15q-42 23 -84 48q-38 -23 -110 -63h-13z" />
    <glyph glyph-name="wcircumflex" unicode="&#x175;" horiz-adv-x="698" 
d="M145 395l57 -261h8l70 254l16 77h129l10 -70l59 -260h8l68 253l16 77h112l-145 -465h-125l-71 299h-9l-83 -299h-131l-121 462l121 6zM200 577q57 52 141 141h29q78 -86 140 -141l-33 -51h-13q-66 52 -109 92q-39 -37 -108 -92h-13z" />
    <glyph glyph-name="Ycircumflex" unicode="&#x176;" horiz-adv-x="558" 
d="M333 179l6 -179h-135l6 179l-1 38l-205 427h144l14 -45l109 -245h9l122 241l19 49h139l-225 -422zM130 781q69 47 133 104h27q70 -60 134 -104l-24 -53h-13l-26 15q-42 23 -84 48q-38 -23 -110 -63h-13z" />
    <glyph glyph-name="ycircumflex" unicode="&#x177;" horiz-adv-x="447" 
d="M141 394l83 -260h8l83 249l17 82h114l-152 -434q-24 -68 -54 -109.5t-75 -68t-116 -45.5l-10 1q-34 33 -56 78l4 13q63 11 104 32.5t78 67.5l-170 462l126 6zM73 577q57 52 141 141h29q78 -86 140 -141l-33 -51h-13q-66 52 -109 92q-39 -37 -108 -92h-13z" />
    <glyph glyph-name="Ydieresis" unicode="&#x178;" horiz-adv-x="558" 
d="M333 179l6 -179h-135l6 179l-1 38l-205 427h144l14 -45l109 -245h9l122 241l19 49h139l-225 -422zM237 845q16 -16 16 -45q0 -31 -17.5 -49t-47.5 -18q-29 0 -45 16t-16 46t17.5 48t48.5 18q28 0 44 -16zM410 845q16 -16 16 -45q0 -31 -17.5 -49t-46.5 -18t-45 16t-16 46
t17.5 48t47.5 18q28 0 44 -16z" />
    <glyph glyph-name="Zacute" unicode="&#x179;" horiz-adv-x="547" 
d="M510 546l-320 -443h216l109 9l5 -8l-11 -107l-145 3h-257l-77 -4v97l323 447h-204l-109 -9l-6 7l10 107l404 -1l62 1v-99zM386 886l34 -79l-4 -12q-97 -38 -216 -78l-12 4l-22 55q123 62 207 113z" />
    <glyph glyph-name="zacute" unicode="&#x17a;" horiz-adv-x="424" 
d="M138 465h202l51 1l1 -79l-225 -302h141l85 8l7 -9l-9 -86l-116 2h-184l-64 -3v78l227 304h-134l-83 -7l-8 9l10 86zM309 723l48 -72l-2 -13q-22 -14 -33 -20q-125 -77 -162 -98l-13 1l-32 50q116 93 181 153z" />
    <glyph glyph-name="Zdotaccent" unicode="&#x17b;" horiz-adv-x="547" 
d="M510 546l-320 -443h216l109 9l5 -8l-11 -107l-145 3h-257l-77 -4v97l323 447h-204l-109 -9l-6 7l10 107l404 -1l62 1v-99zM325.5 854q17.5 -18 17.5 -50q0 -34 -19 -54t-52 -20t-50.5 18t-17.5 51t19.5 53t53.5 20q31 0 48.5 -18z" />
    <glyph glyph-name="zdotaccent" unicode="&#x17c;" horiz-adv-x="424" 
d="M138 465h202l51 1l1 -79l-225 -302h141l85 8l7 -9l-9 -86l-116 2h-184l-64 -3v78l227 304h-134l-83 -7l-8 9l10 86zM263.5 675q17.5 -18 17.5 -50q0 -34 -19 -54t-52 -20t-50.5 18t-17.5 51t19.5 53t53.5 20q31 0 48.5 -18z" />
    <glyph glyph-name="Zcaron" unicode="&#x17d;" horiz-adv-x="547" 
d="M510 546l-320 -443h216l109 9l5 -8l-11 -107l-145 3h-257l-77 -4v97l323 447h-204l-109 -9l-6 7l10 107l404 -1l62 1v-99zM421 822q-69 -47 -133 -104h-27q-70 60 -134 104l24 53h13l26 -15q42 -23 84 -48q38 23 110 63h13z" />
    <glyph glyph-name="zcaron" unicode="&#x17e;" horiz-adv-x="424" 
d="M138 465h202l51 1l1 -79l-225 -302h141l85 8l7 -9l-9 -86l-116 2h-184l-64 -3v78l227 304h-134l-83 -7l-8 9l10 86zM367 665q-57 -52 -141 -141h-29q-78 86 -140 141l33 51h13q66 -52 109 -92q39 37 108 92h13z" />
    <glyph glyph-name="uni018F" unicode="&#x18f;" horiz-adv-x="630" 
d="M458.5 611.5q69.5 -39.5 106.5 -113.5t37 -175t-36.5 -176t-104.5 -115.5t-159 -40.5q-78 0 -137.5 30.5t-92.5 85.5t-33 128q0 30 7 75l18 21l402 2q-7 205 -186 205q-96 0 -194 -52l-14 10l23 112q95 43 198 43q96 0 165.5 -39.5zM407 132q40 40 53 114l-287 -5l-2 -21
q0 -59 36 -93.5t96 -34.5q64 0 104 40z" />
    <glyph glyph-name="florin" unicode="&#x192;" horiz-adv-x="316" 
d="M407 611l-19 -88l-9 -5q-41 17 -73 17q-33 0 -51.5 -17t-23.5 -51l-11 -82h102l3 -8l-7 -66h-108l-18 -126l-15 -130q-8 -72 -39 -117t-101 -88l-54 53l1 10q39 29 57 59.5t25 79.5l15 122l16 137h-66l-4 7l7 67h71l8 62q10 84 66 128.5t148 44.5q37 0 80 -9z" />
    <glyph glyph-name="Ohorn" unicode="&#x1a0;" horiz-adv-x="678" 
d="M626 601q-26 -30 -69 -43q63 -83 63 -223q0 -165 -79.5 -255t-224.5 -90q-135 0 -209 84.5t-74 238.5q0 107 36 183.5t101.5 116.5t152.5 40q38 0 67 -5.5t64 -14.5q33 -10 50 -10q46 0 46 40q0 37 -36 68l1 11q36 25 63 25q29 0 51.5 -28.5t22.5 -67.5q0 -40 -26 -70z
M443 142.5q36 50.5 36 165.5q0 86 -15.5 137.5t-49 75t-88.5 23.5q-80 0 -116 -50t-36 -163q0 -129 36 -184t117 -55q80 0 116 50.5z" />
    <glyph glyph-name="ohorn" unicode="&#x1a1;" horiz-adv-x="531" 
d="M492 443.5q-32 -34.5 -77 -39.5q49 -61 49 -164q0 -121 -57.5 -185.5t-166.5 -64.5q-103 0 -157 60t-54 176q0 120 57.5 184t166.5 64q27 0 74 -9q30 -7 46 -7q22 0 35 13t13 35q0 31 -32 60l3 11q35 30 65 30q27 0 47 -25.5t20 -58.5q0 -45 -32 -79.5zM318 111
q22 33 22 107q0 90 -22.5 128t-73.5 38q-48 0 -70 -33t-22 -106q0 -91 22.5 -129t74.5 -38q47 0 69 33z" />
    <glyph glyph-name="Uhorn" unicode="&#x1af;" horiz-adv-x="648" 
d="M644.5 636.5q-24.5 -30.5 -67.5 -46.5l-4 -273l-1 -85q1 -115 -67 -178t-195 -63q-122 0 -186 61t-61 175l1 93l-3 324h136l-7 -399q-1 -73 31 -108t97 -35q130 0 129 136l-7 406h64q62 0 62 49q0 32 -32 60l3 10q36 26 65 26q26 0 46.5 -24.5t20.5 -59.5
q0 -38 -24.5 -68.5z" />
    <glyph glyph-name="uhorn" unicode="&#x1b0;" horiz-adv-x="549" 
d="M525 592q20 -24 20 -59q0 -39 -25.5 -69.5t-66.5 -45.5l-7 -296q0 -16 5.5 -23t18.5 -7q10 0 26 4l10 -8l-13 -71q-34 -23 -71 -24q-66 3 -86 72h-8q-54 -53 -115 -71q-76 0 -115.5 34.5t-38.5 99.5l2 118l-5 210l129 11l-3 -295q-2 -71 60 -71q42 0 86 39v316l45 6
q36 5 52.5 18t16.5 35q0 31 -31 60l2 11q37 30 66 30q26 0 46 -24z" />
    <glyph glyph-name="uni01C4" unicode="&#x1c4;" horiz-adv-x="1202" 
d="M552 570q75 -78 75 -224q0 -171 -84 -262t-240 -91q-47 0 -112.5 2t-112.5 5l7 192l-7 452l259 4q140 0 215 -78zM486 315q0 118 -38.5 171.5t-120.5 53.5q-53 0 -113 -5l-6 -331l3 -99q70 -7 116 -7q159 0 159 217zM1165 546l-320 -443h216l109 9l5 -8l-11 -107l-145 3
h-257l-77 -4v97l323 447h-204l-109 -9l-6 7l10 107l404 -1l62 1v-99zM1076 822q-69 -47 -133 -104h-27q-70 60 -134 104l24 53h13l26 -15q42 -23 84 -48q38 23 110 63h13z" />
    <glyph glyph-name="uni01C5" unicode="&#x1c5;" horiz-adv-x="1079" 
d="M552 570q75 -78 75 -224q0 -171 -84 -262t-240 -91q-47 0 -112.5 2t-112.5 5l7 192l-7 452l259 4q140 0 215 -78zM486 315q0 118 -38.5 171.5t-120.5 53.5q-53 0 -113 -5l-6 -331l3 -99q70 -7 116 -7q159 0 159 217zM793 465h202l51 1l1 -79l-225 -302h141l85 8l7 -9
l-9 -86l-116 2h-184l-64 -3v78l227 304h-134l-83 -7l-8 9l10 86zM1022 665q-57 -52 -141 -141h-29q-78 86 -140 141l33 51h13q66 -52 109 -92q39 37 108 92h13z" />
    <glyph glyph-name="uni01C6" unicode="&#x1c6;" horiz-adv-x="950" 
d="M449 205l3 -84q0 -17 4.5 -23.5t16.5 -6.5q11 0 27 4l9 -8l-11 -70q-34 -21 -74 -25q-31 3 -52 21t-29 49h-8q-49 -45 -100 -69q-98 0 -152 62.5t-54 173.5q0 118 62 181t172 63q29 0 64 -6l-2 225l132 10zM154 256q0 -79 24 -119t70 -40q44 0 81 41l2 55l-3 172
q-39 18 -74 18q-100 0 -100 -127zM664 465h202l51 1l1 -79l-225 -302h141l85 8l7 -9l-9 -86l-116 2h-184l-64 -3v78l227 304h-134l-83 -7l-8 9l10 86zM893 665q-57 -52 -141 -141h-29q-78 86 -140 141l33 51h13q66 -52 109 -92q39 37 108 92h13z" />
    <glyph glyph-name="uni01C7" unicode="&#x1c7;" horiz-adv-x="759" 
d="M431 101l-9 -101h-348l7 192l-7 452h138l-8 -440l3 -92h216zM675 212l2 -91q0 -57 -19 -97t-61.5 -71t-116.5 -59l-41 72v12q62 32 87.5 63.5t25.5 81.5v76l-6 345l-106 -3l-10 10l7 93h245z" />
    <glyph glyph-name="uni01C8" unicode="&#x1c8;" horiz-adv-x="718" 
d="M431 101l-9 -101h-348l7 192l-7 452h138l-8 -440l3 -92h216zM653 465l-8 -260l6 -178q0 -79 -38 -131t-125 -91l-46 59v12q45 25 64 59t19 88l2 169l-4 189h-81l-8 8l7 72h84l124 7zM624.5 675q17.5 -18 17.5 -50q0 -34 -19 -54t-52 -20t-50.5 18t-17.5 51t19.5 53
t53.5 20q31 0 48.5 -18z" />
    <glyph glyph-name="uni01C9" unicode="&#x1c9;" horiz-adv-x="548" 
d="M191 205l7 -205h-133l7 193l-6 499l133 10zM483 465l-8 -260l6 -178q0 -79 -38 -131t-125 -91l-46 59v12q45 25 64 59t19 88l2 169l-4 189h-81l-8 8l7 72h84l124 7zM454.5 675q17.5 -18 17.5 -50q0 -34 -19 -54t-52 -20t-50.5 18t-17.5 51t19.5 53t53.5 20q31 0 48.5 -18
z" />
    <glyph glyph-name="uni01CA" unicode="&#x1ca;" horiz-adv-x="1030" 
d="M610 199l5 -199h-146l-263 436h-8l-1 -214l4 -222h-123l7 190l-6 454h145l263 -436h9l-3 430l125 8zM946 212l2 -91q0 -57 -19 -97t-61.5 -71t-116.5 -59l-41 72v12q62 32 87.5 63.5t25.5 81.5v76l-6 345l-106 -3l-10 10l7 93h245z" />
    <glyph glyph-name="uni01CB" unicode="&#x1cb;" horiz-adv-x="980" 
d="M610 199l5 -199h-146l-263 436h-8l-1 -214l4 -222h-123l7 190l-6 454h145l263 -436h9l-3 430l125 8zM915 465l-8 -260l6 -178q0 -79 -38 -131t-125 -91l-46 59v12q45 25 64 59t19 88l2 169l-4 189h-81l-8 8l7 72h84l124 7zM886.5 675q17.5 -18 17.5 -50q0 -34 -19 -54
t-52 -20t-50.5 18t-17.5 51t19.5 53t53.5 20q31 0 48.5 -18z" />
    <glyph glyph-name="uni01CC" unicode="&#x1cc;" horiz-adv-x="814" 
d="M347 290q1 35 -15.5 54.5t-47.5 19.5q-45 0 -96 -43v-116l6 -205h-133l7 192l-5 264l126 11v-68h7q55 50 120 72q76 0 116 -34.5t38 -99.5l-3 -133l6 -204h-134zM749 465l-8 -260l6 -178q0 -79 -38 -131t-125 -91l-46 59v12q45 25 64 59t19 88l2 169l-4 189h-81l-8 8
l7 72h84l124 7zM720.5 675q17.5 -18 17.5 -50q0 -34 -19 -54t-52 -20t-50.5 18t-17.5 51t19.5 53t53.5 20q31 0 48.5 -18z" />
    <glyph glyph-name="uni01CD" unicode="&#x1cd;" horiz-adv-x="600" 
d="M584 0h-138l-16 84l-17 60l-126 3l-111 -3l-17 -53l-17 -91h-134l218 644h161zM384 249l-76 268h-9l-88 -268l86 -2zM448 822q-69 -47 -133 -104h-27q-70 60 -134 104l24 53h13l26 -15q42 -23 84 -48q38 23 110 63h13z" />
    <glyph glyph-name="uni01CE" unicode="&#x1ce;" horiz-adv-x="481" 
d="M364.5 439.5q43.5 -34.5 43.5 -96.5q0 -18 -6 -114q-1 -28 -3 -57.5t-2 -50.5q0 -17 5 -23.5t18 -6.5q10 0 26 4l10 -8l-12 -70q-32 -21 -73 -25q-30 3 -50 21.5t-27 51.5h-7q-50 -53 -103 -74q-72 1 -113 38t-41 101q0 50 25.5 78.5t77.5 38.5l153 29v41q0 65 -64 65
q-31 0 -65.5 -14t-77.5 -44l-10 6l-15 88q43 27 92 41.5t98 14.5q77 0 120.5 -34.5zM179 186q-16 -4 -23.5 -13.5t-7.5 -28.5q0 -26 14 -40.5t39 -14.5q39 0 82 46l2 74zM389 665q-57 -52 -141 -141h-29q-78 86 -140 141l33 51h13q66 -52 109 -92q39 37 108 92h13z" />
    <glyph glyph-name="uni01CF" unicode="&#x1cf;" horiz-adv-x="295" 
d="M208 204l6 -204h-136l7 192l-7 452h138zM294 822q-69 -47 -133 -104h-27q-70 60 -134 104l24 53h13l26 -15q42 -23 84 -48q38 23 110 63h13z" />
    <glyph glyph-name="uni01D0" unicode="&#x1d0;" horiz-adv-x="261" 
d="M70 192l-5 264l131 11l-6 -262l6 -205h-133zM285 665q-57 -52 -141 -141h-29q-78 86 -140 141l33 51h13q66 -52 109 -92q39 37 108 92h13z" />
    <glyph glyph-name="uni01D1" unicode="&#x1d1;" horiz-adv-x="643" 
d="M542.5 570.5q73.5 -82.5 73.5 -234.5q0 -166 -80 -256t-226 -90q-135 0 -208.5 84.5t-73.5 239.5q0 163 79.5 251t225.5 88q136 0 209.5 -82.5zM205 494q-36 -50 -36 -163q0 -129 35.5 -184t117.5 -55q80 0 116 50.5t36 165.5q0 127 -35.5 181.5t-117.5 54.5
q-80 0 -116 -50zM469 822q-69 -47 -133 -104h-27q-70 60 -134 104l24 53h13l26 -15q42 -23 84 -48q38 23 110 63h13z" />
    <glyph glyph-name="uni01D2" unicode="&#x1d2;" horiz-adv-x="494" 
d="M410 414q54 -60 54 -173q0 -122 -58 -186.5t-167 -64.5q-102 0 -156 60t-54 173q0 122 58 186.5t167 64.5q102 0 156 -60zM175.5 352q-21.5 -32 -21.5 -103q0 -92 22 -131t72 -39q48 0 69.5 31.5t21.5 103.5q0 91 -22.5 130.5t-71.5 39.5q-48 0 -69.5 -32zM403 665
q-57 -52 -141 -141h-29q-78 86 -140 141l33 51h13q66 -52 109 -92q39 37 108 92h13z" />
    <glyph glyph-name="uni01D3" unicode="&#x1d3;" horiz-adv-x="638" 
d="M573 317l-1 -85q1 -115 -67 -178t-195 -63q-122 0 -186 61t-61 175l1 93l-3 324h136l-7 -399q-1 -73 31 -108t97 -35q130 0 129 136l-7 406h138zM468 822q-69 -47 -133 -104h-27q-70 60 -134 104l24 53h13l26 -15q42 -23 84 -48q38 23 110 63h13z" />
    <glyph glyph-name="uni01D4" unicode="&#x1d4;" horiz-adv-x="522" 
d="M505 87l-12 -70q-37 -24 -76 -25q-29 5 -48 23t-29 52h-9q-57 -56 -118 -73q-76 0 -115.5 34.5t-38.5 99.5l2 118l-5 210l129 11l-3 -295q-1 -35 14 -53t45 -18q44 0 87 39v316l127 11l-9 -346q0 -16 5.5 -23t17.5 -7q11 0 27 4zM413 665q-57 -52 -141 -141h-29
q-78 86 -140 141l33 51h13q66 -52 109 -92q39 37 108 92h13z" />
    <glyph glyph-name="uni01D5" unicode="&#x1d5;" horiz-adv-x="638" 
d="M573 317l-1 -85q1 -115 -67 -178t-195 -63q-122 0 -186 61t-61 175l1 93l-3 324h136l-7 -399q-1 -73 31 -108t97 -35q130 0 129 136l-7 406h138zM463 971l-8 -75h-265l-9 10l6 75h266zM279 823.5q15 -15.5 15 -44.5t-17 -47t-45 -18q-29 0 -44.5 16t-15.5 45t17.5 46.5
t46.5 17.5q28 0 43 -15.5zM453 823.5q15 -15.5 15 -44.5t-17 -47t-45 -18q-29 0 -44.5 16t-15.5 45t17.5 46.5t46.5 17.5q28 0 43 -15.5z" />
    <glyph glyph-name="uni01D6" unicode="&#x1d6;" horiz-adv-x="522" 
d="M505 87l-12 -70q-37 -24 -76 -25q-29 5 -48 23t-29 52h-9q-57 -56 -118 -73q-76 0 -115.5 34.5t-38.5 99.5l2 118l-5 210l129 11l-3 -295q-1 -35 14 -53t45 -18q44 0 87 39v316l127 11l-9 -346q0 -16 5.5 -23t17.5 -7q11 0 27 4zM400 792l-8 -75h-265l-9 10l6 75h266z
M216 644.5q15 -15.5 15 -44.5t-17 -47t-45 -18q-29 0 -44.5 16t-15.5 45t17.5 46.5t46.5 17.5q28 0 43 -15.5zM390 644.5q15 -15.5 15 -44.5t-17 -47t-45 -18q-29 0 -44.5 16t-15.5 45t17.5 46.5t46.5 17.5q28 0 43 -15.5z" />
    <glyph glyph-name="uni01D7" unicode="&#x1d7;" horiz-adv-x="638" 
d="M573 317l-1 -85q1 -115 -67 -178t-195 -63q-122 0 -186 61t-61 175l1 93l-3 324h136l-7 -399q-1 -73 31 -108t97 -35q130 0 129 136l-7 406h138zM425 1019l20 -83l-7 -12q-145 -27 -224 -38l-12 5l-12 59q133 40 223 75zM279 823.5q15 -15.5 15 -44.5t-17 -47t-45 -18
q-29 0 -44.5 16t-15.5 45t17.5 46.5t46.5 17.5q28 0 43 -15.5zM453 823.5q15 -15.5 15 -44.5t-17 -47t-45 -18q-29 0 -44.5 16t-15.5 45t17.5 46.5t46.5 17.5q28 0 43 -15.5z" />
    <glyph glyph-name="uni01D8" unicode="&#x1d8;" horiz-adv-x="522" 
d="M505 87l-12 -70q-37 -24 -76 -25q-29 5 -48 23t-29 52h-9q-57 -56 -118 -73q-76 0 -115.5 34.5t-38.5 99.5l2 118l-5 210l129 11l-3 -295q-1 -35 14 -53t45 -18q44 0 87 39v316l127 11l-9 -346q0 -16 5.5 -23t17.5 -7q11 0 27 4zM362 837l20 -84l-7 -11
q-108 -22 -225 -39l-12 5l-12 60q121 36 225 74zM215.5 644q15.5 -16 15.5 -44q0 -29 -17 -47t-46 -18t-44.5 16t-15.5 45t17.5 46.5t46.5 17.5q28 0 43.5 -16zM389.5 644.5q15.5 -15.5 15.5 -44.5t-17 -47t-46 -18q-28 0 -43.5 16t-15.5 45t17 46.5t46 17.5
q28 0 43.5 -15.5z" />
    <glyph glyph-name="uni01D9" unicode="&#x1d9;" horiz-adv-x="638" 
d="M573 317l-1 -85q1 -115 -67 -178t-195 -63q-122 0 -186 61t-61 175l1 93l-3 324h136l-7 -399q-1 -73 31 -108t97 -35q130 0 129 136l-7 406h138zM467 957q-68 -47 -133 -104h-27q-73 61 -134 104l24 53h13l110 -63q72 42 110 63h13zM279 823.5q15 -15.5 15 -44.5t-17 -47
t-45 -18q-29 0 -44.5 16t-15.5 45t17.5 46.5t46.5 17.5q28 0 43 -15.5zM453 823.5q15 -15.5 15 -44.5t-17 -47t-45 -18q-29 0 -44.5 16t-15.5 45t17.5 46.5t46.5 17.5q28 0 43 -15.5z" />
    <glyph glyph-name="uni01DA" unicode="&#x1da;" horiz-adv-x="522" 
d="M505 87l-12 -70q-37 -24 -76 -25q-29 5 -48 23t-29 52h-9q-57 -56 -118 -73q-76 0 -115.5 34.5t-38.5 99.5l2 118l-5 210l129 11l-3 -295q-1 -35 14 -53t45 -18q44 0 87 39v316l127 11l-9 -346q0 -16 5.5 -23t17.5 -7q11 0 27 4zM404 778q-68 -47 -133 -104h-27
q-73 61 -134 104l24 53h13l110 -63q72 42 110 63h13zM216 644.5q15 -15.5 15 -44.5t-17 -47t-45 -18q-29 0 -44.5 16t-15.5 45t17.5 46.5t46.5 17.5q28 0 43 -15.5zM390 644.5q15 -15.5 15 -44.5t-17 -47t-45 -18q-29 0 -44.5 16t-15.5 45t17.5 46.5t46.5 17.5
q28 0 43 -15.5z" />
    <glyph glyph-name="uni01DB" unicode="&#x1db;" horiz-adv-x="638" 
d="M573 317l-1 -85q1 -115 -67 -178t-195 -63q-122 0 -186 61t-61 175l1 93l-3 324h136l-7 -399q-1 -73 31 -108t97 -35q130 0 129 136l-7 406h138zM445 950l-11 -59l-13 -5q-83 11 -225 38l-6 12l20 83l11 6q103 -39 224 -75zM279 823.5q15 -15.5 15 -44.5t-17 -47t-45 -18
q-29 0 -44.5 16t-15.5 45t17.5 46.5t46.5 17.5q28 0 43 -15.5zM453 823.5q15 -15.5 15 -44.5t-17 -47t-45 -18q-29 0 -44.5 16t-15.5 45t17.5 46.5t46.5 17.5q28 0 43 -15.5z" />
    <glyph glyph-name="uni01DC" unicode="&#x1dc;" horiz-adv-x="522" 
d="M505 87l-12 -70q-37 -24 -76 -25q-29 5 -48 23t-29 52h-9q-57 -56 -118 -73q-76 0 -115.5 34.5t-38.5 99.5l2 118l-5 210l129 11l-3 -295q-1 -35 14 -53t45 -18q44 0 87 39v316l127 11l-9 -346q0 -16 5.5 -23t17.5 -7q11 0 27 4zM133 742l-6 11l20 84l11 5
q108 -40 224 -74l-11 -60l-13 -5q-122 18 -225 39zM124.5 551q-15.5 16 -15.5 45t17.5 46.5t46.5 17.5q28 0 43 -15.5t15 -44.5t-17 -47t-45 -18q-29 0 -44.5 16zM298.5 551q-15.5 16 -15.5 45t17.5 46.5t46.5 17.5q28 0 43 -15.5t15 -44.5t-17 -47t-45 -18q-29 0 -44.5 16z
" />
    <glyph glyph-name="Gcaron" unicode="&#x1e6;" horiz-adv-x="598" 
d="M553 613l-29 -122l-13 -2q-49 28 -87.5 40.5t-82.5 12.5q-89 0 -130 -53t-41 -174q0 -80 17.5 -127t54.5 -68.5t98 -21.5q21 0 39.5 3t45.5 11l2 55l-2 102l125 9l-3 -90l3 -157q-120 -40 -221 -40q-150 0 -225.5 82t-75.5 235q0 167 87.5 255.5t248.5 88.5
q105 0 189 -39zM474 822q-69 -47 -133 -104h-27q-70 60 -134 104l24 53h13l26 -15q42 -23 84 -48q38 23 110 63h13z" />
    <glyph glyph-name="gcaron" unicode="&#x1e7;" horiz-adv-x="500" 
d="M431 387l-2 -4q15 -30 15 -67q0 -75 -54.5 -119.5t-147.5 -44.5q-28 0 -58 5q-9 -9 -12 -14t-3 -12q0 -18 24 -25t76 -14q59 -7 98.5 -17t68 -35t28.5 -71q0 -47 -29.5 -84.5t-81.5 -58.5t-118 -21q-91 0 -140 37t-49 98q31 43 83 75v5q-34 12 -53 33.5t-19 57.5
q27 33 68 61v5q-36 20 -54.5 52.5t-18.5 76.5q0 78 54 122t147 44q54 0 98 -18q72 13 147 40l10 -9v-83q-27 -7 -77 -15zM308 253q21 21 21 61q0 76 -78 76q-84 0 -84 -77q0 -40 20 -60.5t59 -20.5q41 0 62 21zM323.5 -18q-28.5 10 -87.5 17l-34 5q-24 -16 -36 -31t-12 -32
q0 -26 24 -42t70 -16q47 0 75.5 16.5t28.5 45.5q0 27 -28.5 37zM408 656q-57 -52 -141 -141h-29q-78 86 -140 141l33 51h13q66 -52 109 -92q39 37 108 92h13z" />
    <glyph glyph-name="uni01EA" unicode="&#x1ea;" horiz-adv-x="643" 
d="M542.5 570.5q73.5 -82.5 73.5 -234.5q0 -166 -80 -256t-226 -90q-135 0 -208.5 84.5t-73.5 239.5q0 163 79.5 251t225.5 88q136 0 209.5 -82.5zM205 494q-36 -50 -36 -163q0 -129 35.5 -184t117.5 -55q80 0 116 50.5t36 165.5q0 127 -35.5 181.5t-117.5 54.5
q-80 0 -116 -50zM311 -174q-28 23 -28 62q0 33 24.5 65.5t93.5 82.5h72q-67 -67 -86.5 -91.5t-19.5 -39.5q0 -25 29 -25q31 0 73 30l7 -2l16 -62q-53 -43 -106 -43q-47 0 -75 23z" />
    <glyph glyph-name="uni01EB" unicode="&#x1eb;" horiz-adv-x="494" 
d="M410 414q54 -60 54 -173q0 -122 -58 -186.5t-167 -64.5q-102 0 -156 60t-54 173q0 122 58 186.5t167 64.5q102 0 156 -60zM175.5 352q-21.5 -32 -21.5 -103q0 -92 22 -131t72 -39q48 0 69.5 31.5t21.5 103.5q0 91 -22.5 130.5t-71.5 39.5q-48 0 -69.5 -32zM218 -171
q-28 23 -28 62q0 33 24.5 65.5t93.5 82.5h72q-67 -67 -86.5 -91.5t-19.5 -39.5q0 -25 29 -25q31 0 73 30l7 -2l16 -62q-53 -43 -106 -43q-47 0 -75 23z" />
    <glyph glyph-name="Aringacute" unicode="&#x1fa;" horiz-adv-x="600" 
d="M215 796l-13 59q124 40 222 80l12 -5l22 -83l-6 -12q-91 -20 -225 -44zM584 0h-138l-16 82l-17 59l-126 3l-111 -3l-17 -52l-17 -89h-134l220 620q-17 25 -17 61q0 46 25.5 71t72.5 25q46 0 70 -24t24 -67q0 -38 -19 -65zM266 683q0 -40 41 -40t41 38q0 39 -42 39
q-40 0 -40 -37zM383 244l-75 261h-9l-88 -261l86 -2z" />
    <glyph glyph-name="aringacute" unicode="&#x1fb;" horiz-adv-x="481" 
d="M364.5 439.5q43.5 -34.5 43.5 -96.5q0 -18 -6 -114q-1 -28 -3 -57.5t-2 -50.5q0 -17 5 -23.5t18 -6.5q10 0 26 4l10 -8l-12 -70q-32 -21 -73 -25q-30 3 -50 21.5t-27 51.5h-7q-50 -53 -103 -74q-72 1 -113 38t-41 101q0 50 25.5 78.5t77.5 38.5l153 29v41q0 65 -64 65
q-31 0 -65.5 -14t-77.5 -44l-10 6l-15 88q43 27 92 41.5t98 14.5q77 0 120.5 -34.5zM179 186q-16 -4 -23.5 -13.5t-7.5 -28.5q0 -26 14 -40.5t39 -14.5q39 0 82 46l2 74zM305 700q24 -24 24 -67q0 -47 -26.5 -72.5t-72.5 -25.5q-44 0 -68.5 24t-24.5 70q0 45 25.5 70
t72.5 25q46 0 70 -24zM192 630q0 -40 41 -40t41 38q0 39 -42 39q-40 0 -40 -37zM362.31 876.318l21.6338 -83.2246l-5.77051 -11.2539q-101.62 -22.8604 -225.285 -44.3643l-11.2529 5.77148l-13.4102 57.6875q130.95 42.6406 221.692 80.3174z" />
    <glyph glyph-name="AEacute" unicode="&#x1fc;" horiz-adv-x="822" 
d="M814 101l-9 -101h-389l-5 84l-17 137l-212 -56l-35 -74l-30 -91h-135l310 644h440l9 -11l-11 -101l-155 5h-88l22 -181l194 50l10 -8l11 -95l-203 -48l18 -149h102l165 6zM382 323l-24 194h-9l-109 -231zM614 886l34 -79l-4 -12q-97 -38 -216 -78l-12 4l-22 55
q123 62 207 113z" />
    <glyph glyph-name="aeacute" unicode="&#x1fd;" horiz-adv-x="694" 
d="M621 423.5q47 -49.5 47 -140.5q0 -15 -1 -23l-13 -16l-266 -31q5 -64 33 -94.5t85 -30.5q30 0 64.5 9t66.5 27l11 -7l-19 -97q-30 -14 -66.5 -22t-67.5 -8q-58 0 -102 21.5t-71 64.5q-55 -58 -125 -85q-77 1 -123 36.5t-46 100.5q0 49 26.5 81.5t76.5 38.5l150 16v53
q0 33 -15.5 49t-47.5 16q-59 0 -142 -59l-9 6l-16 90q42 27 89.5 41t93.5 14q86 0 122 -53q26 25 61.5 38.5t75.5 13.5q81 0 128 -49.5zM414 354.5q-27 -30.5 -27 -75.5v-1l163 23q1 43 -17.5 64t-52.5 21q-39 -1 -66 -31.5zM240 100.5q19 10.5 50 38.5q-7 38 -8 59l-96 -14
q-21 -4 -30 -14t-9 -28q0 -25 14.5 -38.5t39.5 -13.5q20 0 39 10.5zM447 723l48 -72l-2 -13q-22 -14 -33 -20q-125 -77 -162 -98l-13 1l-32 50q116 93 181 153z" />
    <glyph glyph-name="Oslashacute" unicode="&#x1fe;" horiz-adv-x="643" 
d="M589.5 492.5q26.5 -66.5 26.5 -156.5q0 -166 -80 -256t-226 -90q-48 0 -85 10l-57 -119l-85 31l-5 12l57 119q-53 41 -80 109.5t-27 161.5q0 163 79.5 251t225.5 88q46 0 88 -11l51 106l83 -30l8 -14l-51 -105q51 -40 77.5 -106.5zM438 142.5q36 50.5 36 165.5
q0 127 -35.5 181.5t-117.5 54.5q-80 0 -116 -50t-36 -163q0 -129 35.5 -184t117.5 -55q80 0 116 50.5zM433 887l34 -79l-4 -12q-97 -38 -216 -78l-12 4l-22 55q123 62 207 113z" />
    <glyph glyph-name="oslashacute" unicode="&#x1ff;" horiz-adv-x="494" 
d="M464 241q0 -122 -58 -186.5t-167 -64.5q-34 0 -68 8l-68 -123l-76 37l-3 11l66 120q-61 59 -61 180q0 122 58 186.5t167 64.5q34 0 68 -8l59 105l72 -36l7 -12l-57 -102q61 -59 61 -180zM317.5 110.5q21.5 31.5 21.5 103.5q0 91 -22.5 130.5t-71.5 39.5q-48 0 -69.5 -32
t-21.5 -103q0 -92 22 -131t72 -39q48 0 69.5 31.5zM344 723l48 -72l-2 -13q-22 -14 -33 -20q-125 -77 -162 -98l-13 1l-32 50q116 93 181 153z" />
    <glyph glyph-name="uni0200" unicode="&#x200;" horiz-adv-x="600" 
d="M584 0h-138l-16 84l-17 60l-126 3l-111 -3l-17 -53l-17 -91h-134l218 644h161zM384 249l-76 268h-9l-88 -268l86 -2zM238 715l-11 3q-75 67 -126 116l2 11l62 40l10 -2q20 -27 66 -84l39 -50zM393 715l-12 3q-65 57 -125 116l2 11l61 40l11 -2q35 -49 105 -134z" />
    <glyph glyph-name="uni0201" unicode="&#x201;" horiz-adv-x="481" 
d="M364.5 439.5q43.5 -34.5 43.5 -96.5q0 -18 -6 -114q-1 -28 -3 -57.5t-2 -50.5q0 -17 5 -23.5t18 -6.5q10 0 26 4l10 -8l-12 -70q-32 -21 -73 -25q-30 3 -50 21.5t-27 51.5h-7q-50 -53 -103 -74q-72 1 -113 38t-41 101q0 50 25.5 78.5t77.5 38.5l153 29v41q0 65 -64 65
q-31 0 -65.5 -14t-77.5 -44l-10 6l-15 88q43 27 92 41.5t98 14.5q77 0 120.5 -34.5zM179 186q-16 -4 -23.5 -13.5t-7.5 -28.5q0 -26 14 -40.5t39 -14.5q39 0 82 46l2 74zM117 726l-10 2l-62 -44l-1 -10q47 -53 145 -151l11 -3l41 34q-73 97 -124 172zM269 726l-10 2l-62 -44
l-1 -10q47 -53 145 -151l11 -3l41 34q-73 97 -124 172z" />
    <glyph glyph-name="uni0202" unicode="&#x202;" horiz-adv-x="600" 
d="M584 0h-138l-16 84l-17 60l-126 3l-111 -3l-17 -53l-17 -91h-134l218 644h161zM384 249l-76 268h-9l-88 -268l86 -2zM150 770q15 57 53.5 91t100.5 34q60 0 96.5 -35t50.5 -90l-33 -45h-18q-13 37 -38.5 56.5t-61.5 19.5t-61.5 -19.5t-37.5 -56.5h-18z" />
    <glyph glyph-name="uni0203" unicode="&#x203;" horiz-adv-x="481" 
d="M364.5 439.5q43.5 -34.5 43.5 -96.5q0 -18 -6 -114q-1 -28 -3 -57.5t-2 -50.5q0 -17 5 -23.5t18 -6.5q10 0 26 4l10 -8l-12 -70q-32 -21 -73 -25q-30 3 -50 21.5t-27 51.5h-7q-50 -53 -103 -74q-72 1 -113 38t-41 101q0 50 25.5 78.5t77.5 38.5l153 29v41q0 65 -64 65
q-31 0 -65.5 -14t-77.5 -44l-10 6l-15 88q43 27 92 41.5t98 14.5q77 0 120.5 -34.5zM179 186q-16 -4 -23.5 -13.5t-7.5 -28.5q0 -26 14 -40.5t39 -14.5q39 0 82 46l2 74zM83 591q15 57 53.5 91t100.5 34q60 0 96.5 -35t50.5 -90l-33 -45h-18q-13 37 -38.5 56.5t-61.5 19.5
t-61.5 -19.5t-37.5 -56.5h-18z" />
    <glyph glyph-name="uni0204" unicode="&#x204;" horiz-adv-x="509" 
d="M483 112l8 -11l-9 -101h-404l7 192l-7 452h408l8 -11l-10 -101l-154 5l-116 -1l-3 -155l111 -2l105 3l8 -10l-9 -101l-114 3l-103 -1l-1 -69l3 -97l113 -1zM219 715l-11 3q-75 67 -126 116l2 11l62 40l10 -2q20 -27 66 -84l39 -50zM374 715l-12 3q-65 57 -125 116l2 11
l61 40l11 -2q35 -49 105 -134z" />
    <glyph glyph-name="uni0205" unicode="&#x205;" horiz-adv-x="472" 
d="M421 216l-270 -2q9 -125 127 -125q62 0 138 35l11 -7l-20 -99q-76 -28 -143 -28q-110 0 -172.5 64t-62.5 177q0 112 61 177.5t165 65.5q89 0 137.5 -48.5t48.5 -135.5q0 -23 -5 -58zM325 305q0 40 -18 60.5t-53 20.5q-39 0 -65 -25.5t-35 -73.5l169 4zM128 725l-10 2
l-62 -44l-1 -10q47 -53 145 -151l11 -3l41 34q-73 97 -124 172zM280 725l-10 2l-62 -44l-1 -10q47 -53 145 -151l11 -3l41 34q-73 97 -124 172z" />
    <glyph glyph-name="uni0206" unicode="&#x206;" horiz-adv-x="509" 
d="M483 112l8 -11l-9 -101h-404l7 192l-7 452h408l8 -11l-10 -101l-154 5l-116 -1l-3 -155l111 -2l105 3l8 -10l-9 -101l-114 3l-103 -1l-1 -69l3 -97l113 -1zM131 770q15 57 53.5 91t100.5 34q60 0 96.5 -35t50.5 -90l-33 -45h-18q-13 37 -38.5 56.5t-61.5 19.5
t-61.5 -19.5t-37.5 -56.5h-18z" />
    <glyph glyph-name="uni0207" unicode="&#x207;" horiz-adv-x="472" 
d="M421 216l-270 -2q9 -125 127 -125q62 0 138 35l11 -7l-20 -99q-76 -28 -143 -28q-110 0 -172.5 64t-62.5 177q0 112 61 177.5t165 65.5q89 0 137.5 -48.5t48.5 -135.5q0 -23 -5 -58zM325 305q0 40 -18 60.5t-53 20.5q-39 0 -65 -25.5t-35 -73.5l169 4zM94 590
q15 57 53.5 91t100.5 34q60 0 96.5 -35t50.5 -90l-33 -45h-18q-13 37 -38.5 56.5t-61.5 19.5t-61.5 -19.5t-37.5 -56.5h-18z" />
    <glyph glyph-name="uni0208" unicode="&#x208;" horiz-adv-x="295" 
d="M208 204l6 -204h-136l7 192l-7 452h138zM84 715l-11 3q-75 67 -126 116l2 11l62 40l10 -2q20 -27 66 -84l39 -50zM239 715l-12 3q-65 57 -125 116l2 11l61 40l11 -2q35 -49 105 -134z" />
    <glyph glyph-name="uni0209" unicode="&#x209;" horiz-adv-x="261" 
d="M70 192l-5 264l131 11l-6 -262l6 -205h-133zM13 726l-10 2l-62 -44l-1 -10q47 -53 145 -151l11 -3l41 34q-73 97 -124 172zM165 726l-10 2l-62 -44l-1 -10q47 -53 145 -151l11 -3l41 34q-73 97 -124 172z" />
    <glyph glyph-name="uni020A" unicode="&#x20a;" horiz-adv-x="295" 
d="M208 204l6 -204h-136l7 192l-7 452h138zM-4 770q15 57 53.5 91t100.5 34q60 0 96.5 -35t50.5 -90l-33 -45h-18q-13 37 -38.5 56.5t-61.5 19.5t-61.5 -19.5t-37.5 -56.5h-18z" />
    <glyph glyph-name="uni020B" unicode="&#x20b;" horiz-adv-x="261" 
d="M70 192l-5 264l131 11l-6 -262l6 -205h-133zM-21 591q15 57 53.5 91t100.5 34q60 0 96.5 -35t50.5 -90l-33 -45h-18q-13 37 -38.5 56.5t-61.5 19.5t-61.5 -19.5t-37.5 -56.5h-18z" />
    <glyph glyph-name="uni020C" unicode="&#x20c;" horiz-adv-x="643" 
d="M542.5 570.5q73.5 -82.5 73.5 -234.5q0 -166 -80 -256t-226 -90q-135 0 -208.5 84.5t-73.5 239.5q0 163 79.5 251t225.5 88q136 0 209.5 -82.5zM205 494q-36 -50 -36 -163q0 -129 35.5 -184t117.5 -55q80 0 116 50.5t36 165.5q0 127 -35.5 181.5t-117.5 54.5
q-80 0 -116 -50zM259 715l-11 3q-75 67 -126 116l2 11l62 40l10 -2q20 -27 66 -84l39 -50zM414 715l-12 3q-65 57 -125 116l2 11l61 40l11 -2q35 -49 105 -134z" />
    <glyph glyph-name="uni020D" unicode="&#x20d;" horiz-adv-x="494" 
d="M410 414q54 -60 54 -173q0 -122 -58 -186.5t-167 -64.5q-102 0 -156 60t-54 173q0 122 58 186.5t167 64.5q102 0 156 -60zM175.5 352q-21.5 -32 -21.5 -103q0 -92 22 -131t72 -39q48 0 69.5 31.5t21.5 103.5q0 91 -22.5 130.5t-71.5 39.5q-48 0 -69.5 -32zM131 726l-10 2
l-62 -44l-1 -10q47 -53 145 -151l11 -3l41 34q-73 97 -124 172zM283 726l-10 2l-62 -44l-1 -10q47 -53 145 -151l11 -3l41 34q-73 97 -124 172z" />
    <glyph glyph-name="uni020E" unicode="&#x20e;" horiz-adv-x="643" 
d="M542.5 570.5q73.5 -82.5 73.5 -234.5q0 -166 -80 -256t-226 -90q-135 0 -208.5 84.5t-73.5 239.5q0 163 79.5 251t225.5 88q136 0 209.5 -82.5zM205 494q-36 -50 -36 -163q0 -129 35.5 -184t117.5 -55q80 0 116 50.5t36 165.5q0 127 -35.5 181.5t-117.5 54.5
q-80 0 -116 -50zM171 770q15 57 53.5 91t100.5 34q60 0 96.5 -35t50.5 -90l-33 -45h-18q-13 37 -38.5 56.5t-61.5 19.5t-61.5 -19.5t-37.5 -56.5h-18z" />
    <glyph glyph-name="uni020F" unicode="&#x20f;" horiz-adv-x="494" 
d="M410 414q54 -60 54 -173q0 -122 -58 -186.5t-167 -64.5q-102 0 -156 60t-54 173q0 122 58 186.5t167 64.5q102 0 156 -60zM175.5 352q-21.5 -32 -21.5 -103q0 -92 22 -131t72 -39q48 0 69.5 31.5t21.5 103.5q0 91 -22.5 130.5t-71.5 39.5q-48 0 -69.5 -32zM97 591
q15 57 53.5 91t100.5 34q60 0 96.5 -35t50.5 -90l-33 -45h-18q-13 37 -38.5 56.5t-61.5 19.5t-61.5 -19.5t-37.5 -56.5h-18z" />
    <glyph glyph-name="uni0210" unicode="&#x210;" horiz-adv-x="590" 
d="M571 32l-2 -15q-65 -23 -133 -27l-14 11q-72 124 -117 216h-97v-13l6 -204h-136l7 192l-7 452l247 1q101 0 156 -49.5t55 -141.5q0 -62 -31.5 -113.5t-88.5 -84.5q78 -124 155 -224zM210 322l99 -4q85 29 85 123q0 51 -27.5 76.5t-84.5 27.5l-68 -4zM233 715l-11 3
q-75 67 -126 116l2 11l62 40l10 -2q20 -27 66 -84l39 -50zM388 715l-12 3q-65 57 -125 116l2 11l61 40l11 -2q35 -49 105 -134z" />
    <glyph glyph-name="uni0211" unicode="&#x211;" horiz-adv-x="348" 
d="M343 464v-123l-14 -5q-17 7 -37 7q-58 0 -105 -75v-63l7 -205h-133l8 192l-6 264l126 11l-1 -91h8q49 90 122 90q9 0 25 -2zM86 726l-10 2l-62 -44l-1 -10q47 -53 145 -151l11 -3l41 34q-73 97 -124 172zM238 726l-10 2l-62 -44l-1 -10q47 -53 145 -151l11 -3l41 34
q-73 97 -124 172z" />
    <glyph glyph-name="uni0212" unicode="&#x212;" horiz-adv-x="590" 
d="M571 32l-2 -15q-65 -23 -133 -27l-14 11q-72 124 -117 216h-97v-13l6 -204h-136l7 192l-7 452l247 1q101 0 156 -49.5t55 -141.5q0 -62 -31.5 -113.5t-88.5 -84.5q78 -124 155 -224zM210 322l99 -4q85 29 85 123q0 51 -27.5 76.5t-84.5 27.5l-68 -4zM145 770
q15 57 53.5 91t100.5 34q60 0 96.5 -35t50.5 -90l-33 -45h-18q-13 37 -38.5 56.5t-61.5 19.5t-61.5 -19.5t-37.5 -56.5h-18z" />
    <glyph glyph-name="uni0213" unicode="&#x213;" horiz-adv-x="348" 
d="M343 464v-123l-14 -5q-17 7 -37 7q-58 0 -105 -75v-63l7 -205h-133l8 192l-6 264l126 11l-1 -91h8q49 90 122 90q9 0 25 -2zM52 591q15 57 53.5 91t100.5 34q60 0 96.5 -35t50.5 -90l-33 -45h-18q-13 37 -38.5 56.5t-61.5 19.5t-61.5 -19.5t-37.5 -56.5h-18z" />
    <glyph glyph-name="uni0214" unicode="&#x214;" horiz-adv-x="638" 
d="M573 317l-1 -85q1 -115 -67 -178t-195 -63q-122 0 -186 61t-61 175l1 93l-3 324h136l-7 -399q-1 -73 31 -108t97 -35q130 0 129 136l-7 406h138zM258 715l-11 3q-75 67 -126 116l2 11l62 40l10 -2q20 -27 66 -84l39 -50zM413 715l-12 3q-65 57 -125 116l2 11l61 40l11 -2
q35 -49 105 -134z" />
    <glyph glyph-name="uni0215" unicode="&#x215;" horiz-adv-x="522" 
d="M505 87l-12 -70q-37 -24 -76 -25q-29 5 -48 23t-29 52h-9q-57 -56 -118 -73q-76 0 -115.5 34.5t-38.5 99.5l2 118l-5 210l129 11l-3 -295q-1 -35 14 -53t45 -18q44 0 87 39v316l127 11l-9 -346q0 -16 5.5 -23t17.5 -7q11 0 27 4zM141 726l-10 2l-62 -44l-1 -10
q47 -53 145 -151l11 -3l41 34q-73 97 -124 172zM293 726l-10 2l-62 -44l-1 -10q47 -53 145 -151l11 -3l41 34q-73 97 -124 172z" />
    <glyph glyph-name="uni0216" unicode="&#x216;" horiz-adv-x="638" 
d="M573 317l-1 -85q1 -115 -67 -178t-195 -63q-122 0 -186 61t-61 175l1 93l-3 324h136l-7 -399q-1 -73 31 -108t97 -35q130 0 129 136l-7 406h138zM170 770q15 57 53.5 91t100.5 34q60 0 96.5 -35t50.5 -90l-33 -45h-18q-13 37 -38.5 56.5t-61.5 19.5t-61.5 -19.5
t-37.5 -56.5h-18z" />
    <glyph glyph-name="uni0217" unicode="&#x217;" horiz-adv-x="522" 
d="M505 87l-12 -70q-37 -24 -76 -25q-29 5 -48 23t-29 52h-9q-57 -56 -118 -73q-76 0 -115.5 34.5t-38.5 99.5l2 118l-5 210l129 11l-3 -295q-1 -35 14 -53t45 -18q44 0 87 39v316l127 11l-9 -346q0 -16 5.5 -23t17.5 -7q11 0 27 4zM107 591q15 57 53.5 91t100.5 34
q60 0 96.5 -35t50.5 -90l-33 -45h-18q-13 37 -38.5 56.5t-61.5 19.5t-61.5 -19.5t-37.5 -56.5h-18z" />
    <glyph glyph-name="Scommaaccent" unicode="&#x218;" horiz-adv-x="498" 
d="M448 619l-22 -117l-20 -8q-34 24 -70.5 38t-66.5 14q-40 0 -64 -21.5t-24 -49.5q0 -29 26.5 -49t83.5 -47q55 -25 89.5 -46.5t59 -56.5t24.5 -86q0 -55 -30 -100.5t-85 -72t-127 -26.5q-95 0 -191 41l19 126l15 8q40 -35 87.5 -53.5t84.5 -18.5q44 0 68.5 21.5t24.5 51.5
q0 32 -26.5 52t-85.5 48q-54 24 -88 45t-58 56t-24 85q0 56 30 101.5t84 71.5t123 26q82 0 163 -33zM315 -117q0 -40 -26.5 -78t-81.5 -77l-38 34l-1 9q49 42 49 88q0 31 -29 54l1 10q40 24 86 37q40 -31 40 -77z" />
    <glyph glyph-name="scommaaccent" unicode="&#x219;" horiz-adv-x="384" 
d="M345 450l-18 -98l-16 -5q-29 19 -58 29t-51 10q-24 0 -38 -12.5t-14 -30.5q0 -21 18.5 -34t58.5 -29t66 -31t44.5 -41.5t18.5 -65.5q0 -40 -20.5 -74.5t-62.5 -56t-103 -21.5q-72 0 -149 30l15 104l13 8q31 -26 69 -41.5t67 -15.5q27 0 42 13.5t15 32.5q0 21 -18.5 34
t-58.5 29q-41 18 -67 32.5t-44.5 41.5t-18.5 67q0 65 49 106.5t133 41.5q68 0 128 -23zM260 -117q0 -40 -26.5 -78t-81.5 -77l-38 34l-1 9q49 42 49 88q0 31 -29 54l1 10q40 24 86 37q40 -31 40 -77z" />
    <glyph glyph-name="uni021A" unicode="&#x21a;" horiz-adv-x="503" 
d="M489 633l-8 -101l-121 6h-40l-5 -334l6 -204h-136l7 192l-5 346h-40l-123 -6l-9 11l9 101h457zM324 -117q0 -40 -26.5 -78t-81.5 -77l-38 34l-1 9q49 42 49 88q0 31 -29 54l1 10q40 24 86 37q40 -31 40 -77z" />
    <glyph glyph-name="uni021B" unicode="&#x21b;" horiz-adv-x="338" 
d="M316 115l11 -10l-13 -79q-51 -26 -104 -32q-135 14 -135 132l5 83l-1 172h-62l-5 7l7 73h59v77l121 39l9 -8l-3 -108h119l4 -7l-6 -73h-119l-6 -224q0 -32 12 -45.5t40 -13.5q32 0 67 17zM280 -117q0 -40 -26.5 -78t-81.5 -77l-38 34l-1 9q49 42 49 88q0 31 -29 54l1 10
q40 24 86 37q40 -31 40 -77z" />
    <glyph glyph-name="uni022A" unicode="&#x22a;" horiz-adv-x="643" 
d="M542.5 570.5q73.5 -82.5 73.5 -234.5q0 -166 -80 -256t-226 -90q-135 0 -208.5 84.5t-73.5 239.5q0 163 79.5 251t225.5 88q136 0 209.5 -82.5zM205 494q-36 -50 -36 -163q0 -129 35.5 -184t117.5 -55q80 0 116 50.5t36 165.5q0 127 -35.5 181.5t-117.5 54.5
q-80 0 -116 -50zM464 971l-8 -75h-265l-9 10l6 75h266zM280 823.5q15 -15.5 15 -44.5t-17 -47t-45 -18q-29 0 -44.5 16t-15.5 45t17.5 46.5t46.5 17.5q28 0 43 -15.5zM454 823.5q15 -15.5 15 -44.5t-17 -47t-45 -18q-29 0 -44.5 16t-15.5 45t17.5 46.5t46.5 17.5
q28 0 43 -15.5z" />
    <glyph glyph-name="uni022B" unicode="&#x22b;" horiz-adv-x="494" 
d="M410 414q54 -60 54 -173q0 -122 -58 -186.5t-167 -64.5q-102 0 -156 60t-54 173q0 122 58 186.5t167 64.5q102 0 156 -60zM175.5 352q-21.5 -32 -21.5 -103q0 -92 22 -131t72 -39q48 0 69.5 31.5t21.5 103.5q0 91 -22.5 130.5t-71.5 39.5q-48 0 -69.5 -32zM390 792
l-8 -75h-265l-9 10l6 75h266zM206 644.5q15 -15.5 15 -44.5t-17 -47t-45 -18q-29 0 -44.5 16t-15.5 45t17.5 46.5t46.5 17.5q28 0 43 -15.5zM380 644.5q15 -15.5 15 -44.5t-17 -47t-45 -18q-29 0 -44.5 16t-15.5 45t17.5 46.5t46.5 17.5q28 0 43 -15.5z" />
    <glyph glyph-name="uni022C" unicode="&#x22c;" horiz-adv-x="643" 
d="M542.5 570.5q73.5 -82.5 73.5 -234.5q0 -166 -80 -256t-226 -90q-135 0 -208.5 84.5t-73.5 239.5q0 163 79.5 251t225.5 88q136 0 209.5 -82.5zM205 494q-36 -50 -36 -163q0 -129 35.5 -184t117.5 -55q80 0 116 50.5t36 165.5q0 127 -35.5 181.5t-117.5 54.5
q-80 0 -116 -50zM476 825v-11l-63 -89l-12 -4q-24 4 -70 19q-47 15 -58 15t-21.5 -10t-20.5 -23t-13 -17h-11l-39 39v12l62 87l13 5q24 -4 70 -19q47 -15 58 -15t20.5 9t19.5 22t15 19h11zM442 990l-7 -74h-225l-9 9l7 74h225z" />
    <glyph glyph-name="uni022D" unicode="&#x22d;" horiz-adv-x="494" 
d="M410 414q54 -60 54 -173q0 -122 -58 -186.5t-167 -64.5q-102 0 -156 60t-54 173q0 122 58 186.5t167 64.5q102 0 156 -60zM175.5 352q-21.5 -32 -21.5 -103q0 -92 22 -131t72 -39q48 0 69.5 31.5t21.5 103.5q0 91 -22.5 130.5t-71.5 39.5q-48 0 -69.5 -32zM402 646v-11
l-63 -89l-12 -4q-24 4 -70 19q-47 15 -58 15t-21.5 -10t-20.5 -23t-13 -17h-11l-39 39v12l62 87l13 5q24 -4 70 -19q47 -15 58 -15t20.5 9t19.5 22t15 19h11zM368 811l-7 -74h-225l-9 9l7 74h225z" />
    <glyph glyph-name="uni0230" unicode="&#x230;" horiz-adv-x="643" 
d="M542.5 570.5q73.5 -82.5 73.5 -234.5q0 -166 -80 -256t-226 -90q-135 0 -208.5 84.5t-73.5 239.5q0 163 79.5 251t225.5 88q136 0 209.5 -82.5zM205 494q-36 -50 -36 -163q0 -129 35.5 -184t117.5 -55q80 0 116 50.5t36 165.5q0 127 -35.5 181.5t-117.5 54.5
q-80 0 -116 -50zM373.5 836q17.5 -18 17.5 -50q0 -34 -19 -54t-52 -20t-50.5 18t-17.5 51t19.5 53t53.5 20q31 0 48.5 -18zM442 967l-7 -74h-225l-9 9l7 74h225z" />
    <glyph glyph-name="uni0231" unicode="&#x231;" horiz-adv-x="494" 
d="M410 414q54 -60 54 -173q0 -122 -58 -186.5t-167 -64.5q-102 0 -156 60t-54 173q0 122 58 186.5t167 64.5q102 0 156 -60zM175.5 352q-21.5 -32 -21.5 -103q0 -92 22 -131t72 -39q48 0 69.5 31.5t21.5 103.5q0 91 -22.5 130.5t-71.5 39.5q-48 0 -69.5 -32zM299.5 657
q17.5 -18 17.5 -50q0 -34 -19 -54t-52 -20t-50.5 18t-17.5 51t19.5 53t53.5 20q31 0 48.5 -18zM368 788l-7 -74h-225l-9 9l7 74h225z" />
    <glyph glyph-name="uni0232" unicode="&#x232;" horiz-adv-x="558" 
d="M333 179l6 -179h-135l6 179l-1 38l-205 427h144l14 -45l109 -245h9l122 241l19 49h139l-225 -422zM423 830l-6 -74h-280l-9 9l6 74h280z" />
    <glyph glyph-name="uni0233" unicode="&#x233;" horiz-adv-x="447" 
d="M141 394l83 -260h8l83 249l17 82h114l-152 -434q-24 -68 -54 -109.5t-75 -68t-116 -45.5l-10 1q-34 33 -56 78l4 13q63 11 104 32.5t78 67.5l-170 462l126 6zM375 651l-6 -74h-280l-9 9l6 74h280z" />
    <glyph glyph-name="uni0237" unicode="&#x237;" horiz-adv-x="285" 
d="M220 465l-8 -260l6 -178q0 -79 -38 -131t-125 -91l-46 59v12q45 25 64 59t19 88l2 169l-4 189h-81l-8 8l7 72h84l124 7z" />
    <glyph glyph-name="uni0259" unicode="&#x259;" horiz-adv-x="472" 
d="M380.5 411q62.5 -64 62.5 -177q0 -112 -61 -177.5t-165 -65.5q-89 0 -137.5 48.5t-48.5 135.5q0 23 5 58l15 16l270 2q-9 125 -127 125q-62 0 -138 -35l-11 7l20 99q76 28 143 28q110 0 172.5 -64zM283.5 104.5q25.5 25.5 34.5 73.5l-169 -4l-2 -14q0 -40 18 -60.5
t53 -20.5q40 0 65.5 25.5z" />
    <glyph glyph-name="uni02B0" unicode="&#x2b0;" horiz-adv-x="366" 
d="M226 330l6 187q0 24 -11 36.5t-31 12.5q-22 0 -48 -18l-1 -79l4 -139h-104l5 129l-4 337l103 6l-2 -204h2q43 43 84 49q48 0 74 -22.5t25 -65.5l-3 -90l4 -139h-103z" />
    <glyph glyph-name="uni02B2" unicode="&#x2b2;" horiz-adv-x="210" 
d="M132 791q13 -14 13 -39t-14.5 -40.5t-38.5 -15.5q-25 0 -38.5 14t-13.5 39t15 40.5t40 15.5q24 0 37 -14zM151 645l-5 -176l4 -119q0 -53 -25 -89t-80 -62l-35 46v9q23 16 33 37.5t10 55.5v112l-1 106l-42 -2l-5 7l5 72h43l96 5z" />
    <glyph glyph-name="uni02B7" unicode="&#x2b7;" horiz-adv-x="479" 
d="M111 594l33 -159h5l39 153l11 57h102l7 -51l33 -157h6l38 151l11 57h88l-96 -315h-99l-41 185h-8l-48 -185h-103l-80 313l95 4z" />
    <glyph glyph-name="uni02B8" unicode="&#x2b8;" horiz-adv-x="296" 
d="M97 594l50 -161h6l47 152l12 60h88l-99 -289q-22 -66 -57.5 -98.5t-109.5 -56.5h-8q-28 29 -44 62l3 10q37 6 65.5 19t53.5 38l-116 313l99 4z" />
    <glyph glyph-name="uni02B9" unicode="&#x2b9;" horiz-adv-x="205" 
d="M165 633l-35 -220l-62 -9l-11 9l-2 222l103 7z" />
    <glyph glyph-name="uni02BB" unicode="&#x2bb;" horiz-adv-x="207" 
d="M47.5 430q-13.5 23 -13.5 56q0 76 92 164l46 -31l2 -9q-41 -44 -41 -86q0 -24 9.5 -41t31.5 -29v-11q-41 -33 -84 -51q-29 15 -42.5 38z" />
    <glyph glyph-name="uni02BC" unicode="&#x2bc;" horiz-adv-x="207" 
d="M161 611.5q14 -22.5 14 -55.5q0 -76 -92 -164l-46 30l-2 10q40 44 40 85q0 24 -9 41t-31 30v11q42 32 83 51q29 -16 43 -38.5z" />
    <glyph glyph-name="uni02BE" unicode="&#x2be;" horiz-adv-x="265" 
d="M77 493q52 -4 52 40q0 23 -12 32.5t-40 9.5v65q59 0 87 -25t28 -78q0 -52 -29.5 -80t-85.5 -28v64z" />
    <glyph glyph-name="uni02BF" unicode="&#x2bf;" horiz-adv-x="221" 
d="M165 576q-53 3 -53 -40q0 -23 12.5 -33t40.5 -10v-64q-59 0 -86.5 24.5t-27.5 77.5t29.5 81t84.5 28v-64z" />
    <glyph glyph-name="circumflex" unicode="&#x2c6;" horiz-adv-x="389" 
d="M39 577q57 52 141 141h29q78 -86 140 -141l-33 -51h-13q-66 52 -109 92q-39 -37 -108 -92h-13z" />
    <glyph glyph-name="caron" unicode="&#x2c7;" horiz-adv-x="389" 
d="M349 665q-57 -52 -141 -141h-29q-78 86 -140 141l33 51h13q66 -52 109 -92q39 37 108 92h13z" />
    <glyph glyph-name="uni02C8" unicode="&#x2c8;" horiz-adv-x="245" 
d="M67 648h96v-179h-96v179z" />
    <glyph glyph-name="uni02C9" unicode="&#x2c9;" horiz-adv-x="389" 
d="M342 651l-6 -74h-280l-9 9l6 74h280z" />
    <glyph glyph-name="uni02CA" unicode="&#x2ca;" horiz-adv-x="389" 
d="M268 723l48 -72l-2 -13q-22 -14 -33 -20q-125 -77 -162 -98l-13 1l-32 50q116 93 181 153z" />
    <glyph glyph-name="uni02CB" unicode="&#x2cb;" horiz-adv-x="389" 
d="M315 571l-32 -50l-12 -1q-78 45 -195 118l-2 13l48 72l12 1q73 -67 181 -153z" />
    <glyph glyph-name="uni02CC" unicode="&#x2cc;" horiz-adv-x="231" 
d="M67 -52h96v-178h-96v178z" />
    <glyph glyph-name="breve" unicode="&#x2d8;" horiz-adv-x="389" 
d="M345 655q-15 -57 -53.5 -91t-100.5 -34q-60 0 -96.5 35t-50.5 90l33 45h18q13 -37 38.5 -56.5t61.5 -19.5t61.5 19.5t37.5 56.5h18z" />
    <glyph glyph-name="dotaccent" unicode="&#x2d9;" horiz-adv-x="255" 
d="M179.5 675q17.5 -18 17.5 -50q0 -34 -19 -54t-52 -20t-50.5 18t-17.5 51t19.5 53t53.5 20q31 0 48.5 -18z" />
    <glyph glyph-name="ring" unicode="&#x2da;" horiz-adv-x="389" 
d="M266 700q24 -24 24 -67q0 -47 -26.5 -72.5t-72.5 -25.5q-44 0 -68.5 24t-24.5 70q0 45 25.5 70t72.5 25q46 0 70 -24zM153 630q0 -40 41 -40t41 38q0 39 -42 39q-40 0 -40 -37z" />
    <glyph glyph-name="ogonek" unicode="&#x2db;" horiz-adv-x="281" 
d="M65 -174q-28 23 -28 62q0 33 24.5 65.5t93.5 82.5h72q-67 -67 -86.5 -91.5t-19.5 -39.5q0 -25 29 -25q31 0 73 30l7 -2l16 -62q-53 -43 -106 -43q-47 0 -75 23z" />
    <glyph glyph-name="tilde" unicode="&#x2dc;" horiz-adv-x="389" 
d="M369 662v-11l-70 -89l-13 -5q-27 3 -83 19q-5 1 -32.5 8.5t-38.5 7.5t-21.5 -9t-22.5 -22t-18 -20h-12l-40 39v11l71 89l12 5q24 -3 85 -20q56 -15 69 -15q12 0 23.5 10t23.5 23t16 18h12z" />
    <glyph glyph-name="hungarumlaut" unicode="&#x2dd;" horiz-adv-x="389" 
d="M144 726l10 2l61 -44l1 -10q-55 -62 -144 -151l-12 -3l-41 34q69 89 125 172zM296 726l11 2l61 -44l1 -10q-55 -62 -144 -151l-12 -3l-41 34q73 97 124 172z" />
    <glyph glyph-name="uni02E1" unicode="&#x2e1;" horiz-adv-x="183" 
d="M140 469l4 -139h-103l5 129l-4 337l102 6z" />
    <glyph glyph-name="uni02E2" unicode="&#x2e2;" horiz-adv-x="274" 
d="M243 635l-13 -73l-12 -4q-21 12 -42 19.5t-34 7.5q-14 0 -22 -7t-8 -18t12 -19t36 -17q42 -17 65.5 -36.5t23.5 -59.5q0 -44 -32.5 -75t-95.5 -31q-48 0 -105 20l12 77l9 7q23 -18 49 -28t45 -10q15 0 23.5 7t8.5 17q0 12 -11.5 20t-37.5 18q-43 18 -66 37.5t-23 58.5
q0 46 35 75.5t94 29.5q43 0 89 -16z" />
    <glyph glyph-name="uni02E3" unicode="&#x2e3;" horiz-adv-x="319" 
d="M132 607l35 -60l37 63l17 34h90l-89 -155l90 -155l-109 -8l-16 43l-35 62l-40 -67l-15 -34h-91l88 158l-87 154l111 5z" />
    <glyph glyph-name="gravecomb" unicode="&#x300;" 
d="M-74 571l-32 -50l-12 -1q-78 45 -195 118l-2 13l48 72l12 1q73 -67 181 -153z" />
    <glyph glyph-name="acutecomb" unicode="&#x301;" 
d="M-121 723l48 -72l-2 -13q-22 -14 -33 -20q-125 -77 -162 -98l-13 1l-32 50q116 93 181 153z" />
    <glyph glyph-name="uni0302" unicode="&#x302;" 
d="M-350 577q57 52 141 141h29q78 -86 140 -141l-33 -51h-13q-66 52 -109 92q-39 -37 -108 -92h-13z" />
    <glyph glyph-name="tildecomb" unicode="&#x303;" 
d="M-20 662v-12l-71 -89l-12 -4q-22 3 -84 20q-56 15 -70 15q-11 0 -21 -8.5t-27 -26.5l-15 -16h-12l-39 39v11l71 89l12 5q20 -3 85 -20q5 -1 31.5 -8.5t37.5 -7.5t21.5 9t22.5 22.5t19 20.5h11z" />
    <glyph glyph-name="uni0304" unicode="&#x304;" 
d="M-47 651l-6 -74h-280l-9 9l6 74h280z" />
    <glyph glyph-name="uni0306" unicode="&#x306;" 
d="M-44 655q-15 -57 -53.5 -91t-100.5 -34q-60 0 -96.5 35t-50.5 90l33 45h18q13 -37 38.5 -56.5t61.5 -19.5t61.5 19.5t37.5 56.5h18z" />
    <glyph glyph-name="uni0307" unicode="&#x307;" 
d="M-75.5 675q17.5 -18 17.5 -50q0 -34 -19 -54t-52 -20t-50.5 18t-17.5 51t19.5 53t53.5 20q31 0 48.5 -18z" />
    <glyph glyph-name="uni0308" unicode="&#x308;" 
d="M-234 666q16 -16 16 -45q0 -31 -17.5 -49t-47.5 -18q-29 0 -45 16t-16 46t17.5 48t48.5 18q28 0 44 -16zM-61 666q16 -16 16 -45q0 -31 -17.5 -49t-46.5 -18t-45 16t-16 46t17.5 48t47.5 18q28 0 44 -16z" />
    <glyph glyph-name="hookabovecomb" unicode="&#x309;" 
d="M-168 573q25 18 39 37.5t14 34.5q0 11 -7.5 16.5t-20.5 5.5q-15 0 -33 -6.5t-33 -18.5l-22 36q23 24 51 38t56 14q36 0 59.5 -20.5t23.5 -52.5q0 -19 -12.5 -37.5t-44.5 -45.5l23 -39l-49 -29z" />
    <glyph glyph-name="uni030A" unicode="&#x30a;" 
d="M-123 700q24 -24 24 -67q0 -47 -26.5 -72.5t-72.5 -25.5q-44 0 -68.5 24t-24.5 70q0 45 25.5 70t72.5 25q46 0 70 -24zM-236 630q0 -40 41 -40t41 38q0 39 -42 39q-40 0 -40 -37z" />
    <glyph glyph-name="uni030B" unicode="&#x30b;" 
d="M-245 726l10 2l61 -44l1 -10q-55 -62 -144 -151l-12 -3l-41 34q69 89 125 172zM-93 726l11 2l61 -44l1 -10q-55 -62 -144 -151l-12 -3l-41 34q73 97 124 172z" />
    <glyph glyph-name="uni030C" unicode="&#x30c;" 
d="M-40 665q-57 -52 -141 -141h-29q-78 86 -140 141l33 51h13q66 -52 109 -92q39 37 108 92h13z" />
    <glyph glyph-name="uni030F" unicode="&#x30f;" 
d="M-296 726l-10 2l-62 -44l-1 -10q47 -53 145 -151l11 -3l41 34q-73 97 -124 172zM-144 726l-10 2l-62 -44l-1 -10q47 -53 145 -151l11 -3l41 34q-73 97 -124 172z" />
    <glyph glyph-name="uni0311" unicode="&#x311;" 
d="M-345 591q15 57 53.5 91t100.5 34q60 0 96.5 -35t50.5 -90l-33 -45h-18q-13 37 -38.5 56.5t-61.5 19.5t-61.5 -19.5t-37.5 -56.5h-18z" />
    <glyph glyph-name="uni0312" unicode="&#x312;" 
d="M-159 430.5q-14 22.5 -14 55.5q0 76 92 164l46 -30l2 -10q-40 -44 -40 -85q0 -24 9 -41t31 -30v-11q-42 -32 -83 -51q-29 16 -43 38.5z" />
    <glyph glyph-name="uni031B" unicode="&#x31b;" 
d="M-210 465q27 0 43.5 14t16.5 39q0 17 -8.5 34t-23.5 31l3 11q40 25 65 25q27 0 47 -27t20 -67q0 -58 -45 -93t-118 -35v68z" />
    <glyph glyph-name="dotbelowcomb" unicode="&#x323;" 
d="M-65.5 -70q17.5 -18 17.5 -50q0 -34 -19 -54t-52 -20t-50.5 18t-17.5 51t19.5 53t53.5 20q31 0 48.5 -18z" />
    <glyph glyph-name="uni0324" unicode="&#x324;" 
d="M-234 -89q16 -16 16 -45q0 -31 -17.5 -49t-47.5 -18q-29 0 -45 16t-16 46t17.5 48t48.5 18q28 0 44 -16zM-61 -89q16 -16 16 -45q0 -31 -17.5 -49t-46.5 -18t-45 16t-16 46t17.5 48t47.5 18q28 0 44 -16z" />
    <glyph glyph-name="uni0326" unicode="&#x326;" 
d="M-40 -117q0 -40 -26.5 -78t-81.5 -77l-38 34l-1 9q49 42 49 88q0 31 -29 54l1 10q40 24 86 37q40 -31 40 -77z" />
    <glyph glyph-name="uni0327" unicode="&#x327;" 
d="M-179 -48l34 -19q22 -12 31.5 -26.5t9.5 -32.5q0 -33 -26 -54t-68 -21q-45 0 -82 28l9 56l6 3q30 -30 59 -30q24 0 24 21q0 7 -4 11.5t-13 8.5l-49 28l23 101h64z" />
    <glyph glyph-name="uni0328" unicode="&#x328;" 
d="M-216 -174q-28 23 -28 62q0 33 24.5 65.5t93.5 82.5h72q-67 -67 -86.5 -91.5t-19.5 -39.5q0 -25 29 -25q31 0 73 30l7 -2l16 -62q-53 -43 -106 -43q-47 0 -75 23z" />
    <glyph glyph-name="uni032E" unicode="&#x32e;" 
d="M-37 -98q-15 -57 -53.5 -91t-100.5 -34q-60 0 -96.5 35t-50.5 90l33 45h18q13 -37 38.5 -56.5t61.5 -19.5t61.5 19.5t37.5 56.5h18z" />
    <glyph glyph-name="uni0331" unicode="&#x331;" 
d="M-46 -96l-6 -75h-246l-9 10l6 74h246z" />
    <glyph glyph-name="uni0335" unicode="&#x335;" 
d="M-52 287l-4 -70h-384l-6 8l5 70h382z" />
    <glyph glyph-name="uni0342" unicode="&#x342;" 
d="M-19 662v-11l-64 -89l-11 -5q-21 3 -74 20q-45 15 -56 15t-20.5 -9t-20 -22t-15.5 -20h-10l-40 39v11l64 89l11 5q18 -3 70 -20q7 -2 29 -9t31 -7q12 0 22.5 10.5t20.5 24t13 17.5h11z" />
    <glyph glyph-name="uni0343" unicode="&#x343;" 
d="M-47 716q12 -19 12 -48q0 -35 -19.5 -69.5t-59.5 -72.5l-43 26l-2 8q34 41 34 78q0 40 -33 59v8q41 30 73 43q26 -13 38 -32z" />
    <glyph glyph-name="uni0344" unicode="&#x344;" 
d="M-265 561q30 89 53 172l9 7l75 -29l5 -12l-82 -153l-14 -4zM-375.5 567.5q-13.5 13.5 -13.5 39.5t15.5 42t41.5 16q25 0 39 -14t14 -39q0 -26 -16 -42t-42 -16q-25 0 -38.5 13.5zM-121 568q-14 14 -14 39q0 26 15.5 42t41.5 16q25 0 38.5 -14t13.5 -39q0 -26 -15 -42
t-41 -16q-25 0 -39 14z" />
    <glyph glyph-name="uni0345" unicode="&#x345;" 
d="M-160 -221l14 182l66 5l10 -9l17 -180l-98 -5z" />
    <glyph glyph-name="uni0374" unicode="&#x374;" horiz-adv-x="205" 
d="M165 633l-35 -220l-62 -9l-11 9l-2 222l103 7z" />
    <glyph glyph-name="uni0375" unicode="&#x375;" horiz-adv-x="205" 
d="M39 -149l35 219l63 9l10 -8l2 -223l-102 -6z" />
    <glyph glyph-name="uni037A" unicode="&#x37a;" horiz-adv-x="214" 
d="M54 -221l14 182l66 5l10 -9l17 -180l-98 -5z" />
    <glyph glyph-name="uni037E" unicode="&#x37e;" horiz-adv-x="229" 
d="M184 46q0 -87 -121 -173l-43 38l-1 10q55 46 55 98q0 34 -32 60l1 11q46 28 96 42q45 -36 45 -86zM161.5 380q17.5 -18 17.5 -50q0 -34 -19 -54t-52 -20t-50.5 18t-17.5 51t19.5 53t53.5 20q31 0 48.5 -18z" />
    <glyph glyph-name="tonos" unicode="&#x384;" horiz-adv-x="220" 
d="M102 740l84 -32l5 -13l-82 -165l-12 -6l-66 26q38 107 60 184z" />
    <glyph glyph-name="dieresistonos" unicode="&#x385;" horiz-adv-x="412" 
d="M147 561q30 89 53 172l9 7l75 -29l5 -12l-82 -153l-14 -4zM36.5 567.5q-13.5 13.5 -13.5 39.5t15.5 42t41.5 16q25 0 39 -14t14 -39q0 -26 -16 -42t-42 -16q-25 0 -38.5 13.5zM291 568q-14 14 -14 39q0 26 15.5 42t41.5 16q25 0 38.5 -14t13.5 -39q0 -26 -15 -42t-41 -16
q-25 0 -39 14z" />
    <glyph glyph-name="Alphatonos" unicode="&#x386;" horiz-adv-x="653" 
d="M636 0h-138l-16 84l-17 60l-126 3l-111 -3l-17 -53l-17 -91h-134l218 644h161zM436 249l-76 268h-9l-88 -268l86 -2zM87 677l84 -32l5 -13l-82 -165l-12 -6l-66 26q38 107 60 184z" />
    <glyph glyph-name="anoteleia" unicode="&#x387;" horiz-adv-x="229" 
d="M165.5 367q17.5 -18 17.5 -50q0 -34 -19 -54t-52 -20t-50.5 18t-17.5 51t19.5 53t53.5 20q31 0 48.5 -18z" />
    <glyph glyph-name="Epsilontonos" unicode="&#x388;" horiz-adv-x="659" 
d="M632 112l8 -11l-9 -101h-404l7 192l-7 452h408l8 -11l-10 -101l-154 5l-116 -1l-3 -155l111 -2l105 3l8 -10l-9 -101l-114 3l-103 -1l-1 -69l3 -97l113 -1zM81 677l84 -32l5 -13l-82 -165l-12 -6l-66 26q38 107 60 184z" />
    <glyph glyph-name="Etatonos" unicode="&#x389;" horiz-adv-x="845" 
d="M764 204l4 -204h-135l6 192l-1 75l-145 1l-131 -2l-1 -62l5 -204h-135l7 192l-7 452h137l-4 -266l138 -2l135 2l-4 266h138zM81 677l84 -32l5 -13l-82 -165l-12 -6l-66 26q38 107 60 184z" />
    <glyph glyph-name="Iotatonos" unicode="&#x38a;" horiz-adv-x="445" 
d="M357 204l6 -204h-136l7 192l-7 452h138zM81 677l84 -32l5 -13l-82 -165l-12 -6l-66 26q38 107 60 184z" />
    <glyph glyph-name="Omicrontonos" unicode="&#x38c;" horiz-adv-x="745" 
d="M644.5 570.5q73.5 -82.5 73.5 -234.5q0 -166 -80 -256t-226 -90q-135 0 -208.5 84.5t-73.5 239.5q0 163 79.5 251t225.5 88q136 0 209.5 -82.5zM307 494q-36 -50 -36 -163q0 -129 35.5 -184t117.5 -55q80 0 116 50.5t36 165.5q0 127 -35.5 181.5t-117.5 54.5
q-80 0 -116 -50zM53 677l84 -32l5 -13l-82 -165l-12 -6l-66 26q38 107 60 184z" />
    <glyph glyph-name="Upsilontonos" unicode="&#x38e;" horiz-adv-x="736" 
d="M510 179l6 -179h-135l6 179l-1 38l-205 427h144l14 -45l109 -245h9l122 241l19 49h139l-225 -422zM55 677l84 -32l5 -13l-82 -165l-12 -6l-66 26q38 107 60 184z" />
    <glyph glyph-name="Omegatonos" unicode="&#x38f;" horiz-adv-x="791" 
d="M144 5l13 102l77 -5h67v6q-75 41 -111.5 103.5t-36.5 150.5q0 89 36 154.5t102.5 101t155.5 35.5q87 0 151 -34t98.5 -97.5t34.5 -148.5q0 -88 -37 -153t-113 -112v-6h66l84 7l7 -9l-13 -102l-77 2h-124l-41 -2l-5 5l1 126q60 40 86 90t26 128q0 99 -38 148t-115 49
q-74 0 -111 -47t-37 -144q0 -79 26 -130.5t87 -93.5l2 -126l-7 -5l-40 2h-123l-84 -4zM67 677l84 -32l5 -13l-82 -165l-12 -6l-66 26q38 107 60 184z" />
    <glyph glyph-name="iotadieresistonos" unicode="&#x390;" horiz-adv-x="265" 
d="M86 23.5q-27 29.5 -27 78.5l3 137l-5 217l131 11l-6 -343q0 -18 4.5 -25.5t17.5 -7.5q10 0 26 4l10 -8l-12 -70q-33 -18 -71 -23q-44 0 -71 29.5zM75 561q30 89 53 172l9 7l75 -29l5 -12l-82 -153l-14 -4zM-35.5 567.5q-13.5 13.5 -13.5 39.5t15.5 42t41.5 16
q25 0 39 -14t14 -39q0 -26 -16 -42t-42 -16q-25 0 -38.5 13.5zM219 568q-14 14 -14 39q0 26 15.5 42t41.5 16q25 0 38.5 -14t13.5 -39q0 -26 -15 -42t-41 -16q-25 0 -39 14z" />
    <glyph glyph-name="Alpha" unicode="&#x391;" horiz-adv-x="600" 
d="M584 0h-138l-16 84l-17 60l-126 3l-111 -3l-17 -53l-17 -91h-134l218 644h161zM384 249l-76 268h-9l-88 -268l86 -2z" />
    <glyph glyph-name="Beta" unicode="&#x392;" horiz-adv-x="579" 
d="M515.5 280.5q31.5 -37.5 31.5 -98.5q0 -187 -293 -187q-86 0 -176 5l7 192l-7 452l229 1q99 0 154 -41.5t55 -119.5q0 -52 -25.5 -91t-72.5 -59q66 -16 97.5 -53.5zM351 528.5q-26 18.5 -91 18.5h-49l-3 -175l94 -3q38 10 56.5 33t18.5 64q0 44 -26 62.5zM374.5 117
q34.5 25 34.5 72q0 71 -92 88l-111 -2l-1 -71l3 -108q35 -4 69 -4q63 0 97.5 25z" />
    <glyph glyph-name="Gamma" unicode="&#x393;" horiz-adv-x="459" 
d="M449 633l-10 -99l-139 4h-82l-5 -334l5 -204h-136l7 192l-7 452h359z" />
    <glyph glyph-name="uni0394" unicode="&#x394;" horiz-adv-x="597" 
d="M29 88l197 556h161l181 -556v-88h-539v88zM435 105l-126 412h-10l-144 -412h280z" />
    <glyph glyph-name="Epsilon" unicode="&#x395;" horiz-adv-x="509" 
d="M483 112l8 -11l-9 -101h-404l7 192l-7 452h408l8 -11l-10 -101l-154 5l-116 -1l-3 -155l111 -2l105 3l8 -10l-9 -101l-114 3l-103 -1l-1 -69l3 -97l113 -1z" />
    <glyph glyph-name="Zeta" unicode="&#x396;" horiz-adv-x="547" 
d="M510 546l-320 -443h216l109 9l5 -8l-11 -107l-145 3h-257l-77 -4v97l323 447h-204l-109 -9l-6 7l10 107l404 -1l62 1v-99z" />
    <glyph glyph-name="Eta" unicode="&#x397;" horiz-adv-x="696" 
d="M615 204l4 -204h-135l6 192l-1 75l-145 1l-131 -2l-1 -62l5 -204h-135l7 192l-7 452h137l-4 -266l138 -2l135 2l-4 266h138z" />
    <glyph glyph-name="Theta" unicode="&#x398;" horiz-adv-x="662" 
d="M557.5 569.5q76.5 -83.5 76.5 -233.5q0 -164 -82.5 -255t-231.5 -91q-138 0 -215 85.5t-77 238.5q0 160 82.5 249.5t231.5 89.5q139 0 215.5 -83.5zM205 492.5q-40 -51.5 -40 -160.5q0 -127 39 -183.5t127 -56.5q85 0 126 53t41 163q0 125 -39.5 180.5t-127.5 55.5
q-86 0 -126 -51.5zM224 277l4 86l202 7l9 -9l-5 -86l-201 -7z" />
    <glyph glyph-name="Iota" unicode="&#x399;" horiz-adv-x="295" 
d="M208 204l6 -204h-136l7 192l-7 452h138z" />
    <glyph glyph-name="Kappa" unicode="&#x39a;" horiz-adv-x="584" 
d="M593 28l-2 -15q-56 -14 -132 -23l-16 8q-131 174 -233 334l-2 -128l5 -204h-135l7 192l-7 452h137l-5 -299l181 237l37 62h146l-228 -304q107 -149 247 -312z" />
    <glyph glyph-name="Lambda" unicode="&#x39b;" horiz-adv-x="594" 
d="M578 0h-141l-16 85l-116 429h-10l-132 -421l-17 -93h-138l212 644h166z" />
    <glyph glyph-name="Mu" unicode="&#x39c;" horiz-adv-x="797" 
d="M749 0h-120l-10 195l-23 248h-10l-144 -375h-105l-131 375h-9l-25 -235l-14 -208h-114l65 644h156l26 -95l102 -305h9l107 305l29 95h153z" />
    <glyph glyph-name="Nu" unicode="&#x39d;" horiz-adv-x="695" 
d="M610 199l5 -199h-146l-263 436h-8l-1 -214l4 -222h-123l7 190l-6 454h145l263 -436h9l-3 430l125 8z" />
    <glyph glyph-name="Xi" unicode="&#x39e;" horiz-adv-x="582" 
d="M53 533l11 111h459l8 -11l-10 -111l-225 5l-234 -5zM100 277l11 110l186 -3l171 3l9 -11l-10 -110l-175 2l-182 -2zM52 111l8 11l226 -5l235 5l10 -11l-11 -111h-459z" />
    <glyph glyph-name="Omicron" unicode="&#x39f;" horiz-adv-x="643" 
d="M542.5 570.5q73.5 -82.5 73.5 -234.5q0 -166 -80 -256t-226 -90q-135 0 -208.5 84.5t-73.5 239.5q0 163 79.5 251t225.5 88q136 0 209.5 -82.5zM205 494q-36 -50 -36 -163q0 -129 35.5 -184t117.5 -55q80 0 116 50.5t36 165.5q0 127 -35.5 181.5t-117.5 54.5
q-80 0 -116 -50z" />
    <glyph glyph-name="Pi" unicode="&#x3a0;" horiz-adv-x="660" 
d="M574 204l5 -204h-135l6 192l-5 347h-232l-5 -335l5 -204h-135l6 192l-6 452h503z" />
    <glyph glyph-name="Rho" unicode="&#x3a1;" horiz-adv-x="553" 
d="M480.5 594q54.5 -51 54.5 -146q0 -73 -32 -127.5t-91.5 -84.5t-139.5 -30h-64v-2l6 -204h-136l7 192l-7 452l247 1q101 0 155.5 -51zM394 436q0 54 -27.5 80.5t-84.5 28.5l-68 -4l-4 -232l92 -4q92 26 92 131z" />
    <glyph glyph-name="Sigma" unicode="&#x3a3;" horiz-adv-x="539" 
d="M500 634l-10 -102l-93 4h-183l149 -181v-23l-170 -225h195l107 6l9 -12l-9 -102l-361 1l-94 -2v96l180 238l-174 209v103l444 1z" />
    <glyph glyph-name="Tau" unicode="&#x3a4;" horiz-adv-x="503" 
d="M489 633l-8 -101l-121 6h-40l-5 -334l6 -204h-136l7 192l-5 346h-40l-123 -6l-9 11l9 101h457z" />
    <glyph glyph-name="Upsilon" unicode="&#x3a5;" horiz-adv-x="558" 
d="M333 179l6 -179h-135l6 179l-1 38l-205 427h144l14 -45l109 -245h9l122 241l19 49h139l-225 -422z" />
    <glyph glyph-name="Phi" unicode="&#x3a6;" horiz-adv-x="789" 
d="M680 140q-77 -68 -226 -79l2 -88h-125l2 87q-148 9 -224.5 75.5t-76.5 189.5q0 130 75.5 197.5t224.5 78.5l-1 72h127l-1 -71q300 -20 300 -263q0 -131 -77 -199zM202.5 209q42.5 -41 133.5 -49l1 33l-4 309q-88 -9 -130.5 -50.5t-42.5 -120.5q0 -81 42.5 -122z
M584.5 208.5q42.5 40.5 42.5 121.5q0 80 -41 121.5t-130 50.5l-4 -297l1 -45q89 8 131.5 48.5z" />
    <glyph glyph-name="Chi" unicode="&#x3a7;" horiz-adv-x="623" 
d="M398 337l208 -337h-163l-30 64l-107 167l-116 -174l-29 -57h-140l206 318l-204 326h163l30 -65l101 -157l105 162l27 60h144z" />
    <glyph glyph-name="Psi" unicode="&#x3a8;" horiz-adv-x="765" 
d="M715 644l-4 -193v-92q0 -106 -67.5 -168t-198.5 -75l3 -116h-130l4 115q-133 11 -201 73.5t-68 170.5v98l-2 187h132l-5 -266q-2 -69 34 -107.5t113 -48.5l-7 422h132l-7 -421q77 10 112.5 48t33.5 107l-5 266h131z" />
    <glyph glyph-name="uni03A9" unicode="&#x3a9;" horiz-adv-x="699" 
d="M52 5l13 102l77 -5h67v6q-75 41 -111.5 103.5t-36.5 150.5q0 89 36 154.5t102.5 101t155.5 35.5q87 0 151 -34t98.5 -97.5t34.5 -148.5q0 -88 -37 -153t-113 -112v-6h66l84 7l7 -9l-13 -102l-77 2h-124l-41 -2l-5 5l1 126q60 40 86 90t26 128q0 99 -38 148t-115 49
q-74 0 -111 -47t-37 -144q0 -79 26 -130.5t87 -93.5l2 -126l-7 -5l-40 2h-123l-84 -4z" />
    <glyph glyph-name="Iotadieresis" unicode="&#x3aa;" horiz-adv-x="295" 
d="M208 204l6 -204h-136l7 192l-7 452h138zM109 845q16 -16 16 -45q0 -31 -17.5 -49t-47.5 -18q-29 0 -45 16t-16 46t17.5 48t48.5 18q28 0 44 -16zM282 845q16 -16 16 -45q0 -31 -17.5 -49t-46.5 -18t-45 16t-16 46t17.5 48t47.5 18q28 0 44 -16z" />
    <glyph glyph-name="Upsilondieresis" unicode="&#x3ab;" horiz-adv-x="558" 
d="M333 179l6 -179h-135l6 179l-1 38l-205 427h144l14 -45l109 -245h9l122 241l19 49h139l-225 -422zM240 845q16 -16 16 -45q0 -31 -17.5 -49t-47.5 -18q-29 0 -45 16t-16 46t17.5 48t48.5 18q28 0 44 -16zM413 845q16 -16 16 -45q0 -31 -17.5 -49t-46.5 -18t-45 16t-16 46
t17.5 48t47.5 18q28 0 44 -16z" />
    <glyph glyph-name="alphatonos" unicode="&#x3ac;" horiz-adv-x="534" 
d="M508 87l-12 -70q-37 -20 -79 -23q-58 8 -80 60h-9q-45 -42 -104 -61q-93 0 -145 64.5t-52 166.5q0 71 24 127t71 88t112 32q50 -14 92 -50l6 1v38l125 9l-7 -348q0 -17 5.5 -23.5t19.5 -6.5q11 0 23 4zM174 132q23 -36 64 -36q42 0 89 35l5 106v97q-47 40 -92 40
q-42 0 -65.5 -35t-23.5 -100q0 -71 23 -107zM289 740l84 -32l5 -13l-82 -165l-12 -6l-66 26q38 107 60 184z" />
    <glyph glyph-name="epsilontonos" unicode="&#x3ad;" horiz-adv-x="448" 
d="M401 116l10 -7l-10 -88q-36 -14 -82 -22t-87 -8q-97 0 -150.5 34t-53.5 100q0 87 95 118q-39 18 -57.5 43t-18.5 60q0 60 53 93.5t143 33.5q46 0 92 -8t77 -23l-19 -94l-10 -5q-66 39 -132 39q-37 0 -59 -13.5t-22 -38.5q0 -35 43 -53l139 1l5 -8l-7 -76h-123
q-37 0 -56.5 -14t-19.5 -39q0 -29 26 -44t73 -15q74 0 151 34zM251 740l84 -32l5 -13l-82 -165l-12 -6l-66 26q38 107 60 184z" />
    <glyph glyph-name="etatonos" unicode="&#x3ae;" horiz-adv-x="531" 
d="M341 -185l8 475q0 36 -16 55t-47 19q-45 0 -96 -43v-116l6 -205h-133l7 192l-5 264l126 11v-68h6q57 51 121 72q76 0 115.5 -34.5t38.5 -99.5l-3 -133l5 -389h-133zM293 740l84 -32l5 -13l-82 -165l-12 -6l-66 26q38 107 60 184z" />
    <glyph glyph-name="iotatonos" unicode="&#x3af;" horiz-adv-x="265" 
d="M86 23.5q-27 29.5 -27 78.5l3 137l-5 217l131 11l-6 -343q0 -18 4.5 -25.5t17.5 -7.5q10 0 26 4l10 -8l-12 -70q-33 -18 -71 -23q-44 0 -71 29.5zM160 740l84 -32l5 -13l-82 -165l-12 -6l-66 26q38 107 60 184z" />
    <glyph glyph-name="upsilondieresistonos" unicode="&#x3b0;" horiz-adv-x="501" 
d="M100.5 38.5q-50.5 46.5 -48.5 131.5l1 74l-1 213l125 10l-6 -280q-2 -95 78 -95q81 0 80 95l-2 270l125 10l-6 -297q0 -84 -52.5 -131t-147.5 -47t-145.5 46.5zM193 561q30 89 53 172l9 7l75 -29l5 -12l-82 -153l-14 -4zM82.5 567.5q-13.5 13.5 -13.5 39.5t15.5 42
t41.5 16q25 0 39 -14t14 -39q0 -26 -16 -42t-42 -16q-25 0 -38.5 13.5zM337 568q-14 14 -14 39q0 26 15.5 42t41.5 16q25 0 38.5 -14t13.5 -39q0 -26 -15 -42t-41 -16q-25 0 -39 14z" />
    <glyph glyph-name="alpha" unicode="&#x3b1;" horiz-adv-x="534" 
d="M508 87l-12 -70q-37 -20 -79 -23q-58 8 -80 60h-9q-45 -42 -104 -61q-93 0 -145 64.5t-52 166.5q0 71 24 127t71 88t112 32q50 -14 92 -50l6 1v38l125 9l-7 -348q0 -17 5.5 -23.5t19.5 -6.5q11 0 23 4zM174 132q23 -36 64 -36q42 0 89 35l5 106v97q-47 40 -92 40
q-42 0 -65.5 -35t-23.5 -100q0 -71 23 -107z" />
    <glyph glyph-name="beta" unicode="&#x3b2;" horiz-adv-x="527" 
d="M465.5 318q34.5 -45 34.5 -114q0 -63 -29.5 -111t-83 -74.5t-124.5 -26.5q-33 0 -66 6l1 -183h-130l5 377v255q0 124 56 190.5t161 66.5q84 0 132.5 -42t48.5 -116q0 -53 -26.5 -95.5t-77.5 -71.5q64 -16 98.5 -61zM347 113.5q31 31.5 31 86.5q0 52 -26.5 83.5
t-70.5 31.5h-37l-7 10l5 85h38q71 41 71 116q0 38 -19 59t-55 21q-43 0 -63.5 -31t-20.5 -96l3 -383q39 -14 70 -14q50 0 81 31.5z" />
    <glyph glyph-name="gamma" unicode="&#x3b3;" horiz-adv-x="436" 
d="M420 430q0 -41 -14 -90.5t-51 -139.5l-82 -200l3 -185h-131l3 185l-139 462l123 6l13 -77l70 -259h8l40 102q25 67 36 113.5t11 86.5q0 17 -1 26l6 7l103 -2q2 -24 2 -35z" />
    <glyph glyph-name="delta" unicode="&#x3b4;" horiz-adv-x="471" 
d="M213 522q21 -21 68 -54q51 -35 85 -65.5t58.5 -78t24.5 -112.5q0 -66 -26.5 -116.5t-75.5 -78t-114 -27.5q-97 0 -153.5 60t-56.5 163q0 78 36.5 129.5t112.5 82.5l2 5q-47 35 -71 66.5t-24 77.5q0 63 50 98t139 35q37 0 75.5 -6t65.5 -15l-20 -100l-16 -5
q-72 38 -119 38q-30 0 -46 -13t-16 -36q0 -27 21 -48zM307 109.5q24 31.5 24 87.5q0 63 -25.5 106t-71.5 81q-47 -27 -67.5 -65t-20.5 -99q0 -70 24 -106t70 -36q43 0 67 31.5z" />
    <glyph glyph-name="epsilon" unicode="&#x3b5;" horiz-adv-x="448" 
d="M401 116l10 -7l-10 -88q-36 -14 -82 -22t-87 -8q-97 0 -150.5 34t-53.5 100q0 87 95 118q-39 18 -57.5 43t-18.5 60q0 60 53 93.5t143 33.5q46 0 92 -8t77 -23l-19 -94l-10 -5q-66 39 -132 39q-37 0 -59 -13.5t-22 -38.5q0 -35 43 -53l139 1l5 -8l-7 -76h-123
q-37 0 -56.5 -14t-19.5 -39q0 -29 26 -44t73 -15q74 0 151 34z" />
    <glyph glyph-name="zeta" unicode="&#x3b6;" horiz-adv-x="397" 
d="M156 -101l6 15q53 23 78.5 35.5t35.5 21.5t10 19q0 16 -29 20l-72 13q-82 13 -124 58t-42 120t58.5 170t198.5 240h-135l-84 -7l-6 6l9 91l298 -1l56 1v-87q-151 -167 -211.5 -254t-60.5 -139q0 -38 21 -60t64 -31l73 -14q48 -9 74.5 -37t26.5 -68q0 -61 -46 -105
t-150 -86z" />
    <glyph glyph-name="eta" unicode="&#x3b7;" horiz-adv-x="531" 
d="M341 -185l8 475q0 36 -16 55t-47 19q-45 0 -96 -43v-116l6 -205h-133l7 192l-5 264l126 11v-68h6q57 51 121 72q76 0 115.5 -34.5t38.5 -99.5l-3 -133l5 -389h-133z" />
    <glyph glyph-name="theta" unicode="&#x3b8;" horiz-adv-x="506" 
d="M412.5 619.5q52.5 -87.5 52.5 -259.5q0 -182 -56 -275t-162 -93q-99 0 -151.5 86.5t-52.5 259.5q0 183 56 276t162 93q99 0 151.5 -87.5zM182.5 558.5q-23.5 -54.5 -25.5 -171.5l192 6q-4 116 -26.5 168t-69.5 52t-70.5 -54.5zM324.5 136q22.5 53 25.5 167l-192 -6
q4 -113 27.5 -163.5t70.5 -50.5q46 0 68.5 53z" />
    <glyph glyph-name="iota" unicode="&#x3b9;" horiz-adv-x="265" 
d="M86 23.5q-27 29.5 -27 78.5l3 137l-5 217l131 11l-6 -343q0 -18 4.5 -25.5t17.5 -7.5q10 0 26 4l10 -8l-12 -70q-33 -18 -71 -23q-44 0 -71 29.5z" />
    <glyph glyph-name="kappa" unicode="&#x3ba;" horiz-adv-x="494" 
d="M452 67q24 -30 35 -45l-1 -14q-36 -8 -121 -18l-15 6q-58 80 -93.5 132t-65.5 106l-1 -29l6 -205h-132l6 192l-5 264l132 11l-6 -208l122 158l26 48h138l-165 -210q42 -61 140 -188z" />
    <glyph glyph-name="lambda" unicode="&#x3bb;" horiz-adv-x="467" 
d="M468 86l-13 -75q-32 -16 -65 -19q-36 2 -53.5 19t-30.5 63l-70 240h-9l-94 -243l-22 -78l-111 12l191 464q-14 47 -27.5 72.5t-33 37t-50.5 11.5q-16 0 -39 -3l-5 11l20 103q28 2 41 2q49 0 83 -17.5t59.5 -57.5t46.5 -109l120 -402q5 -14 11 -20t18 -6q9 0 24 3z" />
    <glyph glyph-name="uni03BC" unicode="&#x3bc;" horiz-adv-x="541" 
d="M516 87l-12 -70q-37 -24 -76 -25q-30 5 -49 23.5t-29 51.5h-9q-41 -45 -95 -73q-37 0 -67 11l13 -190h-125l4 377l-4 264l125 11v-292l-1 -3h1q0 -71 60 -71q44 0 87 39v316l126 11l-8 -346q0 -17 5 -23.5t18 -6.5q10 0 26 4z" />
    <glyph glyph-name="nu" unicode="&#x3bd;" horiz-adv-x="438" 
d="M420 436q0 -39 -13 -89t-50 -152l-72 -195h-144l-131 462l123 6l13 -77l69 -266h9l40 107q25 70 36 117.5t11 85.5q0 17 -1 25l6 7l103 -2q1 -10 1 -29z" />
    <glyph glyph-name="xi" unicode="&#x3be;" horiz-adv-x="424" 
d="M384.5 74.5q25.5 -28.5 25.5 -71.5q0 -58 -48.5 -103.5t-151.5 -86.5l-49 80l8 14q73 31 99.5 47.5t26.5 31.5q0 9 -6 13.5t-21 7.5l-63 13q-91 17 -135 61.5t-44 119.5q0 66 36.5 109.5t107.5 62.5q-60 22 -91.5 60.5t-31.5 92.5q0 82 63.5 129.5t171.5 47.5
q80 0 145 -26l-19 -107l-15 -6q-61 31 -114 31q-49 0 -77.5 -20t-28.5 -55q0 -38 22 -62t74 -46h104l5 -9l-8 -85h-84q-64 0 -100.5 -25.5t-36.5 -69.5q0 -72 98 -95l63 -15q49 -10 74.5 -38.5z" />
    <glyph glyph-name="omicron" unicode="&#x3bf;" horiz-adv-x="490" 
d="M408 414q54 -60 54 -173q0 -122 -57.5 -186.5t-166.5 -64.5q-102 0 -156 60t-54 172q0 122 57.5 187t166.5 65q102 0 156 -60zM173 351q-22 -33 -22 -106q0 -90 22.5 -128.5t73.5 -38.5q48 0 69.5 33t21.5 107q0 89 -22.5 127.5t-72.5 38.5q-48 0 -70 -33z" />
    <glyph glyph-name="pi" unicode="&#x3c0;" horiz-adv-x="629" 
d="M501 372l-5 -226q0 -26 8.5 -37.5t26.5 -11.5q21 0 50 13l10 -10l-13 -76q-37 -22 -72 -30q-64 0 -97 31t-33 87l4 108l-3 152h-131l1 -372h-128l10 192l-3 178q-50 -6 -94 -33l-13 2l-26 52l1 14q28 31 62 45t82 14h463l5 -7l-8 -85h-97z" />
    <glyph glyph-name="rho" unicode="&#x3c1;" horiz-adv-x="505" 
d="M424.5 413.5q52.5 -57.5 52.5 -167.5q0 -123 -61 -189.5t-174 -66.5q-34 0 -67 6l2 -181h-132l6 402q0 123 57.5 188.5t167.5 65.5q96 0 148.5 -57.5zM325 117.5q28 36.5 28 109.5q0 145 -94 145q-42 0 -65 -30.5t-23 -89.5l2 -154q40 -17 74 -17q50 0 78 36.5z" />
    <glyph glyph-name="uni03C2" unicode="&#x3c2;" horiz-adv-x="398" 
d="M137 -107l7 14q62 26 89 44.5t27 34.5q0 14 -24 22l-52 17q-82 26 -122 78t-40 136q0 72 27.5 125t76.5 81.5t112 28.5q68 0 131 -31l-23 -100l-11 -5q-47 28 -89 28q-47 0 -72 -32t-25 -90q0 -50 18.5 -76.5t60.5 -37.5l48 -14q98 -26 98 -108q0 -56 -45 -103.5
t-141 -91.5z" />
    <glyph glyph-name="sigma" unicode="&#x3c3;" horiz-adv-x="526" 
d="M405 370l-3 -8q27 -36 39.5 -71.5t12.5 -76.5q0 -103 -60 -163.5t-163 -60.5q-98 0 -150.5 60.5t-52.5 175.5q0 239 241 239h239l4 -8l-7 -87h-100zM308 370h-47q-60 0 -84.5 -29.5t-24.5 -104.5q0 -82 22 -120t68 -38q91 0 91 137q0 77 -25 155z" />
    <glyph glyph-name="tau" unicode="&#x3c4;" horiz-adv-x="406" 
d="M261 372l-6 -226q0 -26 9.5 -37.5t31.5 -11.5q21 0 55 13l9 -10l-12 -76q-39 -21 -82 -30q-64 0 -97.5 31t-33.5 87l5 108l-3 151q-55 -3 -105 -34l-13 2l-26 52l1 14q28 31 62 45t82 14h248l4 -7l-7 -85h-122z" />
    <glyph glyph-name="upsilon" unicode="&#x3c5;" horiz-adv-x="501" 
d="M100.5 38.5q-50.5 46.5 -48.5 131.5l1 74l-1 213l125 10l-6 -280q-2 -95 78 -95q81 0 80 95l-2 270l125 10l-6 -297q0 -84 -52.5 -131t-147.5 -47t-145.5 46.5z" />
    <glyph glyph-name="phi" unicode="&#x3c6;" horiz-adv-x="676" 
d="M585.5 66q-64.5 -65 -192.5 -77l2 -174h-125l3 173q-125 10 -187 70.5t-62 171.5q0 183 166 246l44 -65v-16q-47 -26 -67.5 -61t-20.5 -92q0 -73 30.5 -112t97.5 -50l4 233q2 74 49 117.5t127 43.5q93 0 144.5 -59t51.5 -166q0 -118 -64.5 -183zM495.5 125.5
q32.5 39.5 32.5 118.5q0 67 -21.5 103.5t-59.5 36.5q-28 0 -43 -22t-14 -60l2 -224q71 8 103.5 47.5z" />
    <glyph glyph-name="chi" unicode="&#x3c7;" horiz-adv-x="475" 
d="M487 -98l-14 -77q-27 -13 -58 -19q-37 1 -55.5 17.5t-37.5 61.5l-85 190l-85 -203l-18 -57h-122l153 330l-89 178q-15 29 -25 38.5t-25 9.5q-4 0 -20 -2l-6 11l16 85q24 3 43 3q44 0 70 -19.5t47 -68.5l75 -168l81 196l19 57h121l-148 -324l105 -212q10 -23 28 -23
q4 0 20 4z" />
    <glyph glyph-name="psi" unicode="&#x3c8;" horiz-adv-x="676" 
d="M628 466l-5 -291q-1 -85 -58 -132t-169 -50l2 -178h-123l3 178q-115 1 -172.5 48t-55.5 134l1 68l-2 213l117 10l-6 -275q-1 -51 27.5 -76.5t92.5 -26.5l2 104l-5 352l122 8l-5 -348l1 -116q62 1 90 26.5t28 76.5l-1 265z" />
    <glyph glyph-name="omega" unicode="&#x3c9;" horiz-adv-x="686" 
d="M621 385.5q33 -63.5 33 -165.5q0 -114 -45.5 -171.5t-128.5 -57.5q-103 0 -143 95q-39 -95 -141 -95q-80 0 -122.5 58t-42.5 171q0 100 37 163t123 92l50 -70v-17q-51 -25 -68.5 -61t-17.5 -105q0 -74 15.5 -108.5t50.5 -34.5q29 0 45.5 26.5t16.5 83.5v112l115 9l5 -5
v-111q0 -58 15.5 -86.5t44.5 -28.5q35 0 51 34t16 107q0 75 -17 111.5t-68 57.5l-1 17l50 69q94 -26 127 -89.5z" />
    <glyph glyph-name="iotadieresis" unicode="&#x3ca;" horiz-adv-x="265" 
d="M86 23.5q-27 29.5 -27 78.5l3 137l-5 217l131 11l-6 -343q0 -18 4.5 -25.5t17.5 -7.5q10 0 26 4l10 -8l-12 -70q-33 -18 -71 -23q-44 0 -71 29.5zM94 666q16 -16 16 -45q0 -31 -17.5 -49t-47.5 -18q-29 0 -45 16t-16 46t17.5 48t48.5 18q28 0 44 -16zM267 666
q16 -16 16 -45q0 -31 -17.5 -49t-46.5 -18t-45 16t-16 46t17.5 48t47.5 18q28 0 44 -16z" />
    <glyph glyph-name="upsilondieresis" unicode="&#x3cb;" horiz-adv-x="501" 
d="M100.5 38.5q-50.5 46.5 -48.5 131.5l1 74l-1 213l125 10l-6 -280q-2 -95 78 -95q81 0 80 95l-2 270l125 10l-6 -297q0 -84 -52.5 -131t-147.5 -47t-145.5 46.5zM212 666q16 -16 16 -45q0 -31 -17.5 -49t-47.5 -18q-29 0 -45 16t-16 46t17.5 48t48.5 18q28 0 44 -16z
M385 666q16 -16 16 -45q0 -31 -17.5 -49t-46.5 -18t-45 16t-16 46t17.5 48t47.5 18q28 0 44 -16z" />
    <glyph glyph-name="omicrontonos" unicode="&#x3cc;" horiz-adv-x="490" 
d="M408 414q54 -60 54 -173q0 -122 -57.5 -186.5t-166.5 -64.5q-102 0 -156 60t-54 172q0 122 57.5 187t166.5 65q102 0 156 -60zM173 351q-22 -33 -22 -106q0 -90 22.5 -128.5t73.5 -38.5q48 0 69.5 33t21.5 107q0 89 -22.5 127.5t-72.5 38.5q-48 0 -70 -33zM272 740
l84 -32l5 -13l-82 -165l-12 -6l-66 26q38 107 60 184z" />
    <glyph glyph-name="upsilontonos" unicode="&#x3cd;" horiz-adv-x="501" 
d="M100.5 38.5q-50.5 46.5 -48.5 131.5l1 74l-1 213l125 10l-6 -280q-2 -95 78 -95q81 0 80 95l-2 270l125 10l-6 -297q0 -84 -52.5 -131t-147.5 -47t-145.5 46.5zM278 740l84 -32l5 -13l-82 -165l-12 -6l-66 26q38 107 60 184z" />
    <glyph glyph-name="omegatonos" unicode="&#x3ce;" horiz-adv-x="686" 
d="M621 385.5q33 -63.5 33 -165.5q0 -114 -45.5 -171.5t-128.5 -57.5q-103 0 -143 95q-39 -95 -141 -95q-80 0 -122.5 58t-42.5 171q0 100 37 163t123 92l50 -70v-17q-51 -25 -68.5 -61t-17.5 -105q0 -74 15.5 -108.5t50.5 -34.5q29 0 45.5 26.5t16.5 83.5v112l115 9l5 -5
v-111q0 -58 15.5 -86.5t44.5 -28.5q35 0 51 34t16 107q0 75 -17 111.5t-68 57.5l-1 17l50 69q94 -26 127 -89.5zM372 720l84 -32l5 -13l-82 -165l-12 -6l-66 26q38 107 60 184z" />
    <glyph glyph-name="uni03CF" unicode="&#x3cf;" horiz-adv-x="616" 
d="M600 28v-12q-41 -124 -99.5 -181.5t-145.5 -57.5q-18 0 -27 1q-44 44 -54 104l11 10q23 -4 47 -4q52 0 85.5 24.5t58.5 78.5l-30 15q-115 150 -229 326l-2 -128l5 -204h-136l7 192l-7 452h138l-5 -299l181 237l36 62h147l-228 -304q108 -152 247 -312z" />
    <glyph glyph-name="uni03D1" unicode="&#x3d1;" horiz-adv-x="506" 
d="M412.5 619.5q52.5 -87.5 52.5 -259.5q0 -182 -56 -275t-162 -93q-99 0 -151.5 86.5t-52.5 259.5q0 183 56 276t162 93q99 0 151.5 -87.5zM182.5 558.5q-23.5 -54.5 -25.5 -171.5l192 6q-4 116 -26.5 168t-69.5 52t-70.5 -54.5zM324.5 136q22.5 53 25.5 167l-192 -6
q4 -113 27.5 -163.5t70.5 -50.5q46 0 68.5 53z" />
    <glyph glyph-name="uni03D5" unicode="&#x3d5;" horiz-adv-x="676" 
d="M585.5 66q-64.5 -65 -192.5 -77l2 -174h-125l3 173q-125 10 -187 70.5t-62 171.5q0 183 166 246l44 -65v-16q-47 -26 -67.5 -61t-20.5 -92q0 -73 30.5 -112t97.5 -50l4 233q2 74 49 117.5t127 43.5q93 0 144.5 -59t51.5 -166q0 -118 -64.5 -183zM495.5 125.5
q32.5 39.5 32.5 118.5q0 67 -21.5 103.5t-59.5 36.5q-28 0 -43 -22t-14 -60l2 -224q71 8 103.5 47.5z" />
    <glyph glyph-name="uni03D6" unicode="&#x3d6;" horiz-adv-x="629" 
d="M501 372l-5 -226q0 -26 8.5 -37.5t26.5 -11.5q21 0 50 13l10 -10l-13 -76q-37 -22 -72 -30q-64 0 -97 31t-33 87l4 108l-3 152h-131l1 -372h-128l10 192l-3 178q-50 -6 -94 -33l-13 2l-26 52l1 14q28 31 62 45t82 14h463l5 -7l-8 -85h-97z" />
    <glyph glyph-name="uni03D7" unicode="&#x3d7;" horiz-adv-x="499" 
d="M424 104l63 -82l-1 -14q-36 -106 -91.5 -153.5t-136.5 -42.5q-47 39 -59 99l10 10q24 -2 35 -2q46 0 76.5 18t52.5 58l-29 11q-58 82 -92 131.5t-61 97.5l-1 -30l6 -205h-132l6 192l-5 264l132 11l-6 -208l122 158l26 48h138l-165 -210q32 -47 112 -151z" />
    <glyph glyph-name="uni03F0" unicode="&#x3f0;" horiz-adv-x="494" 
d="M452 67q24 -30 35 -45l-1 -14q-36 -8 -121 -18l-15 6q-58 80 -93.5 132t-65.5 106l-1 -29l6 -205h-132l6 192l-5 264l132 11l-6 -208l122 158l26 48h138l-165 -210q42 -61 140 -188z" />
    <glyph glyph-name="uni0400" unicode="&#x400;" horiz-adv-x="545" 
d="M490 112l8 -11l-9 -101h-404l7 192l-7 452h408l8 -11l-10 -101l-154 5l-116 -1l-3 -155l111 -2l105 3l8 -10l-9 -101l-114 3l-103 -1l-1 -69l3 -97l113 -1zM416 776l-21 -55l-13 -4q-121 41 -215 78l-4 12l33 79l13 3q82 -49 207 -113z" />
    <glyph glyph-name="uni0401" unicode="&#x401;" horiz-adv-x="545" 
d="M490 112l8 -11l-9 -101h-404l7 192l-7 452h408l8 -11l-10 -101l-154 5l-116 -1l-3 -155l111 -2l105 3l8 -10l-9 -101l-114 3l-103 -1l-1 -69l3 -97l113 -1zM250 845q16 -16 16 -45q0 -31 -17.5 -49t-47.5 -18q-29 0 -45 16t-16 46t17.5 48t48.5 18q28 0 44 -16zM423 845
q16 -16 16 -45q0 -31 -17.5 -49t-46.5 -18t-45 16t-16 46t17.5 48t47.5 18q28 0 44 -16z" />
    <glyph glyph-name="uni0402" unicode="&#x402;" horiz-adv-x="678" 
d="M555.5 406q42.5 -23 61.5 -74.5t19 -141.5q0 -132 -40.5 -223t-131.5 -161l-51 53v12q50 52 74.5 124t24.5 169q0 82 -19 115.5t-67 33.5q-65 0 -127 -58l-1 -51l5 -204h-135l7 192l-5 346h-42l-110 -4l-8 11l8 99h491l8 -11l-9 -99l-124 4h-81l-3 -184h9q58 53 129 75
q75 0 117.5 -23z" />
    <glyph glyph-name="uni0403" unicode="&#x403;" horiz-adv-x="462" 
d="M452 633l-10 -99l-139 4h-82l-5 -334l5 -204h-136l7 192l-7 452h359zM384 886l34 -79l-4 -12q-97 -38 -216 -78l-12 4l-22 55q123 62 207 113z" />
    <glyph glyph-name="uni0404" unicode="&#x404;" horiz-adv-x="581" 
d="M519 148l13 -7l-11 -115q-88 -35 -178 -35q-149 0 -225 80t-76 238q0 165 83 254t238 89q98 0 179 -39l-24 -113l-11 -5q-71 45 -154 45q-74 0 -115 -39.5t-51 -120.5l108 -1l154 3l9 -10l-9 -101l-163 3l-100 -1q8 -87 49 -127.5t121 -40.5q77 0 163 43z" />
    <glyph glyph-name="uni0405" unicode="&#x405;" horiz-adv-x="511" 
d="M456 619l-22 -117l-20 -8q-34 24 -70.5 38t-66.5 14q-40 0 -64 -21.5t-24 -49.5q0 -29 26.5 -49t83.5 -47q55 -25 89.5 -46.5t59 -56.5t24.5 -86q0 -55 -30 -100.5t-85 -72t-127 -26.5q-95 0 -191 41l19 126l15 8q40 -35 87.5 -53.5t84.5 -18.5q44 0 68.5 21.5t24.5 51.5
q0 32 -26.5 52t-85.5 48q-54 24 -88 45t-58 56t-24 85q0 56 30 101.5t84 71.5t123 26q82 0 163 -33z" />
    <glyph glyph-name="uni0406" unicode="&#x406;" horiz-adv-x="307" 
d="M215 204l6 -204h-136l7 192l-7 452h138z" />
    <glyph glyph-name="uni0407" unicode="&#x407;" horiz-adv-x="295" 
d="M208 204l6 -204h-136l7 192l-7 452h138zM108 845q16 -16 16 -45q0 -31 -17.5 -49t-47.5 -18q-29 0 -45 16t-16 46t17.5 48t48.5 18q28 0 44 -16zM281 845q16 -16 16 -45q0 -31 -17.5 -49t-46.5 -18t-45 16t-16 46t17.5 48t47.5 18q28 0 44 -16z" />
    <glyph glyph-name="uni0408" unicode="&#x408;" horiz-adv-x="351" 
d="M264 212l2 -91q0 -57 -19 -97t-61.5 -71t-116.5 -59l-41 72v12q62 32 87.5 63.5t25.5 81.5v76l-6 345l-106 -3l-10 10l7 93h245z" />
    <glyph glyph-name="uni0409" unicode="&#x409;" horiz-adv-x="897" 
d="M823.5 351.5q51.5 -45.5 51.5 -130.5q0 -104 -73.5 -162.5t-203.5 -58.5h-192l7 192l-5 349h-123l-5 -42q-21 -197 -46.5 -303.5t-63.5 -154t-101 -55.5l-36 -1l-23 110q48 14 76 54t46 125.5t33 248.5l12 121h367l-4 -247h134q98 0 149.5 -45.5zM708 130.5
q25 28.5 25 72.5q0 47 -26.5 72.5t-77.5 25.5l-90 -2l-2 -95l3 -105l95 -5q48 8 73 36.5z" />
    <glyph glyph-name="uni040A" unicode="&#x40a;" horiz-adv-x="977" 
d="M903.5 348.5q51.5 -43.5 51.5 -128.5q0 -104 -73.5 -162t-204.5 -58h-190l7 191l-1 94h-146l-131 -2l-1 -79l5 -204h-135l7 192l-7 452h137l-4 -256l138 -2l135 2l-4 256h137l-4 -252h134q98 0 149.5 -43.5zM787.5 129.5q25.5 27.5 25.5 70.5q0 46 -27 70.5t-77 22.5
l-91 -2l-1 -87l3 -105l94 -5q48 8 73.5 35.5z" />
    <glyph glyph-name="uni040B" unicode="&#x40b;" horiz-adv-x="685" 
d="M507 0l6 203q0 110 -89 110q-31 0 -63 -15t-61 -43l-1 -51l5 -204h-136l7 192l-5 346h-41l-110 -4l-8 11l8 99h491l8 -11l-9 -99l-124 4h-81l-3 -184h9q55 52 129 75q102 0 150 -48.5t48 -151.5l5 -229h-135z" />
    <glyph glyph-name="uni040C" unicode="&#x40c;" horiz-adv-x="613" 
d="M600 28l-2 -15q-56 -14 -132 -23l-16 8q-131 174 -233 334l-2 -128l5 -204h-135l7 192l-7 452h137l-5 -299l181 237l37 62h146l-228 -304q107 -149 247 -312zM412 886l34 -79l-4 -12q-97 -38 -216 -78l-12 4l-22 55q123 62 207 113z" />
    <glyph glyph-name="uni040D" unicode="&#x40d;" horiz-adv-x="712" 
d="M91 192l-7 448l138 7l-9 -441h10l261 438h144l-7 -440l5 -204h-136l6 192l1 246h-9l-263 -438h-141zM484 776l-21 -55l-13 -4q-121 41 -215 78l-4 12l33 79l13 3q82 -49 207 -113z" />
    <glyph glyph-name="uni040E" unicode="&#x40e;" horiz-adv-x="588" 
d="M578 643l-179 -438q-40 -88 -74.5 -131.5t-81.5 -61.5t-127 -21l-10 1q-17 51 -23 107l5 12q71 7 107 16.5t58 28.5l-241 487l145 1l25 -70l126 -283h12l106 290l19 62h133zM459 790q-23 -47 -70.5 -72.5t-111.5 -25.5q-63 0 -109 25t-69 73l67 46h15q13 -36 36 -51
t63 -15t62.5 14.5t35.5 51.5h13z" />
    <glyph glyph-name="uni040F" unicode="&#x40f;" horiz-adv-x="680" 
d="M588 204l5 -204h-193l-11 -147l-99 -9l-12 156h-193l7 192l-7 452h137l-7 -440l2 -100h245l3 88l-7 452h137z" />
    <glyph glyph-name="uni0410" unicode="&#x410;" horiz-adv-x="605" 
d="M589 0h-138l-16 84l-17 60l-126 3l-111 -3l-17 -53l-17 -91h-134l218 644h161zM389 249l-76 268h-9l-88 -268l86 -2z" />
    <glyph glyph-name="uni0411" unicode="&#x411;" horiz-adv-x="599" 
d="M507.5 344q52.5 -44 52.5 -128q0 -102 -74.5 -159t-207.5 -57h-193l7 191l-7 453h442l7 -11l-8 -99l-162 4h-144l-2 -150h137q100 0 152.5 -44zM391.5 127.5q26.5 27.5 26.5 71.5q0 46 -27.5 70.5t-79.5 23.5l-95 -2l-1 -87l3 -107l97 -5q50 8 76.5 35.5z" />
    <glyph glyph-name="uni0412" unicode="&#x412;" horiz-adv-x="593" 
d="M522.5 280.5q31.5 -37.5 31.5 -98.5q0 -187 -293 -187q-86 0 -176 5l7 192l-7 452l229 1q99 0 154 -41.5t55 -119.5q0 -52 -25.5 -91t-72.5 -59q66 -16 97.5 -53.5zM358 528.5q-26 18.5 -91 18.5h-49l-3 -175l94 -3q38 10 56.5 33t18.5 64q0 44 -26 62.5zM381.5 117
q34.5 25 34.5 72q0 71 -92 88l-111 -2l-1 -71l3 -108q35 -4 69 -4q63 0 97.5 25z" />
    <glyph glyph-name="uni0413" unicode="&#x413;" horiz-adv-x="462" 
d="M452 633l-10 -99l-139 4h-82l-5 -334l5 -204h-136l7 192l-7 452h359z" />
    <glyph glyph-name="uni0414" unicode="&#x414;" horiz-adv-x="689" 
d="M660 111v-238l-100 -9l-18 136h-409l-17 -127l-102 -9v247h53q43 21 67 63.5t39.5 122t29.5 226.5l13 121h362l-7 -440l2 -93h87zM444 111l3 81l-5 349h-118l-4 -42q-17 -170 -41.5 -257.5t-67.5 -130.5h233z" />
    <glyph glyph-name="uni0415" unicode="&#x415;" horiz-adv-x="545" 
d="M490 112l8 -11l-9 -101h-404l7 192l-7 452h408l8 -11l-10 -101l-154 5l-116 -1l-3 -155l111 -2l105 3l8 -10l-9 -101l-114 3l-103 -1l-1 -69l3 -97l113 -1z" />
    <glyph glyph-name="uni0416" unicode="&#x416;" horiz-adv-x="878" 
d="M863 28l-2 -15q-58 -15 -130 -23l-16 8q-128 185 -213 332l-2 -126l5 -204h-133l5 192l-2 138q-74 -128 -212 -332l-16 -8q-71 8 -131 23l-1 15q133 167 229 312l-212 304h144l35 -62l164 -235l-3 297h135l-5 -298l165 236l35 62h143l-211 -304q103 -157 229 -312z" />
    <glyph glyph-name="uni0417" unicode="&#x417;" horiz-adv-x="530" 
d="M487 183q0 -91 -70.5 -142t-196.5 -51q-54 0 -103 10.5t-84 29.5l25 113l10 5q31 -22 71 -34t80 -12q59 0 95.5 25.5t36.5 67.5q0 31 -19.5 52.5t-56.5 29.5h-143l-8 10l8 92l134 -1q26 12 41.5 35.5t15.5 52.5q0 36 -25.5 53.5t-77.5 17.5q-73 0 -161 -41l-13 7l11 113
q75 36 168 36q111 0 173.5 -43.5t62.5 -120.5q0 -51 -26.5 -91.5t-75.5 -62.5q128 -33 128 -151z" />
    <glyph glyph-name="uni0418" unicode="&#x418;" horiz-adv-x="712" 
d="M91 192l-7 448l138 7l-9 -441h10l261 438h144l-7 -440l5 -204h-136l6 192l1 246h-9l-263 -438h-141z" />
    <glyph glyph-name="uni0419" unicode="&#x419;" horiz-adv-x="712" 
d="M91 192l-7 448l138 7l-9 -441h10l261 438h144l-7 -440l5 -204h-136l6 192l1 246h-9l-263 -438h-141zM521 790q-23 -47 -70.5 -72.5t-111.5 -25.5q-63 0 -109 25t-69 73l67 46h15q13 -36 36 -51t63 -15t62.5 14.5t35.5 51.5h13z" />
    <glyph glyph-name="uni041A" unicode="&#x41a;" horiz-adv-x="613" 
d="M600 28l-2 -15q-56 -14 -132 -23l-16 8q-131 174 -233 334l-2 -128l5 -204h-135l7 192l-7 452h137l-5 -299l181 237l37 62h146l-228 -304q107 -149 247 -312z" />
    <glyph glyph-name="uni041B" unicode="&#x41b;" horiz-adv-x="625" 
d="M534 204l4 -204h-135l7 192l-5 349h-121l-5 -42q-21 -197 -46.5 -303.5t-63.5 -154t-100 -55.5l-36 -1l-23 110q48 14 75.5 54t45 126t32.5 248l13 119l-1 2h366z" />
    <glyph glyph-name="uni041C" unicode="&#x41c;" horiz-adv-x="820" 
d="M761 0h-120l-10 195l-23 248h-10l-144 -375h-105l-131 375h-9l-25 -235l-14 -208h-114l65 644h156l26 -95l102 -305h9l107 305l29 95h153z" />
    <glyph glyph-name="uni041D" unicode="&#x41d;" horiz-adv-x="709" 
d="M618 204l4 -204h-135l6 192l-1 75l-145 1l-131 -2l-1 -62l5 -204h-135l7 192l-7 452h137l-4 -266l138 -2l135 2l-4 266h138z" />
    <glyph glyph-name="uni041E" unicode="&#x41e;" horiz-adv-x="671" 
d="M556.5 570.5q73.5 -82.5 73.5 -234.5q0 -166 -80 -256t-226 -90q-135 0 -208.5 84.5t-73.5 239.5q0 163 79.5 251t225.5 88q136 0 209.5 -82.5zM219 494q-36 -50 -36 -163q0 -129 35.5 -184t117.5 -55q80 0 116 50.5t36 165.5q0 127 -35.5 181.5t-117.5 54.5
q-80 0 -116 -50z" />
    <glyph glyph-name="uni041F" unicode="&#x41f;" horiz-adv-x="673" 
d="M581 204l5 -204h-135l6 192l-5 347h-232l-5 -335l5 -204h-135l6 192l-6 452h503z" />
    <glyph glyph-name="uni0420" unicode="&#x420;" horiz-adv-x="568" 
d="M487.5 594q54.5 -51 54.5 -146q0 -73 -32 -127.5t-91.5 -84.5t-139.5 -30h-64v-2l6 -204h-136l7 192l-7 452l247 1q101 0 155.5 -51zM401 436q0 54 -27.5 80.5t-84.5 28.5l-68 -4l-4 -232l92 -4q92 26 92 131z" />
    <glyph glyph-name="uni0421" unicode="&#x421;" horiz-adv-x="553" 
d="M518 613l-24 -113l-11 -5q-30 21 -66 33t-74 12q-159 0 -159 -209q0 -113 41.5 -169.5t121.5 -56.5q37 0 76.5 11.5t71.5 31.5l12 -7l-11 -115q-76 -35 -160 -35q-144 0 -219.5 84t-75.5 241q0 160 80.5 248t227.5 88q94 0 169 -39z" />
    <glyph glyph-name="uni0422" unicode="&#x422;" horiz-adv-x="495" 
d="M484 633l-8 -101l-121 6h-40l-5 -334l6 -204h-136l7 192l-5 346h-40l-123 -6l-9 11l9 101h457z" />
    <glyph glyph-name="uni0423" unicode="&#x423;" horiz-adv-x="588" 
d="M578 643l-179 -438q-40 -88 -74.5 -131.5t-81.5 -61.5t-127 -21l-10 1q-17 51 -23 107l5 12q71 7 107 16.5t58 28.5l-241 487l145 1l25 -70l126 -283h12l106 290l19 62h133z" />
    <glyph glyph-name="uni0424" unicode="&#x424;" horiz-adv-x="786" 
d="M679 140q-77 -68 -226 -79l2 -88h-125l2 87q-148 9 -224.5 75.5t-76.5 189.5q0 130 75.5 197.5t224.5 78.5l-1 72h127l-1 -71q300 -20 300 -263q0 -131 -77 -199zM201.5 209q42.5 -41 133.5 -49l1 33l-4 309q-88 -9 -130.5 -50.5t-42.5 -120.5q0 -81 42.5 -122z
M583.5 208.5q42.5 40.5 42.5 121.5q0 80 -41 121.5t-130 50.5l-4 -297l1 -45q89 8 131.5 48.5z" />
    <glyph glyph-name="uni0425" unicode="&#x425;" horiz-adv-x="623" 
d="M398 337l208 -337h-163l-30 64l-107 167l-116 -174l-29 -57h-140l206 318l-204 326h163l30 -65l101 -157l105 162l27 60h144z" />
    <glyph glyph-name="uni0426" unicode="&#x426;" horiz-adv-x="700" 
d="M673 111v-238l-99 -9l-19 136h-470l7 192l-7 452h137l-7 -440l2 -93h235l3 81l-7 452h137l-7 -440l3 -93h92z" />
    <glyph glyph-name="uni0427" unicode="&#x427;" horiz-adv-x="608" 
d="M517 204l5 -204h-136l7 192l-1 77h-10q-57 -52 -129 -76q-103 0 -152.5 46.5t-50.5 143.5l-4 261h137l-2 -225q0 -52 23 -80.5t64 -28.5q58 0 122 56l-4 278h138z" />
    <glyph glyph-name="uni0428" unicode="&#x428;" horiz-adv-x="946" 
d="M854 204l5 -204h-774l7 192l-7 452h137l-7 -440l2 -93h191l3 81l-7 452h138l-7 -440l2 -93h190l3 81l-6 452h137z" />
    <glyph glyph-name="uni0429" unicode="&#x429;" horiz-adv-x="968" 
d="M944 111v-238l-99 -9l-19 136h-742l7 192l-7 452h137l-7 -440l2 -93h191l3 81l-7 452h138l-7 -440l2 -93h190l3 81l-6 452h137l-7 -440l2 -93h89z" />
    <glyph glyph-name="uni042A" unicode="&#x42a;" horiz-adv-x="657" 
d="M582 351.5q51 -45.5 51 -130.5q0 -104 -72 -162.5t-201 -58.5h-184l7 191l-5 347h-62l-97 -4l-9 11l8 99h295l-4 -247h126q96 0 147 -45.5zM466.5 130.5q24.5 28.5 24.5 72.5q0 47 -26 72.5t-74 25.5l-83 -2l-2 -95l3 -106l87 -4q46 8 70.5 36.5z" />
    <glyph glyph-name="uni042B" unicode="&#x42b;" horiz-adv-x="803" 
d="M458 351.5q48 -45.5 48 -130.5q0 -104 -69 -162.5t-192 -58.5h-178l7 191l-7 453h137l-4 -247h120q90 0 138 -45.5zM711 204l6 -204h-136l7 192l-7 452h138zM344 130.5q22 28.5 22 72.5q0 47 -23.5 72.5t-67.5 25.5l-76 -2l-2 -95l3 -106l81 -4q41 8 63 36.5z" />
    <glyph glyph-name="uni042C" unicode="&#x42c;" horiz-adv-x="574" 
d="M499.5 351.5q50.5 -45.5 50.5 -130.5q0 -104 -72.5 -162.5t-202.5 -58.5h-190l7 191l-7 453h137l-4 -247h133q98 0 148.5 -45.5zM383.5 130q24.5 28 24.5 73q0 47 -26 72.5t-76 25.5l-89 -2l-2 -95l3 -105l93 -5q48 8 72.5 36z" />
    <glyph glyph-name="uni042D" unicode="&#x42d;" horiz-adv-x="581" 
d="M463.5 572q75.5 -80 75.5 -238q0 -165 -83 -254t-238 -89q-98 0 -179 39l24 113l12 5q33 -21 72.5 -33t80.5 -12q76 0 117.5 42t49.5 127l-109 1l-153 -3l-8 10l9 102l161 -3l99 1q-10 82 -51 120t-118 38t-163 -43l-13 7l11 116q90 34 179 34q149 0 224.5 -80z" />
    <glyph glyph-name="uni042E" unicode="&#x42e;" horiz-adv-x="900" 
d="M787.5 570q68.5 -83 68.5 -234q0 -166 -74 -256t-210 -90q-115 0 -182 72t-77 205l-52 1l-45 -1l-1 -63l5 -204h-136l7 192l-7 452h138l-4 -267l49 -1l47 1q14 133 86 204.5t194 71.5q125 0 193.5 -83zM684.5 142q30.5 50 30.5 166q0 128 -31 182t-102 54
q-69 0 -99.5 -50t-30.5 -163q0 -129 31 -184t101 -55t100.5 50z" />
    <glyph glyph-name="uni042F" unicode="&#x42f;" horiz-adv-x="602" 
d="M510 192l7 -192h-136l5 204v13h-95q-48 -96 -118 -216l-14 -11q-74 4 -133 27l-2 15q80 99 162 217q-62 30 -93.5 77t-31.5 108q0 62 30.5 110t84.5 75t123 27l218 -2zM384 323l-3 218l-71 4q-52 -2 -79.5 -29t-27.5 -80q0 -47 22 -75.5t68 -42.5z" />
    <glyph glyph-name="uni0430" unicode="&#x430;" horiz-adv-x="474" 
d="M361.5 439.5q43.5 -34.5 43.5 -96.5q0 -18 -6 -114q-1 -28 -3 -57.5t-2 -50.5q0 -17 5 -23.5t18 -6.5q10 0 26 4l10 -8l-12 -70q-32 -21 -73 -25q-30 3 -50 21.5t-27 51.5h-7q-50 -53 -103 -74q-72 1 -113 38t-41 101q0 50 25.5 78.5t77.5 38.5l153 29v41q0 65 -64 65
q-31 0 -65.5 -14t-77.5 -44l-10 6l-15 88q43 27 92 41.5t98 14.5q77 0 120.5 -34.5zM176 186q-16 -4 -23.5 -13.5t-7.5 -28.5q0 -26 14 -40.5t39 -14.5q39 0 82 46l2 74z" />
    <glyph glyph-name="uni0431" unicode="&#x431;" horiz-adv-x="507" 
d="M432.5 399q46.5 -55 46.5 -164q0 -120 -57.5 -182.5t-167.5 -62.5q-75 0 -120.5 31.5t-67 100t-21.5 180.5q0 100 17.5 163.5t56.5 102t107 61.5l94 31q57 20 104 48l12 -7l6 -106q-41 -20 -102 -37l-91 -25q-42 -12 -60.5 -43t-18.5 -88v-27l7 -2q53 62 117 81
q92 0 138.5 -55zM332.5 109.5q21.5 31.5 21.5 99.5q0 71 -22 104.5t-68 33.5q-25 0 -47.5 -12.5t-46.5 -38.5q1 -84 10 -131t29 -67t55 -20q47 0 68.5 31.5z" />
    <glyph glyph-name="uni0432" unicode="&#x432;" horiz-adv-x="487" 
d="M457 133q0 -71 -57 -104t-169 -33q-53 0 -167 4l7 192l-5 273h208q80 0 123 -30t43 -87q0 -35 -19.5 -63.5t-55.5 -44.5q92 -23 92 -107zM189 386l-2 -116l76 -3q56 15 56 64q0 30 -21.5 43t-73.5 13q-22 0 -35 -1zM313 89.5q23 16.5 23 48.5q0 23 -14 36.5t-45 19.5
l-92 -1l3 -116q29 -4 60 -4q42 0 65 16.5z" />
    <glyph glyph-name="uni0433" unicode="&#x433;" horiz-adv-x="367" 
d="M370 456l-8 -86l-105 3h-62l-4 -168l6 -205h-133l7 192l-5 273h297z" />
    <glyph glyph-name="uni0434" unicode="&#x434;" horiz-adv-x="541" 
d="M511 95v-210l-85 -7l-16 122h-302l-15 -115l-85 -7v217h35q30 18 47 46.5t27.5 80.5t21.5 151l10 91h306l-6 -259l3 -110h59zM331 192l-3 186h-86l-3 -26q-12 -111 -29 -169t-47 -88h165z" />
    <glyph glyph-name="uni0435" unicode="&#x435;" horiz-adv-x="471" 
d="M417 216l-270 -2q9 -125 127 -125q62 0 138 35l11 -7l-20 -99q-76 -28 -143 -28q-110 0 -172.5 64t-62.5 177q0 112 61 177.5t165 65.5q89 0 137.5 -48.5t48.5 -135.5q0 -23 -5 -58zM321 305q0 40 -18 60.5t-53 20.5q-39 0 -65 -25.5t-35 -73.5l169 4z" />
    <glyph glyph-name="uni0436" unicode="&#x436;" horiz-adv-x="712" 
d="M703 22l-1 -14q-36 -8 -75 -12.5t-47 -5.5l-14 6q-88 127 -148 242l-1 -33l5 -205h-132l6 192l-1 49q-62 -119 -149 -245l-15 -6q-9 1 -48 5.5t-73 12.5l-1 14q94 129 160 233l-150 210h138l23 -48l115 -163l-4 211h131l-4 -209l113 161l24 48h138l-150 -210
q66 -104 160 -233z" />
    <glyph glyph-name="uni0437" unicode="&#x437;" horiz-adv-x="410" 
d="M358.5 201q22.5 -26 22.5 -68q0 -67 -54.5 -104t-153.5 -37q-41 0 -78.5 6.5t-63.5 18.5l21 96l9 4q22 -12 52 -19t59 -7q41 0 65 14t24 39q0 35 -44 47h-111l-7 8l8 81l101 -1q16 7 25 20.5t9 30.5q0 22 -16.5 31.5t-53.5 9.5q-52 0 -119 -21l-11 5l9 96q58 20 125 20
q89 0 138 -32t49 -90q0 -37 -19.5 -65t-54.5 -44q47 -13 69.5 -39z" />
    <glyph glyph-name="uni0438" unicode="&#x438;" horiz-adv-x="549" 
d="M71 192l-7 270l132 6l-5 -288h8l154 285h132l-7 -257l7 -208h-132l6 183v110h-7l-159 -293h-129z" />
    <glyph glyph-name="uni0439" unicode="&#x439;" horiz-adv-x="549" 
d="M71 192l-7 270l132 6l-5 -288h8l154 285h132l-7 -257l7 -208h-132l6 183v110h-7l-159 -293h-129zM440 631q-20 -46 -64.5 -72t-103.5 -26q-58 0 -100 25t-64 73l67 46h14q13 -36 32.5 -51t54.5 -15q34 0 52.5 14.5t31.5 51.5h13z" />
    <glyph glyph-name="uni043A" unicode="&#x43a;" horiz-adv-x="496" 
d="M69 192l-4 264l131 11l-5 -262l4 -205h-132zM324 255q56 -88 163 -233v-14q-35 -8 -74.5 -12.5t-48.5 -5.5l-14 6q-90 128 -153 247v9l118 165l24 48h138z" />
    <glyph glyph-name="uni043B" unicode="&#x43b;" horiz-adv-x="496" 
d="M426 205l5 -205h-132l6 192l-3 185h-84l-3 -26q-17 -142 -36.5 -217t-48.5 -107.5t-78 -37.5h-30l-19 102q36 11 56 38t33 82.5t24 161.5l10 90l-1 2h307z" />
    <glyph glyph-name="uni043C" unicode="&#x43c;" horiz-adv-x="630" 
d="M93 464h132l20 -68l66 -201h7l72 199l22 70h130l41 -464h-105l-5 144l-13 152h-8l-100 -249h-88l-89 249h-7l-15 -138l-11 -158h-99z" />
    <glyph glyph-name="uni043D" unicode="&#x43d;" horiz-adv-x="552" 
d="M481 205l5 -205h-132l6 182l-87 1l-81 -2l5 -181h-133l7 192l-5 273h131l-4 -184l86 -1h80l-3 185h130z" />
    <glyph glyph-name="uni043E" unicode="&#x43e;" horiz-adv-x="491" 
d="M409 414q54 -60 54 -173q0 -122 -58 -186.5t-167 -64.5q-102 0 -156 60t-54 173q0 122 58 186.5t167 64.5q102 0 156 -60zM174.5 352q-21.5 -32 -21.5 -103q0 -92 22 -131t72 -39q48 0 69.5 31.5t21.5 103.5q0 91 -22.5 130.5t-71.5 39.5q-48 0 -69.5 -32z" />
    <glyph glyph-name="uni043F" unicode="&#x43f;" horiz-adv-x="540" 
d="M469 185l5 -185h-132l6 171l-3 201h-149l-5 -187l6 -185h-133l7 171l-5 294h408z" />
    <glyph glyph-name="uni0440" unicode="&#x440;" horiz-adv-x="520" 
d="M444 412q47 -59 47 -167q0 -122 -60.5 -188.5t-170.5 -66.5q-32 0 -67 6l3 -181h-132l7 377l-6 264l127 11l-1 -68h7q28 27 54 43.5t58 28.5q87 0 134 -59zM340 114q27 37 27 109q0 70 -22.5 105.5t-66.5 35.5q-43 0 -87 -43l-1 -116l2 -113q36 -15 69 -15q52 0 79 37z
" />
    <glyph glyph-name="uni0441" unicode="&#x441;" horiz-adv-x="402" 
d="M315.5 467.5q32.5 -6.5 57.5 -18.5l-22 -106l-11 -5q-51 28 -91 28q-46 0 -71 -33t-25 -94q0 -70 27 -107t77 -37q45 0 100 25l10 -8l-13 -103q-60 -19 -123 -19q-96 0 -150 62.5t-54 174.5q0 116 59 181.5t164 65.5q33 0 65.5 -6.5z" />
    <glyph glyph-name="uni0442" unicode="&#x442;" horiz-adv-x="391" 
d="M394 456l-8 -86l-92 3h-34l-4 -168l6 -205h-132l6 192l-3 181h-36l-92 -3l-7 9l6 86h382z" />
    <glyph glyph-name="uni0443" unicode="&#x443;" horiz-adv-x="452" 
d="M144 394l83 -260h8l83 249l17 82h114l-152 -434q-24 -68 -54 -109.5t-75 -68t-116 -45.5l-10 1q-34 33 -56 78l4 13q63 11 104 32.5t78 67.5l-170 462l126 6z" />
    <glyph glyph-name="uni0444" unicode="&#x444;" horiz-adv-x="659" 
d="M574.5 66q-61.5 -61 -182.5 -75l1 -176h-127l1 175q-244 21 -244 238q0 218 244 243l-2 168l130 10l-2 -178q243 -21 243 -236q0 -108 -61.5 -169zM176 127.5q29 -37.5 92 -48.5l1 113l-2 187q-64 -10 -92 -44t-28 -101q0 -69 29 -106.5zM482.5 127q28.5 37 28.5 106
q0 67 -28 101.5t-91 44.5l-2 -171l1 -128q63 10 91.5 47z" />
    <glyph glyph-name="uni0445" unicode="&#x445;" horiz-adv-x="468" 
d="M179 413l64 -104l63 108l25 47h117l-134 -228l140 -232l-140 -10l-23 59l-66 107l-69 -113l-22 -47h-117l135 233l-136 228l142 7z" />
    <glyph glyph-name="uni0446" unicode="&#x446;" horiz-adv-x="561" 
d="M535 96v-211l-88 -8l-16 123h-367l7 192l-5 273h131l-6 -260l3 -108l148 -1l3 96l-5 273h132l-6 -260l3 -109h66z" />
    <glyph glyph-name="uni0447" unicode="&#x447;" horiz-adv-x="489" 
d="M418 205l6 -205h-132l5 189h-8q-44 -36 -95 -54q-84 0 -122 34t-40 108l-3 188h131l-3 -161q-1 -68 59 -68q41 0 80 32l-3 197h132z" />
    <glyph glyph-name="uni0448" unicode="&#x448;" horiz-adv-x="738" 
d="M668 204l4 -204h-607l6 192l-5 272h122l-7 -260l3 -109h126l4 97l-5 272h122l-5 -260l2 -109h126l3 97l-4 272h120z" />
    <glyph glyph-name="uni0449" unicode="&#x449;" horiz-adv-x="770" 
d="M751 96v-211l-88 -8l-16 123h-582l6 192l-5 272h122l-7 -260l3 -109h126l4 97l-5 272h122l-5 -260l2 -109h126l3 97l-4 272h120l-5 -260l2 -108h81z" />
    <glyph glyph-name="uni044A" unicode="&#x44a;" horiz-adv-x="506" 
d="M456.5 262.5q40.5 -32.5 40.5 -94.5q0 -79 -57.5 -123.5t-159.5 -44.5h-161l6 192l-3 181h-38l-79 -3l-7 8l7 87h241l-5 -170h99q76 0 116.5 -32.5zM355 105.5q17 19.5 17 47.5q0 30 -18 47.5t-51 16.5l-64 -1v-11l3 -122l66 -3q30 6 47 25.5z" />
    <glyph glyph-name="uni044B" unicode="&#x44b;" horiz-adv-x="686" 
d="M615 205l6 -205h-133l7 192l-5 264l131 11zM401.5 262.5q39.5 -32.5 39.5 -94.5q0 -79 -56 -123.5t-155 -44.5h-166l7 192l-5 273h131l-4 -170h95q74 0 113.5 -32.5zM300 105.5q15 19.5 15 47.5q0 30 -17 47.5t-47 16.5l-60 -1v-11l4 -122l63 -3q27 6 42 25.5z" />
    <glyph glyph-name="uni044C" unicode="&#x44c;" horiz-adv-x="463" 
d="M414.5 262.5q41.5 -32.5 41.5 -94.5q0 -79 -59 -123.5t-162 -44.5h-171l7 192l-5 273h131l-4 -170h101q79 0 120.5 -32.5zM312.5 105.5q17.5 19.5 17.5 47.5q0 30 -19.5 47.5t-53.5 16.5l-66 -1v-11l4 -122l68 -3q32 6 49.5 25.5z" />
    <glyph glyph-name="uni044D" unicode="&#x44d;" horiz-adv-x="440" 
d="M354 413q59 -61 59 -173q0 -117 -63.5 -183.5t-175.5 -66.5q-75 0 -140 25l23 98l12 4q31 -14 56 -20.5t51 -6.5q99 0 114 100h-79l-106 -2l-7 9l7 82l113 -2l70 1q-11 47 -42.5 71.5t-81.5 24.5q-55 0 -114 -25l-12 8l14 99q26 8 62 13t72 5q109 0 168 -61z" />
    <glyph glyph-name="uni044E" unicode="&#x44e;" horiz-adv-x="708" 
d="M626.5 414q51.5 -60 51.5 -173q0 -122 -55 -186.5t-160 -64.5q-90 0 -141 49.5t-59 142.5l-39 1l-32 -1l5 -182h-133l7 192l-5 273h131l-4 -185h72q12 95 66 144.5t145 49.5q99 0 150.5 -60zM534.5 111q19.5 33 19.5 107q0 90 -20 128t-67 38q-43 0 -62.5 -32.5
t-19.5 -106.5q0 -91 20 -129t67 -38q43 0 62.5 33z" />
    <glyph glyph-name="uni044F" unicode="&#x44f;" horiz-adv-x="485" 
d="M414 205l5 -205h-124l4 156h-69q-34 -71 -83 -154l-11 -9q-76 3 -117 22l-2 13q66 76 118 149q-47 20 -68 51.5t-21 82.5q0 45 23 80t65 55t95 20l191 -1zM188.5 364.5q-18.5 -18.5 -18.5 -52.5q0 -66 66 -82l64 4v147l-58 3q-35 -1 -53.5 -19.5z" />
    <glyph glyph-name="uni0450" unicode="&#x450;" horiz-adv-x="471" 
d="M417 216l-270 -2q9 -125 127 -125q62 0 138 35l11 -7l-20 -99q-76 -28 -143 -28q-110 0 -172.5 64t-62.5 177q0 112 61 177.5t165 65.5q89 0 137.5 -48.5t48.5 -135.5q0 -23 -5 -58zM321 305q0 40 -18 60.5t-53 20.5q-39 0 -65 -25.5t-35 -73.5l169 4zM361 570l-32 -50
l-12 -1q-78 45 -195 118l-2 13l48 72l12 1q73 -67 181 -153z" />
    <glyph glyph-name="uni0451" unicode="&#x451;" horiz-adv-x="471" 
d="M417 216l-270 -2q9 -125 127 -125q62 0 138 35l11 -7l-20 -99q-76 -28 -143 -28q-110 0 -172.5 64t-62.5 177q0 112 61 177.5t165 65.5q89 0 137.5 -48.5t48.5 -135.5q0 -23 -5 -58zM321 305q0 40 -18 60.5t-53 20.5q-39 0 -65 -25.5t-35 -73.5l169 4zM202 665
q16 -16 16 -45q0 -31 -17.5 -49t-47.5 -18q-29 0 -45 16t-16 46t17.5 48t48.5 18q28 0 44 -16zM375 665q16 -16 16 -45q0 -31 -17.5 -49t-46.5 -18t-45 16t-16 46t17.5 48t47.5 18q28 0 44 -16z" />
    <glyph glyph-name="uni0452" unicode="&#x452;" horiz-adv-x="534" 
d="M420.5 452q33.5 -19 47.5 -64.5t14 -129.5q0 -134 -13 -209.5t-46.5 -127t-103.5 -106.5l-54 46v13q39 36 59 76.5t27.5 104.5t7.5 177q0 53 -5.5 81t-19.5 39.5t-41 11.5q-48 0 -97 -43l-2 -116l7 -205h-132l7 193l-4 334h-64l-9 9l5 63h67l-1 93l132 10l-2 -103h125
l9 -10l-5 -62h-130l-2 -128h6q59 53 121 72q63 0 96.5 -19z" />
    <glyph glyph-name="uni0453" unicode="&#x453;" horiz-adv-x="367" 
d="M370 456l-8 -86l-105 3h-62l-4 -168l6 -205h-133l7 192l-5 273h297zM295 723l48 -72l-2 -13q-22 -14 -33 -20q-125 -77 -162 -98l-13 1l-32 50q116 93 181 153z" />
    <glyph glyph-name="uni0454" unicode="&#x454;" horiz-adv-x="440" 
d="M85.5 51.5q-59.5 61.5 -59.5 172.5q0 118 63.5 184t176.5 66q81 0 140 -25l-23 -99l-12 -5q-31 14 -55.5 21t-50.5 7q-59 0 -89 -35.5t-30 -102.5q0 -70 33.5 -108t96.5 -38q55 0 114 24l13 -7l-14 -97q-27 -8 -63.5 -13.5t-71.5 -5.5q-109 0 -168.5 61.5zM295 224
l-52 -33l-71 53h-4l38 36l65 -5l65 -48z" />
    <glyph glyph-name="uni0455" unicode="&#x455;" horiz-adv-x="399" 
d="M356 450l-18 -98l-16 -5q-29 19 -58 29t-51 10q-24 0 -38 -12.5t-14 -30.5q0 -21 18.5 -34t58.5 -29t66 -31t44.5 -41.5t18.5 -65.5q0 -40 -20.5 -74.5t-62.5 -56t-103 -21.5q-72 0 -149 30l15 104l13 8q31 -26 69 -41.5t67 -15.5q27 0 42 13.5t15 32.5q0 21 -18.5 34
t-58.5 29q-41 18 -67 32.5t-44.5 41.5t-18.5 67q0 65 49 106.5t133 41.5q68 0 128 -23z" />
    <glyph glyph-name="uni0456" unicode="&#x456;" horiz-adv-x="261" 
d="M72 192l-5 264l131 11l-6 -262l6 -205h-133zM183.5 675q17.5 -18 17.5 -50q0 -34 -19 -54t-52 -20t-50.5 18t-17.5 51t19.5 53t53.5 20q31 0 48.5 -18z" />
    <glyph glyph-name="uni0457" unicode="&#x457;" horiz-adv-x="261" 
d="M70 192l-5 264l131 11l-6 -262l6 -205h-133zM107.5 663q14.5 -15 14.5 -43q0 -29 -16 -46t-44 -17t-43 15t-15 44t16.5 45.5t45.5 16.5q27 0 41.5 -15zM242 663q15 -15 15 -43q0 -29 -16.5 -46t-44.5 -17t-43 15.5t-15 43.5q0 29 17 45.5t46 16.5q26 0 41 -15z" />
    <glyph glyph-name="uni0458" unicode="&#x458;" horiz-adv-x="292" 
d="M226 465l-8 -260l6 -178q0 -79 -38 -131t-125 -91l-46 59v12q45 25 64 59t19 88l2 169l-4 189h-81l-8 8l7 72h84l124 7zM197.5 675q17.5 -18 17.5 -50q0 -34 -19 -54t-52 -20t-50.5 18t-17.5 51t19.5 53t53.5 20q31 0 48.5 -18z" />
    <glyph glyph-name="uni0459" unicode="&#x459;" horiz-adv-x="696" 
d="M647.5 262.5q41.5 -32.5 41.5 -94.5q0 -79 -59 -123.5t-163 -44.5h-170l6 192l-3 185h-85l-3 -26q-16 -142 -35 -217.5t-47.5 -107.5t-75.5 -37h-30l-19 102q34 11 53.5 37.5t31.5 82.5t23 162l10 90l-1 2h308l-4 -170h101q79 0 120.5 -32.5zM545.5 105.5
q17.5 19.5 17.5 47.5q0 30 -19.5 47.5t-53.5 16.5l-66 -1v-11l3 -122l69 -3q32 6 49.5 25.5z" />
    <glyph glyph-name="uni045A" unicode="&#x45a;" horiz-adv-x="752" 
d="M704 256q41 -32 41 -93q0 -77 -58.5 -120t-162.5 -43h-170l6 189l-87 1l-81 -2l5 -188h-133l7 192l-5 273h131l-4 -180l86 -1h80l-3 181h130l-3 -177h101q79 0 120 -32zM602.5 100.5q17.5 17.5 17.5 43.5q0 30 -19 46t-54 15l-66 -1l3 -125l69 -2q32 6 49.5 23.5z" />
    </font>
</defs>
</svg>
