<?xml version="1.0" standalone="no"?>
<!DOCTYPE svg PUBLIC "-//W3C//DTD SVG 1.1//EN" "http://www.w3.org/Graphics/SVG/1.1/DTD/svg11.dtd" >
<svg xmlns="http://www.w3.org/2000/svg" xmlns:xlink="http://www.w3.org/1999/xlink" version="1.1">
<metadata>
Created by FontForge 20170731 at Thu Nov  9 17:49:06 2017
 By Aleksey,,,
Copyright 2013 The Alegreya Sans Project Authors (https://github.com/huertatipografica/Alegreya-Sans)
</metadata>
<defs>
<font id="AlegreyaSans-BoldItalic" horiz-adv-x="0" >
  <font-face 
    font-family="Alegreya Sans"
    font-weight="700"
    font-style="italic"
    font-stretch="normal"
    units-per-em="1000"
    panose-1="0 0 8 0 0 0 0 0 0 0"
    ascent="800"
    descent="-200"
    x-height="469"
    cap-height="643"
    bbox="-417 -274 1216 1056"
    underline-thickness="42"
    underline-position="-220"
    slope="-7"
    unicode-range="U+000D-FB02"
  />
<missing-glyph horiz-adv-x="152" 
 />
    <glyph glyph-name="Idieresis" unicode="&#xa8;I" horiz-adv-x="289" 
d="M200 204l-19 -204h-133l31 192l49 451h134zM184 840.5q15 -15.5 15 -42.5q0 -29 -16.5 -46.5t-44.5 -17.5t-43 15.5t-15 43.5q0 29 17 46t46 17q26 0 41 -15.5zM330 840.5q15 -15.5 15 -42.5q0 -29 -16.5 -46.5t-44.5 -17.5t-43 15t-15 44t16.5 46t45.5 17q27 0 42 -15.5
z" />
    <glyph glyph-name="Odieresis" unicode="&#xa8;O" horiz-adv-x="631" 
d="M553.5 583.5q65.5 -68.5 65.5 -199.5q0 -118 -39 -207t-114 -138t-180 -49q-118 0 -183.5 70.5t-65.5 202.5q0 118 38.5 206t113 135.5t180.5 47.5q119 0 184.5 -68.5zM218.5 478.5q-44.5 -66.5 -44.5 -212.5q0 -91 29.5 -132.5t95.5 -41.5q90 0 135 67t45 214
q0 91 -29.5 131.5t-96.5 40.5q-90 0 -134.5 -66.5zM341 841.5q15 -15.5 15 -42.5q0 -30 -16.5 -47t-45.5 -17q-28 0 -43 15t-15 44t17 46t46 17q27 0 42 -15.5zM518.5 841.5q15.5 -15.5 15.5 -42.5q0 -30 -17 -47t-46 -17q-28 0 -43 15.5t-15 43.5q0 29 16.5 46t45.5 17
q28 0 43.5 -15.5z" />
    <glyph glyph-name="Yacute" unicode="&#xb4;Y" horiz-adv-x="543" 
d="M324 220l-7 -40l-17 -180h-132l30 180l4 41l-146 422h137l8 -43l76 -248h9l148 244l24 47h138zM436 884l33 -77l-4 -12q-89 -35 -214 -78l-13 4l-21 54q108 54 207 112z" />
    <glyph glyph-name="idieresis" unicode="&#xa8;i" horiz-adv-x="237" 
d="M157 112l-4 -107l-123 -9l50 360l4 104l122 9zM135 661.5q15 -15.5 15 -42.5q0 -29 -16.5 -46.5t-44.5 -17.5t-43 15.5t-15 43.5q0 29 17 46t46 17q26 0 41 -15.5zM281 661.5q15 -15.5 15 -42.5q0 -29 -16.5 -46.5t-44.5 -17.5t-43 15t-15 44t16.5 46t45.5 17
q27 0 42 -15.5z" />
    <glyph glyph-name="odieresis" unicode="&#xa8;o" horiz-adv-x="436" 
d="M284 473q128 -26 128 -165q0 -141 -65.5 -225.5t-180.5 -92.5l-12 1q-63 14 -96 56t-33 118q0 89 30 157.5t86 108t131 43.5zM166 324q-25 -54 -25 -161q0 -44 10.5 -62t36.5 -18q56 0 81 55t25 162q0 43 -10.5 60.5t-35.5 17.5q-57 0 -82 -54zM229 662.5
q15 -15.5 15 -42.5q0 -30 -16.5 -47t-45.5 -17q-28 0 -43 15t-15 44t17 46t46 17q27 0 42 -15.5zM406.5 662.5q15.5 -15.5 15.5 -42.5q0 -30 -17 -47t-46 -17q-28 0 -43 15.5t-15 43.5q0 29 16.5 46t45.5 17q28 0 43.5 -15.5z" />
    <glyph glyph-name="yacute" unicode="&#xb4;y" horiz-adv-x="445" 
d="M441 391q0 -35 -10 -68t-32 -72l-123 -227q-63 -117 -121 -168.5t-129 -51.5q-38 0 -91 16l5 104l11 11q41 -9 72 -9q38 0 67.5 14t55.5 44l-101 476l123 9l8 -85l39 -250h14l67 136q29 59 29 109q0 35 -19 64l6 12l110 16q19 -46 19 -80zM343 722l47 -70l-2 -12
q-112 -72 -193 -119l-12 1l-32 49q95 74 180 152z" />
    <glyph glyph-name="Itilde" unicode="&#x7e;I" horiz-adv-x="289" 
d="M200 204l-19 -204h-133l31 192l49 451h134zM366 837v-11l-63 -87l-11 -5q-23 3 -73 20q-45 15 -56 15t-21 -9.5t-19.5 -22.5t-13.5 -18h-11l-39 38v11l63 87l11 5q23 -3 73 -20q45 -15 56 -15q13 0 23.5 11.5t30.5 38.5h12z" />
    <glyph glyph-name="itilde" unicode="&#x7e;i" horiz-adv-x="237" 
d="M157 112l-4 -107l-123 -9l50 360l4 104l122 9zM317 658v-11l-63 -87l-11 -5q-23 3 -73 20q-45 15 -56 15t-21 -9.5t-19.5 -22.5t-13.5 -18h-11l-39 38v11l63 87l11 5q23 -3 73 -20q45 -15 56 -15q13 0 23.5 11.5t30.5 38.5h12z" />
    <glyph glyph-name="Utilde" unicode="&#x7e;U" horiz-adv-x="622" 
d="M568 317l-11 -84q-13 -117 -83 -179.5t-191 -62.5q-105 0 -165 48.5t-60 138.5q0 26 4 49l13 93l36 323h132l-55 -398q-3 -21 -3 -38q0 -55 26.5 -81t81.5 -26q64 0 99.5 34t43.5 104l44 405h133zM555 840v-11l-70 -88l-12 -5q-20 3 -83 20q-5 1 -32.5 8.5t-38.5 7.5
t-22 -9.5t-23 -23t-17 -19.5h-12l-38 39v11l69 88l13 4q16 -2 43 -9t41 -10q53 -16 70 -16q12 0 23 9.5t22.5 23t16.5 18.5h12z" />
    <glyph glyph-name="utilde" unicode="&#x7e;u" horiz-adv-x="490" 
d="M457 469l-50 -357l-3 -107l-123 -9l25 177h-10q-40 -63 -73 -104t-69 -72h-12q-47 8 -76 33t-28 62l1 16l39 244l6 109l123 8l-47 -302l-2 -18q0 -24 18 -24q23 0 61.5 50t88.5 148l5 33l4 104zM468 661v-11l-71 -89l-12 -4q-20 3 -83 20q-5 1 -32.5 8.5t-38.5 7.5
t-21 -8.5t-27 -27.5l-14 -16h-11l-39 39v11l71 88l11 5q21 -3 86 -20q52 -16 68 -16q12 0 23 9t22.5 22.5t16.5 19.5h12z" />
    <glyph glyph-name="uni1EBC" unicode="&#x7e;E" horiz-adv-x="497" 
d="M248 538l-22 -159l107 -1l102 3l7 -10l-22 -99l-110 3l-99 -1l-10 -70l-10 -99l111 -1l154 5l5 -10l-20 -99h-393l31 192l50 451h396l6 -10l-22 -99l-149 5zM514 840v-11l-70 -88l-12 -5q-20 3 -83 20q-5 1 -32.5 8.5t-38.5 7.5t-22 -9.5t-23 -23t-17 -19.5h-12l-38 39
v11l69 88l13 4q16 -2 43 -9t41 -10q53 -16 70 -16q12 0 23 9.5t22.5 23t16.5 18.5h12z" />
    <glyph glyph-name="uni1EBD" unicode="&#x7e;e" horiz-adv-x="405" 
d="M324 158l37 -48q-66 -93 -169 -119h-14q-79 9 -116 52t-37 126q0 87 30.5 155t85.5 107.5t128 42.5l12 -1q50 -8 76.5 -35.5t26.5 -71.5q0 -61 -59 -107t-185 -82q2 -46 16.5 -67t42.5 -21q25 0 49 15.5t61 55.5zM174 355.5q-25 -36.5 -33 -102.5q69 19 101.5 44.5
t32.5 60.5q0 18 -8.5 26t-27.5 8q-40 0 -65 -36.5zM430 662v-11l-70 -88l-12 -5q-20 3 -83 20q-5 1 -32.5 8.5t-38.5 7.5t-22 -9.5t-23 -23t-17 -19.5h-12l-38 39v11l69 88l13 4q16 -2 43 -9t41 -10q53 -16 70 -16q12 0 23 9.5t22.5 23t16.5 18.5h12z" />
    <glyph glyph-name="uni1EF8" unicode="&#x7e;Y" horiz-adv-x="543" 
d="M324 220l-7 -40l-17 -180h-132l30 180l4 41l-146 422h137l8 -43l76 -248h9l148 244l24 47h138zM515 840v-11l-70 -88l-12 -5q-20 3 -83 20q-5 1 -32.5 8.5t-38.5 7.5t-22 -9.5t-23 -23t-17 -19.5h-12l-38 39v11l69 88l13 4q16 -2 43 -9t41 -10q53 -16 70 -16q12 0 23 9.5
t22.5 23t16.5 18.5h12z" />
    <glyph glyph-name="uni1EF9" unicode="&#x7e;y" horiz-adv-x="445" 
d="M441 391q0 -35 -10 -68t-32 -72l-123 -227q-63 -117 -121 -168.5t-129 -51.5q-38 0 -91 16l5 104l11 11q41 -9 72 -9q38 0 67.5 14t55.5 44l-101 476l123 9l8 -85l39 -250h14l67 136q29 59 29 109q0 35 -19 64l6 12l110 16q19 -46 19 -80zM444 662v-11l-70 -88l-12 -5
q-20 3 -83 20q-5 1 -32.5 8.5t-38.5 7.5t-22 -9.5t-23 -23t-17 -19.5h-12l-38 39v11l69 88l13 4q16 -2 43 -9t41 -10q53 -16 70 -16q12 0 23 9.5t22.5 23t16.5 18.5h12z" />
    <glyph glyph-name="fi" unicode="fi" horiz-adv-x="536" 
d="M509 464l-48 -352l-4 -107l-123 -9l50 360l1 25h-158l-25 -177l-28 -206l-4 -108l-123 -9l43 309l24 191h-66l-6 8l9 66h72l5 38q29 210 220 210l122 -22l5 -9l-30 -90l-17 -5q-32 19 -56 28.5t-45 9.5q-32 0 -52.5 -23.5t-27.5 -68.5l-10 -68h174l91 16z" />
    <glyph glyph-name="fl" unicode="fl" horiz-adv-x="562" 
d="M489 685l-28 -86l-17 -5q-64 27 -111 27q-34 0 -56 -23t-29 -68l-11 -75h102l9 -10l-10 -64h-111l-25 -177l-28 -206l-4 -108l-122 -9l42 309l25 191h-67l-6 8l9 66h73l6 46q28 209 227 209l127 -16zM471 112l-4 -107l-123 -9l84 595l2 104l123 9z" />
    <glyph glyph-name="f_j" unicode="fj" horiz-adv-x="543" 
d="M508 464l-48 -351l-9 -89q-10 -79 -49 -129.5t-119 -89.5l-38 55l1 12q43 27 64 60.5t27 86.5l47 337l1 25h-158l-25 -177l-28 -206l-4 -108l-123 -9l43 309l24 191h-66l-6 8l9 66h72l5 38q29 210 220 210l122 -22l4 -9l-30 -90l-17 -5q-32 19 -56 28.5t-45 9.5
q-32 0 -52 -23.5t-27 -68.5l-10 -68h174l91 16z" />
    <glyph glyph-name="Gtilde" unicode="&#x7e;G" horiz-adv-x="585" 
d="M587 613l-44 -120l-12 -1q-45 28 -80.5 40t-78.5 12q-99 0 -149 -67.5t-50 -219.5q0 -86 34.5 -124t109.5 -38q19 0 37 3.5t46 12.5l9 55l11 105l122 9l-13 -93l-17 -156q-59 -21 -108 -30.5t-102 -9.5q-130 0 -198.5 68.5t-68.5 192.5q0 192 94.5 295.5t270.5 103.5
q105 0 187 -38zM554 840v-11l-70 -88l-12 -5q-20 3 -83 20q-5 1 -32.5 8.5t-38.5 7.5t-22 -9.5t-23 -23t-17 -19.5h-12l-38 39v11l69 88l13 4q16 -2 43 -9t41 -10q53 -16 70 -16q12 0 23 9.5t22.5 23t16.5 18.5h12z" />
    <glyph glyph-name="gtilde" unicode="&#x7e;g" horiz-adv-x="460" 
d="M428 467l-49 -348l-6 -76q-10 -75 -45.5 -129t-88.5 -82.5t-115 -28.5q-76 0 -121.5 41t-56.5 112l4 10l136 71l1 10q-26 21 -37.5 51.5t-11.5 73.5q0 68 26 130t77 107t123 62h5l76 -22l72 25zM170 336q-26 -46 -26 -122q0 -43 8 -64.5t17 -21.5q16 0 54 55.5t81 151.5
l3 22v4l-63 21q-48 0 -74 -46zM222 -78.5q30 30.5 37 87.5l22 162h-12q-52 -94 -119 -150l-65 -50q-12 -10 -12 -22q0 -23 20 -40.5t55 -17.5q44 0 74 30.5zM458 661v-11l-70 -88l-12 -5q-20 3 -83 20q-5 1 -32.5 8.5t-38.5 7.5t-22 -9.5t-23 -23t-17 -19.5h-12l-38 39v11
l69 88l13 4q16 -2 43 -9t41 -10q53 -16 70 -16q12 0 23 9.5t22.5 23t16.5 18.5h12z" />
    <glyph glyph-name=".notdef" horiz-adv-x="152" 
 />
    <glyph glyph-name=".null" 
 />
    <glyph glyph-name="nonmarkingreturn" unicode="&#xd;" horiz-adv-x="133" 
 />
    <glyph glyph-name="space" unicode=" " horiz-adv-x="133" 
 />
    <glyph glyph-name="exclam" unicode="!" horiz-adv-x="272" 
d="M268 650l-86 -414l-74 -10l-12 13l42 405l14 15l103 6zM171 114.5q17 -17.5 17 -48.5q0 -34 -19 -53.5t-51 -19.5t-49 17.5t-17 49.5q0 33 19 52.5t52 19.5q31 0 48 -17.5z" />
    <glyph glyph-name="quotedbl" unicode="&#x22;" horiz-adv-x="349" 
d="M212 633l-62 -217l-62 -10l-9 9l25 220l101 7zM359 633l-62 -217l-62 -10l-9 9l25 220l101 7z" />
    <glyph glyph-name="numbersign" unicode="#" horiz-adv-x="547" 
d="M415 357l-20 -105h90l8 -9l-6 -66h-107l-29 -145h-74l-7 9l27 136h-102l-28 -145h-75l-6 9l27 136h-85l-8 8l6 67h101l21 105h-87l-8 8l6 67h103l28 141h73l8 -10l-26 -131h101l28 141h73l9 -10l-26 -131h88l8 -9l-6 -66h-105zM332 357h-101l-21 -105h101z" />
    <glyph glyph-name="dollar" unicode="$" horiz-adv-x="446" 
d="M205 335q18 -13 56 -30t63 -32.5t43 -42t18 -65.5q0 -56 -38 -103t-109 -63l-16 -133h-65l-8 10l13 116q-35 1 -74 8.5t-73 22.5l28 115l14 8q29 -30 67.5 -47.5t69.5 -17.5q29 0 48.5 16t19.5 38q0 20 -18.5 33.5t-56.5 30.5q-39 18 -63.5 33.5t-42.5 42t-18 65.5
q0 62 44 109t119 59l15 135h63l11 -11l-15 -121q58 -5 107 -25l-30 -109l-19 -5q-27 23 -55 35t-53 12q-29 0 -46 -15t-17 -36q0 -20 18 -33z" />
    <glyph glyph-name="percent" unicode="%" horiz-adv-x="859" 
d="M719 653l5 -18l-557 -727l-51 33l-4 14l558 730zM343 612.5q33 -36.5 33 -104.5q0 -104 -49 -162.5t-139 -58.5q-63 0 -96.5 37t-33.5 105q0 103 49.5 161.5t139.5 58.5q63 0 96 -36.5zM140 443q0 -78 63 -78q48 0 69.5 32t21.5 91q0 78 -65 78q-89 0 -89 -123z
M789 320.5q33 -36.5 33 -105.5q0 -104 -49 -162.5t-139 -58.5q-63 0 -96.5 36.5t-33.5 105.5q0 104 49.5 162.5t139.5 58.5q63 0 96 -36.5zM585 150q0 -78 63 -78q49 0 70.5 32t21.5 92q0 77 -66 77q-89 0 -89 -123z" />
    <glyph glyph-name="ampersand" unicode="&#x26;" horiz-adv-x="644" 
d="M418.5 646.5q37.5 -7.5 83.5 -24.5l-31 -98l-16 -5q-74 45 -135 45q-49 0 -76.5 -24t-27.5 -70q0 -47 23 -72t66 -27l243 14l113 15l12 -14l-21 -84l-147 -6l-3 -5q23 -38 23 -91q0 -56 -28.5 -103.5t-86.5 -77t-143 -29.5q-103 0 -161.5 44t-58.5 120q0 54 35 97t104 73
v4q-77 49 -77 141q0 84 62 134.5t171 50.5q39 0 76.5 -7.5zM256 286q-91 -45 -91 -119q0 -44 31 -69t86 -25q69 0 105 35t36 95q0 28 -9.5 51t-26.5 38z" />
    <glyph glyph-name="quotesingle" unicode="'" horiz-adv-x="202" 
d="M212 633l-62 -217l-62 -10l-9 9l25 220l101 7z" />
    <glyph glyph-name="parenleft" unicode="(" horiz-adv-x="296" 
d="M331 621l-1 -11q-93 -73 -130 -204.5t-37 -257.5q0 -82 18.5 -138t62.5 -99l-1 -11l-52 -39h-12q-64 52 -92 120.5t-28 170.5q0 148 49 288.5t170 220.5h12z" />
    <glyph glyph-name="parenright" unicode=")" horiz-adv-x="302" 
d="M-35 -100l1 11q93 73 130 204.5t37 257.5q0 82 -18.5 138t-62.5 99l1 11l52 39h12q64 -52 92 -120.5t28 -170.5q0 -148 -49 -288.5t-170 -220.5h-12z" />
    <glyph glyph-name="asterisk" unicode="*" horiz-adv-x="383" 
d="M288 733l-29 -123l-41 -4l-8 7l-3 116q35 12 76 12zM197 600l-6 -42l-10 -4l-106 32q0 43 11 77l9 3zM413 571l-5 -7l-120 -10l-18 37l4 10l104 39q24 -34 35 -69zM283 535l68 -91q-16 -25 -54 -56l-9 2l-45 119l30 27zM224 516l1 -10l-60 -96q-30 9 -71 34l1 9l92 82z
" />
    <glyph glyph-name="plus" unicode="+" horiz-adv-x="477" 
d="M312 468l-21 -163h163l8 -9l-16 -79h-165l-20 -166l-80 -7l-9 9l20 164h-163l-7 9l16 79h165l20 166l80 6z" />
    <glyph glyph-name="comma" unicode="," horiz-adv-x="229" 
d="M164 45q0 -44 -29 -86t-90 -85l-42 37l-1 10q55 45 55 97q0 34 -31 59v12q47 28 94 40q44 -35 44 -84z" />
    <glyph glyph-name="hyphen" unicode="-" horiz-adv-x="304" 
d="M285 308l-9 -81l-243 -36l-9 10l10 81l242 35z" />
    <glyph glyph-name="period" unicode="." horiz-adv-x="230" 
d="M145 114.5q17 -17.5 17 -48.5q0 -34 -19 -53.5t-51 -19.5t-49 17.5t-17 49.5q0 33 19 52.5t52 19.5q31 0 48 -17.5z" />
    <glyph glyph-name="slash" unicode="/" horiz-adv-x="284" 
d="M332 668l-262 -783h-89l-7 11l261 784h87z" />
    <glyph glyph-name="zero" unicode="0" horiz-adv-x="525" 
d="M441 458q50 -55 50 -167q0 -88 -30.5 -156t-89 -106t-138.5 -38q-94 0 -144 55.5t-50 165.5q0 87 31 155.5t89.5 107t138.5 38.5q93 0 143 -55zM175.5 350q-34.5 -43 -34.5 -121q0 -64 25 -94t82 -30q69 0 104.5 42.5t35.5 120.5q0 65 -25.5 95t-82.5 30
q-70 0 -104.5 -43z" />
    <glyph glyph-name="one" unicode="1" horiz-adv-x="359" 
d="M291 497l-43 -289l-19 -208h-131l30 194l20 169l-117 -30l-9 7l13 104l239 67z" />
    <glyph glyph-name="two" unicode="2" horiz-adv-x="470" 
d="M373.5 479q42.5 -32 42.5 -86q0 -40 -32 -84.5t-114 -126.5l-76 -78l2 -5h136l91 8l6 -8l-28 -105l-119 6h-227l-37 -2l-6 5l10 79l148 136q60 55 86.5 86.5t26.5 55.5q0 19 -13.5 30t-39.5 11q-32 0 -69 -16t-71 -45h-15l-8 101q104 70 197 70q67 0 109.5 -32z" />
    <glyph glyph-name="three" unicode="3" horiz-adv-x="430" 
d="M348.5 477.5q46.5 -34.5 46.5 -90.5q0 -43 -30 -86.5t-85 -69.5v-5q47 -17 71 -46.5t24 -75.5q0 -57 -34.5 -102.5t-95.5 -71t-138 -25.5q-63 0 -112 11l5 103l11 9q54 -23 107 -23q60 0 95.5 25t35.5 68q0 62 -85 65h-69l-6 8l15 89l50 2q23 1 47.5 13t40.5 33t16 47
q0 24 -16 38t-45 14t-59 -12t-67 -37h-13l-7 95q89 59 175 59q76 0 122.5 -34.5z" />
    <glyph glyph-name="four" unicode="4" horiz-adv-x="501" 
d="M446 55l-83 2l-12 -137l-9 -10l-101 -6l-6 8l22 146h-163l-86 -3l-7 11l10 84l287 355h121l-46 -348h84l6 -11zM125 157h146l26 201h-9z" />
    <glyph glyph-name="five" unicode="5" horiz-adv-x="431" 
d="M427 502l-25 -100l-10 -9l-89 9h-118l-15 -114l61 -13q148 -31 148 -149q0 -63 -36 -114t-99 -80t-140 -29q-53 0 -111 12l4 102l10 9q59 -23 116 -23q59 0 95 28.5t36 73.5q0 31 -20.5 49.5t-63.5 26.5l-101 18l-8 10l35 284l18 15l57 -3h146l103 6z" />
    <glyph glyph-name="six" unicode="6" horiz-adv-x="483" 
d="M183 341l7 -10q26 15 49 22.5t48 7.5q47 0 83 -22t55.5 -59.5t19.5 -81.5q0 -47 -23 -95t-72 -80.5t-124 -32.5q-94 0 -145 53t-51 145q0 77 36.5 153t112.5 142.5t191 112.5h7l85 -58l-1 -13q-211 -64 -278 -184zM200 259q-27 -10 -51 -28q-2 -26 -2 -40q0 -55 18.5 -84
t65.5 -29q51 0 73 31t22 77q0 83 -75 83q-24 0 -51 -10z" />
    <glyph glyph-name="seven" unicode="7" horiz-adv-x="432" 
d="M169 505h220l49 2l-10 -95l-212 -364l-74 -148l-101 31l-6 20l265 447h-165l-92 -10l-6 12l22 109z" />
    <glyph glyph-name="eight" unicode="8" horiz-adv-x="493" 
d="M409 557.5q46 -36.5 46 -100.5q0 -51 -28.5 -86t-77.5 -60l-1 -7q45 -24 69 -54t24 -82t-26.5 -92t-75 -62.5t-112.5 -22.5q-90 0 -142.5 40t-52.5 106q0 55 33 89.5t94 60.5l1 6q-37 22 -57 51.5t-20 77.5q0 51 25 90t70.5 60.5t105.5 21.5q79 0 125 -36.5zM213.5 484
q-24.5 -21 -24.5 -54q0 -32 20 -51t61 -36q39 20 60 42.5t21 55.5q0 31 -18.5 47.5t-54.5 16.5q-40 0 -64.5 -21zM166.5 213q-24.5 -21 -24.5 -58t22.5 -57t65.5 -20q47 0 75.5 24t28.5 59q0 33 -23 51.5t-73 39.5q-47 -18 -71.5 -39z" />
    <glyph glyph-name="nine" unicode="9" horiz-adv-x="483" 
d="M305 164l-7 10q-26 -15 -49 -22.5t-48 -7.5q-47 0 -83 22t-55.5 59.5t-19.5 81.5q0 47 23 95t72 80.5t124 32.5q94 0 145 -53t51 -145q0 -77 -36.5 -153t-112.5 -142.5t-191 -112.5h-7l-85 58l1 13q211 64 278 184zM288 246q27 10 51 28q2 26 2 40q0 55 -18.5 84
t-65.5 29q-51 0 -73 -31t-22 -77q0 -83 75 -83q24 0 51 10z" />
    <glyph glyph-name="colon" unicode=":" horiz-adv-x="230" 
d="M145 114.5q17 -17.5 17 -48.5q0 -34 -19 -53.5t-51 -19.5t-49 17.5t-17 49.5q0 33 19 52.5t52 19.5q31 0 48 -17.5zM177 377.5q17 -17.5 17 -48.5q0 -34 -19 -53.5t-51 -19.5t-49 17.5t-17 49.5q0 33 19 52.5t52 19.5q31 0 48 -17.5z" />
    <glyph glyph-name="semicolon" unicode=";" horiz-adv-x="229" 
d="M161 45q0 -44 -29 -86t-90 -85l-42 37l-1 10q55 45 55 97q0 34 -31 59v12q47 28 94 40q44 -35 44 -84zM174 377.5q17 -17.5 17 -48.5q0 -34 -19 -53.5t-51 -19.5t-49 17.5t-17 49.5q0 33 19 52.5t52 19.5q31 0 48 -17.5z" />
    <glyph glyph-name="less" unicode="&#x3c;" horiz-adv-x="496" 
d="M466 396l-7 -10l-327 -119v-7l298 -114l-27 -73l-13 -9l-357 144l12 105l11 12l391 145z" />
    <glyph glyph-name="equal" unicode="=" horiz-adv-x="478" 
d="M473 389l-7 -79h-417l-9 9l7 79h417zM450 202l-7 -79h-417l-9 9l7 79h417z" />
    <glyph glyph-name="greater" unicode="&#x3e;" horiz-adv-x="503" 
d="M466 325l8 -12l-12 -105l-394 -144l-11 9l-9 73l327 114l1 7l-298 119l-4 10l36 74z" />
    <glyph glyph-name="question" unicode="?" horiz-adv-x="341" 
d="M327 622.5q66 -38.5 66 -103.5q0 -44 -28.5 -83.5t-80.5 -66.5l-78 -44l-3 -5l-4 -85l-92 -12l-8 9l5 127l7 10l96 48q66 33 66 83q0 36 -40.5 56.5t-130.5 26.5l-7 12l31 66l14 7q121 -7 187 -45.5zM191 114.5q17 -17.5 17 -48.5q0 -34 -19 -53.5t-51 -19.5
q-31 0 -48.5 17.5t-17.5 49.5q0 33 19 52.5t52 19.5q31 0 48 -17.5z" />
    <glyph glyph-name="at" unicode="@" horiz-adv-x="843" 
d="M724 82.5q-97 -80.5 -277 -84.5l22 161h-12q-57 -100 -122 -166h-18q-53 20 -76 59.5t-23 100.5q0 66 26 130.5t79 112.5t129 66h5l77 -20l70 22l10 -6l-48 -346l-1 -24q80 13 125.5 71.5t45.5 147.5q0 73 -32.5 128.5t-93 86t-141.5 30.5q-105 0 -185.5 -45t-124.5 -125
t-44 -182q0 -105 47 -180.5t133 -115.5t201 -40l5 -13l-36 -61q-131 1 -229.5 48t-152.5 135.5t-54 211.5q0 128 55 230t155.5 160t232.5 58q105 0 184 -39t122 -112t43 -171q0 -148 -97 -228.5zM383 133.5q22 25.5 50.5 75.5t58.5 119l3 20v5l-63 21q-50 0 -79 -50.5
t-29 -129.5q0 -46 7.5 -66t18.5 -20t33 25.5z" />
    <glyph glyph-name="A" unicode="A" horiz-adv-x="583" 
d="M539 0h-133l-6 83l-9 63l-121 2l-107 -2l-24 -56l-29 -90h-130l291 643h157zM376 248l-40 271h-9l-118 -270l82 -2z" />
    <glyph glyph-name="B" unicode="B" horiz-adv-x="565" 
d="M503.5 282q25.5 -32 25.5 -83q0 -101 -75.5 -152.5t-231.5 -51.5q-89 0 -172 5h-1l31 192l49 451l216 1q89 0 140 -36t51 -105q0 -57 -29.5 -101t-85.5 -68q57 -20 82.5 -52zM377.5 406.5q21.5 27.5 21.5 73.5q0 37 -23 53t-79 16h-50l-25 -178l90 -3q44 11 65.5 38.5z
M358 118.5q37 28.5 37 79.5q0 34 -19.5 53t-59.5 27l-108 -2l-10 -72l-11 -110q50 -4 67 -4q67 0 104 28.5z" />
    <glyph glyph-name="C" unicode="C" horiz-adv-x="507" 
d="M541 613l-37 -112l-11 -4q-27 22 -60.5 34t-70.5 12q-91 0 -138 -67t-47 -196q0 -88 34.5 -133t100.5 -45q36 0 76 11.5t73 32.5l11 -7l-25 -113q-40 -18 -76.5 -26.5t-77.5 -8.5q-123 0 -189.5 69.5t-66.5 198.5q0 122 40 210t116 135t183 47q95 0 165 -38z" />
    <glyph glyph-name="D" unicode="D" horiz-adv-x="641" 
d="M561.5 581.5q66.5 -65.5 66.5 -185.5q0 -189 -92 -296t-262 -107q-47 0 -113 2t-112 5l31 192l49 451l244 4q122 0 188.5 -65.5zM440.5 164.5q48.5 69.5 48.5 210.5q0 86 -32.5 126.5t-99.5 40.5q-39 0 -109 -4l-48 -334l-9 -101q27 -3 59.5 -5.5t52.5 -2.5
q89 0 137.5 69.5z" />
    <glyph glyph-name="E" unicode="E" horiz-adv-x="497" 
d="M248 538l-22 -159l107 -1l102 3l7 -10l-22 -99l-110 3l-99 -1l-10 -70l-10 -99l111 -1l154 5l5 -10l-20 -99h-393l31 192l50 451h396l6 -10l-22 -99l-149 5z" />
    <glyph glyph-name="F" unicode="F" horiz-adv-x="444" 
d="M248 538l-25 -177l86 -1l108 3l6 -10l-21 -98l-115 3l-78 -1l-8 -53l-20 -204h-133l31 192l50 451h372l6 -10l-22 -100l-147 6z" />
    <glyph glyph-name="G" unicode="G" horiz-adv-x="585" 
d="M587 613l-44 -120l-12 -1q-45 28 -80.5 40t-78.5 12q-99 0 -149 -67.5t-50 -219.5q0 -86 34.5 -124t109.5 -38q19 0 37 3.5t46 12.5l9 55l11 105l122 9l-13 -93l-17 -156q-59 -21 -108 -30.5t-102 -9.5q-130 0 -198.5 68.5t-68.5 192.5q0 192 94.5 295.5t270.5 103.5
q105 0 187 -38z" />
    <glyph glyph-name="H" unicode="H" horiz-adv-x="679" 
d="M653 643l-62 -439l-20 -204h-132l31 192l8 76l-142 3l-127 -4l-9 -63l-19 -204h-133l31 192l49 451h134l-37 -265l133 -3l132 3l28 265h135z" />
    <glyph glyph-name="I" unicode="I" horiz-adv-x="289" 
d="M200 204l-19 -204h-133l31 192l49 451h134z" />
    <glyph glyph-name="J" unicode="J" horiz-adv-x="328" 
d="M235 212l-8 -92q-11 -83 -60.5 -133.5t-160.5 -92.5l-32 70l1 13q65 32 94 64t36 82l10 77l37 346l-103 -2l-8 9l17 90h239z" />
    <glyph glyph-name="K" unicode="K" horiz-adv-x="569" 
d="M352 335q80 -141 200 -307l-4 -15q-60 -15 -132 -23l-13 8q-118 199 -185 332l-18 -126l-20 -204h-132l31 192l49 451h134l-42 -298l204 237l44 61h142z" />
    <glyph glyph-name="L" unicode="L" horiz-adv-x="423" 
d="M405 99l-21 -99h-338l31 192l49 451h134l-61 -439l-9 -95h209z" />
    <glyph glyph-name="M" unicode="M" horiz-adv-x="776" 
d="M701 0h-117l15 195l8 253h-9l-187 -380h-103l-80 380h-10l-53 -241l-39 -207h-111l144 643h151l14 -95l60 -309h9l143 310l39 94h150z" />
    <glyph glyph-name="N" unicode="N" horiz-adv-x="678" 
d="M590 198l-19 -198h-142l-200 441h-9l-28 -220l-22 -221h-121l30 190l50 453h142l200 -441h9l51 436l123 8z" />
    <glyph glyph-name="O" unicode="O" horiz-adv-x="631" 
d="M553.5 583.5q65.5 -68.5 65.5 -199.5q0 -118 -39 -207t-114 -138t-180 -49q-118 0 -183.5 70.5t-65.5 202.5q0 118 38.5 206t113 135.5t180.5 47.5q119 0 184.5 -68.5zM218.5 478.5q-44.5 -66.5 -44.5 -212.5q0 -91 29.5 -132.5t95.5 -41.5q90 0 135 67t45 214
q0 91 -29.5 131.5t-96.5 40.5q-90 0 -134.5 -66.5z" />
    <glyph glyph-name="P" unicode="P" horiz-adv-x="540" 
d="M499.5 600.5q50.5 -43.5 50.5 -127.5q0 -77 -34.5 -137.5t-98.5 -94.5t-149 -34h-67v-3l-20 -204h-132l31 192l49 451l230 1q90 0 140.5 -43.5zM385 356q27 39 27 96q0 46 -23 69t-74 26l-66 -3l-33 -236l94 -3q48 12 75 51z" />
    <glyph glyph-name="Q" unicode="Q" horiz-adv-x="632" 
d="M688 -112q-30 -52 -67 -84l-10 -5q-185 67 -315 191h-11q-117 0 -182.5 70.5t-65.5 202.5q0 118 38.5 206t113.5 135.5t181 47.5q119 0 184 -68.5t65 -199.5q0 -136 -51 -232t-146 -136q118 -79 262 -114zM203.5 133.5q29.5 -41.5 95.5 -41.5q90 0 135 67t45 214
q0 91 -29.5 131.5t-96.5 40.5q-90 0 -134.5 -66.5t-44.5 -212.5q0 -91 29.5 -132.5z" />
    <glyph glyph-name="R" unicode="R" horiz-adv-x="574" 
d="M513 349.5q-38 -59.5 -105 -95.5q54 -112 123 -223l-3 -15q-68 -22 -133 -26l-12 10q-49 113 -88 219h-93l-2 -15l-19 -204h-133l31 192l50 451l232 1q89 0 139.5 -42.5t50.5 -120.5q0 -72 -38 -131.5zM217 321l95 -4q100 34 100 142q0 83 -97 88l-66 -3z" />
    <glyph glyph-name="S" unicode="S" horiz-adv-x="485" 
d="M483 619l-35 -114l-20 -8q-31 24 -65 37.5t-64 13.5q-41 0 -67 -21.5t-26 -51.5q0 -28 23 -48t73 -48q46 -26 76 -47.5t51 -55t21 -78.5q0 -57 -32.5 -104t-90.5 -75t-130 -28q-47 0 -96 10.5t-92 31.5l32 122l15 8q36 -35 79.5 -53t81.5 -18q45 0 71.5 22t26.5 54
q0 30 -23.5 50.5t-73.5 48.5q-45 25 -74 46t-49.5 54t-20.5 79q0 57 32 104.5t88.5 74.5t126.5 27q82 0 162 -33z" />
    <glyph glyph-name="T" unicode="T" horiz-adv-x="489" 
d="M525 633l-20 -98l-117 6h-38l-47 -337l-20 -204h-132l32 192l38 349h-39l-121 -6l-7 10l22 98h443z" />
    <glyph glyph-name="U" unicode="U" horiz-adv-x="622" 
d="M568 317l-11 -84q-13 -117 -83 -179.5t-191 -62.5q-105 0 -165 48.5t-60 138.5q0 26 4 49l13 93l36 323h132l-55 -398q-3 -21 -3 -38q0 -55 26.5 -81t81.5 -26q64 0 99.5 34t43.5 104l44 405h133z" />
    <glyph glyph-name="V" unicode="V" horiz-adv-x="570" 
d="M330 0h-157l-113 643h134l6 -83l65 -436h8l188 429l29 90h129z" />
    <glyph glyph-name="W" unicode="W" horiz-adv-x="877" 
d="M638 0h-138l-54 312h-9l-132 -312h-141l-94 643h129v-78l58 -428h8l149 350l-25 156h135l3 -91l61 -415h9l178 421l26 85h123z" />
    <glyph glyph-name="X" unicode="X" horiz-adv-x="593" 
d="M393 330l156 -330h-154l-21 64l-83 169l-135 -177l-35 -56h-135l238 325l-154 318h155l21 -63l78 -161l122 166l35 58h139z" />
    <glyph glyph-name="Y" unicode="Y" horiz-adv-x="543" 
d="M324 220l-7 -40l-17 -180h-132l30 180l4 41l-146 422h137l8 -43l76 -248h9l148 244l24 47h138z" />
    <glyph glyph-name="Z" unicode="Z" horiz-adv-x="532" 
d="M537 548l-367 -447h210l106 8l4 -7l-23 -105l-141 3h-249l-76 -4l12 95l370 451h-198l-107 -9l-5 7l24 105l126 -2h266l60 1z" />
    <glyph glyph-name="bracketleft" unicode="[" horiz-adv-x="295" 
d="M339 641l-7 -59l-110 -13l-76 -617l107 -13l-8 -59l-6 -7l-206 10l53 378l39 377l209 10z" />
    <glyph glyph-name="backslash" unicode="\" horiz-adv-x="350" 
d="M35 668l11 12h87l206 -784l-8 -11h-89z" />
    <glyph glyph-name="bracketright" unicode="]" horiz-adv-x="295" 
d="M-37 -120l7 59l110 13l76 617l-107 13l8 59l6 7l206 -10l-53 -378l-39 -377l-209 -10z" />
    <glyph glyph-name="asciicircum" unicode="^" horiz-adv-x="440" 
d="M413 146l-11 -12l-74 -17l-79 288h-8l-154 -288l-11 -5l-70 27l188 350l13 7h105z" />
    <glyph glyph-name="underscore" unicode="_" horiz-adv-x="445" 
d="M419 -98l-15 -73h-460l-7 9l15 73h460z" />
    <glyph glyph-name="grave" unicode="`" horiz-adv-x="398" 
d="M338 570l-31 -49l-12 -1q-79 46 -194 119l-2 12l47 70l12 1q86 -77 180 -152z" />
    <glyph glyph-name="a" unicode="a" horiz-adv-x="461" 
d="M428 467l-49 -355l-4 -107l-123 -9l22 158h-13q-53 -95 -118 -163h-18q-55 20 -79 60.5t-24 102.5q0 67 26.5 133t80 115.5t130.5 68.5h6l76 -21l76 24zM216.5 171.5q39.5 59.5 83.5 165.5l2 17v2l-65 21q-48 0 -75.5 -49.5t-27.5 -130.5q0 -85 25 -85q18 0 57.5 59.5z
" />
    <glyph glyph-name="b" unicode="b" horiz-adv-x="463" 
d="M414.5 411q24.5 -40 24.5 -103q0 -68 -26.5 -134t-80 -115.5t-128.5 -67.5h-6l-94 19l-68 12l79 569l2 104l123 9l-55 -397h13q55 96 120 164h18q54 -20 78.5 -60zM300.5 135q27.5 51 27.5 130q0 46 -7.5 66.5t-17.5 20.5q-18 0 -57.5 -57.5t-83.5 -159.5l-2 -33l66 -18
q47 0 74.5 51z" />
    <glyph glyph-name="c" unicode="c" horiz-adv-x="355" 
d="M355 449l6 -14l-35 -93l-26 -2q-19 22 -32 30t-30 8q-45 0 -70.5 -48t-25.5 -136q0 -54 10.5 -76t34.5 -22q22 0 42 17t45 56l16 -1l37 -47q-32 -54 -66.5 -83.5t-84.5 -45.5h-17q-70 11 -102 51.5t-32 126.5q0 87 29.5 155.5t87 107.5t138.5 39z" />
    <glyph glyph-name="d" unicode="d" horiz-adv-x="461" 
d="M461 704l-82 -592l-4 -107l-123 -9l22 159h-11q-53 -93 -120 -164h-19q-55 20 -79 60.5t-24 102.5q0 67 27 133t81 116t132 68h5l50 -14l19 134l3 104zM215.5 170q39.5 58 83.5 160l3 27l-64 21q-49 0 -77.5 -50.5t-28.5 -131.5q0 -45 7.5 -64.5t18.5 -19.5q18 0 57.5 58
z" />
    <glyph glyph-name="e" unicode="e" horiz-adv-x="405" 
d="M324 158l37 -48q-66 -93 -169 -119h-14q-79 9 -116 52t-37 126q0 87 30.5 155t85.5 107.5t128 42.5l12 -1q50 -8 76.5 -35.5t26.5 -71.5q0 -61 -59 -107t-185 -82q2 -46 16.5 -67t42.5 -21q25 0 49 15.5t61 55.5zM174 355.5q-25 -36.5 -33 -102.5q69 19 101.5 44.5
t32.5 60.5q0 18 -8.5 26t-27.5 8q-40 0 -65 -36.5z" />
    <glyph glyph-name="f" unicode="f" horiz-adv-x="305" 
d="M457 679l-33 -85l-16 -5q-45 26 -83 26q-31 0 -51.5 -23.5t-26.5 -68.5l-9 -68h101l9 -10l-10 -64h-111l-24 -177l-29 -206l-3 -108l-123 -9l42 309l25 191h-67l-6 8l9 66h73l5 38q26 210 220 210l103 -14z" />
    <glyph glyph-name="g" unicode="g" horiz-adv-x="460" 
d="M428 467l-49 -348l-6 -76q-10 -75 -45.5 -129t-88.5 -82.5t-115 -28.5q-76 0 -121.5 41t-56.5 112l4 10l136 71l1 10q-26 21 -37.5 51.5t-11.5 73.5q0 68 26 130t77 107t123 62h5l76 -22l72 25zM170 336q-26 -46 -26 -122q0 -43 8 -64.5t17 -21.5q16 0 54 55.5t81 151.5
l3 22v4l-63 21q-48 0 -74 -46zM222 -78.5q30 30.5 37 87.5l22 162h-12q-52 -94 -119 -150l-65 -50q-12 -10 -12 -22q0 -23 20 -40.5t55 -17.5q44 0 74 30.5z" />
    <glyph glyph-name="h" unicode="h" horiz-adv-x="495" 
d="M428.5 434.5q28.5 -25.5 27.5 -62.5l-1 -13l-40 -246l-5 -108l-125 -9l49 308l1 11q0 12 -4 18t-13 6q-24 0 -65 -53t-92 -154l-3 -20l-3 -107l-124 -9l84 595l2 104l123 9l-58 -416h13q39 63 73.5 105.5t71.5 74.5l12 1q48 -9 76.5 -34.5z" />
    <glyph glyph-name="i" unicode="i" horiz-adv-x="237" 
d="M157 112l-4 -107l-123 -9l50 360l4 104l122 9zM215 669.5q17 -17.5 17 -48.5q0 -34 -19 -53.5t-51 -19.5t-49 17.5t-17 49.5q0 33 19 52.5t52 19.5q31 0 48 -17.5z" />
    <glyph glyph-name="j" unicode="j" horiz-adv-x="257" 
d="M223 464l-50 -350l-8 -89q-10 -79 -50 -129.5t-123 -89.5l-40 55l2 12q45 27 67.5 60t29.5 86l46 334v28h-69l-6 8l9 66h70l118 13zM223 669.5q17 -17.5 17 -48.5q0 -34 -19 -53.5t-51 -19.5t-49 17.5t-17 49.5q0 33 19 52.5t52 19.5q31 0 48 -17.5z" />
    <glyph glyph-name="k" unicode="k" horiz-adv-x="498" 
d="M347 181q47 -89 98 -168l-6 -10l-103 -15l-12 6q-48 92 -85 180l4 18q51 32 79 64t28 60q0 24 -18 24q-28 0 -73 -53t-99 -161l-2 -14l-3 -107l-123 -9l83 595l2 104l124 9l-58 -413h14q43 62 80.5 105t76.5 72l13 1q106 -22 106 -112q0 -93 -126 -176z" />
    <glyph glyph-name="l" unicode="l" horiz-adv-x="256" 
d="M165 112l-4 -107l-123 -9l84 595l2 104l123 9z" />
    <glyph glyph-name="m" unicode="m" horiz-adv-x="753" 
d="M684.5 434.5q28.5 -25.5 27.5 -62.5l-1 -13l-39 -246l-5 -108l-125 -9l49 308l1 11q0 24 -17 24q-24 0 -66 -54t-94 -158l-2 -14l-4 -108l-126 -9l49 308l1 11q0 12 -4 18t-13 6q-23 0 -63.5 -51.5t-91.5 -150.5l-3 -25l-4 -107l-124 -9l51 360l4 104l121 9l-24 -181h12
q38 62 72.5 104.5t72.5 75.5l12 1q47 -9 75.5 -34.5t27.5 -62.5l-1 -13l-12 -71h11q39 63 73.5 105.5t71.5 74.5l12 1q47 -9 75.5 -34.5z" />
    <glyph glyph-name="n" unicode="n" horiz-adv-x="493" 
d="M425.5 433.5q29.5 -25.5 28.5 -61.5l-1 -13l-40 -246l-5 -108l-126 -9l50 308l1 11q0 12 -4 18t-13 6q-23 0 -63.5 -51.5t-91.5 -150.5l-3 -25l-4 -107l-124 -9l51 360l4 104l121 9l-24 -181h11q39 63 73.5 105.5t71.5 74.5l12 1q46 -10 75.5 -35.5z" />
    <glyph glyph-name="o" unicode="o" horiz-adv-x="436" 
d="M284 473q128 -26 128 -165q0 -141 -65.5 -225.5t-180.5 -92.5l-12 1q-63 14 -96 56t-33 118q0 89 30 157.5t86 108t131 43.5zM166 324q-25 -54 -25 -161q0 -44 10.5 -62t36.5 -18q56 0 81 55t25 162q0 43 -10.5 60.5t-35.5 17.5q-57 0 -82 -54z" />
    <glyph glyph-name="p" unicode="p" horiz-adv-x="461" 
d="M415.5 411q24.5 -40 24.5 -103q0 -68 -27 -134t-80.5 -115.5t-128.5 -67.5h-5l-56 11l-10 -77l-4 -110l-124 -9l77 550l4 104l121 9l-22 -162h14q54 96 120 164h18q54 -20 78.5 -60zM301 135q27 51 27 130q0 87 -25 87q-18 0 -58.5 -60.5t-84.5 -165.5l-3 -24l70 -18
q47 0 74 51z" />
    <glyph glyph-name="q" unicode="q" horiz-adv-x="461" 
d="M428 467l-74 -544l-4 -108l-124 -9l49 349h-14q-53 -95 -119 -164h-18q-55 20 -79 60.5t-24 102.5q0 67 26.5 133t80.5 116t131 68h6l77 -21l76 24zM191 137.5q22 25.5 51 76.5t59 123l2 17v2l-65 22q-50 0 -78 -50.5t-28 -131.5q0 -44 7.5 -64t17.5 -20q12 0 34 25.5z
" />
    <glyph glyph-name="r" unicode="r" horiz-adv-x="352" 
d="M370 465l-21 -156l-11 -5l-19 3q-44 -6 -78.5 -40t-79.5 -124l-4 -31l-4 -107l-123 -9l50 360l4 104l122 9l-24 -174h12q31 55 66 96.5t83 76.5z" />
    <glyph glyph-name="s" unicode="s" horiz-adv-x="346" 
d="M341 446l-31 -102l-17 -6q-22 25 -47 38t-45 13q-21 0 -35 -13.5t-14 -32.5q0 -17 14 -29.5t44 -32.5q31 -20 50 -35.5t33 -39.5t14 -57q0 -45 -25.5 -81t-71 -56.5t-101.5 -20.5q-65 8 -118 31l30 107l15 6q23 -30 52.5 -47t56.5 -17q24 0 38 14.5t14 32.5t-14 31
t-47 36q-45 29 -70.5 56.5t-25.5 70.5q0 47 27.5 83.5t73 57t99.5 19.5q53 -9 101 -26z" />
    <glyph glyph-name="t" unicode="t" horiz-adv-x="347" 
d="M184 136l-1 -13q0 -20 18 -20q13 0 28 13.5t38 48.5h11l35 -43q-33 -58 -64.5 -88t-72.5 -42q-52 0 -80.5 26.5t-27.5 72.5l3 26l37 240l3 24h-64l-7 8l8 66h72l12 103l115 37l8 -8l-21 -132h111l9 -10l-8 -64h-123z" />
    <glyph glyph-name="u" unicode="u" horiz-adv-x="490" 
d="M457 469l-50 -357l-3 -107l-123 -9l25 177h-10q-40 -63 -73 -104t-69 -72h-12q-47 8 -76 33t-28 62l1 16l39 244l6 109l123 8l-47 -302l-2 -18q0 -24 18 -24q23 0 61.5 50t88.5 148l5 33l4 104z" />
    <glyph glyph-name="v" unicode="v" horiz-adv-x="436" 
d="M433 391q0 -59 -45 -140l-142 -251h-138l-54 461l122 8l1 -85l18 -256h10l82 155q29 53 29 93q0 30 -19 62l5 14l113 19q18 -39 18 -80z" />
    <glyph glyph-name="w" unicode="w" horiz-adv-x="711" 
d="M530 0h-133l-24 300h-11l-121 -300h-134l-53 461l120 8l1 -73l17 -258h11l103 250l25 77h129l2 -69l19 -258h9l72 145q29 58 29 93q0 30 -19 62l5 14l113 19q18 -39 18 -80q0 -31 -11 -64.5t-33 -75.5z" />
    <glyph glyph-name="x" unicode="x" horiz-adv-x="468" 
d="M417 4l-136 -11l-15 59l-46 108l-76 -107l-25 -53h-134l168 240l-96 220l131 12l14 -48l46 -105l72 101l23 44h129l-164 -232z" />
    <glyph glyph-name="y" unicode="y" horiz-adv-x="445" 
d="M441 391q0 -35 -10 -68t-32 -72l-123 -227q-63 -117 -121 -168.5t-129 -51.5q-38 0 -91 16l5 104l11 11q41 -9 72 -9q38 0 67.5 14t55.5 44l-101 476l123 9l8 -85l39 -250h14l67 136q29 59 29 109q0 35 -19 64l6 12l110 16q19 -46 19 -80z" />
    <glyph glyph-name="z" unicode="z" horiz-adv-x="425" 
d="M412 447l-261 -338l28 7q8 0 34 -6q24 -7 36 -7q36 0 52.5 20t20.5 76l16 6l53 -19q-6 -196 -142 -196q-34 0 -88 18q-45 15 -68 15q-17 0 -30.5 -6.5t-31.5 -23.5h-14l-37 34l257 336l-104 -2l-75 -11l-10 8l23 108l11 8l83 -6l179 -4l32 18z" />
    <glyph glyph-name="braceleft" unicode="{" horiz-adv-x="295" 
d="M329 648l4 -10l-19 -66q-20 5 -34 5q-64 0 -64 -81q0 -17 4 -53q4 -38 4 -52q0 -42 -21 -72.5t-61 -47.5l-1 -5q28 -14 42.5 -37.5t14.5 -52.5q0 -17 -5.5 -36t-16.5 -48q-11 -31 -16 -48.5t-5 -33.5q0 -51 49 -51q13 0 36 5l3 -66l-7 -9q-33 -9 -65 -9q-59 0 -90 26
t-31 75q0 24 5.5 46.5t18.5 62.5q9 28 14 45.5t5 32.5q0 54 -61 70l7 60q42 11 61.5 35t19.5 66q0 13 -2 49q-3 29 -3 58q0 75 39 113t113 38q26 0 62 -9z" />
    <glyph glyph-name="bar" unicode="|" horiz-adv-x="308" 
d="M274 794l-65 -504l-66 -543l-90 -7l-8 12l65 529l64 514l92 8z" />
    <glyph glyph-name="braceright" unicode="}" horiz-adv-x="295" 
d="M-25 -111l-4 10l19 66q20 -5 34 -5q64 0 64 81q0 17 -4 53q-4 38 -4 52q0 42 21 72.5t61 47.5l1 5q-28 14 -42.5 37.5t-14.5 52.5q0 17 5.5 36t16.5 48q11 31 16 48.5t5 33.5q0 51 -49 51q-13 0 -36 -5l-3 66l7 9q33 9 65 9q59 0 90 -26t31 -75q0 -24 -5.5 -46.5
t-18.5 -62.5q-9 -28 -14 -45.5t-5 -32.5q0 -54 61 -70l-7 -60q-42 -11 -61.5 -35t-19.5 -66q0 -13 2 -49q3 -28 3 -58q0 -75 -39 -113t-113 -38q-26 0 -62 9z" />
    <glyph glyph-name="asciitilde" unicode="~" horiz-adv-x="480" 
d="M125 228.5q-13 -9.5 -38 -32.5l-15 -14h-12l-30 43l2 12l93 91l13 6q27 -5 93 -26q87 -27 107 -27q12 0 25.5 9.5t29.5 24t24 21.5h12l28 -42l-1 -12l-92 -92l-14 -4q-26 3 -105 28q-29 9 -56.5 16.5t-38.5 7.5q-12 0 -25 -9.5z" />
    <glyph glyph-name="uni00A0" unicode="&#xa0;" horiz-adv-x="133" 
 />
    <glyph glyph-name="exclamdown" unicode="&#xa1;" horiz-adv-x="273" 
d="M11 -182l86 414l74 10l12 -13l-42 -405l-14 -15l-103 -6zM108 353.5q-17 17.5 -17 48.5q0 34 19 53.5t51 19.5t49 -17.5t17 -49.5q0 -33 -19 -52.5t-52 -19.5q-31 0 -48 17.5z" />
    <glyph glyph-name="cent" unicode="&#xa2;" horiz-adv-x="388" 
d="M164.5 376q-32.5 -51 -32.5 -143q0 -57 14.5 -82.5t45.5 -25.5q52 0 99 80l15 -1l36 -45q-27 -44 -56.5 -71t-66.5 -43l-27 -168h-64l-7 11l22 150q-59 14 -86.5 54.5t-27.5 120.5q0 109 47.5 187t140.5 101l23 154h63l11 -10l-21 -135l77 -22l6 -13l-30 -81l-23 -2
q-19 19 -34.5 27t-33.5 8q-58 0 -90.5 -51z" />
    <glyph glyph-name="sterling" unicode="&#xa3;" horiz-adv-x="447" 
d="M453 579l-17 -93l-9 -6q-57 32 -104 32q-78 0 -88 -79l-12 -90h127l4 -7l-14 -63h-126l-12 -88q-4 -34 -15.5 -55.5t-34.5 -38.5v-3h145l100 7l4 -7l-20 -91l-123 3h-260l-4 7l13 70q39 9 60 33t26 67l11 96h-72l-3 7l13 63h71l8 71q10 87 67 134t153 47q50 0 112 -16z
" />
    <glyph glyph-name="currency" unicode="&#xa4;" horiz-adv-x="435" 
d="M453 501l-2 -12l-76 -62q13 -25 13 -62q0 -48 -30 -87l63 -60v-12l-63 -59l-12 1l-53 68q-38 -23 -81 -23q-40 0 -71 21l-67 -69l-12 -1l-53 56l3 12l75 61q-14 26 -14 62q0 45 31 89l-61 59v12l63 59l11 -1l54 -69q38 22 79 22q40 0 69 -20l69 70l13 1zM172.5 408.5
q-28.5 -27.5 -28.5 -68.5q0 -35 21 -56t55 -21q42 0 70.5 27.5t28.5 69.5q0 34 -21.5 55t-55.5 21q-41 0 -69.5 -27.5z" />
    <glyph glyph-name="yen" unicode="&#xa5;" horiz-adv-x="551" 
d="M519 308l5 -6l-11 -54h-143l-53 -77h184l6 -6l-10 -53h-193l-10 -112h-110l18 112h-173l-5 6l10 53h173l-31 77h-131l-4 7l10 53h101l-78 195h117l8 -35l74 -188h8l131 184l21 39h114l-135 -195h107z" />
    <glyph glyph-name="brokenbar" unicode="&#xa6;" horiz-adv-x="308" 
d="M274 794l-54 -417l-90 -11l-8 8l51 421l93 8zM192 149l-49 -402l-89 -7l-9 12l49 398l89 10z" />
    <glyph glyph-name="section" unicode="&#xa7;" horiz-adv-x="420" 
d="M216.5 484.5q17.5 -14.5 57.5 -38.5t64.5 -42t42.5 -45.5t18 -62.5q0 -46 -30.5 -85.5t-81.5 -62.5q44 -42 44 -91q0 -42 -27 -78t-73 -57t-102 -21q-34 0 -75 8.5t-72 21.5l27 99l12 8q28 -27 63 -42.5t65 -15.5q33 0 53.5 16.5t20.5 36.5q0 19 -18.5 34.5t-57.5 38.5
q-39 22 -64 40.5t-43 46t-18 62.5q0 46 30 87t81 64q-43 40 -43 89q0 42 27 78t73 57t102 21q29 0 62 -6t59 -17l-26 -95l-16 -5q-28 20 -55 30.5t-50 10.5q-29 0 -48 -16t-19 -35t17.5 -33.5zM290 264q0 28 -22.5 47.5t-71.5 49.5q-32 -15 -48.5 -34t-16.5 -40
q0 -19 12.5 -34.5t29 -27t53.5 -34.5q64 29 64 73z" />
    <glyph glyph-name="dieresis" unicode="&#xa8;" horiz-adv-x="392" 
d="M200 662.5q15 -15.5 15 -42.5q0 -30 -16.5 -47t-45.5 -17q-28 0 -43 15t-15 44t17 46t46 17q27 0 42 -15.5zM377.5 662.5q15.5 -15.5 15.5 -42.5q0 -30 -17 -47t-46 -17q-28 0 -43 15.5t-15 43.5q0 29 16.5 46t45.5 17q28 0 43.5 -15.5z" />
    <glyph glyph-name="copyright" unicode="&#xa9;" horiz-adv-x="693" 
d="M510 560q68 -38 105.5 -107t37.5 -160t-37.5 -160t-105.5 -107t-157 -38t-156.5 38t-105 107t-37.5 160t37.5 160t105 107t156.5 38t157 -38zM220.5 520q-57.5 -32 -89 -91t-31.5 -136t31.5 -136t89 -91t132.5 -32t133 32t89.5 91t31.5 136t-31.5 136t-89.5 91t-133 32
t-132.5 -32zM464 448l-16 -69l-5 -3q-14 8 -34 12.5t-37 4.5q-40 0 -59 -21.5t-19 -69.5q0 -103 81 -103q40 0 74 14l8 -3l-7 -69q-38 -14 -81 -14q-83 0 -124.5 42.5t-41.5 123.5q0 82 45 127t127 45q43 0 89 -17z" />
    <glyph glyph-name="ordfeminine" unicode="&#xaa;" horiz-adv-x="323" 
d="M333 645l-33 -241l-4 -73l-84 -6l15 116h-9q-40 -77 -81 -118h-13q-41 14 -57 39t-16 68q0 75 41 136t119 80h5l56 -8l53 12zM184.5 438q25.5 38 55.5 104l3 25l1 9l-45 9q-33 -1 -51 -34.5t-18 -87.5q0 -32 5.5 -47.5t12.5 -15.5q11 0 36.5 38z" />
    <glyph glyph-name="guillemotleft" unicode="&#xab;" horiz-adv-x="427" 
d="M236 220l3 21l157 173l57 -33l1 -13l-122 -141l88 -141l-4 -12l-65 -33zM53 220l3 21l157 173l57 -33l1 -13l-122 -141l88 -141l-4 -12l-65 -33z" />
    <glyph glyph-name="logicalnot" unicode="&#xac;" horiz-adv-x="480" 
d="M439 297l-30 -246l-79 -7l-9 9l20 164h-311l-8 9l17 79h395z" />
    <glyph glyph-name="uni00AD" unicode="&#xad;" horiz-adv-x="304" 
d="M285 308l-9 -81l-243 -36l-9 10l10 81l242 35z" />
    <glyph glyph-name="registered" unicode="&#xae;" horiz-adv-x="445" 
d="M358 651q51 -51 51 -134q0 -84 -51 -135.5t-135 -51.5t-135 51.5t-51 135.5q0 83 51 134t135 51t135 -51zM334 405.5q42 42.5 42 111.5t-42 110.5t-111 41.5t-111 -41.5t-42 -110.5t42.5 -111.5t110.5 -42.5q69 0 111 42.5zM294.5 528q-9.5 -15 -27.5 -26q20 -29 50 -66
l-1 -5q-13 -5 -47 -9l-6 4q-19 31 -36 63h-31v-1l3 -62h-48l2 57l-2 137l84 1q33 0 51 -15.5t18 -44.5q0 -18 -9.5 -33zM197 526l32 -2q13 5 19 13t6 20q0 14 -8.5 20.5t-26.5 7.5l-20 -1z" />
    <glyph glyph-name="macron" unicode="&#xaf;" horiz-adv-x="386" 
d="M388 650l-6 -73h-281l-8 9l7 73h280z" />
    <glyph glyph-name="degree" unicode="&#xb0;" horiz-adv-x="293" 
d="M280.5 619q32.5 -33 32.5 -82q0 -39 -20.5 -71.5t-54 -52t-71.5 -19.5q-50 0 -83 33.5t-33 82.5q0 38 20.5 70.5t54.5 52t72 19.5q50 0 82.5 -33zM132.5 572.5q-24.5 -23.5 -24.5 -56.5q0 -28 18.5 -46.5t46.5 -18.5q34 0 58.5 23.5t24.5 56.5q0 28 -18.5 46.5
t-46.5 18.5q-34 0 -58.5 -23.5z" />
    <glyph glyph-name="plusminus" unicode="&#xb1;" horiz-adv-x="478" 
d="M312 468l-21 -163h163l8 -9l-16 -79h-165l-20 -166l-80 -7l-9 9l20 164h-163l-7 9l16 79h165l20 166l80 6zM419 -35l-7 -79h-417l-9 9l7 79h417z" />
    <glyph glyph-name="uni00B2" unicode="&#xb2;" horiz-adv-x="360" 
d="M317.5 681.5q32.5 -23.5 32.5 -62.5q0 -30 -23 -65t-79 -93l-62 -65l2 -3h96l68 5l4 -7l-20 -79l-93 4h-167l-27 -1l-5 3l7 60l108 103q46 45 65 68.5t19 43.5q0 13 -10 21.5t-27 8.5q-22 0 -49.5 -12.5t-51.5 -33.5h-11l-9 76q81 52 151 52q49 0 81.5 -23.5z" />
    <glyph glyph-name="uni00B3" unicode="&#xb3;" horiz-adv-x="320" 
d="M287.5 682q34.5 -24 34.5 -62q0 -27 -18 -53.5t-56 -43.5l-1 -4q64 -18 64 -79q0 -58 -53.5 -94t-139.5 -36q-40 0 -75 8l3 71l7 6q42 -11 75 -11q39 0 61.5 14t22.5 37q0 35 -50 37h-50l-5 6l9 67l32 1q27 1 47.5 15.5t20.5 36.5q0 30 -41 30q-31 0 -82 -27h-11l-8 67
q65 38 127 38q52 0 86.5 -24z" />
    <glyph glyph-name="acute" unicode="&#xb4;" horiz-adv-x="379" 
d="M309 721l47 -70l-2 -12q-112 -72 -193 -119l-12 1l-32 49q95 74 180 152z" />
    <glyph glyph-name="uni00B5" unicode="&#xb5;" horiz-adv-x="491" 
d="M462 469l-50 -357l-3 -107l-123 -9l25 177h-10q-61 -109 -124 -176h-12q-18 8 -31 21l-6 -203l-123 -9l76 550l4 104l122 9l-44 -320v-5q0 -19 18 -19q23 0 61.5 50t88.5 148l5 33l4 104z" />
    <glyph glyph-name="paragraph" unicode="&#xb6;" horiz-adv-x="521" 
d="M552 633l-20 -89h-68l-47 -348l-6 -60q-10 -77 -59 -128t-159 -93l-28 59l2 13q59 30 87 63.5t33 79.5l7 50l41 365h-47q-48 -8 -74 -43.5t-26 -91.5q0 -42 20 -76t59 -54l-53 -67q-80 19 -122.5 68.5t-42.5 123.5q0 111 74 174.5t203 63.5h218z" />
    <glyph glyph-name="periodcentered" unicode="&#xb7;" horiz-adv-x="230" 
d="M168 303.5q17 -17.5 17 -48.5q0 -34 -19 -53.5t-51 -19.5t-49 17.5t-17 49.5q0 33 19 52.5t52 19.5q31 0 48 -17.5z" />
    <glyph glyph-name="cedilla" unicode="&#xb8;" horiz-adv-x="383" 
d="M160 -48l34 -19q22 -12 31.5 -26.5t9.5 -32.5q0 -33 -26 -54t-68 -21q-45 0 -81 29l9 55l6 2q32 -30 58 -30q25 0 25 22q0 7 -4 11.5t-13 8.5l-49 28l23 100h63z" />
    <glyph glyph-name="uni00B9" unicode="&#xb9;" horiz-adv-x="274" 
d="M256 696l-34 -243l-13 -137h-103l19 126l18 152l-84 -17l-6 5l10 78l181 46z" />
    <glyph glyph-name="ordmasculine" unicode="&#xba;" horiz-adv-x="309" 
d="M228 649q88 -16 88 -112t-45 -153t-124 -62l-8 2q-42 6 -65 35t-23 81q0 91 45.5 148t122.5 61h9zM132 439q0 -31 7.5 -43.5t24.5 -12.5q37 0 53.5 37.5t16.5 110.5q0 30 -6.5 42.5t-22.5 12.5q-73 0 -73 -147z" />
    <glyph glyph-name="guillemotright" unicode="&#xbb;" horiz-adv-x="427" 
d="M373 237l-3 -21l-157 -173l-57 33l-1 13l122 141l-88 141l4 12l65 33zM190 237l-3 -21l-157 -173l-57 33l-1 13l122 141l-88 141l4 12l65 33z" />
    <glyph glyph-name="onequarter" unicode="&#xbc;" horiz-adv-x="743" 
d="M249 639l-34 -243l-13 -137h-103l19 126l18 152l-84 -17l-6 5l10 78l181 46zM635 653l6 -18l-558 -727l-51 33l-4 14l558 730zM694 86l-54 2l-5 -81l-7 -7l-81 -4l-4 5l13 88h-104l-65 -3l-5 8l7 63l194 228h94l-29 -221h54l5 -9zM478 164h88l14 112h-6z" />
    <glyph glyph-name="onehalf" unicode="&#xbd;" horiz-adv-x="764" 
d="M249 639l-34 -243l-13 -137h-103l19 126l18 152l-84 -17l-6 5l10 78l181 46zM635 653l6 -18l-558 -727l-51 33l-4 14l558 730zM682.5 365.5q32.5 -23.5 32.5 -62.5q0 -30 -23 -65t-79 -93l-62 -65l2 -3h96l68 5l4 -7l-20 -79l-93 4h-167l-27 -1l-5 3l7 60l108 103
q46 45 65 68.5t19 43.5q0 13 -10 21.5t-27 8.5q-22 0 -49.5 -12.5t-51.5 -33.5h-11l-9 76q81 52 151 52q49 0 81.5 -23.5z" />
    <glyph glyph-name="threequarters" unicode="&#xbe;" horiz-adv-x="782" 
d="M280.5 625q34.5 -24 34.5 -62q0 -27 -18 -53.5t-56 -43.5l-1 -4q64 -18 64 -79q0 -58 -53.5 -94t-139.5 -36q-40 0 -75 8l3 71l7 6q42 -11 75 -11q39 0 61.5 14t22.5 37q0 35 -50 37h-50l-5 6l9 67l32 1q27 1 47.5 15.5t20.5 36.5q0 30 -41 30q-31 0 -82 -27h-11l-8 67
q65 38 127 38q52 0 86.5 -24zM674 653l6 -18l-558 -727l-51 33l-4 14l558 730zM733 86l-54 2l-5 -81l-7 -7l-81 -4l-4 5l13 88h-104l-65 -3l-5 8l7 63l194 228h94l-29 -221h54l5 -9zM517 164h88l14 112h-6z" />
    <glyph glyph-name="questiondown" unicode="&#xbf;" horiz-adv-x="340" 
d="M18 -154.5q-66 38.5 -66 103.5q0 44 28.5 83.5t80.5 66.5l78 44l3 5l4 85l92 12l8 -9l-5 -127l-7 -10l-96 -48q-66 -33 -66 -83q0 -36 40.5 -56.5t130.5 -26.5l7 -12l-31 -66l-14 -7q-121 7 -187 45.5zM154 353.5q-17 17.5 -17 48.5q0 34 19 53.5t51 19.5
q31 0 48.5 -17.5t17.5 -49.5q0 -33 -19 -52.5t-52 -19.5q-31 0 -48 17.5z" />
    <glyph glyph-name="Agrave" unicode="&#xc0;" horiz-adv-x="583" 
d="M539 0h-133l-6 83l-9 63l-121 2l-107 -2l-24 -56l-29 -90h-130l291 643h157zM376 248l-40 271h-9l-118 -270l82 -2zM465 775l-21 -54l-13 -4q-130 45 -213 78l-4 12l33 77l12 3q96 -57 206 -112z" />
    <glyph glyph-name="Aacute" unicode="&#xc1;" horiz-adv-x="583" 
d="M539 0h-133l-6 83l-9 63l-121 2l-107 -2l-24 -56l-29 -90h-130l291 643h157zM376 248l-40 271h-9l-118 -270l82 -2zM459 884l33 -77l-4 -12q-89 -35 -214 -78l-13 4l-21 54q108 54 207 112z" />
    <glyph glyph-name="Acircumflex" unicode="&#xc2;" horiz-adv-x="583" 
d="M539 0h-133l-6 83l-9 63l-121 2l-107 -2l-24 -56l-29 -90h-130l291 643h157zM376 248l-40 271h-9l-118 -270l82 -2zM216 771q73 47 138 103h27q52 -49 127 -103l-30 -52h-13q-75 46 -100 63q-16 -9 -75 -40l-43 -23h-14z" />
    <glyph glyph-name="Atilde" unicode="&#xc3;" horiz-adv-x="583" 
d="M539 0h-133l-6 83l-9 63l-121 2l-107 -2l-24 -56l-29 -90h-130l291 643h157zM376 248l-40 271h-9l-118 -270l82 -2zM538 840v-11l-70 -88l-12 -5q-20 3 -83 20q-5 1 -32.5 8.5t-38.5 7.5t-22 -9.5t-23 -23t-17 -19.5h-12l-38 39v11l69 88l13 4q16 -2 43 -9t41 -10
q53 -16 70 -16q12 0 23 9.5t22.5 23t16.5 18.5h12z" />
    <glyph glyph-name="Adieresis" unicode="&#xc4;" horiz-adv-x="583" 
d="M539 0h-133l-6 83l-9 63l-121 2l-107 -2l-24 -56l-29 -90h-130l291 643h157zM376 248l-40 271h-9l-118 -270l82 -2zM320 841.5q15 -15.5 15 -42.5q0 -30 -16.5 -47t-45.5 -17q-28 0 -43 15t-15 44t17 46t46 17q27 0 42 -15.5zM497.5 841.5q15.5 -15.5 15.5 -42.5
q0 -30 -17 -47t-46 -17q-28 0 -43 15.5t-15 43.5q0 29 16.5 46t45.5 17q28 0 43.5 -15.5z" />
    <glyph glyph-name="Aring" unicode="&#xc5;" horiz-adv-x="583" 
d="M539 0h-133l-6 83l-9 63l-121 2l-107 -2l-24 -56l-29 -90h-130l291 643h157zM376 248l-40 271h-9l-118 -270l82 -2zM436 878q24 -24 24 -67q0 -47 -26.5 -72.5t-71.5 -25.5q-43 0 -67.5 24.5t-24.5 69.5t25 70t72 25q45 0 69 -24zM324 809q0 -41 41 -41t41 38
q0 40 -42 40q-40 0 -40 -37z" />
    <glyph glyph-name="AE" unicode="&#xc6;" horiz-adv-x="798" 
d="M774 99l-21 -99h-377l5 83l1 140l-212 -55l-45 -78l-39 -90h-131l380 643h427l6 -10l-21 -99l-151 5h-85l-2 -183l195 49l9 -8l-1 -93l-204 -48l-1 -153h100l160 6zM382 323l1 196h-8l-136 -233z" />
    <glyph glyph-name="Ccedilla" unicode="&#xc7;" horiz-adv-x="507" 
d="M541 613l-37 -112l-11 -4q-27 22 -60.5 34t-70.5 12q-91 0 -138 -67t-47 -196q0 -88 34.5 -133t100.5 -45q36 0 76 11.5t73 32.5l11 -7l-25 -113q-40 -18 -76.5 -26.5t-77.5 -8.5q-123 0 -189.5 69.5t-66.5 198.5q0 122 40 210t116 135t183 47q95 0 165 -38zM330 -48
l34 -19q22 -12 31.5 -26.5t9.5 -32.5q0 -33 -26 -54t-68 -21q-45 0 -81 29l9 55l6 2q32 -30 58 -30q25 0 25 22q0 7 -4 11.5t-13 8.5l-49 28l23 100h63z" />
    <glyph glyph-name="Egrave" unicode="&#xc8;" horiz-adv-x="497" 
d="M248 538l-22 -159l107 -1l102 3l7 -10l-22 -99l-110 3l-99 -1l-10 -70l-10 -99l111 -1l154 5l5 -10l-20 -99h-393l31 192l50 451h396l6 -10l-22 -99l-149 5zM441 775l-21 -54l-13 -4q-130 45 -213 78l-4 12l33 77l12 3q96 -57 206 -112z" />
    <glyph glyph-name="Eacute" unicode="&#xc9;" horiz-adv-x="497" 
d="M248 538l-22 -159l107 -1l102 3l7 -10l-22 -99l-110 3l-99 -1l-10 -70l-10 -99l111 -1l154 5l5 -10l-20 -99h-393l31 192l50 451h396l6 -10l-22 -99l-149 5zM435 884l33 -77l-4 -12q-89 -35 -214 -78l-13 4l-21 54q108 54 207 112z" />
    <glyph glyph-name="Ecircumflex" unicode="&#xca;" horiz-adv-x="497" 
d="M248 538l-22 -159l107 -1l102 3l7 -10l-22 -99l-110 3l-99 -1l-10 -70l-10 -99l111 -1l154 5l5 -10l-20 -99h-393l31 192l50 451h396l6 -10l-22 -99l-149 5zM192 771q73 47 138 103h27q52 -49 127 -103l-30 -52h-13q-75 46 -100 63q-16 -9 -75 -40l-43 -23h-14z" />
    <glyph glyph-name="Edieresis" unicode="&#xcb;" horiz-adv-x="497" 
d="M248 538l-22 -159l107 -1l102 3l7 -10l-22 -99l-110 3l-99 -1l-10 -70l-10 -99l111 -1l154 5l5 -10l-20 -99h-393l31 192l50 451h396l6 -10l-22 -99l-149 5zM296 841.5q15 -15.5 15 -42.5q0 -30 -16.5 -47t-45.5 -17q-28 0 -43 15t-15 44t17 46t46 17q27 0 42 -15.5z
M473.5 841.5q15.5 -15.5 15.5 -42.5q0 -30 -17 -47t-46 -17q-28 0 -43 15.5t-15 43.5q0 29 16.5 46t45.5 17q28 0 43.5 -15.5z" />
    <glyph glyph-name="Igrave" unicode="&#xcc;" horiz-adv-x="289" 
d="M200 204l-19 -204h-133l31 192l49 451h134zM314 775l-21 -54l-13 -4q-130 45 -213 78l-4 12l33 77l12 3q96 -57 206 -112z" />
    <glyph glyph-name="Iacute" unicode="&#xcd;" horiz-adv-x="289" 
d="M200 204l-19 -204h-133l31 192l49 451h134zM308 884l33 -77l-4 -12q-89 -35 -214 -78l-13 4l-21 54q108 54 207 112z" />
    <glyph glyph-name="Icircumflex" unicode="&#xce;" horiz-adv-x="289" 
d="M200 204l-19 -204h-133l31 192l49 451h134zM65 771q73 47 138 103h27q52 -49 127 -103l-30 -52h-13q-75 46 -100 63q-16 -9 -75 -40l-43 -23h-14z" />
    <glyph glyph-name="Eth" unicode="&#xd0;" horiz-adv-x="668" 
d="M588.5 581.5q66.5 -65.5 66.5 -185.5q0 -189 -92 -296t-262 -107q-47 0 -113 2t-112 5l31 192l49 451l244 4q122 0 188.5 -65.5zM467.5 164.5q48.5 69.5 48.5 210.5q0 86 -32.5 126.5t-99.5 40.5q-39 0 -109 -4l-48 -334l-9 -101q27 -3 59.5 -5.5t52.5 -2.5
q89 0 137.5 69.5zM373.676 354l-10.3906 -79h-333.905l-4.84961 10l11.084 79h333.213z" />
    <glyph glyph-name="Ntilde" unicode="&#xd1;" horiz-adv-x="678" 
d="M590 198l-19 -198h-142l-200 441h-9l-28 -220l-22 -221h-121l30 190l50 453h142l200 -441h9l51 436l123 8zM584 840v-11l-70 -88l-12 -5q-20 3 -83 20q-5 1 -32.5 8.5t-38.5 7.5t-22 -9.5t-23 -23t-17 -19.5h-12l-38 39v11l69 88l13 4q16 -2 43 -9t41 -10q53 -16 70 -16
q12 0 23 9.5t22.5 23t16.5 18.5h12z" />
    <glyph glyph-name="Ograve" unicode="&#xd2;" horiz-adv-x="631" 
d="M553.5 583.5q65.5 -68.5 65.5 -199.5q0 -118 -39 -207t-114 -138t-180 -49q-118 0 -183.5 70.5t-65.5 202.5q0 118 38.5 206t113 135.5t180.5 47.5q119 0 184.5 -68.5zM218.5 478.5q-44.5 -66.5 -44.5 -212.5q0 -91 29.5 -132.5t95.5 -41.5q90 0 135 67t45 214
q0 91 -29.5 131.5t-96.5 40.5q-90 0 -134.5 -66.5zM486 775l-21 -54l-13 -4q-130 45 -213 78l-4 12l33 77l12 3q96 -57 206 -112z" />
    <glyph glyph-name="Oacute" unicode="&#xd3;" horiz-adv-x="631" 
d="M553.5 583.5q65.5 -68.5 65.5 -199.5q0 -118 -39 -207t-114 -138t-180 -49q-118 0 -183.5 70.5t-65.5 202.5q0 118 38.5 206t113 135.5t180.5 47.5q119 0 184.5 -68.5zM218.5 478.5q-44.5 -66.5 -44.5 -212.5q0 -91 29.5 -132.5t95.5 -41.5q90 0 135 67t45 214
q0 91 -29.5 131.5t-96.5 40.5q-90 0 -134.5 -66.5zM480 884l33 -77l-4 -12q-89 -35 -214 -78l-13 4l-21 54q108 54 207 112z" />
    <glyph glyph-name="Ocircumflex" unicode="&#xd4;" horiz-adv-x="631" 
d="M553.5 583.5q65.5 -68.5 65.5 -199.5q0 -118 -39 -207t-114 -138t-180 -49q-118 0 -183.5 70.5t-65.5 202.5q0 118 38.5 206t113 135.5t180.5 47.5q119 0 184.5 -68.5zM218.5 478.5q-44.5 -66.5 -44.5 -212.5q0 -91 29.5 -132.5t95.5 -41.5q90 0 135 67t45 214
q0 91 -29.5 131.5t-96.5 40.5q-90 0 -134.5 -66.5zM237 771q73 47 138 103h27q52 -49 127 -103l-30 -52h-13q-75 46 -100 63q-16 -9 -75 -40l-43 -23h-14z" />
    <glyph glyph-name="Otilde" unicode="&#xd5;" horiz-adv-x="631" 
d="M553.5 583.5q65.5 -68.5 65.5 -199.5q0 -118 -39 -207t-114 -138t-180 -49q-118 0 -183.5 70.5t-65.5 202.5q0 118 38.5 206t113 135.5t180.5 47.5q119 0 184.5 -68.5zM218.5 478.5q-44.5 -66.5 -44.5 -212.5q0 -91 29.5 -132.5t95.5 -41.5q90 0 135 67t45 214
q0 91 -29.5 131.5t-96.5 40.5q-90 0 -134.5 -66.5zM559 840v-11l-70 -88l-12 -5q-20 3 -83 20q-5 1 -32.5 8.5t-38.5 7.5t-22 -9.5t-23 -23t-17 -19.5h-12l-38 39v11l69 88l13 4q16 -2 43 -9t41 -10q53 -16 70 -16q12 0 23 9.5t22.5 23t16.5 18.5h12z" />
    <glyph glyph-name="multiply" unicode="&#xd7;" horiz-adv-x="481" 
d="M438 389l-1 -13l-130 -115l100 -116l-1 -12l-67 -52l-102 117l-133 -117l-54 52l2 11l130 117l-101 115l1 13l66 51l104 -117l131 117z" />
    <glyph glyph-name="Oslash" unicode="&#xd8;" horiz-adv-x="631" 
d="M619 384q0 -118 -39 -207t-114 -138t-180 -49q-50 0 -94 14l-71 -121l-68 31l-5 11l71 120q-82 71 -82 218q0 118 38.5 206t113 135.5t180.5 47.5q55 0 98 -15l58 99l68 -30l5 -14l-57 -97q78 -69 78 -211zM434 159q45 67 45 214q0 91 -29.5 131.5t-96.5 40.5
q-90 0 -134.5 -66.5t-44.5 -212.5q0 -91 29.5 -132.5t95.5 -41.5q90 0 135 67z" />
    <glyph glyph-name="Ugrave" unicode="&#xd9;" horiz-adv-x="622" 
d="M568 317l-11 -84q-13 -117 -83 -179.5t-191 -62.5q-105 0 -165 48.5t-60 138.5q0 26 4 49l13 93l36 323h132l-55 -398q-3 -21 -3 -38q0 -55 26.5 -81t81.5 -26q64 0 99.5 34t43.5 104l44 405h133zM482 775l-21 -54l-13 -4q-130 45 -213 78l-4 12l33 77l12 3
q96 -57 206 -112z" />
    <glyph glyph-name="Uacute" unicode="&#xda;" horiz-adv-x="622" 
d="M568 317l-11 -84q-13 -117 -83 -179.5t-191 -62.5q-105 0 -165 48.5t-60 138.5q0 26 4 49l13 93l36 323h132l-55 -398q-3 -21 -3 -38q0 -55 26.5 -81t81.5 -26q64 0 99.5 34t43.5 104l44 405h133zM476 884l33 -77l-4 -12q-89 -35 -214 -78l-13 4l-21 54q108 54 207 112z
" />
    <glyph glyph-name="Ucircumflex" unicode="&#xdb;" horiz-adv-x="622" 
d="M568 317l-11 -84q-13 -117 -83 -179.5t-191 -62.5q-105 0 -165 48.5t-60 138.5q0 26 4 49l13 93l36 323h132l-55 -398q-3 -21 -3 -38q0 -55 26.5 -81t81.5 -26q64 0 99.5 34t43.5 104l44 405h133zM233 771q73 47 138 103h27q52 -49 127 -103l-30 -52h-13q-75 46 -100 63
q-16 -9 -75 -40l-43 -23h-14z" />
    <glyph glyph-name="Udieresis" unicode="&#xdc;" horiz-adv-x="622" 
d="M568 317l-11 -84q-13 -117 -83 -179.5t-191 -62.5q-105 0 -165 48.5t-60 138.5q0 26 4 49l13 93l36 323h132l-55 -398q-3 -21 -3 -38q0 -55 26.5 -81t81.5 -26q64 0 99.5 34t43.5 104l44 405h133zM339 841.5q15 -15.5 15 -42.5q0 -30 -16.5 -47t-45.5 -17q-28 0 -43 15
t-15 44t17 46t46 17q27 0 42 -15.5zM516.5 841.5q15.5 -15.5 15.5 -42.5q0 -30 -17 -47t-46 -17q-28 0 -43 15.5t-15 43.5q0 29 16.5 46t45.5 17q28 0 43.5 -15.5z" />
    <glyph glyph-name="Thorn" unicode="&#xde;" horiz-adv-x="547" 
d="M492.5 498.5q50.5 -43.5 50.5 -126.5q0 -76 -34.5 -136t-98 -94t-147.5 -34h-71l-10 -108h-133l30 192l50 451h134l-14 -101h104q89 0 139.5 -43.5zM379 255.5q27 38.5 27 96.5q0 45 -22.5 67.5t-73.5 25.5l-75 -4l-33 -232l102 -4q48 12 75 50.5z" />
    <glyph glyph-name="germandbls" unicode="&#xdf;" horiz-adv-x="589" 
d="M431 318q15 -16 45 -38q43 -32 65.5 -60.5t22.5 -73.5q0 -44 -25.5 -79.5t-70 -55.5t-99.5 -20q-60 6 -119 31l27 103l14 7q25 -30 54 -46.5t56 -16.5q25 0 40.5 14.5t15.5 34.5q0 18 -14 33t-43 37q-30 23 -48 40t-31 42t-13 58q0 43 16.5 71.5t47.5 60.5q25 27 37 46
t12 45q0 59 -70 59q-41 0 -68.5 -20.5t-35.5 -64.5l-44 -321l-28 -206l-4 -108l-123 -9l43 309l24 191h-67l-6 8l9 66h73l6 45q12 97 73 150.5t161 53.5q82 0 126.5 -35.5t44.5 -95.5q0 -42 -18 -71t-51 -62q-26 -27 -38 -44.5t-12 -40.5q0 -21 15 -37z" />
    <glyph glyph-name="agrave" unicode="&#xe0;" horiz-adv-x="461" 
d="M428 467l-49 -355l-4 -107l-123 -9l22 158h-13q-53 -95 -118 -163h-18q-55 20 -79 60.5t-24 102.5q0 67 26.5 133t80 115.5t130.5 68.5h6l76 -21l76 24zM216.5 171.5q39.5 59.5 83.5 165.5l2 17v2l-65 21q-48 0 -75.5 -49.5t-27.5 -130.5q0 -85 25 -85q18 0 57.5 59.5z
M354 571l-31 -49l-12 -1q-79 46 -194 119l-2 12l47 70l12 1q86 -77 180 -152z" />
    <glyph glyph-name="aacute" unicode="&#xe1;" horiz-adv-x="461" 
d="M428 467l-49 -355l-4 -107l-123 -9l22 158h-13q-53 -95 -118 -163h-18q-55 20 -79 60.5t-24 102.5q0 67 26.5 133t80 115.5t130.5 68.5h6l76 -21l76 24zM216.5 171.5q39.5 59.5 83.5 165.5l2 17v2l-65 21q-48 0 -75.5 -49.5t-27.5 -130.5q0 -85 25 -85q18 0 57.5 59.5z
M347 722l47 -70l-2 -12q-112 -72 -193 -119l-12 1l-32 49q95 74 180 152z" />
    <glyph glyph-name="acircumflex" unicode="&#xe2;" horiz-adv-x="461" 
d="M428 467l-49 -355l-4 -107l-123 -9l22 158h-13q-53 -95 -118 -163h-18q-55 20 -79 60.5t-24 102.5q0 67 26.5 133t80 115.5t130.5 68.5h6l76 -21l76 24zM216.5 171.5q39.5 59.5 83.5 165.5l2 17v2l-65 21q-48 0 -75.5 -49.5t-27.5 -130.5q0 -85 25 -85q18 0 57.5 59.5z
M119 574q52 44 132 121l21 20h28q46 -58 125 -141l-39 -49h-13q-58 52 -95 93q-34 -30 -120 -93h-13z" />
    <glyph glyph-name="atilde" unicode="&#xe3;" horiz-adv-x="461" 
d="M428 467l-49 -355l-4 -107l-123 -9l22 158h-13q-53 -95 -118 -163h-18q-55 20 -79 60.5t-24 102.5q0 67 26.5 133t80 115.5t130.5 68.5h6l76 -21l76 24zM216.5 171.5q39.5 59.5 83.5 165.5l2 17v2l-65 21q-48 0 -75.5 -49.5t-27.5 -130.5q0 -85 25 -85q18 0 57.5 59.5z
M448 662v-11l-70 -88l-12 -5q-20 3 -83 20q-5 1 -32.5 8.5t-38.5 7.5t-22 -9.5t-23 -23t-17 -19.5h-12l-38 39v11l69 88l13 4q16 -2 43 -9t41 -10q53 -16 70 -16q12 0 23 9.5t22.5 23t16.5 18.5h12z" />
    <glyph glyph-name="adieresis" unicode="&#xe4;" horiz-adv-x="461" 
d="M428 467l-49 -355l-4 -107l-123 -9l22 158h-13q-53 -95 -118 -163h-18q-55 20 -79 60.5t-24 102.5q0 67 26.5 133t80 115.5t130.5 68.5h6l76 -21l76 24zM216.5 171.5q39.5 59.5 83.5 165.5l2 17v2l-65 21q-48 0 -75.5 -49.5t-27.5 -130.5q0 -85 25 -85q18 0 57.5 59.5z
M230 663.5q15 -15.5 15 -42.5q0 -30 -16.5 -47t-45.5 -17q-28 0 -43 15t-15 44t17 46t46 17q27 0 42 -15.5zM407.5 663.5q15.5 -15.5 15.5 -42.5q0 -30 -17 -47t-46 -17q-28 0 -43 15.5t-15 43.5q0 29 16.5 46t45.5 17q28 0 43.5 -15.5z" />
    <glyph glyph-name="aring" unicode="&#xe5;" horiz-adv-x="461" 
d="M428 467l-49 -355l-4 -107l-123 -9l22 158h-13q-53 -95 -118 -163h-18q-55 20 -79 60.5t-24 102.5q0 67 26.5 133t80 115.5t130.5 68.5h6l76 -21l76 24zM216.5 171.5q39.5 59.5 83.5 165.5l2 17v2l-65 21q-48 0 -75.5 -49.5t-27.5 -130.5q0 -85 25 -85q18 0 57.5 59.5z
M346 700q24 -24 24 -67q0 -47 -26.5 -72.5t-71.5 -25.5q-43 0 -67.5 24.5t-24.5 69.5t25 70t72 25q45 0 69 -24zM234 631q0 -41 41 -41t41 38q0 40 -42 40q-40 0 -40 -37z" />
    <glyph glyph-name="ae" unicode="&#xe6;" horiz-adv-x="650" 
d="M517 474l13 -1q47 -9 74 -35.5t27 -71.5q0 -59 -58 -105.5t-188 -84.5q0 -8 1 -14q4 -38 17.5 -56t38.5 -18q31 0 60.5 21.5t49.5 58.5l16 -2l40 -52q-75 -97 -171 -123h-14q-75 9 -109 47t-42 110l-2 10q-62 -102 -127 -167h-18q-55 20 -79.5 61t-24.5 101
q0 68 27 134.5t81 116t132 67.5h5l127 -35q53 35 124 38zM419 355.5q-26 -37.5 -33 -104.5q70 20 104 46.5t34 60.5q0 35 -39 35q-40 0 -66 -37.5zM161 328q-28 -50 -28 -131q0 -85 25 -85q18 0 57 55.5t81 152.5q8 19 17 33l-74 25q-50 0 -78 -50z" />
    <glyph glyph-name="ccedilla" unicode="&#xe7;" horiz-adv-x="355" 
d="M355 449l6 -14l-35 -93l-26 -2q-19 22 -32 30t-30 8q-45 0 -70.5 -48t-25.5 -136q0 -54 10.5 -76t34.5 -22q22 0 42 17t45 56l16 -1l37 -47q-32 -54 -66.5 -83.5t-84.5 -45.5h-17q-70 11 -102 51.5t-32 126.5q0 87 29.5 155.5t87 107.5t138.5 39zM203 -48l34 -19
q22 -12 31.5 -26.5t9.5 -32.5q0 -33 -26 -54t-68 -21q-45 0 -81 29l9 55l6 2q32 -30 58 -30q25 0 25 22q0 7 -4 11.5t-13 8.5l-49 28l23 100h63z" />
    <glyph glyph-name="egrave" unicode="&#xe8;" horiz-adv-x="405" 
d="M324 158l37 -48q-66 -93 -169 -119h-14q-79 9 -116 52t-37 126q0 87 30.5 155t85.5 107.5t128 42.5l12 -1q50 -8 76.5 -35.5t26.5 -71.5q0 -61 -59 -107t-185 -82q2 -46 16.5 -67t42.5 -21q25 0 49 15.5t61 55.5zM174 355.5q-25 -36.5 -33 -102.5q69 19 101.5 44.5
t32.5 60.5q0 18 -8.5 26t-27.5 8q-40 0 -65 -36.5zM336 571l-31 -49l-12 -1q-79 46 -194 119l-2 12l47 70l12 1q86 -77 180 -152z" />
    <glyph glyph-name="eacute" unicode="&#xe9;" horiz-adv-x="405" 
d="M324 158l37 -48q-66 -93 -169 -119h-14q-79 9 -116 52t-37 126q0 87 30.5 155t85.5 107.5t128 42.5l12 -1q50 -8 76.5 -35.5t26.5 -71.5q0 -61 -59 -107t-185 -82q2 -46 16.5 -67t42.5 -21q25 0 49 15.5t61 55.5zM174 355.5q-25 -36.5 -33 -102.5q69 19 101.5 44.5
t32.5 60.5q0 18 -8.5 26t-27.5 8q-40 0 -65 -36.5zM329 722l47 -70l-2 -12q-112 -72 -193 -119l-12 1l-32 49q95 74 180 152z" />
    <glyph glyph-name="ecircumflex" unicode="&#xea;" horiz-adv-x="405" 
d="M324 158l37 -48q-66 -93 -169 -119h-14q-79 9 -116 52t-37 126q0 87 30.5 155t85.5 107.5t128 42.5l12 -1q50 -8 76.5 -35.5t26.5 -71.5q0 -61 -59 -107t-185 -82q2 -46 16.5 -67t42.5 -21q25 0 49 15.5t61 55.5zM174 355.5q-25 -36.5 -33 -102.5q69 19 101.5 44.5
t32.5 60.5q0 18 -8.5 26t-27.5 8q-40 0 -65 -36.5zM101 574q52 44 132 121l21 20h28q46 -58 125 -141l-39 -49h-13q-58 52 -95 93q-34 -30 -120 -93h-13z" />
    <glyph glyph-name="edieresis" unicode="&#xeb;" horiz-adv-x="405" 
d="M324 158l37 -48q-66 -93 -169 -119h-14q-79 9 -116 52t-37 126q0 87 30.5 155t85.5 107.5t128 42.5l12 -1q50 -8 76.5 -35.5t26.5 -71.5q0 -61 -59 -107t-185 -82q2 -46 16.5 -67t42.5 -21q25 0 49 15.5t61 55.5zM174 355.5q-25 -36.5 -33 -102.5q69 19 101.5 44.5
t32.5 60.5q0 18 -8.5 26t-27.5 8q-40 0 -65 -36.5zM212 663.5q15 -15.5 15 -42.5q0 -30 -16.5 -47t-45.5 -17q-28 0 -43 15t-15 44t17 46t46 17q27 0 42 -15.5zM389.5 663.5q15.5 -15.5 15.5 -42.5q0 -30 -17 -47t-46 -17q-28 0 -43 15.5t-15 43.5q0 29 16.5 46t45.5 17
q28 0 43.5 -15.5z" />
    <glyph glyph-name="igrave" unicode="&#xec;" horiz-adv-x="237" 
d="M157 112l-4 -107l-123 -9l50 360l4 104l122 9zM244 570l-31 -49l-12 -1q-79 46 -194 119l-2 12l47 70l12 1q86 -77 180 -152z" />
    <glyph glyph-name="iacute" unicode="&#xed;" horiz-adv-x="237" 
d="M157 112l-4 -107l-123 -9l50 360l4 104l122 9zM237 721l47 -70l-2 -12q-112 -72 -193 -119l-12 1l-32 49q95 74 180 152z" />
    <glyph glyph-name="icircumflex" unicode="&#xee;" horiz-adv-x="237" 
d="M157 112l-4 -107l-123 -9l50 360l4 104l122 9zM9 573q52 44 132 121l21 20h28q46 -58 125 -141l-39 -49h-13q-58 52 -95 93q-34 -30 -120 -93h-13z" />
    <glyph glyph-name="eth" unicode="&#xf0;" horiz-adv-x="461" 
d="M397.5 463q27.5 -71 27.5 -151q0 -142 -65 -228t-180 -94l-12 1q-64 14 -96.5 55.5t-32.5 116.5q0 87 29 153.5t82.5 105t125.5 42.5q-23 43 -59 76l-125 -66l-9 3l-20 52l100 54q-37 24 -95 52l2 14l86 59h7q60 -30 105 -69l117 63l10 -4l20 -52l-99 -53
q54 -59 81.5 -130zM284.5 135q26.5 56 27.5 166q0 29 -3 56q-16 24 -47 24q-58 0 -84.5 -55.5t-26.5 -163.5q0 -45 11 -64t38 -19q58 0 84.5 56z" />
    <glyph glyph-name="ntilde" unicode="&#xf1;" horiz-adv-x="493" 
d="M425.5 433.5q29.5 -25.5 28.5 -61.5l-1 -13l-40 -246l-5 -108l-126 -9l50 308l1 11q0 12 -4 18t-13 6q-23 0 -63.5 -51.5t-91.5 -150.5l-3 -25l-4 -107l-124 -9l51 360l4 104l121 9l-24 -181h11q39 63 73.5 105.5t71.5 74.5l12 1q46 -10 75.5 -35.5zM470 661v-11l-70 -88
l-12 -5q-20 3 -83 20q-5 1 -32.5 8.5t-38.5 7.5t-22 -9.5t-23 -23t-17 -19.5h-12l-38 39v11l69 88l13 4q16 -2 43 -9t41 -10q53 -16 70 -16q12 0 23 9.5t22.5 23t16.5 18.5h12z" />
    <glyph glyph-name="ograve" unicode="&#xf2;" horiz-adv-x="436" 
d="M284 473q128 -26 128 -165q0 -141 -65.5 -225.5t-180.5 -92.5l-12 1q-63 14 -96 56t-33 118q0 89 30 157.5t86 108t131 43.5zM166 324q-25 -54 -25 -161q0 -44 10.5 -62t36.5 -18q56 0 81 55t25 162q0 43 -10.5 60.5t-35.5 17.5q-57 0 -82 -54zM353 570l-31 -49l-12 -1
q-79 46 -194 119l-2 12l47 70l12 1q86 -77 180 -152z" />
    <glyph glyph-name="oacute" unicode="&#xf3;" horiz-adv-x="436" 
d="M284 473q128 -26 128 -165q0 -141 -65.5 -225.5t-180.5 -92.5l-12 1q-63 14 -96 56t-33 118q0 89 30 157.5t86 108t131 43.5zM166 324q-25 -54 -25 -161q0 -44 10.5 -62t36.5 -18q56 0 81 55t25 162q0 43 -10.5 60.5t-35.5 17.5q-57 0 -82 -54zM346 721l47 -70l-2 -12
q-112 -72 -193 -119l-12 1l-32 49q95 74 180 152z" />
    <glyph glyph-name="ocircumflex" unicode="&#xf4;" horiz-adv-x="436" 
d="M284 473q128 -26 128 -165q0 -141 -65.5 -225.5t-180.5 -92.5l-12 1q-63 14 -96 56t-33 118q0 89 30 157.5t86 108t131 43.5zM166 324q-25 -54 -25 -161q0 -44 10.5 -62t36.5 -18q56 0 81 55t25 162q0 43 -10.5 60.5t-35.5 17.5q-57 0 -82 -54zM118 573q52 44 132 121
l21 20h28q46 -58 125 -141l-39 -49h-13q-58 52 -95 93q-34 -30 -120 -93h-13z" />
    <glyph glyph-name="otilde" unicode="&#xf5;" horiz-adv-x="436" 
d="M284 473q128 -26 128 -165q0 -141 -65.5 -225.5t-180.5 -92.5l-12 1q-63 14 -96 56t-33 118q0 89 30 157.5t86 108t131 43.5zM166 324q-25 -54 -25 -161q0 -44 10.5 -62t36.5 -18q56 0 81 55t25 162q0 43 -10.5 60.5t-35.5 17.5q-57 0 -82 -54zM447 661v-11l-70 -88
l-12 -5q-20 3 -83 20q-5 1 -32.5 8.5t-38.5 7.5t-22 -9.5t-23 -23t-17 -19.5h-12l-38 39v11l69 88l13 4q16 -2 43 -9t41 -10q53 -16 70 -16q12 0 23 9.5t22.5 23t16.5 18.5h12z" />
    <glyph glyph-name="divide" unicode="&#xf7;" horiz-adv-x="477" 
d="M459 296l-7 -79h-417l-9 9l7 79h417zM266.627 138.571q15.0811 -15.5244 15.0811 -43.0234q0 -30.1611 -16.8545 -47.459q-16.8555 -17.2988 -45.2422 -17.2988t-43.4668 15.5244q-15.0801 15.5234 -15.0801 43.9102q0 29.2744 16.8545 46.5723
q16.8545 17.2988 46.1279 17.2988q27.5 0 42.5801 -15.5244zM307.627 478.571q15.0811 -15.5244 15.0811 -43.0234q0 -30.1611 -16.8545 -47.459q-16.8555 -17.2988 -45.2422 -17.2988t-43.4668 15.5244q-15.0801 15.5234 -15.0801 43.9102q0 29.2744 16.8545 46.5723
q16.8545 17.2988 46.1279 17.2988q27.5 0 42.5801 -15.5244z" />
    <glyph glyph-name="oslash" unicode="&#xf8;" horiz-adv-x="436" 
d="M375 425q37 -42 37 -117q0 -141 -65.5 -225.5t-180.5 -92.5l-12 1l-12 3l-64 -117l-65 34l-3 12l61 109q-46 44 -46 133t30 157.5t86 108t131 43.5l12 -1q19 -5 22 -6l57 103l60 -34l6 -12zM269 138q25 55 25 162q0 43 -10.5 60.5t-35.5 17.5q-57 0 -82 -54t-25 -161
q0 -44 10.5 -62t36.5 -18q56 0 81 55z" />
    <glyph glyph-name="ugrave" unicode="&#xf9;" horiz-adv-x="490" 
d="M457 469l-50 -357l-3 -107l-123 -9l25 177h-10q-40 -63 -73 -104t-69 -72h-12q-47 8 -76 33t-28 62l1 16l39 244l6 109l123 8l-47 -302l-2 -18q0 -24 18 -24q23 0 61.5 50t88.5 148l5 33l4 104zM373 570l-31 -49l-12 -1q-79 46 -194 119l-2 12l47 70l12 1
q86 -77 180 -152z" />
    <glyph glyph-name="uacute" unicode="&#xfa;" horiz-adv-x="490" 
d="M457 469l-50 -357l-3 -107l-123 -9l25 177h-10q-40 -63 -73 -104t-69 -72h-12q-47 8 -76 33t-28 62l1 16l39 244l6 109l123 8l-47 -302l-2 -18q0 -24 18 -24q23 0 61.5 50t88.5 148l5 33l4 104zM366 721l47 -70l-2 -12q-112 -72 -193 -119l-12 1l-32 49q95 74 180 152z
" />
    <glyph glyph-name="ucircumflex" unicode="&#xfb;" horiz-adv-x="490" 
d="M457 469l-50 -357l-3 -107l-123 -9l25 177h-10q-40 -63 -73 -104t-69 -72h-12q-47 8 -76 33t-28 62l1 16l39 244l6 109l123 8l-47 -302l-2 -18q0 -24 18 -24q23 0 61.5 50t88.5 148l5 33l4 104zM138 573q52 44 132 121l21 20h28q46 -58 125 -141l-39 -49h-13
q-58 52 -95 93q-34 -30 -120 -93h-13z" />
    <glyph glyph-name="udieresis" unicode="&#xfc;" horiz-adv-x="490" 
d="M457 469l-50 -357l-3 -107l-123 -9l25 177h-10q-40 -63 -73 -104t-69 -72h-12q-47 8 -76 33t-28 62l1 16l39 244l6 109l123 8l-47 -302l-2 -18q0 -24 18 -24q23 0 61.5 50t88.5 148l5 33l4 104zM249 662.5q15 -15.5 15 -42.5q0 -30 -16.5 -47t-45.5 -17q-28 0 -43 15
t-15 44t17 46t46 17q27 0 42 -15.5zM426.5 662.5q15.5 -15.5 15.5 -42.5q0 -30 -17 -47t-46 -17q-28 0 -43 15.5t-15 43.5q0 29 16.5 46t45.5 17q28 0 43.5 -15.5z" />
    <glyph glyph-name="thorn" unicode="&#xfe;" horiz-adv-x="462" 
d="M417.5 411q24.5 -40 24.5 -103q0 -68 -27 -134t-80.5 -115.5t-128.5 -67.5h-6l-55 11l-10 -77l-4 -110l-123 -9l108 784l4 105l121 8l-54 -398h14q56 101 120 166h18q54 -20 78.5 -60zM302.5 135q27.5 51 27.5 130q0 87 -25 87q-12 0 -34 -25.5t-50.5 -76.5t-57.5 -121
l-4 -27l69 -18q47 0 74.5 51z" />
    <glyph glyph-name="ydieresis" unicode="&#xff;" horiz-adv-x="445" 
d="M441 391q0 -35 -10 -68t-32 -72l-123 -227q-63 -117 -121 -168.5t-129 -51.5q-38 0 -91 16l5 104l11 11q41 -9 72 -9q38 0 67.5 14t55.5 44l-101 476l123 9l8 -85l39 -250h14l67 136q29 59 29 109q0 35 -19 64l6 12l110 16q19 -46 19 -80zM226 663.5q15 -15.5 15 -42.5
q0 -30 -16.5 -47t-45.5 -17q-28 0 -43 15t-15 44t17 46t46 17q27 0 42 -15.5zM403.5 663.5q15.5 -15.5 15.5 -42.5q0 -30 -17 -47t-46 -17q-28 0 -43 15.5t-15 43.5q0 29 16.5 46t45.5 17q28 0 43.5 -15.5z" />
    <glyph glyph-name="Amacron" unicode="&#x100;" horiz-adv-x="583" 
d="M539 0h-133l-6 83l-9 63l-121 2l-107 -2l-24 -56l-29 -90h-130l291 643h157zM376 248l-40 271h-9l-118 -270l82 -2zM510 829l-6 -73h-281l-8 9l7 73h280z" />
    <glyph glyph-name="amacron" unicode="&#x101;" horiz-adv-x="461" 
d="M428 467l-49 -355l-4 -107l-123 -9l22 158h-13q-53 -95 -118 -163h-18q-55 20 -79 60.5t-24 102.5q0 67 26.5 133t80 115.5t130.5 68.5h6l76 -21l76 24zM216.5 171.5q39.5 59.5 83.5 165.5l2 17v2l-65 21q-48 0 -75.5 -49.5t-27.5 -130.5q0 -85 25 -85q18 0 57.5 59.5z
M421 651l-6 -73h-281l-8 9l7 73h280z" />
    <glyph glyph-name="Abreve" unicode="&#x102;" horiz-adv-x="583" 
d="M539 0h-133l-6 83l-9 63l-121 2l-107 -2l-24 -56l-29 -90h-130l291 643h157zM376 248l-40 271h-9l-118 -270l82 -2zM511 826q-49 -105 -155 -105q-55 0 -92 27t-50 78l35 41h19q10 -27 34.5 -41.5t59.5 -14.5t62 14.5t43 41.5h19z" />
    <glyph glyph-name="abreve" unicode="&#x103;" horiz-adv-x="461" 
d="M428 467l-49 -355l-4 -107l-123 -9l22 158h-13q-53 -95 -118 -163h-18q-55 20 -79 60.5t-24 102.5q0 67 26.5 133t80 115.5t130.5 68.5h6l76 -21l76 24zM216.5 171.5q39.5 59.5 83.5 165.5l2 17v2l-65 21q-48 0 -75.5 -49.5t-27.5 -130.5q0 -85 25 -85q18 0 57.5 59.5z
M421 655q-20 -56 -60 -90t-98 -34q-64 0 -97.5 34t-40.5 90l34 44h19q7 -38 31 -57.5t60 -19.5q37 0 65 19.5t44 57.5h19z" />
    <glyph glyph-name="Aogonek" unicode="&#x104;" horiz-adv-x="583" 
d="M539 0h-133l-6 83l-9 63l-121 2l-107 -2l-24 -56l-29 -90h-130l291 643h157zM376 248l-40 271h-9l-118 -270l82 -2zM451 -70q-20 -19 -20 -34q0 -19 24 -19q25 0 63 27l6 -2l14 -59q-49 -40 -99 -40q-40 0 -64.5 20t-24.5 53t24.5 61.5t80.5 62.5h84q-68 -51 -88 -70z
" />
    <glyph glyph-name="aogonek" unicode="&#x105;" horiz-adv-x="461" 
d="M428 467l-49 -355l-4 -107l-123 -9l22 158h-13q-53 -95 -118 -163h-18q-55 20 -79 60.5t-24 102.5q0 67 26.5 133t80 115.5t130.5 68.5h6l76 -21l76 24zM216.5 171.5q39.5 59.5 83.5 165.5l2 17v2l-65 21q-48 0 -75.5 -49.5t-27.5 -130.5q0 -85 25 -85q18 0 57.5 59.5z
M287 -65q-20 -19 -20 -34q0 -19 24 -19q25 0 63 27l6 -2l14 -59q-49 -40 -99 -40q-40 0 -64.5 20t-24.5 53t24.5 61.5t80.5 62.5h84q-68 -51 -88 -70z" />
    <glyph glyph-name="Cacute" unicode="&#x106;" horiz-adv-x="507" 
d="M541 613l-37 -112l-11 -4q-27 22 -60.5 34t-70.5 12q-91 0 -138 -67t-47 -196q0 -88 34.5 -133t100.5 -45q36 0 76 11.5t73 32.5l11 -7l-25 -113q-40 -18 -76.5 -26.5t-77.5 -8.5q-123 0 -189.5 69.5t-66.5 198.5q0 122 40 210t116 135t183 47q95 0 165 -38zM454 884
l33 -77l-4 -12q-89 -35 -214 -78l-13 4l-21 54q108 54 207 112z" />
    <glyph glyph-name="cacute" unicode="&#x107;" horiz-adv-x="355" 
d="M355 449l6 -14l-35 -93l-26 -2q-19 22 -32 30t-30 8q-45 0 -70.5 -48t-25.5 -136q0 -54 10.5 -76t34.5 -22q22 0 42 17t45 56l16 -1l37 -47q-32 -54 -66.5 -83.5t-84.5 -45.5h-17q-70 11 -102 51.5t-32 126.5q0 87 29.5 155.5t87 107.5t138.5 39zM332 722l47 -70l-2 -12
q-112 -72 -193 -119l-12 1l-32 49q95 74 180 152z" />
    <glyph glyph-name="Ccircumflex" unicode="&#x108;" horiz-adv-x="507" 
d="M541 613l-37 -112l-11 -4q-27 22 -60.5 34t-70.5 12q-91 0 -138 -67t-47 -196q0 -88 34.5 -133t100.5 -45q36 0 76 11.5t73 32.5l11 -7l-25 -113q-40 -18 -76.5 -26.5t-77.5 -8.5q-123 0 -189.5 69.5t-66.5 198.5q0 122 40 210t116 135t183 47q95 0 165 -38zM211 771
q73 47 138 103h27q52 -49 127 -103l-30 -52h-13q-75 46 -100 63q-16 -9 -75 -40l-43 -23h-14z" />
    <glyph glyph-name="ccircumflex" unicode="&#x109;" horiz-adv-x="355" 
d="M355 449l6 -14l-35 -93l-26 -2q-19 22 -32 30t-30 8q-45 0 -70.5 -48t-25.5 -136q0 -54 10.5 -76t34.5 -22q22 0 42 17t45 56l16 -1l37 -47q-32 -54 -66.5 -83.5t-84.5 -45.5h-17q-70 11 -102 51.5t-32 126.5q0 87 29.5 155.5t87 107.5t138.5 39zM104 574q52 44 132 121
l21 20h28q46 -58 125 -141l-39 -49h-13q-58 52 -95 93q-34 -30 -120 -93h-13z" />
    <glyph glyph-name="Cdotaccent" unicode="&#x10a;" horiz-adv-x="507" 
d="M541 613l-37 -112l-11 -4q-27 22 -60.5 34t-70.5 12q-91 0 -138 -67t-47 -196q0 -88 34.5 -133t100.5 -45q36 0 76 11.5t73 32.5l11 -7l-25 -113q-40 -18 -76.5 -26.5t-77.5 -8.5q-123 0 -189.5 69.5t-66.5 198.5q0 122 40 210t116 135t183 47q95 0 165 -38zM410 848.5
q17 -17.5 17 -48.5q0 -34 -19 -53.5t-51 -19.5t-49 17.5t-17 49.5q0 33 19 52.5t52 19.5q31 0 48 -17.5z" />
    <glyph glyph-name="cdotaccent" unicode="&#x10b;" horiz-adv-x="355" 
d="M355 449l6 -14l-35 -93l-26 -2q-19 22 -32 30t-30 8q-45 0 -70.5 -48t-25.5 -136q0 -54 10.5 -76t34.5 -22q22 0 42 17t45 56l16 -1l37 -47q-32 -54 -66.5 -83.5t-84.5 -45.5h-17q-70 11 -102 51.5t-32 126.5q0 87 29.5 155.5t87 107.5t138.5 39zM310 670.5
q17 -17.5 17 -48.5q0 -34 -19 -53.5t-51 -19.5t-49 17.5t-17 49.5q0 33 19 52.5t52 19.5q31 0 48 -17.5z" />
    <glyph glyph-name="Ccaron" unicode="&#x10c;" horiz-adv-x="507" 
d="M541 613l-37 -112l-11 -4q-27 22 -60.5 34t-70.5 12q-91 0 -138 -67t-47 -196q0 -88 34.5 -133t100.5 -45q36 0 76 11.5t73 32.5l11 -7l-25 -113q-40 -18 -76.5 -26.5t-77.5 -8.5q-123 0 -189.5 69.5t-66.5 198.5q0 122 40 210t116 135t183 47q95 0 165 -38zM504 821
q-73 -47 -138 -103h-27q-52 49 -127 103l30 52h13q75 -46 100 -63q16 9 75 40l43 23h14z" />
    <glyph glyph-name="ccaron" unicode="&#x10d;" horiz-adv-x="355" 
d="M355 449l6 -14l-35 -93l-26 -2q-19 22 -32 30t-30 8q-45 0 -70.5 -48t-25.5 -136q0 -54 10.5 -76t34.5 -22q22 0 42 17t45 56l16 -1l37 -47q-32 -54 -66.5 -83.5t-84.5 -45.5h-17q-70 11 -102 51.5t-32 126.5q0 87 29.5 155.5t87 107.5t138.5 39zM412 666
q-52 -44 -132 -121l-21 -20h-28q-46 58 -125 141l39 49h13q58 -52 95 -93q34 30 120 93h13z" />
    <glyph glyph-name="Dcaron" unicode="&#x10e;" horiz-adv-x="641" 
d="M561.5 581.5q66.5 -65.5 66.5 -185.5q0 -189 -92 -296t-262 -107q-47 0 -113 2t-112 5l31 192l49 451l244 4q122 0 188.5 -65.5zM440.5 164.5q48.5 69.5 48.5 210.5q0 86 -32.5 126.5t-99.5 40.5q-39 0 -109 -4l-48 -334l-9 -101q27 -3 59.5 -5.5t52.5 -2.5
q89 0 137.5 69.5zM503 821q-73 -47 -138 -103h-27q-52 49 -127 103l30 52h13q75 -46 100 -63q16 9 75 40l43 23h14z" />
    <glyph glyph-name="dcaron" unicode="&#x10f;" horiz-adv-x="554" 
d="M461 704l-82 -592l-4 -107l-123 -9l22 159h-11q-53 -93 -120 -164h-19q-55 20 -79 60.5t-24 102.5q0 67 27 133t81 116t132 68h5l50 -14l19 134l3 104zM215.5 170q39.5 58 83.5 160l3 27l-64 21q-49 0 -77.5 -50.5t-28.5 -131.5q0 -45 7.5 -64.5t18.5 -19.5q18 0 57.5 58
zM625 636l-56 -198l-59 -9l-7 7l23 203l94 5z" />
    <glyph glyph-name="Dcroat" unicode="&#x110;" horiz-adv-x="668" 
d="M588.5 581.5q66.5 -65.5 66.5 -185.5q0 -189 -92 -296t-262 -107q-47 0 -113 2t-112 5l31 192l49 451l244 4q122 0 188.5 -65.5zM467.5 164.5q48.5 69.5 48.5 210.5q0 86 -32.5 126.5t-99.5 40.5q-39 0 -109 -4l-48 -334l-9 -101q27 -3 59.5 -5.5t52.5 -2.5
q89 0 137.5 69.5zM373.676 354l-10.3906 -79h-333.905l-4.84961 10l11.084 79h333.213z" />
    <glyph glyph-name="dcroat" unicode="&#x111;" horiz-adv-x="472" 
d="M518 543h-79l-60 -431l-4 -107l-123 -9l22 159h-11q-53 -93 -120 -164h-19q-55 20 -79 60.5t-24 102.5q0 67 27 133t81 116t132 68h5l50 -14l12 86h-114l-8 9l5 62h125l2 81l123 9l-12 -90h65l9 -9zM215.5 170q39.5 58 83.5 160l3 27l-64 21q-49 0 -77.5 -50.5
t-28.5 -131.5q0 -45 7.5 -64.5t18.5 -19.5q18 0 57.5 58z" />
    <glyph glyph-name="Emacron" unicode="&#x112;" horiz-adv-x="497" 
d="M248 538l-22 -159l107 -1l102 3l7 -10l-22 -99l-110 3l-99 -1l-10 -70l-10 -99l111 -1l154 5l5 -10l-20 -99h-393l31 192l50 451h396l6 -10l-22 -99l-149 5zM486 829l-6 -73h-281l-8 9l7 73h280z" />
    <glyph glyph-name="emacron" unicode="&#x113;" horiz-adv-x="405" 
d="M324 158l37 -48q-66 -93 -169 -119h-14q-79 9 -116 52t-37 126q0 87 30.5 155t85.5 107.5t128 42.5l12 -1q50 -8 76.5 -35.5t26.5 -71.5q0 -61 -59 -107t-185 -82q2 -46 16.5 -67t42.5 -21q25 0 49 15.5t61 55.5zM174 355.5q-25 -36.5 -33 -102.5q69 19 101.5 44.5
t32.5 60.5q0 18 -8.5 26t-27.5 8q-40 0 -65 -36.5zM403 651l-6 -73h-281l-8 9l7 73h280z" />
    <glyph glyph-name="Ebreve" unicode="&#x114;" horiz-adv-x="497" 
d="M248 538l-22 -159l107 -1l102 3l7 -10l-22 -99l-110 3l-99 -1l-10 -70l-10 -99l111 -1l154 5l5 -10l-20 -99h-393l31 192l50 451h396l6 -10l-22 -99l-149 5zM487 826q-49 -105 -155 -105q-55 0 -92 27t-50 78l35 41h19q10 -27 34.5 -41.5t59.5 -14.5t62 14.5t43 41.5h19z
" />
    <glyph glyph-name="ebreve" unicode="&#x115;" horiz-adv-x="405" 
d="M324 158l37 -48q-66 -93 -169 -119h-14q-79 9 -116 52t-37 126q0 87 30.5 155t85.5 107.5t128 42.5l12 -1q50 -8 76.5 -35.5t26.5 -71.5q0 -61 -59 -107t-185 -82q2 -46 16.5 -67t42.5 -21q25 0 49 15.5t61 55.5zM174 355.5q-25 -36.5 -33 -102.5q69 19 101.5 44.5
t32.5 60.5q0 18 -8.5 26t-27.5 8q-40 0 -65 -36.5zM403 655q-20 -56 -60 -90t-98 -34q-64 0 -97.5 34t-40.5 90l34 44h19q7 -38 31 -57.5t60 -19.5q37 0 65 19.5t44 57.5h19z" />
    <glyph glyph-name="Edotaccent" unicode="&#x116;" horiz-adv-x="497" 
d="M248 538l-22 -159l107 -1l102 3l7 -10l-22 -99l-110 3l-99 -1l-10 -70l-10 -99l111 -1l154 5l5 -10l-20 -99h-393l31 192l50 451h396l6 -10l-22 -99l-149 5zM391 848.5q17 -17.5 17 -48.5q0 -34 -19 -53.5t-51 -19.5t-49 17.5t-17 49.5q0 33 19 52.5t52 19.5
q31 0 48 -17.5z" />
    <glyph glyph-name="edotaccent" unicode="&#x117;" horiz-adv-x="405" 
d="M324 158l37 -48q-66 -93 -169 -119h-14q-79 9 -116 52t-37 126q0 87 30.5 155t85.5 107.5t128 42.5l12 -1q50 -8 76.5 -35.5t26.5 -71.5q0 -61 -59 -107t-185 -82q2 -46 16.5 -67t42.5 -21q25 0 49 15.5t61 55.5zM174 355.5q-25 -36.5 -33 -102.5q69 19 101.5 44.5
t32.5 60.5q0 18 -8.5 26t-27.5 8q-40 0 -65 -36.5zM307 670.5q17 -17.5 17 -48.5q0 -34 -19 -53.5t-51 -19.5t-49 17.5t-17 49.5q0 33 19 52.5t52 19.5q31 0 48 -17.5z" />
    <glyph glyph-name="Eogonek" unicode="&#x118;" horiz-adv-x="497" 
d="M248 538l-22 -159l107 -1l102 3l7 -10l-22 -99l-110 3l-99 -1l-10 -70l-10 -99l111 -1l154 5l5 -10l-20 -99h-393l31 192l50 451h396l6 -10l-22 -99l-149 5zM253 -199.5q-27 22.5 -27 59.5q0 22 9 39.5t34 41.5t79 69h71q-43 -44 -70 -72t-33.5 -38t-6.5 -20
q0 -27 31 -27q28 0 74 30h6l14 -62q-57 -43 -110 -43q-44 0 -71 22.5z" />
    <glyph glyph-name="eogonek" unicode="&#x119;" horiz-adv-x="405" 
d="M324 158l37 -48q-66 -93 -169 -119h-14q-79 9 -116 52t-37 126q0 87 30.5 155t85.5 107.5t128 42.5l12 -1q50 -8 76.5 -35.5t26.5 -71.5q0 -61 -59 -107t-185 -82q2 -46 16.5 -67t42.5 -21q25 0 49 15.5t61 55.5zM174 355.5q-25 -36.5 -33 -102.5q69 19 101.5 44.5
t32.5 60.5q0 18 -8.5 26t-27.5 8q-40 0 -65 -36.5zM116 -176.5q-27 22.5 -27 59.5q0 22 9 39.5t34 41.5t79 69h71q-43 -44 -70 -72t-33.5 -38t-6.5 -20q0 -27 31 -27q28 0 74 30h6l14 -62q-57 -43 -110 -43q-44 0 -71 22.5z" />
    <glyph glyph-name="Ecaron" unicode="&#x11a;" horiz-adv-x="497" 
d="M248 538l-22 -159l107 -1l102 3l7 -10l-22 -99l-110 3l-99 -1l-10 -70l-10 -99l111 -1l154 5l5 -10l-20 -99h-393l31 192l50 451h396l6 -10l-22 -99l-149 5zM485 821q-73 -47 -138 -103h-27q-52 49 -127 103l30 52h13q75 -46 100 -63q16 9 75 40l43 23h14z" />
    <glyph glyph-name="ecaron" unicode="&#x11b;" horiz-adv-x="405" 
d="M324 158l37 -48q-66 -93 -169 -119h-14q-79 9 -116 52t-37 126q0 87 30.5 155t85.5 107.5t128 42.5l12 -1q50 -8 76.5 -35.5t26.5 -71.5q0 -61 -59 -107t-185 -82q2 -46 16.5 -67t42.5 -21q25 0 49 15.5t61 55.5zM174 355.5q-25 -36.5 -33 -102.5q69 19 101.5 44.5
t32.5 60.5q0 18 -8.5 26t-27.5 8q-40 0 -65 -36.5zM409 666q-52 -44 -132 -121l-21 -20h-28q-46 58 -125 141l39 49h13q58 -52 95 -93q34 30 120 93h13z" />
    <glyph glyph-name="Gcircumflex" unicode="&#x11c;" horiz-adv-x="585" 
d="M587 613l-44 -120l-12 -1q-45 28 -80.5 40t-78.5 12q-99 0 -149 -67.5t-50 -219.5q0 -86 34.5 -124t109.5 -38q19 0 37 3.5t46 12.5l9 55l11 105l122 9l-13 -93l-17 -156q-59 -21 -108 -30.5t-102 -9.5q-130 0 -198.5 68.5t-68.5 192.5q0 192 94.5 295.5t270.5 103.5
q105 0 187 -38zM232 771q73 47 138 103h27q52 -49 127 -103l-30 -52h-13q-75 46 -100 63q-16 -9 -75 -40l-43 -23h-14z" />
    <glyph glyph-name="gcircumflex" unicode="&#x11d;" horiz-adv-x="460" 
d="M428 467l-49 -348l-6 -76q-10 -75 -45.5 -129t-88.5 -82.5t-115 -28.5q-76 0 -121.5 41t-56.5 112l4 10l136 71l1 10q-26 21 -37.5 51.5t-11.5 73.5q0 68 26 130t77 107t123 62h5l76 -22l72 25zM170 336q-26 -46 -26 -122q0 -43 8 -64.5t17 -21.5q16 0 54 55.5t81 151.5
l3 22v4l-63 21q-48 0 -74 -46zM222 -78.5q30 30.5 37 87.5l22 162h-12q-52 -94 -119 -150l-65 -50q-12 -10 -12 -22q0 -23 20 -40.5t55 -17.5q44 0 74 30.5zM129 573q52 44 132 121l21 20h28q46 -58 125 -141l-39 -49h-13q-58 52 -95 93q-34 -30 -120 -93h-13z" />
    <glyph glyph-name="Gbreve" unicode="&#x11e;" horiz-adv-x="585" 
d="M587 613l-44 -120l-12 -1q-45 28 -80.5 40t-78.5 12q-99 0 -149 -67.5t-50 -219.5q0 -86 34.5 -124t109.5 -38q19 0 37 3.5t46 12.5l9 55l11 105l122 9l-13 -93l-17 -156q-59 -21 -108 -30.5t-102 -9.5q-130 0 -198.5 68.5t-68.5 192.5q0 192 94.5 295.5t270.5 103.5
q105 0 187 -38zM527 826q-49 -105 -155 -105q-55 0 -92 27t-50 78l35 41h19q10 -27 34.5 -41.5t59.5 -14.5t62 14.5t43 41.5h19z" />
    <glyph glyph-name="gbreve" unicode="&#x11f;" horiz-adv-x="460" 
d="M428 467l-49 -348l-6 -76q-10 -75 -45.5 -129t-88.5 -82.5t-115 -28.5q-76 0 -121.5 41t-56.5 112l4 10l136 71l1 10q-26 21 -37.5 51.5t-11.5 73.5q0 68 26 130t77 107t123 62h5l76 -22l72 25zM170 336q-26 -46 -26 -122q0 -43 8 -64.5t17 -21.5q16 0 54 55.5t81 151.5
l3 22v4l-63 21q-48 0 -74 -46zM222 -78.5q30 30.5 37 87.5l22 162h-12q-52 -94 -119 -150l-65 -50q-12 -10 -12 -22q0 -23 20 -40.5t55 -17.5q44 0 74 30.5zM431 654q-20 -56 -60 -90t-98 -34q-64 0 -97.5 34t-40.5 90l34 44h19q7 -38 31 -57.5t60 -19.5q37 0 65 19.5
t44 57.5h19z" />
    <glyph glyph-name="Gdotaccent" unicode="&#x120;" horiz-adv-x="585" 
d="M587 613l-44 -120l-12 -1q-45 28 -80.5 40t-78.5 12q-99 0 -149 -67.5t-50 -219.5q0 -86 34.5 -124t109.5 -38q19 0 37 3.5t46 12.5l9 55l11 105l122 9l-13 -93l-17 -156q-59 -21 -108 -30.5t-102 -9.5q-130 0 -198.5 68.5t-68.5 192.5q0 192 94.5 295.5t270.5 103.5
q105 0 187 -38zM431 848.5q17 -17.5 17 -48.5q0 -34 -19 -53.5t-51 -19.5t-49 17.5t-17 49.5q0 33 19 52.5t52 19.5q31 0 48 -17.5z" />
    <glyph glyph-name="gdotaccent" unicode="&#x121;" horiz-adv-x="460" 
d="M428 467l-49 -348l-6 -76q-10 -75 -45.5 -129t-88.5 -82.5t-115 -28.5q-76 0 -121.5 41t-56.5 112l4 10l136 71l1 10q-26 21 -37.5 51.5t-11.5 73.5q0 68 26 130t77 107t123 62h5l76 -22l72 25zM170 336q-26 -46 -26 -122q0 -43 8 -64.5t17 -21.5q16 0 54 55.5t81 151.5
l3 22v4l-63 21q-48 0 -74 -46zM222 -78.5q30 30.5 37 87.5l22 162h-12q-52 -94 -119 -150l-65 -50q-12 -10 -12 -22q0 -23 20 -40.5t55 -17.5q44 0 74 30.5zM335 669.5q17 -17.5 17 -48.5q0 -34 -19 -53.5t-51 -19.5t-49 17.5t-17 49.5q0 33 19 52.5t52 19.5q31 0 48 -17.5z
" />
    <glyph glyph-name="Gcommaaccent" unicode="&#x122;" horiz-adv-x="585" 
d="M587 613l-44 -120l-12 -1q-45 28 -80.5 40t-78.5 12q-99 0 -149 -67.5t-50 -219.5q0 -86 34.5 -124t109.5 -38q19 0 37 3.5t46 12.5l9 55l11 105l122 9l-13 -93l-17 -156q-59 -21 -108 -30.5t-102 -9.5q-130 0 -198.5 68.5t-68.5 192.5q0 192 94.5 295.5t270.5 103.5
q105 0 187 -38zM389 -113q0 -41 -27.5 -81t-85.5 -80l-39 35l-1 9q52 43 52 92q0 32 -29 56v11q43 25 88 38q42 -33 42 -80z" />
    <glyph glyph-name="gcommaaccent" unicode="&#x123;" horiz-adv-x="460" 
d="M241 603q0 36 21 72.5t64 78.5l42 -28l1 -8q-37 -43 -37 -80q0 -23 8.5 -38t28.5 -26v-10q-34 -28 -75 -46q-53 27 -53 85zM428 467l-49 -348l-6 -76q-10 -75 -45.5 -129t-88.5 -82.5t-115 -28.5q-76 0 -121.5 41t-56.5 112l4 10l136 71l1 10q-26 21 -37.5 51.5
t-11.5 73.5q0 68 26 130t77 107t123 62h5l76 -22l72 25zM170 336q-26 -46 -26 -122q0 -43 8 -64.5t17 -21.5q16 0 54 55.5t81 151.5l3 22v4l-63 21q-48 0 -74 -46zM222 -78.5q30 30.5 37 87.5l22 162h-12q-52 -94 -119 -150l-65 -50q-12 -10 -12 -22q0 -23 20 -40.5
t55 -17.5q44 0 74 30.5z" />
    <glyph glyph-name="Hcircumflex" unicode="&#x124;" horiz-adv-x="679" 
d="M653 643l-62 -439l-20 -204h-132l31 192l8 76l-142 3l-127 -4l-9 -63l-19 -204h-133l31 192l49 451h134l-37 -265l133 -3l132 3l28 265h135zM262 771q73 47 138 103h27q52 -49 127 -103l-30 -52h-13q-75 46 -100 63q-16 -9 -75 -40l-43 -23h-14z" />
    <glyph glyph-name="hcircumflex" unicode="&#x125;" horiz-adv-x="495" 
d="M428.5 434.5q28.5 -25.5 27.5 -62.5l-1 -13l-40 -246l-5 -108l-125 -9l49 308l1 11q0 12 -4 18t-13 6q-24 0 -65 -53t-92 -154l-3 -20l-3 -107l-124 -9l84 595l2 104l123 9l-58 -416h13q39 63 73.5 105.5t71.5 74.5l12 1q48 -9 76.5 -34.5zM45 828q73 47 138 103h27
q52 -49 127 -103l-30 -52h-13q-75 46 -100 63q-16 -9 -75 -40l-43 -23h-14z" />
    <glyph glyph-name="Hbar" unicode="&#x126;" horiz-adv-x="709" 
d="M713 475h-70l-38 -271l-20 -204h-132l31 192l8 76l-142 3l-127 -4l-9 -63l-19 -204h-133l31 192l31 283h-57l-5 7l5 70h65l10 91h134l-13 -91h259l10 91h135l-13 -91h58l6 -8zM514 475h-262l-13 -97l133 -3l132 3z" />
    <glyph glyph-name="hbar" unicode="&#x127;" horiz-adv-x="544" 
d="M468.5 434.5q28.5 -25.5 27.5 -62.5l-1 -13l-40 -246l-4 -108l-126 -9l50 308l1 11q0 24 -18 24q-23 0 -64 -52.5t-92 -152.5l-3 -22l-4 -107l-123 -9l77 547h-70l-8 9l5 62h80l1 81l124 9l-12 -90h110l9 -9l-5 -62h-124l-36 -255h13q39 63 73.5 105.5t71.5 74.5l12 1
q47 -9 75.5 -34.5z" />
    <glyph glyph-name="Imacron" unicode="&#x12a;" horiz-adv-x="289" 
d="M200 204l-19 -204h-133l31 192l49 451h134zM333 829l-7 -73h-224l-9 9l6 73h226z" />
    <glyph glyph-name="imacron" unicode="&#x12b;" horiz-adv-x="237" 
d="M157 112l-4 -107l-123 -9l50 360l4 104l122 9zM284 650l-7 -73h-224l-9 9l6 73h226z" />
    <glyph glyph-name="Ibreve" unicode="&#x12c;" horiz-adv-x="289" 
d="M200 204l-19 -204h-133l31 192l49 451h134zM360 826q-49 -105 -155 -105q-55 0 -92 27t-50 78l35 41h19q10 -27 34.5 -41.5t59.5 -14.5t62 14.5t43 41.5h19z" />
    <glyph glyph-name="ibreve" unicode="&#x12d;" horiz-adv-x="237" 
d="M157 112l-4 -107l-123 -9l50 360l4 104l122 9zM311 654q-20 -56 -60 -90t-98 -34q-64 0 -97.5 34t-40.5 90l34 44h19q7 -38 31 -57.5t60 -19.5q37 0 65 19.5t44 57.5h19z" />
    <glyph glyph-name="Iogonek" unicode="&#x12e;" horiz-adv-x="289" 
d="M200 204l-19 -204h-133l31 192l49 451h134zM93 -70q-20 -19 -20 -34q0 -19 24 -19q25 0 63 27l6 -2l14 -59q-49 -40 -99 -40q-40 0 -64.5 20t-24.5 53t24.5 61.5t80.5 62.5h84q-68 -51 -88 -70z" />
    <glyph glyph-name="iogonek" unicode="&#x12f;" horiz-adv-x="237" 
d="M157 112l-4 -107l-123 -9l50 360l4 104l122 9zM215 669.5q17 -17.5 17 -48.5q0 -34 -19 -53.5t-51 -19.5t-49 17.5t-17 49.5q0 33 19 52.5t52 19.5q31 0 48 -17.5zM65 -65q-20 -19 -20 -34q0 -19 24 -19q25 0 63 27l6 -2l14 -59q-49 -40 -99 -40q-40 0 -64.5 20t-24.5 53
t24.5 61.5t80.5 62.5h84q-68 -51 -88 -70z" />
    <glyph glyph-name="Idotaccent" unicode="&#x130;" horiz-adv-x="289" 
d="M200 204l-19 -204h-133l31 192l49 451h134zM264 848.5q17 -17.5 17 -48.5q0 -34 -19 -53.5t-51 -19.5t-49 17.5t-17 49.5q0 33 19 52.5t52 19.5q31 0 48 -17.5z" />
    <glyph glyph-name="dotlessi" unicode="&#x131;" horiz-adv-x="237" 
d="M157 112l-4 -107l-123 -9l50 360l4 104l122 9z" />
    <glyph glyph-name="IJ" unicode="&#x132;" horiz-adv-x="617" 
d="M200 204l-19 -204h-133l31 192l49 451h134zM524 212l-8 -92q-11 -83 -60.5 -133.5t-160.5 -92.5l-32 70l1 13q65 32 94 64t36 82l10 77l37 346l-103 -2l-8 9l17 90h239z" />
    <glyph glyph-name="ij" unicode="&#x133;" horiz-adv-x="494" 
d="M157 112l-4 -107l-123 -9l50 360l4 104l122 9zM215 669.5q17 -17.5 17 -48.5q0 -34 -19 -53.5t-51 -19.5t-49 17.5t-17 49.5q0 33 19 52.5t52 19.5q31 0 48 -17.5zM460 464l-50 -350l-8 -89q-10 -79 -50 -129.5t-123 -89.5l-40 55l2 12q45 27 67.5 60t29.5 86l46 334v28
h-69l-6 8l9 66h70l118 13zM460 669.5q17 -17.5 17 -48.5q0 -34 -19 -53.5t-51 -19.5t-49 17.5t-17 49.5q0 33 19 52.5t52 19.5q31 0 48 -17.5z" />
    <glyph glyph-name="Jcircumflex" unicode="&#x134;" horiz-adv-x="328" 
d="M235 212l-8 -92q-11 -83 -60.5 -133.5t-160.5 -92.5l-32 70l1 13q65 32 94 64t36 82l10 77l37 346l-103 -2l-8 9l17 90h239zM62 771q73 47 138 103h27q52 -49 127 -103l-30 -52h-13q-75 46 -100 63q-16 -9 -75 -40l-43 -23h-14z" />
    <glyph glyph-name="jcircumflex" unicode="&#x135;" horiz-adv-x="257" 
d="M223 464l-50 -350l-8 -89q-10 -79 -50 -129.5t-123 -89.5l-40 55l2 12q45 27 67.5 60t29.5 86l46 334v28h-69l-6 8l9 66h70l118 13zM17 573q52 44 132 121l21 20h28q46 -58 125 -141l-39 -49h-13q-58 52 -95 93q-34 -30 -120 -93h-13z" />
    <glyph glyph-name="Kcommaaccent" unicode="&#x136;" horiz-adv-x="569" 
d="M352 335q80 -141 200 -307l-4 -15q-60 -15 -132 -23l-13 8q-118 199 -185 332l-18 -126l-20 -204h-132l31 192l49 451h134l-42 -298l204 237l44 61h142zM367 -113q0 -41 -27.5 -81t-85.5 -80l-39 35l-1 9q52 43 52 92q0 32 -29 56v11q43 25 88 38q42 -33 42 -80z" />
    <glyph glyph-name="kcommaaccent" unicode="&#x137;" horiz-adv-x="498" 
d="M347 181q47 -89 98 -168l-6 -10l-103 -15l-12 6q-48 92 -85 180l4 18q51 32 79 64t28 60q0 24 -18 24q-28 0 -73 -53t-99 -161l-2 -14l-3 -107l-123 -9l83 595l2 104l124 9l-58 -413h14q43 62 80.5 105t76.5 72l13 1q106 -22 106 -112q0 -93 -126 -176zM295 -113
q0 -41 -27.5 -81t-85.5 -80l-39 35l-1 9q52 43 52 92q0 32 -29 56v11q43 25 88 38q42 -33 42 -80z" />
    <glyph glyph-name="kgreenlandic" unicode="&#x138;" horiz-adv-x="499" 
d="M345 181q46 -85 100 -168l-5 -10l-103 -15l-12 6q-41 76 -88 180l4 18q53 32 82 64t29 60q0 24 -21 24q-27 0 -72 -51.5t-99 -155.5l-3 -21l-4 -107l-123 -9l50 360l4 104l122 9l-25 -180h12q45 63 83 106.5t77 72.5l14 1q107 -22 107 -112q0 -93 -129 -176z" />
    <glyph glyph-name="Lacute" unicode="&#x139;" horiz-adv-x="423" 
d="M405 99l-21 -99h-338l31 192l49 451h134l-61 -439l-9 -95h209zM306 884l33 -77l-4 -12q-89 -35 -214 -78l-13 4l-21 54q108 54 207 112z" />
    <glyph glyph-name="lacute" unicode="&#x13a;" horiz-adv-x="256" 
d="M165 112l-4 -107l-123 -9l84 595l2 104l123 9zM296 941l33 -77l-4 -12q-89 -35 -214 -78l-13 4l-21 54q108 54 207 112z" />
    <glyph glyph-name="Lcommaaccent" unicode="&#x13b;" horiz-adv-x="423" 
d="M405 99l-21 -99h-338l31 192l49 451h134l-61 -439l-9 -95h209zM281 -113q0 -41 -27.5 -81t-85.5 -80l-39 35l-1 9q52 43 52 92q0 32 -29 56v11q43 25 88 38q42 -33 42 -80z" />
    <glyph glyph-name="lcommaaccent" unicode="&#x13c;" horiz-adv-x="256" 
d="M165 112l-4 -107l-123 -9l84 595l2 104l123 9zM174 -113q0 -41 -27.5 -81t-85.5 -80l-39 35l-1 9q52 43 52 92q0 32 -29 56v11q43 25 88 38q42 -33 42 -80z" />
    <glyph glyph-name="Lcaron" unicode="&#x13d;" horiz-adv-x="471" 
d="M405 99l-21 -99h-338l31 192l49 451h134l-61 -439l-9 -95h209zM476 589l-56 -198l-59 -9l-7 7l23 203l94 5z" />
    <glyph glyph-name="lcaron" unicode="&#x13e;" horiz-adv-x="335" 
d="M165 112l-4 -107l-123 -9l84 595l2 104l123 9zM406 636l-56 -198l-59 -9l-7 7l23 203l94 5z" />
    <glyph glyph-name="Ldot" unicode="&#x13f;" horiz-adv-x="444" 
d="M405 99l-21 -99h-338l31 192l49 451h134l-61 -439l-9 -95h209zM418 439.5q17 -17.5 17 -48.5q0 -34 -19 -53.5t-51 -19.5t-49 17.5t-17 49.5q0 33 19 52.5t52 19.5q31 0 48 -17.5z" />
    <glyph glyph-name="ldot" unicode="&#x140;" horiz-adv-x="306" 
d="M164 112l-4 -107l-122 -9l81 595l4 104l120 8zM338.5 351q17.5 -18 17.5 -49q0 -33 -19.5 -52.5t-51.5 -19.5q-31 0 -48 17.5t-17 49.5q0 33 19 52.5t51 19.5q31 0 48.5 -18z" />
    <glyph glyph-name="Lslash" unicode="&#x141;" horiz-adv-x="430" 
d="M412 99l-21 -99h-338l31 192l6 58l-62 -31l-11 6l-14 77l98 49l32 292h134l-32 -226l106 53l12 -6l14 -77l-146 -73l-16 -110l-9 -95h210z" />
    <glyph glyph-name="lslash" unicode="&#x142;" horiz-adv-x="285" 
d="M208 340l-32 -228l-3 -107l-123 -9l41 297l-60 -29l-6 3l-18 77l98 48l28 199l2 104l124 9l-37 -266l64 32l6 -3l18 -76z" />
    <glyph glyph-name="Nacute" unicode="&#x143;" horiz-adv-x="678" 
d="M590 198l-19 -198h-142l-200 441h-9l-28 -220l-22 -221h-121l30 190l50 453h142l200 -441h9l51 436l123 8zM505 884l33 -77l-4 -12q-89 -35 -214 -78l-13 4l-21 54q108 54 207 112z" />
    <glyph glyph-name="nacute" unicode="&#x144;" horiz-adv-x="493" 
d="M425.5 433.5q29.5 -25.5 28.5 -61.5l-1 -13l-40 -246l-5 -108l-126 -9l50 308l1 11q0 12 -4 18t-13 6q-23 0 -63.5 -51.5t-91.5 -150.5l-3 -25l-4 -107l-124 -9l51 360l4 104l121 9l-24 -181h11q39 63 73.5 105.5t71.5 74.5l12 1q46 -10 75.5 -35.5zM369 721l47 -70
l-2 -12q-112 -72 -193 -119l-12 1l-32 49q95 74 180 152z" />
    <glyph glyph-name="Ncommaaccent" unicode="&#x145;" horiz-adv-x="678" 
d="M590 198l-19 -198h-142l-200 441h-9l-28 -220l-22 -221h-121l30 190l50 453h142l200 -441h9l51 436l123 8zM386 -113q0 -41 -27.5 -81t-85.5 -80l-39 35l-1 9q52 43 52 92q0 32 -29 56v11q43 25 88 38q42 -33 42 -80z" />
    <glyph glyph-name="ncommaaccent" unicode="&#x146;" horiz-adv-x="493" 
d="M425.5 433.5q29.5 -25.5 28.5 -61.5l-1 -13l-40 -246l-5 -108l-126 -9l50 308l1 11q0 12 -4 18t-13 6q-23 0 -63.5 -51.5t-91.5 -150.5l-3 -25l-4 -107l-124 -9l51 360l4 104l121 9l-24 -181h11q39 63 73.5 105.5t71.5 74.5l12 1q46 -10 75.5 -35.5zM294 -113
q0 -41 -27.5 -81t-85.5 -80l-39 35l-1 9q52 43 52 92q0 32 -29 56v11q43 25 88 38q42 -33 42 -80z" />
    <glyph glyph-name="Ncaron" unicode="&#x147;" horiz-adv-x="678" 
d="M590 198l-19 -198h-142l-200 441h-9l-28 -220l-22 -221h-121l30 190l50 453h142l200 -441h9l51 436l123 8zM555 821q-73 -47 -138 -103h-27q-52 49 -127 103l30 52h13q75 -46 100 -63q16 9 75 40l43 23h14z" />
    <glyph glyph-name="ncaron" unicode="&#x148;" horiz-adv-x="493" 
d="M425.5 433.5q29.5 -25.5 28.5 -61.5l-1 -13l-40 -246l-5 -108l-126 -9l50 308l1 11q0 12 -4 18t-13 6q-23 0 -63.5 -51.5t-91.5 -150.5l-3 -25l-4 -107l-124 -9l51 360l4 104l121 9l-24 -181h11q39 63 73.5 105.5t71.5 74.5l12 1q46 -10 75.5 -35.5zM449 665
q-52 -44 -132 -121l-21 -20h-28q-46 58 -125 141l39 49h13q58 -52 95 -93q34 30 120 93h13z" />
    <glyph glyph-name="Eng" unicode="&#x14a;" horiz-adv-x="685" 
d="M592 198l-13 -142q-8 -56 -31.5 -96t-68.5 -71t-121 -59l-32 70l2 13q43 22 69.5 42.5t40.5 45.5l-209 440h-9l-27 -220l-23 -221h-121l31 190l49 453h143l202 -431h9l48 426l124 8z" />
    <glyph glyph-name="eng" unicode="&#x14b;" horiz-adv-x="495" 
d="M424.5 433.5q29.5 -25.5 28.5 -61.5l-1 -13l-41 -246l-11 -89q-12 -79 -52 -129.5t-120 -89.5l-38 55l2 12q43 27 65 60t29 87l45 280l1 12v4q0 24 -16 24q-24 0 -65 -53t-91 -156l-2 -18l-4 -107l-124 -9l51 360l4 104l121 9l-24 -181h11q39 63 73.5 105.5t71.5 74.5
l12 1q45 -10 74.5 -35.5z" />
    <glyph glyph-name="Omacron" unicode="&#x14c;" horiz-adv-x="631" 
d="M553.5 583.5q65.5 -68.5 65.5 -199.5q0 -118 -39 -207t-114 -138t-180 -49q-118 0 -183.5 70.5t-65.5 202.5q0 118 38.5 206t113 135.5t180.5 47.5q119 0 184.5 -68.5zM218.5 478.5q-44.5 -66.5 -44.5 -212.5q0 -91 29.5 -132.5t95.5 -41.5q90 0 135 67t45 214
q0 91 -29.5 131.5t-96.5 40.5q-90 0 -134.5 -66.5zM531 829l-6 -73h-281l-8 9l7 73h280z" />
    <glyph glyph-name="omacron" unicode="&#x14d;" horiz-adv-x="436" 
d="M284 473q128 -26 128 -165q0 -141 -65.5 -225.5t-180.5 -92.5l-12 1q-63 14 -96 56t-33 118q0 89 30 157.5t86 108t131 43.5zM166 324q-25 -54 -25 -161q0 -44 10.5 -62t36.5 -18q56 0 81 55t25 162q0 43 -10.5 60.5t-35.5 17.5q-57 0 -82 -54zM420 650l-6 -73h-281l-8 9
l7 73h280z" />
    <glyph glyph-name="Obreve" unicode="&#x14e;" horiz-adv-x="631" 
d="M553.5 583.5q65.5 -68.5 65.5 -199.5q0 -118 -39 -207t-114 -138t-180 -49q-118 0 -183.5 70.5t-65.5 202.5q0 118 38.5 206t113 135.5t180.5 47.5q119 0 184.5 -68.5zM218.5 478.5q-44.5 -66.5 -44.5 -212.5q0 -91 29.5 -132.5t95.5 -41.5q90 0 135 67t45 214
q0 91 -29.5 131.5t-96.5 40.5q-90 0 -134.5 -66.5zM532 826q-49 -105 -155 -105q-55 0 -92 27t-50 78l35 41h19q10 -27 34.5 -41.5t59.5 -14.5t62 14.5t43 41.5h19z" />
    <glyph glyph-name="obreve" unicode="&#x14f;" horiz-adv-x="436" 
d="M284 473q128 -26 128 -165q0 -141 -65.5 -225.5t-180.5 -92.5l-12 1q-63 14 -96 56t-33 118q0 89 30 157.5t86 108t131 43.5zM166 324q-25 -54 -25 -161q0 -44 10.5 -62t36.5 -18q56 0 81 55t25 162q0 43 -10.5 60.5t-35.5 17.5q-57 0 -82 -54zM420 654q-20 -56 -60 -90
t-98 -34q-64 0 -97.5 34t-40.5 90l34 44h19q7 -38 31 -57.5t60 -19.5q37 0 65 19.5t44 57.5h19z" />
    <glyph glyph-name="Ohungarumlaut" unicode="&#x150;" horiz-adv-x="631" 
d="M553.5 583.5q65.5 -68.5 65.5 -199.5q0 -118 -39 -207t-114 -138t-180 -49q-118 0 -183.5 70.5t-65.5 202.5q0 118 38.5 206t113 135.5t180.5 47.5q119 0 184.5 -68.5zM218.5 478.5q-44.5 -66.5 -44.5 -212.5q0 -91 29.5 -132.5t95.5 -41.5q90 0 135 67t45 214
q0 91 -29.5 131.5t-96.5 40.5q-90 0 -134.5 -66.5zM274 783q55 67 77 98l10 3l60 -40l1 -11q-60 -59 -124 -115l-11 -3l-41 33zM420 773q54 67 85 108l10 3l60 -40l1 -11q-48 -48 -124 -115l-11 -3l-41 33z" />
    <glyph glyph-name="ohungarumlaut" unicode="&#x151;" horiz-adv-x="436" 
d="M284 473q128 -26 128 -165q0 -141 -65.5 -225.5t-180.5 -92.5l-12 1q-63 14 -96 56t-33 118q0 89 30 157.5t86 108t131 43.5zM166 324q-25 -54 -25 -161q0 -44 10.5 -62t36.5 -18q56 0 81 55t25 162q0 43 -10.5 60.5t-35.5 17.5q-57 0 -82 -54zM263 724l10 2l59 -43
l2 -10q-63 -69 -145 -150l-11 -3l-40 34q76 99 125 170zM415 724l9 2l60 -43l1 -10q-63 -69 -145 -150l-10 -3l-40 34q61 79 125 170z" />
    <glyph glyph-name="OE" unicode="&#x152;" horiz-adv-x="847" 
d="M494 649q54 -6 80 -6h300l7 -10l-22 -99l-146 5h-117l-20 -160l103 -1l107 3l6 -10l-22 -99l-113 3l-98 -1l-8 -72l-11 -97l107 -1l158 5l7 -10l-21 -99h-297q-37 1 -100 -6q-66 -6 -100 -6q-124 0 -191 71.5t-67 201.5q0 121 43.5 210t125 136.5t192.5 47.5q37 0 97 -6z
M223 480q-49 -68 -49 -215q0 -89 35 -132t109 -43q26 0 47.5 3.5t32.5 8.5q12 5 18 15t8 28l38 347q1 7 1 18q0 19 -8 24q-8 6 -31 10t-52 4q-100 0 -149 -68z" />
    <glyph glyph-name="oe" unicode="&#x153;" horiz-adv-x="678" 
d="M595 167l40 -53q-73 -97 -170 -123h-14q-88 10 -122 77q-61 -72 -160 -78l-12 1q-65 14 -98 56t-33 118q0 89 30 157.5t86.5 108t132.5 43.5l12 -1q72 -14 99 -70q62 67 159 71l12 -1q48 -9 75 -35.5t27 -71.5q0 -59 -58.5 -105.5t-187.5 -85.5q3 -46 17 -66t41 -20
q30 0 59 21.5t49 58.5zM447.5 355.5q-25.5 -36.5 -32.5 -102.5q68 19 101.5 45t33.5 60q0 17 -9 25.5t-29 8.5q-39 0 -64.5 -36.5zM273.5 137q25.5 55 25.5 164q0 43 -11 61t-36 18q-58 0 -84.5 -54.5t-26.5 -162.5q0 -44 11.5 -62.5t37.5 -18.5q58 0 83.5 55z" />
    <glyph glyph-name="Racute" unicode="&#x154;" horiz-adv-x="574" 
d="M513 349.5q-38 -59.5 -105 -95.5q54 -112 123 -223l-3 -15q-68 -22 -133 -26l-12 10q-49 113 -88 219h-93l-2 -15l-19 -204h-133l31 192l50 451l232 1q89 0 139.5 -42.5t50.5 -120.5q0 -72 -38 -131.5zM217 321l95 -4q100 34 100 142q0 83 -97 88l-66 -3zM430 900l47 -70
l-2 -12q-112 -72 -193 -119l-12 1l-32 49q95 74 180 152z" />
    <glyph glyph-name="racute" unicode="&#x155;" horiz-adv-x="352" 
d="M370 465l-21 -156l-11 -5l-19 3q-44 -6 -78.5 -40t-79.5 -124l-4 -31l-4 -107l-123 -9l50 360l4 104l122 9l-24 -174h12q31 55 66 96.5t83 76.5zM325 721l47 -70l-2 -12q-112 -72 -193 -119l-12 1l-32 49q95 74 180 152z" />
    <glyph glyph-name="Rcommaaccent" unicode="&#x156;" horiz-adv-x="574" 
d="M513 349.5q-38 -59.5 -105 -95.5q54 -112 123 -223l-3 -15q-68 -22 -133 -26l-12 10q-49 113 -88 219h-93l-2 -15l-19 -204h-133l31 192l50 451l232 1q89 0 139.5 -42.5t50.5 -120.5q0 -72 -38 -131.5zM217 321l95 -4q100 34 100 142q0 83 -97 88l-66 -3zM333 -113
q0 -41 -27.5 -81t-85.5 -80l-39 35l-1 9q52 43 52 92q0 32 -29 56v11q43 25 88 38q42 -33 42 -80z" />
    <glyph glyph-name="rcommaaccent" unicode="&#x157;" horiz-adv-x="352" 
d="M370 465l-21 -156l-11 -5l-19 3q-44 -6 -78.5 -40t-79.5 -124l-4 -31l-4 -107l-123 -9l50 360l4 104l122 9l-24 -174h12q31 55 66 96.5t83 76.5zM164 -113q0 -41 -27.5 -81t-85.5 -80l-39 35l-1 9q52 43 52 92q0 32 -29 56v11q43 25 88 38q42 -33 42 -80z" />
    <glyph glyph-name="Rcaron" unicode="&#x158;" horiz-adv-x="574" 
d="M513 349.5q-38 -59.5 -105 -95.5q54 -112 123 -223l-3 -15q-68 -22 -133 -26l-12 10q-49 113 -88 219h-93l-2 -15l-19 -204h-133l31 192l50 451l232 1q89 0 139.5 -42.5t50.5 -120.5q0 -72 -38 -131.5zM217 321l95 -4q100 34 100 142q0 83 -97 88l-66 -3zM510 844
q-52 -44 -132 -121l-21 -20h-28q-46 58 -125 141l39 49h13q58 -52 95 -93q34 30 120 93h13z" />
    <glyph glyph-name="rcaron" unicode="&#x159;" horiz-adv-x="352" 
d="M370 465l-21 -156l-11 -5l-19 3q-44 -6 -78.5 -40t-79.5 -124l-4 -31l-4 -107l-123 -9l50 360l4 104l122 9l-24 -174h12q31 55 66 96.5t83 76.5zM405 665q-52 -44 -132 -121l-21 -20h-28q-46 58 -125 141l39 49h13q58 -52 95 -93q34 30 120 93h13z" />
    <glyph glyph-name="Sacute" unicode="&#x15a;" horiz-adv-x="485" 
d="M483 619l-35 -114l-20 -8q-31 24 -65 37.5t-64 13.5q-41 0 -67 -21.5t-26 -51.5q0 -28 23 -48t73 -48q46 -26 76 -47.5t51 -55t21 -78.5q0 -57 -32.5 -104t-90.5 -75t-130 -28q-47 0 -96 10.5t-92 31.5l32 122l15 8q36 -35 79.5 -53t81.5 -18q45 0 71.5 22t26.5 54
q0 30 -23.5 50.5t-73.5 48.5q-45 25 -74 46t-49.5 54t-20.5 79q0 57 32 104.5t88.5 74.5t126.5 27q82 0 162 -33zM388 900l47 -70l-2 -12q-112 -72 -193 -119l-12 1l-32 49q95 74 180 152z" />
    <glyph glyph-name="sacute" unicode="&#x15b;" horiz-adv-x="346" 
d="M341 446l-31 -102l-17 -6q-22 25 -47 38t-45 13q-21 0 -35 -13.5t-14 -32.5q0 -17 14 -29.5t44 -32.5q31 -20 50 -35.5t33 -39.5t14 -57q0 -45 -25.5 -81t-71 -56.5t-101.5 -20.5q-65 8 -118 31l30 107l15 6q23 -30 52.5 -47t56.5 -17q24 0 38 14.5t14 32.5t-14 31
t-47 36q-45 29 -70.5 56.5t-25.5 70.5q0 47 27.5 83.5t73 57t99.5 19.5q53 -9 101 -26zM303 721l47 -70l-2 -12q-112 -72 -193 -119l-12 1l-32 49q95 74 180 152z" />
    <glyph glyph-name="Scircumflex" unicode="&#x15c;" horiz-adv-x="485" 
d="M483 619l-35 -114l-20 -8q-31 24 -65 37.5t-64 13.5q-41 0 -67 -21.5t-26 -51.5q0 -28 23 -48t73 -48q46 -26 76 -47.5t51 -55t21 -78.5q0 -57 -32.5 -104t-90.5 -75t-130 -28q-47 0 -96 10.5t-92 31.5l32 122l15 8q36 -35 79.5 -53t81.5 -18q45 0 71.5 22t26.5 54
q0 30 -23.5 50.5t-73.5 48.5q-45 25 -74 46t-49.5 54t-20.5 79q0 57 32 104.5t88.5 74.5t126.5 27q82 0 162 -33zM160 752q52 44 132 121l21 20h28q46 -58 125 -141l-39 -49h-13q-58 52 -95 93q-34 -30 -120 -93h-13z" />
    <glyph glyph-name="scircumflex" unicode="&#x15d;" horiz-adv-x="346" 
d="M341 446l-31 -102l-17 -6q-22 25 -47 38t-45 13q-21 0 -35 -13.5t-14 -32.5q0 -17 14 -29.5t44 -32.5q31 -20 50 -35.5t33 -39.5t14 -57q0 -45 -25.5 -81t-71 -56.5t-101.5 -20.5q-65 8 -118 31l30 107l15 6q23 -30 52.5 -47t56.5 -17q24 0 38 14.5t14 32.5t-14 31
t-47 36q-45 29 -70.5 56.5t-25.5 70.5q0 47 27.5 83.5t73 57t99.5 19.5q53 -9 101 -26zM75 573q52 44 132 121l21 20h28q46 -58 125 -141l-39 -49h-13q-58 52 -95 93q-34 -30 -120 -93h-13z" />
    <glyph glyph-name="Scedilla" unicode="&#x15e;" horiz-adv-x="485" 
d="M483 619l-35 -114l-20 -8q-31 24 -65 37.5t-64 13.5q-41 0 -67 -21.5t-26 -51.5q0 -28 23 -48t73 -48q46 -26 76 -47.5t51 -55t21 -78.5q0 -57 -32.5 -104t-90.5 -75t-130 -28q-47 0 -96 10.5t-92 31.5l32 122l15 8q36 -35 79.5 -53t81.5 -18q45 0 71.5 22t26.5 54
q0 30 -23.5 50.5t-73.5 48.5q-45 25 -74 46t-49.5 54t-20.5 79q0 57 32 104.5t88.5 74.5t126.5 27q82 0 162 -33zM233 -48l34 -19q22 -12 31.5 -26.5t9.5 -32.5q0 -33 -26 -54t-68 -21q-45 0 -81 29l9 55l6 2q32 -30 58 -30q25 0 25 22q0 7 -4 11.5t-13 8.5l-49 28l23 100
h63z" />
    <glyph glyph-name="scedilla" unicode="&#x15f;" horiz-adv-x="346" 
d="M341 446l-31 -102l-17 -6q-22 25 -47 38t-45 13q-21 0 -35 -13.5t-14 -32.5q0 -17 14 -29.5t44 -32.5q31 -20 50 -35.5t33 -39.5t14 -57q0 -45 -25.5 -81t-71 -56.5t-101.5 -20.5q-65 8 -118 31l30 107l15 6q23 -30 52.5 -47t56.5 -17q24 0 38 14.5t14 32.5t-14 31
t-47 36q-45 29 -70.5 56.5t-25.5 70.5q0 47 27.5 83.5t73 57t99.5 19.5q53 -9 101 -26zM170 -48l34 -19q22 -12 31.5 -26.5t9.5 -32.5q0 -33 -26 -54t-68 -21q-45 0 -81 29l9 55l6 2q32 -30 58 -30q25 0 25 22q0 7 -4 11.5t-13 8.5l-49 28l23 100h63z" />
    <glyph glyph-name="Scaron" unicode="&#x160;" horiz-adv-x="485" 
d="M483 619l-35 -114l-20 -8q-31 24 -65 37.5t-64 13.5q-41 0 -67 -21.5t-26 -51.5q0 -28 23 -48t73 -48q46 -26 76 -47.5t51 -55t21 -78.5q0 -57 -32.5 -104t-90.5 -75t-130 -28q-47 0 -96 10.5t-92 31.5l32 122l15 8q36 -35 79.5 -53t81.5 -18q45 0 71.5 22t26.5 54
q0 30 -23.5 50.5t-73.5 48.5q-45 25 -74 46t-49.5 54t-20.5 79q0 57 32 104.5t88.5 74.5t126.5 27q82 0 162 -33zM460 821q-73 -47 -138 -103h-27q-52 49 -127 103l30 52h13q75 -46 100 -63q16 9 75 40l43 23h14z" />
    <glyph glyph-name="scaron" unicode="&#x161;" horiz-adv-x="346" 
d="M341 446l-31 -102l-17 -6q-22 25 -47 38t-45 13q-21 0 -35 -13.5t-14 -32.5q0 -17 14 -29.5t44 -32.5q31 -20 50 -35.5t33 -39.5t14 -57q0 -45 -25.5 -81t-71 -56.5t-101.5 -20.5q-65 8 -118 31l30 107l15 6q23 -30 52.5 -47t56.5 -17q24 0 38 14.5t14 32.5t-14 31
t-47 36q-45 29 -70.5 56.5t-25.5 70.5q0 47 27.5 83.5t73 57t99.5 19.5q53 -9 101 -26zM383 665q-52 -44 -132 -121l-21 -20h-28q-46 58 -125 141l39 49h13q58 -52 95 -93q34 30 120 93h13z" />
    <glyph glyph-name="uni0162" unicode="&#x162;" horiz-adv-x="489" 
d="M525 633l-20 -98l-117 6h-38l-47 -337l-20 -204h-35l-14 -47l34 -20q22 -12 31.5 -26.5t9.5 -32.5q0 -33 -25.5 -53.5t-67.5 -20.5q-45 0 -82 28l9 55l7 3q28 -30 58 -30q12 0 18.5 5.5t6.5 15.5q0 7 -4.5 11.5t-13.5 8.5l-48 29l18 74h-34l32 192l38 349h-39l-121 -6
l-7 10l22 98h443z" />
    <glyph glyph-name="uni0163" unicode="&#x163;" horiz-adv-x="347" 
d="M184 136l-1 -13q0 -20 18 -20q13 0 28 13.5t38 48.5h11l35 -43q-33 -58 -64.5 -88t-72.5 -42q-52 0 -80.5 26.5t-27.5 72.5l3 26l37 240l3 24h-64l-7 8l8 66h72l12 103l115 37l8 -8l-21 -132h111l9 -10l-8 -64h-123zM199 -48l34 -19q22 -12 31.5 -26.5t9.5 -32.5
q0 -33 -26 -54t-68 -21q-45 0 -81 29l9 55l6 2q32 -30 58 -30q25 0 25 22q0 7 -4 11.5t-13 8.5l-49 28l23 100h63z" />
    <glyph glyph-name="Tcaron" unicode="&#x164;" horiz-adv-x="489" 
d="M525 633l-20 -98l-117 6h-38l-47 -337l-20 -204h-132l32 192l38 349h-39l-121 -6l-7 10l22 98h443zM468 844q-52 -44 -132 -121l-21 -20h-28q-46 58 -125 141l39 49h13q58 -52 95 -93q34 30 120 93h13z" />
    <glyph glyph-name="tcaron" unicode="&#x165;" horiz-adv-x="372" 
d="M184 136l-1 -13q0 -20 18 -20q13 0 28 13.5t38 48.5h11l35 -43q-33 -58 -64.5 -88t-72.5 -42q-52 0 -80.5 26.5t-27.5 72.5l3 26l37 240l3 24h-64l-7 8l8 66h72l12 103l115 37l8 -8l-21 -132h111l9 -10l-8 -64h-123zM420 710l-56 -198l-59 -9l-7 7l23 203l94 5z" />
    <glyph glyph-name="Tbar" unicode="&#x166;" horiz-adv-x="489" 
d="M350 541l-28 -200h88l9 -9l-5 -63h-102l-9 -65l-20 -204h-132l32 192l8 77h-85l-8 8l5 64h96l22 200h-39l-121 -6l-7 10l22 98h443l6 -10l-20 -98l-117 6h-38z" />
    <glyph glyph-name="tbar" unicode="&#x167;" horiz-adv-x="348" 
d="M226 381l-13 -83h102l8 -9l-6 -63h-116l-14 -90l-1 -13q0 -20 18 -20q13 0 28 12.5t38 45.5h11l35 -43q-33 -56 -65 -85.5t-72 -40.5q-52 0 -80.5 26.5t-27.5 72.5l3 26l17 109h-61l-8 9l6 63h74l9 59l3 24h-64l-7 8l8 66h72l12 103l115 37l8 -8l-21 -132h111l9 -10
l-8 -64h-123z" />
    <glyph glyph-name="Umacron" unicode="&#x16a;" horiz-adv-x="622" 
d="M568 317l-11 -84q-13 -117 -83 -179.5t-191 -62.5q-105 0 -165 48.5t-60 138.5q0 26 4 49l13 93l36 323h132l-55 -398q-3 -21 -3 -38q0 -55 26.5 -81t81.5 -26q64 0 99.5 34t43.5 104l44 405h133zM527 829l-6 -73h-281l-8 9l7 73h280z" />
    <glyph glyph-name="umacron" unicode="&#x16b;" horiz-adv-x="490" 
d="M457 469l-50 -357l-3 -107l-123 -9l25 177h-10q-40 -63 -73 -104t-69 -72h-12q-47 8 -76 33t-28 62l1 16l39 244l6 109l123 8l-47 -302l-2 -18q0 -24 18 -24q23 0 61.5 50t88.5 148l5 33l4 104zM440 650l-6 -73h-281l-8 9l7 73h280z" />
    <glyph glyph-name="Ubreve" unicode="&#x16c;" horiz-adv-x="622" 
d="M568 317l-11 -84q-13 -117 -83 -179.5t-191 -62.5q-105 0 -165 48.5t-60 138.5q0 26 4 49l13 93l36 323h132l-55 -398q-3 -21 -3 -38q0 -55 26.5 -81t81.5 -26q64 0 99.5 34t43.5 104l44 405h133zM528 833q-20 -56 -60 -90t-98 -34q-64 0 -97.5 34t-40.5 90l34 44h19
q7 -38 31 -57.5t60 -19.5q37 0 65 19.5t44 57.5h19z" />
    <glyph glyph-name="ubreve" unicode="&#x16d;" horiz-adv-x="490" 
d="M457 469l-50 -357l-3 -107l-123 -9l25 177h-10q-40 -63 -73 -104t-69 -72h-12q-47 8 -76 33t-28 62l1 16l39 244l6 109l123 8l-47 -302l-2 -18q0 -24 18 -24q23 0 61.5 50t88.5 148l5 33l4 104zM440 654q-20 -56 -60 -90t-98 -34q-64 0 -97.5 34t-40.5 90l34 44h19
q7 -38 31 -57.5t60 -19.5q37 0 65 19.5t44 57.5h19z" />
    <glyph glyph-name="Uring" unicode="&#x16e;" horiz-adv-x="622" 
d="M568 317l-11 -84q-13 -117 -83 -179.5t-191 -62.5q-105 0 -165 48.5t-60 138.5q0 26 4 49l13 93l36 323h132l-55 -398q-3 -21 -3 -38q0 -55 26.5 -81t81.5 -26q64 0 99.5 34t43.5 104l44 405h133zM453 878q24 -24 24 -67q0 -47 -26.5 -72.5t-71.5 -25.5q-43 0 -67.5 24.5
t-24.5 69.5t25 70t72 25q45 0 69 -24zM341 809q0 -41 41 -41t41 38q0 40 -42 40q-40 0 -40 -37z" />
    <glyph glyph-name="uring" unicode="&#x16f;" horiz-adv-x="490" 
d="M457 469l-50 -357l-3 -107l-123 -9l25 177h-10q-40 -63 -73 -104t-69 -72h-12q-47 8 -76 33t-28 62l1 16l39 244l6 109l123 8l-47 -302l-2 -18q0 -24 18 -24q23 0 61.5 50t88.5 148l5 33l4 104zM365 699q24 -24 24 -67q0 -47 -26.5 -72.5t-71.5 -25.5q-43 0 -67.5 24.5
t-24.5 69.5t25 70t72 25q45 0 69 -24zM253 630q0 -41 41 -41t41 38q0 40 -42 40q-40 0 -40 -37z" />
    <glyph glyph-name="Uhungarumlaut" unicode="&#x170;" horiz-adv-x="622" 
d="M568 317l-11 -84q-13 -117 -83 -179.5t-191 -62.5q-105 0 -165 48.5t-60 138.5q0 26 4 49l13 93l36 323h132l-55 -398q-3 -21 -3 -38q0 -55 26.5 -81t81.5 -26q64 0 99.5 34t43.5 104l44 405h133zM270 783q55 67 77 98l10 3l60 -40l1 -11q-60 -59 -124 -115l-11 -3
l-41 33zM416 773q54 67 85 108l10 3l60 -40l1 -11q-48 -48 -124 -115l-11 -3l-41 33z" />
    <glyph glyph-name="uhungarumlaut" unicode="&#x171;" horiz-adv-x="490" 
d="M457 469l-50 -357l-3 -107l-123 -9l25 177h-10q-40 -63 -73 -104t-69 -72h-12q-47 8 -76 33t-28 62l1 16l39 244l6 109l123 8l-47 -302l-2 -18q0 -24 18 -24q23 0 61.5 50t88.5 148l5 33l4 104zM283 724l10 2l59 -43l2 -10q-63 -69 -145 -150l-11 -3l-40 34
q76 99 125 170zM435 724l9 2l60 -43l1 -10q-63 -69 -145 -150l-10 -3l-40 34q61 79 125 170z" />
    <glyph glyph-name="Uogonek" unicode="&#x172;" horiz-adv-x="622" 
d="M568 317l-11 -84q-13 -117 -83 -179.5t-191 -62.5q-105 0 -165 48.5t-60 138.5q0 26 4 49l13 93l36 323h132l-55 -398q-3 -21 -3 -38q0 -55 26.5 -81t81.5 -26q64 0 99.5 34t43.5 104l44 405h133zM230 -199.5q-27 22.5 -27 59.5q0 22 9 39.5t34 41.5t79 69h71
q-43 -44 -70 -72t-33.5 -38t-6.5 -20q0 -27 31 -27q28 0 74 30h6l14 -62q-57 -43 -110 -43q-44 0 -71 22.5z" />
    <glyph glyph-name="uogonek" unicode="&#x173;" horiz-adv-x="490" 
d="M457 469l-50 -357l-3 -107l-123 -9l25 177h-10q-40 -63 -73 -104t-69 -72h-12q-47 8 -76 33t-28 62l1 16l39 244l6 109l123 8l-47 -302l-2 -18q0 -24 18 -24q23 0 61.5 50t88.5 148l5 33l4 104zM316 -65q-20 -19 -20 -34q0 -19 24 -19q25 0 63 27l6 -2l14 -59
q-49 -40 -99 -40q-40 0 -64.5 20t-24.5 53t24.5 61.5t80.5 62.5h84q-68 -51 -88 -70z" />
    <glyph glyph-name="Wcircumflex" unicode="&#x174;" horiz-adv-x="877" 
d="M638 0h-138l-54 312h-9l-132 -312h-141l-94 643h129v-78l58 -428h8l149 350l-25 156h135l3 -91l61 -415h9l178 421l26 85h123zM340 771q73 47 138 103h27q52 -49 127 -103l-30 -52h-13q-75 46 -100 63q-16 -9 -75 -40l-43 -23h-14z" />
    <glyph glyph-name="wcircumflex" unicode="&#x175;" horiz-adv-x="711" 
d="M530 0h-133l-24 300h-11l-121 -300h-134l-53 461l120 8l1 -73l17 -258h11l103 250l25 77h129l2 -69l19 -258h9l72 145q29 58 29 93q0 30 -19 62l5 14l113 19q18 -39 18 -80q0 -31 -11 -64.5t-33 -75.5zM248 573q52 44 132 121l21 20h28q46 -58 125 -141l-39 -49h-13
q-58 52 -95 93q-34 -30 -120 -93h-13z" />
    <glyph glyph-name="Ycircumflex" unicode="&#x176;" horiz-adv-x="543" 
d="M324 220l-7 -40l-17 -180h-132l30 180l4 41l-146 422h137l8 -43l76 -248h9l148 244l24 47h138zM193 771q73 47 138 103h27q52 -49 127 -103l-30 -52h-13q-75 46 -100 63q-16 -9 -75 -40l-43 -23h-14z" />
    <glyph glyph-name="ycircumflex" unicode="&#x177;" horiz-adv-x="445" 
d="M441 391q0 -35 -10 -68t-32 -72l-123 -227q-63 -117 -121 -168.5t-129 -51.5q-38 0 -91 16l5 104l11 11q41 -9 72 -9q38 0 67.5 14t55.5 44l-101 476l123 9l8 -85l39 -250h14l67 136q29 59 29 109q0 35 -19 64l6 12l110 16q19 -46 19 -80zM115 574q52 44 132 121l21 20
h28q46 -58 125 -141l-39 -49h-13q-58 52 -95 93q-34 -30 -120 -93h-13z" />
    <glyph glyph-name="Ydieresis" unicode="&#x178;" horiz-adv-x="543" 
d="M324 220l-7 -40l-17 -180h-132l30 180l4 41l-146 422h137l8 -43l76 -248h9l148 244l24 47h138zM299 841.5q15 -15.5 15 -42.5q0 -30 -16.5 -47t-45.5 -17q-28 0 -43 15t-15 44t17 46t46 17q27 0 42 -15.5zM476.5 841.5q15.5 -15.5 15.5 -42.5q0 -30 -17 -47t-46 -17
q-28 0 -43 15.5t-15 43.5q0 29 16.5 46t45.5 17q28 0 43.5 -15.5z" />
    <glyph glyph-name="Zacute" unicode="&#x179;" horiz-adv-x="532" 
d="M537 548l-367 -447h210l106 8l4 -7l-23 -105l-141 3h-249l-76 -4l12 95l370 451h-198l-107 -9l-5 7l24 105l126 -2h266l60 1zM392 884l33 -77l-4 -12q-89 -35 -214 -78l-13 4l-21 54q108 54 207 112z" />
    <glyph glyph-name="zacute" unicode="&#x17a;" horiz-adv-x="425" 
d="M412 447l-261 -338l28 7q8 0 34 -6q24 -7 36 -7q36 0 52.5 20t20.5 76l16 6l53 -19q-6 -196 -142 -196q-34 0 -88 18q-45 15 -68 15q-17 0 -30.5 -6.5t-31.5 -23.5h-14l-37 34l257 336l-104 -2l-75 -11l-10 8l23 108l11 8l83 -6l179 -4l32 18zM334 721l47 -70l-2 -12
q-112 -72 -193 -119l-12 1l-32 49q95 74 180 152z" />
    <glyph glyph-name="Zdotaccent" unicode="&#x17b;" horiz-adv-x="532" 
d="M537 548l-367 -447h210l106 8l4 -7l-23 -105l-141 3h-249l-76 -4l12 95l370 451h-198l-107 -9l-5 7l24 105l126 -2h266l60 1zM348 848.5q17 -17.5 17 -48.5q0 -34 -19 -53.5t-51 -19.5t-49 17.5t-17 49.5q0 33 19 52.5t52 19.5q31 0 48 -17.5z" />
    <glyph glyph-name="zdotaccent" unicode="&#x17c;" horiz-adv-x="425" 
d="M412 447l-261 -338l28 7q8 0 34 -6q24 -7 36 -7q36 0 52.5 20t20.5 76l16 6l53 -19q-6 -196 -142 -196q-34 0 -88 18q-45 15 -68 15q-17 0 -30.5 -6.5t-31.5 -23.5h-14l-37 34l257 336l-104 -2l-75 -11l-10 8l23 108l11 8l83 -6l179 -4l32 18zM312 669.5
q17 -17.5 17 -48.5q0 -34 -19 -53.5t-51 -19.5t-49 17.5t-17 49.5q0 33 19 52.5t52 19.5q31 0 48 -17.5z" />
    <glyph glyph-name="Zcaron" unicode="&#x17d;" horiz-adv-x="532" 
d="M537 548l-367 -447h210l106 8l4 -7l-23 -105l-141 3h-249l-76 -4l12 95l370 451h-198l-107 -9l-5 7l24 105l126 -2h266l60 1zM442 821q-73 -47 -138 -103h-27q-52 49 -127 103l30 52h13q75 -46 100 -63q16 9 75 40l43 23h14z" />
    <glyph glyph-name="zcaron" unicode="&#x17e;" horiz-adv-x="425" 
d="M412 447l-261 -338l28 7q8 0 34 -6q24 -7 36 -7q36 0 52.5 20t20.5 76l16 6l53 -19q-6 -196 -142 -196q-34 0 -88 18q-45 15 -68 15q-17 0 -30.5 -6.5t-31.5 -23.5h-14l-37 34l257 336l-104 -2l-75 -11l-10 8l23 108l11 8l83 -6l179 -4l32 18zM414 665q-52 -44 -132 -121
l-21 -20h-28q-46 58 -125 141l39 49h13q58 -52 95 -93q34 30 120 93h13z" />
    <glyph glyph-name="uni018F" unicode="&#x18f;" horiz-adv-x="614" 
d="M530.5 577q70.5 -74 70.5 -204q0 -114 -42.5 -200.5t-120 -134t-178.5 -47.5q-106 0 -168.5 58.5t-62.5 156.5q0 26 4.5 48t13.5 55l20 20l400 3q1 9 1 28q0 89 -40.5 135t-121.5 46q-93 0 -198 -54l-13 10l37 111q103 43 201 43q127 0 197.5 -74zM387.5 131
q46.5 41 66.5 115l-291 -5l-4 -21q-1 -7 -1 -21q0 -51 31 -80t85 -29q67 0 113.5 41z" />
    <glyph glyph-name="florin" unicode="&#x192;" horiz-adv-x="315" 
d="M405 611l-18 -86l-9 -5q-39 17 -71 17q-68 0 -77 -70l-11 -83h102l4 -8l-7 -63h-109l-16 -128l-15 -131q-8 -71 -38.5 -116.5t-99.5 -87.5l-53 51l1 10q40 30 57.5 60.5t24.5 80.5l14 122l16 139h-66l-4 7l6 64h71l8 64q10 83 65 127.5t145 44.5q36 0 80 -9z" />
    <glyph glyph-name="Ohorn" unicode="&#x1a0;" horiz-adv-x="654" 
d="M660 604.5q-31 -33.5 -82 -46.5q22 -35 32.5 -77.5t10.5 -99.5q0 -117 -41 -205.5t-116.5 -137t-177.5 -48.5q-121 0 -185 72t-64 210q0 114 41.5 200t116.5 133t173 47q34 0 57.5 -4.5t56.5 -14.5q34 -12 56 -12q24 0 37.5 12.5t13.5 35.5q0 36 -27 61l3 11q34 25 64 25
q26 0 44 -24.5t18 -58.5q0 -45 -31 -78.5zM436 158.5q47 68.5 47 206.5q0 96 -29 138.5t-98 42.5q-89 0 -135.5 -68t-46.5 -206q0 -96 29.5 -139t97.5 -43q88 0 135 68.5z" />
    <glyph glyph-name="ohorn" unicode="&#x1a1;" horiz-adv-x="481" 
d="M498.5 467q-17.5 -27 -47 -43t-61.5 -16q25 -41 25 -99q0 -141 -65 -226t-182 -93l-12 1q-65 14 -98 56.5t-33 117.5q0 89 30 157t86 108t133 44l12 -1q12 -2 21 -4t15 -3q23 -7 41 -7q24 0 38.5 13.5t14.5 36.5q0 29 -31 59l3 11q32 29 64 29q26 0 45 -24.5t19 -58.5
q0 -31 -17.5 -58zM271 136q26 54 26 165q0 43 -11 61t-36 18q-57 0 -83 -53.5t-26 -163.5q0 -44 11 -62.5t37 -18.5q56 0 82 54z" />
    <glyph glyph-name="Uhorn" unicode="&#x1af;" horiz-adv-x="634" 
d="M667 639.5q-22 -28.5 -61 -45.5l-38 -277l-11 -84q-13 -117 -83 -179.5t-191 -62.5q-105 0 -165 48.5t-60 138.5q0 26 4 49l13 93l36 323h132l-55 -398q-3 -21 -3 -38q0 -55 26.5 -81t81.5 -26q64 0 99.5 34t43.5 104l44 405h48q60 0 60 50q0 32 -29 60l3 10q34 25 62 25
q26 0 45.5 -24t19.5 -60t-22 -64.5z" />
    <glyph glyph-name="uhorn" unicode="&#x1b0;" horiz-adv-x="508" 
d="M522.5 467.5q-26.5 -31.5 -72.5 -50.5l-42 -305l-4 -107l-123 -9l25 178h-10q-39 -63 -72 -104.5t-70 -72.5h-12q-47 8 -76 33t-28 62l1 16l39 244l6 109l123 8l-47 -302l-1 -13q-1 -29 17 -29q49 0 151 203l4 28l4 104l45 7q67 7 67 52q0 32 -30 60l2 11q37 30 65 30
q25 0 45 -24t20 -58q0 -39 -26.5 -70.5z" />
    <glyph glyph-name="uni01C4" unicode="&#x1c4;" horiz-adv-x="1173" 
d="M561.5 581.5q66.5 -65.5 66.5 -185.5q0 -189 -92 -296t-262 -107q-47 0 -113 2t-112 5l31 192l49 451l244 4q122 0 188.5 -65.5zM440.5 164.5q48.5 69.5 48.5 210.5q0 86 -32.5 126.5t-99.5 40.5q-39 0 -109 -4l-48 -334l-9 -101q27 -3 59.5 -5.5t52.5 -2.5
q89 0 137.5 69.5zM1178 548l-367 -447h210l106 8l4 -7l-23 -105l-141 3h-249l-76 -4l12 95l370 451h-198l-107 -9l-5 7l24 105l126 -2h266l60 1zM1083 821q-73 -47 -138 -103h-27q-52 49 -127 103l30 52h13q75 -46 100 -63q16 9 75 40l43 23h14z" />
    <glyph glyph-name="uni01C5" unicode="&#x1c5;" horiz-adv-x="1066" 
d="M561.5 581.5q66.5 -65.5 66.5 -185.5q0 -189 -92 -296t-262 -107q-47 0 -113 2t-112 5l31 192l49 451l244 4q122 0 188.5 -65.5zM440.5 164.5q48.5 69.5 48.5 210.5q0 86 -32.5 126.5t-99.5 40.5q-39 0 -109 -4l-48 -334l-9 -101q27 -3 59.5 -5.5t52.5 -2.5
q89 0 137.5 69.5zM1053 447l-261 -338l28 7q8 0 34 -6q24 -7 36 -7q36 0 52.5 20t20.5 76l16 6l53 -19q-6 -196 -142 -196q-34 0 -88 18q-45 15 -68 15q-17 0 -30.5 -6.5t-31.5 -23.5h-14l-37 34l257 336l-104 -2l-75 -11l-10 8l23 108l11 8l83 -6l179 -4l32 18zM1055 665
q-52 -44 -132 -121l-21 -20h-28q-46 58 -125 141l39 49h13q58 -52 95 -93q34 30 120 93h13z" />
    <glyph glyph-name="uni01C6" unicode="&#x1c6;" horiz-adv-x="886" 
d="M461 704l-82 -592l-4 -107l-123 -9l22 159h-11q-53 -93 -120 -164h-19q-55 20 -79 60.5t-24 102.5q0 67 27 133t81 116t132 68h5l50 -14l19 134l3 104zM215.5 170q39.5 58 83.5 160l3 27l-64 21q-49 0 -77.5 -50.5t-28.5 -131.5q0 -45 7.5 -64.5t18.5 -19.5q18 0 57.5 58
zM873 447l-261 -338l28 7q8 0 34 -6q24 -7 36 -7q36 0 52.5 20t20.5 76l16 6l53 -19q-6 -196 -142 -196q-34 0 -88 18q-45 15 -68 15q-17 0 -30.5 -6.5t-31.5 -23.5h-14l-37 34l257 336l-104 -2l-75 -11l-10 8l23 108l11 8l83 -6l179 -4l32 18zM875 665q-52 -44 -132 -121
l-21 -20h-28q-46 58 -125 141l39 49h13q58 -52 95 -93q34 30 120 93h13z" />
    <glyph glyph-name="uni01C7" unicode="&#x1c7;" horiz-adv-x="743" 
d="M405 99l-21 -99h-338l31 192l49 451h134l-61 -439l-9 -95h209zM650 212l-8 -92q-11 -83 -60.5 -133.5t-160.5 -92.5l-32 70l1 13q65 32 94 64t36 82l10 77l37 346l-103 -2l-8 9l17 90h239z" />
    <glyph glyph-name="uni01C8" unicode="&#x1c8;" horiz-adv-x="680" 
d="M405 99l-21 -99h-338l31 192l49 451h134l-61 -439l-9 -95h209zM646 464l-50 -350l-8 -89q-10 -79 -50 -129.5t-123 -89.5l-40 55l2 12q45 27 67.5 60t29.5 86l46 334v28h-69l-6 8l9 66h70l118 13zM646 669.5q17 -17.5 17 -48.5q0 -34 -19 -53.5t-51 -19.5t-49 17.5
t-17 49.5q0 33 19 52.5t52 19.5q31 0 48 -17.5z" />
    <glyph glyph-name="uni01C9" unicode="&#x1c9;" horiz-adv-x="513" 
d="M165 112l-4 -107l-123 -9l84 595l2 104l123 9zM479 464l-50 -350l-8 -89q-10 -79 -50 -129.5t-123 -89.5l-40 55l2 12q45 27 67.5 60t29.5 86l46 334v28h-69l-6 8l9 66h70l118 13zM479 669.5q17 -17.5 17 -48.5q0 -34 -19 -53.5t-51 -19.5t-49 17.5t-17 49.5
q0 33 19 52.5t52 19.5q31 0 48 -17.5z" />
    <glyph glyph-name="uni01CA" unicode="&#x1ca;" horiz-adv-x="1006" 
d="M590 198l-19 -198h-142l-200 441h-9l-28 -220l-22 -221h-121l30 190l50 453h142l200 -441h9l51 436l123 8zM913 212l-8 -92q-11 -83 -60.5 -133.5t-160.5 -92.5l-32 70l1 13q65 32 94 64t36 82l10 77l37 346l-103 -2l-8 9l17 90h239z" />
    <glyph glyph-name="uni01CB" unicode="&#x1cb;" horiz-adv-x="935" 
d="M590 198l-19 -198h-142l-200 441h-9l-28 -220l-22 -221h-121l30 190l50 453h142l200 -441h9l51 436l123 8zM901 464l-50 -350l-8 -89q-10 -79 -50 -129.5t-123 -89.5l-40 55l2 12q45 27 67.5 60t29.5 86l46 334v28h-69l-6 8l9 66h70l118 13zM901 669.5q17 -17.5 17 -48.5
q0 -34 -19 -53.5t-51 -19.5t-49 17.5t-17 49.5q0 33 19 52.5t52 19.5q31 0 48 -17.5z" />
    <glyph glyph-name="uni01CC" unicode="&#x1cc;" horiz-adv-x="750" 
d="M425.5 433.5q29.5 -25.5 28.5 -61.5l-1 -13l-40 -246l-5 -108l-126 -9l50 308l1 11q0 12 -4 18t-13 6q-23 0 -63.5 -51.5t-91.5 -150.5l-3 -25l-4 -107l-124 -9l51 360l4 104l121 9l-24 -181h11q39 63 73.5 105.5t71.5 74.5l12 1q46 -10 75.5 -35.5zM716 464l-50 -350
l-8 -89q-10 -79 -50 -129.5t-123 -89.5l-40 55l2 12q45 27 67.5 60t29.5 86l46 334v28h-69l-6 8l9 66h70l118 13zM716 669.5q17 -17.5 17 -48.5q0 -34 -19 -53.5t-51 -19.5t-49 17.5t-17 49.5q0 33 19 52.5t52 19.5q31 0 48 -17.5z" />
    <glyph glyph-name="uni01CD" unicode="&#x1cd;" horiz-adv-x="583" 
d="M539 0h-133l-6 83l-9 63l-121 2l-107 -2l-24 -56l-29 -90h-130l291 643h157zM376 248l-40 271h-9l-118 -270l82 -2zM509 821q-73 -47 -138 -103h-27q-52 49 -127 103l30 52h13q75 -46 100 -63q16 9 75 40l43 23h14z" />
    <glyph glyph-name="uni01CE" unicode="&#x1ce;" horiz-adv-x="461" 
d="M428 467l-49 -355l-4 -107l-123 -9l22 158h-13q-53 -95 -118 -163h-18q-55 20 -79 60.5t-24 102.5q0 67 26.5 133t80 115.5t130.5 68.5h6l76 -21l76 24zM216.5 171.5q39.5 59.5 83.5 165.5l2 17v2l-65 21q-48 0 -75.5 -49.5t-27.5 -130.5q0 -85 25 -85q18 0 57.5 59.5z
M427 666q-52 -44 -132 -121l-21 -20h-28q-46 58 -125 141l39 49h13q58 -52 95 -93q34 30 120 93h13z" />
    <glyph glyph-name="uni01CF" unicode="&#x1cf;" horiz-adv-x="289" 
d="M200 204l-19 -204h-133l31 192l49 451h134zM358 821q-73 -47 -138 -103h-27q-52 49 -127 103l30 52h13q75 -46 100 -63q16 9 75 40l43 23h14z" />
    <glyph glyph-name="uni01D0" unicode="&#x1d0;" horiz-adv-x="237" 
d="M157 112l-4 -107l-123 -9l50 360l4 104l122 9zM317 665q-52 -44 -132 -121l-21 -20h-28q-46 58 -125 141l39 49h13q58 -52 95 -93q34 30 120 93h13z" />
    <glyph glyph-name="uni01D1" unicode="&#x1d1;" horiz-adv-x="631" 
d="M553.5 583.5q65.5 -68.5 65.5 -199.5q0 -118 -39 -207t-114 -138t-180 -49q-118 0 -183.5 70.5t-65.5 202.5q0 118 38.5 206t113 135.5t180.5 47.5q119 0 184.5 -68.5zM218.5 478.5q-44.5 -66.5 -44.5 -212.5q0 -91 29.5 -132.5t95.5 -41.5q90 0 135 67t45 214
q0 91 -29.5 131.5t-96.5 40.5q-90 0 -134.5 -66.5zM530 821q-73 -47 -138 -103h-27q-52 49 -127 103l30 52h13q75 -46 100 -63q16 9 75 40l43 23h14z" />
    <glyph glyph-name="uni01D2" unicode="&#x1d2;" horiz-adv-x="436" 
d="M284 473q128 -26 128 -165q0 -141 -65.5 -225.5t-180.5 -92.5l-12 1q-63 14 -96 56t-33 118q0 89 30 157.5t86 108t131 43.5zM166 324q-25 -54 -25 -161q0 -44 10.5 -62t36.5 -18q56 0 81 55t25 162q0 43 -10.5 60.5t-35.5 17.5q-57 0 -82 -54zM426 665
q-52 -44 -132 -121l-21 -20h-28q-46 58 -125 141l39 49h13q58 -52 95 -93q34 30 120 93h13z" />
    <glyph glyph-name="uni01D3" unicode="&#x1d3;" horiz-adv-x="622" 
d="M568 317l-11 -84q-13 -117 -83 -179.5t-191 -62.5q-105 0 -165 48.5t-60 138.5q0 26 4 49l13 93l36 323h132l-55 -398q-3 -21 -3 -38q0 -55 26.5 -81t81.5 -26q64 0 99.5 34t43.5 104l44 405h133zM534 844q-52 -44 -132 -121l-21 -20h-28q-46 58 -125 141l39 49h13
q58 -52 95 -93q34 30 120 93h13z" />
    <glyph glyph-name="uni01D4" unicode="&#x1d4;" horiz-adv-x="490" 
d="M457 469l-50 -357l-3 -107l-123 -9l25 177h-10q-40 -63 -73 -104t-69 -72h-12q-47 8 -76 33t-28 62l1 16l39 244l6 109l123 8l-47 -302l-2 -18q0 -24 18 -24q23 0 61.5 50t88.5 148l5 33l4 104zM446 665q-52 -44 -132 -121l-21 -20h-28q-46 58 -125 141l39 49h13
q58 -52 95 -93q34 30 120 93h13z" />
    <glyph glyph-name="uni01D5" unicode="&#x1d5;" horiz-adv-x="622" 
d="M568 317l-11 -84q-13 -117 -83 -179.5t-191 -62.5q-105 0 -165 48.5t-60 138.5q0 26 4 49l13 93l36 323h132l-55 -398q-3 -21 -3 -38q0 -55 26.5 -81t81.5 -26q64 0 99.5 34t43.5 104l44 405h133zM542 968l-7 -73h-278l-10 9l7 73h278zM343 822q15 -15 15 -43
q0 -29 -17 -46.5t-45 -17.5t-43 15.5t-15 43.5q0 29 17 46t46 17q27 0 42 -15zM516 822q15 -15 15 -43q0 -29 -16.5 -46.5t-45.5 -17.5q-28 0 -43 15.5t-15 43.5q0 29 17 46t46 17q27 0 42 -15z" />
    <glyph glyph-name="uni01D6" unicode="&#x1d6;" horiz-adv-x="490" 
d="M457 469l-50 -357l-3 -107l-123 -9l25 177h-10q-40 -63 -73 -104t-69 -72h-12q-47 8 -76 33t-28 62l1 16l39 244l6 109l123 8l-47 -302l-2 -18q0 -24 18 -24q23 0 61.5 50t88.5 148l5 33l4 104zM454 789l-7 -73h-278l-10 9l7 73h278zM255 643q15 -15 15 -43
q0 -29 -17 -46.5t-45 -17.5t-43 15.5t-15 43.5q0 29 17 46t46 17q27 0 42 -15zM428 643q15 -15 15 -43q0 -29 -16.5 -46.5t-45.5 -17.5q-28 0 -43 15.5t-15 43.5q0 29 17 46t46 17q27 0 42 -15z" />
    <glyph glyph-name="uni01D7" unicode="&#x1d7;" horiz-adv-x="622" 
d="M568 317l-11 -84q-13 -117 -83 -179.5t-191 -62.5q-105 0 -165 48.5t-60 138.5q0 26 4 49l13 93l36 323h132l-55 -398q-3 -21 -3 -38q0 -55 26.5 -81t81.5 -26q64 0 99.5 34t43.5 104l44 405h133zM482 1012l20 -82l-7 -10q-120 -24 -224 -40l-11 6l-12 58q121 35 223 74z
M320 822q15 -15 15 -43q0 -29 -16.5 -46.5t-44.5 -17.5t-43.5 15.5t-15.5 43.5q0 29 17 46t46 17q27 0 42 -15zM492.5 822q15.5 -15 15.5 -43q0 -29 -17 -46.5t-45 -17.5t-43 15.5t-15 43.5q0 29 17 46t45 17q27 0 42.5 -15z" />
    <glyph glyph-name="uni01D8" unicode="&#x1d8;" horiz-adv-x="490" 
d="M457 469l-50 -357l-3 -107l-123 -9l25 177h-10q-40 -63 -73 -104t-69 -72h-12q-47 8 -76 33t-28 62l1 16l39 244l6 109l123 8l-47 -302l-2 -18q0 -24 18 -24q23 0 61.5 50t88.5 148l5 33l4 104zM406 833l19 -82l-7 -10q-123 -25 -223 -40l-12 6l-11 58q117 34 222 74z
M259 643q15 -15 15 -43q0 -29 -16.5 -46.5t-44.5 -17.5t-43 15.5t-15 43.5q0 29 16.5 46t45.5 17q27 0 42 -15zM432 643q15 -15 15 -43q0 -29 -17 -46.5t-45 -17.5t-43 15.5t-15 43.5q0 29 17 46t46 17q27 0 42 -15z" />
    <glyph glyph-name="uni01D9" unicode="&#x1d9;" horiz-adv-x="622" 
d="M568 317l-11 -84q-13 -117 -83 -179.5t-191 -62.5q-105 0 -165 48.5t-60 138.5q0 26 4 49l13 93l36 323h132l-55 -398q-3 -21 -3 -38q0 -55 26.5 -81t81.5 -26q64 0 99.5 34t43.5 104l44 405h133zM335 826.5q15 -15.5 15 -42.5q0 -30 -16.5 -47t-45.5 -17q-28 0 -43 15
t-15 44t17 46t46 17q27 0 42 -15.5zM512.5 826.5q15.5 -15.5 15.5 -42.5q0 -30 -17 -47t-46 -17q-28 0 -43 15.5t-15 43.5q0 29 16.5 46t45.5 17q28 0 43.5 -15.5zM534 949q-73 -47 -138 -103h-27q-52 49 -127 103l30 52h13q75 -46 100 -63q16 9 75 40l43 23h14z" />
    <glyph glyph-name="uni01DA" unicode="&#x1da;" horiz-adv-x="490" 
d="M457 469l-50 -357l-3 -107l-123 -9l25 177h-10q-40 -63 -73 -104t-69 -72h-12q-47 8 -76 33t-28 62l1 16l39 244l6 109l123 8l-47 -302l-2 -18q0 -24 18 -24q23 0 61.5 50t88.5 148l5 33l4 104zM449 775q-75 -49 -138 -102h-27q-51 47 -126 102l29 53h13l19 -12
q47 -32 81 -52l119 64h13zM256 643q15 -15 15 -43q0 -29 -17 -46.5t-45 -17.5t-43 15.5t-15 43.5q0 29 17 46t46 17q27 0 42 -15zM428.5 643q14.5 -15 14.5 -43q0 -29 -16.5 -46.5t-44.5 -17.5t-43 15.5t-15 43.5q0 29 17 46t45 17t42.5 -15z" />
    <glyph glyph-name="uni01DB" unicode="&#x1db;" horiz-adv-x="622" 
d="M568 317l-11 -84q-13 -117 -83 -179.5t-191 -62.5q-105 0 -165 48.5t-60 138.5q0 26 4 49l13 93l36 323h132l-55 -398q-3 -21 -3 -38q0 -55 26.5 -81t81.5 -26q64 0 99.5 34t43.5 104l44 405h133zM239 920l-7 10l19 82l12 6q106 -41 223 -74l-12 -58l-12 -6
q-97 15 -223 40zM230 730.5q-15 15.5 -15 43.5q0 29 17 46t46 17q27 0 42 -15t15 -43q0 -29 -17 -46.5t-45 -17.5t-43 15.5zM403 730.5q-15 15.5 -15 43.5q0 29 17 46t46 17q27 0 42 -15t15 -43q0 -29 -16.5 -46.5t-45.5 -17.5q-28 0 -43 15.5z" />
    <glyph glyph-name="uni01DC" unicode="&#x1dc;" horiz-adv-x="490" 
d="M457 469l-50 -357l-3 -107l-123 -9l25 177h-10q-40 -63 -73 -104t-69 -72h-12q-47 8 -76 33t-28 62l1 16l39 244l6 109l123 8l-47 -302l-2 -18q0 -24 18 -24q23 0 61.5 50t88.5 148l5 33l4 104zM179 741l-7 10l19 82l12 6q106 -41 223 -74l-12 -58l-12 -6q-97 15 -223 40
zM170 551.5q-15 15.5 -15 43.5q0 29 17 46t46 17q27 0 42 -15t15 -43q0 -29 -17 -46.5t-45 -17.5t-43 15.5zM343 551.5q-15 15.5 -15 43.5q0 29 17 46t46 17q27 0 42 -15t15 -43q0 -29 -16.5 -46.5t-45.5 -17.5q-28 0 -43 15.5z" />
    <glyph glyph-name="Gcaron" unicode="&#x1e6;" horiz-adv-x="585" 
d="M587 613l-44 -120l-12 -1q-45 28 -80.5 40t-78.5 12q-99 0 -149 -67.5t-50 -219.5q0 -86 34.5 -124t109.5 -38q19 0 37 3.5t46 12.5l9 55l11 105l122 9l-13 -93l-17 -156q-59 -21 -108 -30.5t-102 -9.5q-130 0 -198.5 68.5t-68.5 192.5q0 192 94.5 295.5t270.5 103.5
q105 0 187 -38zM525 821q-73 -47 -138 -103h-27q-52 49 -127 103l30 52h13q75 -46 100 -63q16 9 75 40l43 23h14z" />
    <glyph glyph-name="gcaron" unicode="&#x1e7;" horiz-adv-x="460" 
d="M428 467l-49 -348l-6 -76q-10 -75 -45.5 -129t-88.5 -82.5t-115 -28.5q-76 0 -121.5 41t-56.5 112l4 10l136 71l1 10q-26 21 -37.5 51.5t-11.5 73.5q0 68 26 130t77 107t123 62h5l76 -22l72 25zM170 336q-26 -46 -26 -122q0 -43 8 -64.5t17 -21.5q16 0 54 55.5t81 151.5
l3 22v4l-63 21q-48 0 -74 -46zM222 -78.5q30 30.5 37 87.5l22 162h-12q-52 -94 -119 -150l-65 -50q-12 -10 -12 -22q0 -23 20 -40.5t55 -17.5q44 0 74 30.5zM437 665q-52 -44 -132 -121l-21 -20h-28q-46 58 -125 141l39 49h13q58 -52 95 -93q34 30 120 93h13z" />
    <glyph glyph-name="uni01EA" unicode="&#x1ea;" horiz-adv-x="631" 
d="M553.5 583.5q65.5 -68.5 65.5 -199.5q0 -118 -39 -207t-114 -138t-180 -49q-118 0 -183.5 70.5t-65.5 202.5q0 118 38.5 206t113 135.5t180.5 47.5q119 0 184.5 -68.5zM218.5 478.5q-44.5 -66.5 -44.5 -212.5q0 -91 29.5 -132.5t95.5 -41.5q90 0 135 67t45 214
q0 91 -29.5 131.5t-96.5 40.5q-90 0 -134.5 -66.5zM235 -199.5q-27 22.5 -27 59.5q0 22 9 39.5t34 41.5t79 69h71q-43 -44 -70 -72t-33.5 -38t-6.5 -20q0 -27 31 -27q28 0 74 30h6l14 -62q-57 -43 -110 -43q-44 0 -71 22.5z" />
    <glyph glyph-name="uni01EB" unicode="&#x1eb;" horiz-adv-x="436" 
d="M284 473q128 -26 128 -165q0 -141 -65.5 -225.5t-180.5 -92.5l-12 1q-63 14 -96 56t-33 118q0 89 30 157.5t86 108t131 43.5zM166 324q-25 -54 -25 -161q0 -44 10.5 -62t36.5 -18q56 0 81 55t25 162q0 43 -10.5 60.5t-35.5 17.5q-57 0 -82 -54zM129 -173.5
q-27 22.5 -27 59.5q0 22 9 39.5t34 41.5t79 69h71q-43 -44 -70 -72t-33.5 -38t-6.5 -20q0 -27 31 -27q28 0 74 30h6l14 -62q-57 -43 -110 -43q-44 0 -71 22.5z" />
    <glyph glyph-name="Aringacute" unicode="&#x1fa;" horiz-adv-x="597" 
d="M282 808l-15 56q113 40 219 86l12 -4l23 -81l-6 -11q-93 -24 -221 -52zM553 0h-133l-7 80l-10 63l-120 3l-108 -3l-24 -55l-27 -88h-130l296 628q-19 25 -19 63q0 45 25 70t72 25q45 0 69 -24t24 -67q0 -47 -27 -72zM325 693q0 -40 41 -40t41 38q0 39 -42 39
q-40 0 -40 -37zM388 243l-40 265h-9l-119 -265l83 -1z" />
    <glyph glyph-name="aringacute" unicode="&#x1fb;" horiz-adv-x="461" 
d="M428 467l-49 -355l-4 -107l-123 -9l22 158h-13q-53 -95 -118 -163h-18q-55 20 -79 60.5t-24 102.5q0 67 26.5 133t80 115.5t130.5 68.5h6l76 -21l76 24zM216.5 171.5q39.5 59.5 83.5 165.5l2 17v2l-65 21q-48 0 -75.5 -49.5t-27.5 -130.5q0 -85 25 -85q18 0 57.5 59.5z
M349 700q24 -24 24 -67q0 -47 -26.5 -72.5t-71.5 -25.5q-43 0 -67.5 24.5t-24.5 69.5t25 70t72 25q45 0 69 -24zM237 631q0 -41 41 -41t41 38q0 40 -42 40q-40 0 -40 -37zM410.387 883.414l23.3623 -80.4453l-5.43359 -11.4229q-92.6006 -23.8838 -221.905 -51.3174
l-12.415 5.55566l-14.2568 56.1553q113.774 40.4238 219.104 85.916z" />
    <glyph glyph-name="AEacute" unicode="&#x1fc;" horiz-adv-x="798" 
d="M774 99l-21 -99h-377l5 83l1 140l-212 -55l-45 -78l-39 -90h-131l380 643h427l6 -10l-21 -99l-151 5h-85l-2 -183l195 49l9 -8l-1 -93l-204 -48l-1 -153h100l160 6zM382 323l1 196h-8l-136 -233zM651 884l33 -77l-4 -12q-89 -35 -214 -78l-13 4l-21 54q108 54 207 112z
" />
    <glyph glyph-name="aeacute" unicode="&#x1fd;" horiz-adv-x="650" 
d="M517 474l13 -1q47 -9 74 -35.5t27 -71.5q0 -59 -58 -105.5t-188 -84.5q0 -8 1 -14q4 -38 17.5 -56t38.5 -18q31 0 60.5 21.5t49.5 58.5l16 -2l40 -52q-75 -97 -171 -123h-14q-75 9 -109 47t-42 110l-2 10q-62 -102 -127 -167h-18q-55 20 -79.5 61t-24.5 101
q0 68 27 134.5t81 116t132 67.5h5l127 -35q53 35 124 38zM419 355.5q-26 -37.5 -33 -104.5q70 20 104 46.5t34 60.5q0 35 -39 35q-40 0 -66 -37.5zM161 328q-28 -50 -28 -131q0 -85 25 -85q18 0 57 55.5t81 152.5q8 19 17 33l-74 25q-50 0 -78 -50zM453 722l47 -70l-2 -12
q-112 -72 -193 -119l-12 1l-32 49q95 74 180 152z" />
    <glyph glyph-name="Oslashacute" unicode="&#x1fe;" horiz-adv-x="631" 
d="M619 384q0 -118 -39 -207t-114 -138t-180 -49q-50 0 -94 14l-71 -121l-68 31l-5 11l71 120q-82 71 -82 218q0 118 38.5 206t113 135.5t180.5 47.5q55 0 98 -15l58 99l68 -30l5 -14l-57 -97q78 -69 78 -211zM434 159q45 67 45 214q0 91 -29.5 131.5t-96.5 40.5
q-90 0 -134.5 -66.5t-44.5 -212.5q0 -91 29.5 -132.5t95.5 -41.5q90 0 135 67zM468 886l33 -77l-4 -12q-89 -35 -214 -78l-13 4l-21 54q108 54 207 112z" />
    <glyph glyph-name="oslashacute" unicode="&#x1ff;" horiz-adv-x="436" 
d="M375 425q37 -42 37 -117q0 -141 -65.5 -225.5t-180.5 -92.5l-12 1l-12 3l-64 -117l-65 34l-3 12l61 109q-46 44 -46 133t30 157.5t86 108t131 43.5l12 -1q19 -5 22 -6l57 103l60 -34l6 -12zM269 138q25 55 25 162q0 43 -10.5 60.5t-35.5 17.5q-57 0 -82 -54t-25 -161
q0 -44 10.5 -62t36.5 -18q56 0 81 55zM334 721l47 -70l-2 -12q-112 -72 -193 -119l-12 1l-32 49q95 74 180 152z" />
    <glyph glyph-name="uni0200" unicode="&#x200;" horiz-adv-x="583" 
d="M539 0h-133l-6 83l-9 63l-121 2l-107 -2l-24 -56l-29 -90h-130l291 643h157zM376 248l-40 271h-9l-118 -270l82 -2zM312 721q-75 66 -129 119l1 10l51 43l10 -1q48 -63 112 -139l-35 -35zM456 721q-75 66 -129 119l1 10l51 43l10 -1q42 -57 112 -139l-35 -35z" />
    <glyph glyph-name="uni0201" unicode="&#x201;" horiz-adv-x="461" 
d="M428 467l-49 -355l-4 -107l-123 -9l22 158h-13q-53 -95 -118 -163h-18q-55 20 -79 60.5t-24 102.5q0 67 26.5 133t80 115.5t130.5 68.5h6l76 -21l76 24zM216.5 171.5q39.5 59.5 83.5 165.5l2 17v2l-65 21q-48 0 -75.5 -49.5t-27.5 -130.5q0 -85 25 -85q18 0 57.5 59.5z
M214 524q-74 72 -144 150l1 10l59 43l10 -2q68 -96 126 -170l-41 -34zM366 524q-82 81 -145 150l2 10l59 43l10 -2q49 -71 125 -170l-40 -34z" />
    <glyph glyph-name="uni0202" unicode="&#x202;" horiz-adv-x="583" 
d="M539 0h-133l-6 83l-9 63l-121 2l-107 -2l-24 -56l-29 -90h-130l291 643h157zM376 248l-40 271h-9l-118 -270l82 -2zM216 752q20 56 60 90t98 34q64 0 97.5 -34t40.5 -90l-34 -44h-19q-7 38 -31 57.5t-60 19.5q-37 0 -65 -19.5t-44 -57.5h-19z" />
    <glyph glyph-name="uni0203" unicode="&#x203;" horiz-adv-x="461" 
d="M428 467l-49 -355l-4 -107l-123 -9l22 158h-13q-53 -95 -118 -163h-18q-55 20 -79 60.5t-24 102.5q0 67 26.5 133t80 115.5t130.5 68.5h6l76 -21l76 24zM216.5 171.5q39.5 59.5 83.5 165.5l2 17v2l-65 21q-48 0 -75.5 -49.5t-27.5 -130.5q0 -85 25 -85q18 0 57.5 59.5z
M126 574q20 56 60 90t98 34q64 0 97.5 -34t40.5 -90l-34 -44h-19q-7 38 -31 57.5t-60 19.5q-37 0 -65 -19.5t-44 -57.5h-19z" />
    <glyph glyph-name="uni0204" unicode="&#x204;" horiz-adv-x="497" 
d="M248 538l-22 -159l107 -1l102 3l7 -10l-22 -99l-110 3l-99 -1l-10 -70l-10 -99l111 -1l154 5l5 -10l-20 -99h-393l31 192l50 451h396l6 -10l-22 -99l-149 5zM288 721q-75 66 -129 119l1 10l51 43l10 -1q48 -63 112 -139l-35 -35zM432 721q-75 66 -129 119l1 10l51 43
l10 -1q42 -57 112 -139l-35 -35z" />
    <glyph glyph-name="uni0205" unicode="&#x205;" horiz-adv-x="405" 
d="M324 158l37 -48q-66 -93 -169 -119h-14q-79 9 -116 52t-37 126q0 87 30.5 155t85.5 107.5t128 42.5l12 -1q50 -8 76.5 -35.5t26.5 -71.5q0 -61 -59 -107t-185 -82q2 -46 16.5 -67t42.5 -21q25 0 49 15.5t61 55.5zM174 355.5q-25 -36.5 -33 -102.5q69 19 101.5 44.5
t32.5 60.5q0 18 -8.5 26t-27.5 8q-40 0 -65 -36.5zM196 524q-74 72 -144 150l1 10l59 43l10 -2q68 -96 126 -170l-41 -34zM348 524q-82 81 -145 150l2 10l59 43l10 -2q49 -71 125 -170l-40 -34z" />
    <glyph glyph-name="uni0206" unicode="&#x206;" horiz-adv-x="497" 
d="M248 538l-22 -159l107 -1l102 3l7 -10l-22 -99l-110 3l-99 -1l-10 -70l-10 -99l111 -1l154 5l5 -10l-20 -99h-393l31 192l50 451h396l6 -10l-22 -99l-149 5zM192 752q20 56 60 90t98 34q64 0 97.5 -34t40.5 -90l-34 -44h-19q-7 38 -31 57.5t-60 19.5q-37 0 -65 -19.5
t-44 -57.5h-19z" />
    <glyph glyph-name="uni0207" unicode="&#x207;" horiz-adv-x="405" 
d="M324 158l37 -48q-66 -93 -169 -119h-14q-79 9 -116 52t-37 126q0 87 30.5 155t85.5 107.5t128 42.5l12 -1q50 -8 76.5 -35.5t26.5 -71.5q0 -61 -59 -107t-185 -82q2 -46 16.5 -67t42.5 -21q25 0 49 15.5t61 55.5zM174 355.5q-25 -36.5 -33 -102.5q69 19 101.5 44.5
t32.5 60.5q0 18 -8.5 26t-27.5 8q-40 0 -65 -36.5zM108 574q20 56 60 90t98 34q64 0 97.5 -34t40.5 -90l-34 -44h-19q-7 38 -31 57.5t-60 19.5q-37 0 -65 -19.5t-44 -57.5h-19z" />
    <glyph glyph-name="uni0208" unicode="&#x208;" horiz-adv-x="289" 
d="M200 204l-19 -204h-133l31 192l49 451h134zM161 721q-75 66 -129 119l1 10l51 43l10 -1q48 -63 112 -139l-35 -35zM305 721q-75 66 -129 119l1 10l51 43l10 -1q42 -57 112 -139l-35 -35z" />
    <glyph glyph-name="uni0209" unicode="&#x209;" horiz-adv-x="237" 
d="M157 112l-4 -107l-123 -9l50 360l4 104l122 9zM104 523q-74 72 -144 150l1 10l59 43l10 -2q68 -96 126 -170l-41 -34zM256 523q-82 81 -145 150l2 10l59 43l10 -2q49 -71 125 -170l-40 -34z" />
    <glyph glyph-name="uni020A" unicode="&#x20a;" horiz-adv-x="289" 
d="M200 204l-19 -204h-133l31 192l49 451h134zM65 752q20 56 60 90t98 34q64 0 97.5 -34t40.5 -90l-34 -44h-19q-7 38 -31 57.5t-60 19.5q-37 0 -65 -19.5t-44 -57.5h-19z" />
    <glyph glyph-name="uni020B" unicode="&#x20b;" horiz-adv-x="237" 
d="M157 112l-4 -107l-123 -9l50 360l4 104l122 9zM16 573q20 56 60 90t98 34q64 0 97.5 -34t40.5 -90l-34 -44h-19q-7 38 -31 57.5t-60 19.5q-37 0 -65 -19.5t-44 -57.5h-19z" />
    <glyph glyph-name="uni020C" unicode="&#x20c;" horiz-adv-x="631" 
d="M553.5 583.5q65.5 -68.5 65.5 -199.5q0 -118 -39 -207t-114 -138t-180 -49q-118 0 -183.5 70.5t-65.5 202.5q0 118 38.5 206t113 135.5t180.5 47.5q119 0 184.5 -68.5zM218.5 478.5q-44.5 -66.5 -44.5 -212.5q0 -91 29.5 -132.5t95.5 -41.5q90 0 135 67t45 214
q0 91 -29.5 131.5t-96.5 40.5q-90 0 -134.5 -66.5zM333 721q-75 66 -129 119l1 10l51 43l10 -1q48 -63 112 -139l-35 -35zM477 721q-75 66 -129 119l1 10l51 43l10 -1q42 -57 112 -139l-35 -35z" />
    <glyph glyph-name="uni020D" unicode="&#x20d;" horiz-adv-x="436" 
d="M284 473q128 -26 128 -165q0 -141 -65.5 -225.5t-180.5 -92.5l-12 1q-63 14 -96 56t-33 118q0 89 30 157.5t86 108t131 43.5zM166 324q-25 -54 -25 -161q0 -44 10.5 -62t36.5 -18q56 0 81 55t25 162q0 43 -10.5 60.5t-35.5 17.5q-57 0 -82 -54zM213 523q-74 72 -144 150
l1 10l59 43l10 -2q68 -96 126 -170l-41 -34zM365 523q-82 81 -145 150l2 10l59 43l10 -2q49 -71 125 -170l-40 -34z" />
    <glyph glyph-name="uni020E" unicode="&#x20e;" horiz-adv-x="631" 
d="M553.5 583.5q65.5 -68.5 65.5 -199.5q0 -118 -39 -207t-114 -138t-180 -49q-118 0 -183.5 70.5t-65.5 202.5q0 118 38.5 206t113 135.5t180.5 47.5q119 0 184.5 -68.5zM218.5 478.5q-44.5 -66.5 -44.5 -212.5q0 -91 29.5 -132.5t95.5 -41.5q90 0 135 67t45 214
q0 91 -29.5 131.5t-96.5 40.5q-90 0 -134.5 -66.5zM237 752q20 56 60 90t98 34q64 0 97.5 -34t40.5 -90l-34 -44h-19q-7 38 -31 57.5t-60 19.5q-37 0 -65 -19.5t-44 -57.5h-19z" />
    <glyph glyph-name="uni020F" unicode="&#x20f;" horiz-adv-x="436" 
d="M284 473q128 -26 128 -165q0 -141 -65.5 -225.5t-180.5 -92.5l-12 1q-63 14 -96 56t-33 118q0 89 30 157.5t86 108t131 43.5zM166 324q-25 -54 -25 -161q0 -44 10.5 -62t36.5 -18q56 0 81 55t25 162q0 43 -10.5 60.5t-35.5 17.5q-57 0 -82 -54zM125 573q20 56 60 90
t98 34q64 0 97.5 -34t40.5 -90l-34 -44h-19q-7 38 -31 57.5t-60 19.5q-37 0 -65 -19.5t-44 -57.5h-19z" />
    <glyph glyph-name="uni0210" unicode="&#x210;" horiz-adv-x="574" 
d="M513 349.5q-38 -59.5 -105 -95.5q54 -112 123 -223l-3 -15q-68 -22 -133 -26l-12 10q-49 113 -88 219h-93l-2 -15l-19 -204h-133l31 192l50 451l232 1q89 0 139.5 -42.5t50.5 -120.5q0 -72 -38 -131.5zM217 321l95 -4q100 34 100 142q0 83 -97 88l-66 -3zM305 721
q-75 66 -129 119l1 10l51 43l10 -1q48 -63 112 -139l-35 -35zM449 721q-75 66 -129 119l1 10l51 43l10 -1q42 -57 112 -139l-35 -35z" />
    <glyph glyph-name="uni0211" unicode="&#x211;" horiz-adv-x="352" 
d="M370 465l-21 -156l-11 -5l-19 3q-44 -6 -78.5 -40t-79.5 -124l-4 -31l-4 -107l-123 -9l50 360l4 104l122 9l-24 -174h12q31 55 66 96.5t83 76.5zM192 523q-74 72 -144 150l1 10l59 43l10 -2q68 -96 126 -170l-41 -34zM344 523q-82 81 -145 150l2 10l59 43l10 -2
q49 -71 125 -170l-40 -34z" />
    <glyph glyph-name="uni0212" unicode="&#x212;" horiz-adv-x="574" 
d="M513 349.5q-38 -59.5 -105 -95.5q54 -112 123 -223l-3 -15q-68 -22 -133 -26l-12 10q-49 113 -88 219h-93l-2 -15l-19 -204h-133l31 192l50 451l232 1q89 0 139.5 -42.5t50.5 -120.5q0 -72 -38 -131.5zM217 321l95 -4q100 34 100 142q0 83 -97 88l-66 -3zM209 752
q20 56 60 90t98 34q64 0 97.5 -34t40.5 -90l-34 -44h-19q-7 38 -31 57.5t-60 19.5q-37 0 -65 -19.5t-44 -57.5h-19z" />
    <glyph glyph-name="uni0213" unicode="&#x213;" horiz-adv-x="352" 
d="M370 465l-21 -156l-11 -5l-19 3q-44 -6 -78.5 -40t-79.5 -124l-4 -31l-4 -107l-123 -9l50 360l4 104l122 9l-24 -174h12q31 55 66 96.5t83 76.5zM104 573q20 56 60 90t98 34q64 0 97.5 -34t40.5 -90l-34 -44h-19q-7 38 -31 57.5t-60 19.5q-37 0 -65 -19.5t-44 -57.5h-19z
" />
    <glyph glyph-name="uni0214" unicode="&#x214;" horiz-adv-x="622" 
d="M568 317l-11 -84q-13 -117 -83 -179.5t-191 -62.5q-105 0 -165 48.5t-60 138.5q0 26 4 49l13 93l36 323h132l-55 -398q-3 -21 -3 -38q0 -55 26.5 -81t81.5 -26q64 0 99.5 34t43.5 104l44 405h133zM329 721q-75 66 -129 119l1 10l51 43l10 -1q48 -63 112 -139l-35 -35z
M473 721q-75 66 -129 119l1 10l51 43l10 -1q42 -57 112 -139l-35 -35z" />
    <glyph glyph-name="uni0215" unicode="&#x215;" horiz-adv-x="490" 
d="M457 469l-50 -357l-3 -107l-123 -9l25 177h-10q-40 -63 -73 -104t-69 -72h-12q-47 8 -76 33t-28 62l1 16l39 244l6 109l123 8l-47 -302l-2 -18q0 -24 18 -24q23 0 61.5 50t88.5 148l5 33l4 104zM233 523q-74 72 -144 150l1 10l59 43l10 -2q68 -96 126 -170l-41 -34z
M385 523q-82 81 -145 150l2 10l59 43l10 -2q49 -71 125 -170l-40 -34z" />
    <glyph glyph-name="uni0216" unicode="&#x216;" horiz-adv-x="622" 
d="M568 317l-11 -84q-13 -117 -83 -179.5t-191 -62.5q-105 0 -165 48.5t-60 138.5q0 26 4 49l13 93l36 323h132l-55 -398q-3 -21 -3 -38q0 -55 26.5 -81t81.5 -26q64 0 99.5 34t43.5 104l44 405h133zM233 752q20 56 60 90t98 34q64 0 97.5 -34t40.5 -90l-34 -44h-19
q-7 38 -31 57.5t-60 19.5q-37 0 -65 -19.5t-44 -57.5h-19z" />
    <glyph glyph-name="uni0217" unicode="&#x217;" horiz-adv-x="490" 
d="M457 469l-50 -357l-3 -107l-123 -9l25 177h-10q-40 -63 -73 -104t-69 -72h-12q-47 8 -76 33t-28 62l1 16l39 244l6 109l123 8l-47 -302l-2 -18q0 -24 18 -24q23 0 61.5 50t88.5 148l5 33l4 104zM145 573q20 56 60 90t98 34q64 0 97.5 -34t40.5 -90l-34 -44h-19
q-7 38 -31 57.5t-60 19.5q-37 0 -65 -19.5t-44 -57.5h-19z" />
    <glyph glyph-name="Scommaaccent" unicode="&#x218;" horiz-adv-x="485" 
d="M483 619l-35 -114l-20 -8q-31 24 -65 37.5t-64 13.5q-41 0 -67 -21.5t-26 -51.5q0 -28 23 -48t73 -48q46 -26 76 -47.5t51 -55t21 -78.5q0 -57 -32.5 -104t-90.5 -75t-130 -28q-47 0 -96 10.5t-92 31.5l32 122l15 8q36 -35 79.5 -53t81.5 -18q45 0 71.5 22t26.5 54
q0 30 -23.5 50.5t-73.5 48.5q-45 25 -74 46t-49.5 54t-20.5 79q0 57 32 104.5t88.5 74.5t126.5 27q82 0 162 -33zM289 -113q0 -41 -27.5 -81t-85.5 -80l-39 35l-1 9q52 43 52 92q0 32 -29 56v11q43 25 88 38q42 -33 42 -80z" />
    <glyph glyph-name="scommaaccent" unicode="&#x219;" horiz-adv-x="346" 
d="M341 446l-31 -102l-17 -6q-22 25 -47 38t-45 13q-21 0 -35 -13.5t-14 -32.5q0 -17 14 -29.5t44 -32.5q31 -20 50 -35.5t33 -39.5t14 -57q0 -45 -25.5 -81t-71 -56.5t-101.5 -20.5q-65 8 -118 31l30 107l15 6q23 -30 52.5 -47t56.5 -17q24 0 38 14.5t14 32.5t-14 31
t-47 36q-45 29 -70.5 56.5t-25.5 70.5q0 47 27.5 83.5t73 57t99.5 19.5q53 -9 101 -26zM226 -113q0 -41 -27.5 -81t-85.5 -80l-39 35l-1 9q52 43 52 92q0 32 -29 56v11q43 25 88 38q42 -33 42 -80z" />
    <glyph glyph-name="uni021A" unicode="&#x21a;" horiz-adv-x="489" 
d="M525 633l-20 -98l-117 6h-38l-47 -337l-20 -204h-132l32 192l38 349h-39l-121 -6l-7 10l22 98h443zM291 -113q0 -41 -27.5 -81t-85.5 -80l-39 35l-1 9q52 43 52 92q0 32 -29 56v11q43 25 88 38q42 -33 42 -80z" />
    <glyph glyph-name="uni021B" unicode="&#x21b;" horiz-adv-x="347" 
d="M184 136l-1 -13q0 -20 18 -20q13 0 28 13.5t38 48.5h11l35 -43q-33 -58 -64.5 -88t-72.5 -42q-52 0 -80.5 26.5t-27.5 72.5l3 26l37 240l3 24h-64l-7 8l8 66h72l12 103l115 37l8 -8l-21 -132h111l9 -10l-8 -64h-123zM255 -113q0 -41 -27.5 -81t-85.5 -80l-39 35l-1 9
q52 43 52 92q0 32 -29 56v11q43 25 88 38q42 -33 42 -80z" />
    <glyph glyph-name="uni022A" unicode="&#x22a;" horiz-adv-x="631" 
d="M553.5 583.5q65.5 -68.5 65.5 -199.5q0 -118 -39 -207t-114 -138t-180 -49q-118 0 -183.5 70.5t-65.5 202.5q0 118 38.5 206t113 135.5t180.5 47.5q119 0 184.5 -68.5zM218.5 478.5q-44.5 -66.5 -44.5 -212.5q0 -91 29.5 -132.5t95.5 -41.5q90 0 135 67t45 214
q0 91 -29.5 131.5t-96.5 40.5q-90 0 -134.5 -66.5zM546 968l-7 -73h-278l-10 9l7 73h278zM347 822q15 -15 15 -43q0 -29 -17 -46.5t-45 -17.5t-43 15.5t-15 43.5q0 29 17 46t46 17q27 0 42 -15zM520 822q15 -15 15 -43q0 -29 -16.5 -46.5t-45.5 -17.5q-28 0 -43 15.5
t-15 43.5q0 29 17 46t46 17q27 0 42 -15z" />
    <glyph glyph-name="uni022B" unicode="&#x22b;" horiz-adv-x="436" 
d="M284 473q128 -26 128 -165q0 -141 -65.5 -225.5t-180.5 -92.5l-12 1q-63 14 -96 56t-33 118q0 89 30 157.5t86 108t131 43.5zM166 324q-25 -54 -25 -161q0 -44 10.5 -62t36.5 -18q56 0 81 55t25 162q0 43 -10.5 60.5t-35.5 17.5q-57 0 -82 -54zM434 789l-7 -73h-278
l-10 9l7 73h278zM235 643q15 -15 15 -43q0 -29 -17 -46.5t-45 -17.5t-43 15.5t-15 43.5q0 29 17 46t46 17q27 0 42 -15zM408 643q15 -15 15 -43q0 -29 -16.5 -46.5t-45.5 -17.5q-28 0 -43 15.5t-15 43.5q0 29 17 46t46 17q27 0 42 -15z" />
    <glyph glyph-name="uni022C" unicode="&#x22c;" horiz-adv-x="631" 
d="M553.5 583.5q65.5 -68.5 65.5 -199.5q0 -118 -39 -207t-114 -138t-180 -49q-118 0 -183.5 70.5t-65.5 202.5q0 118 38.5 206t113 135.5t180.5 47.5q119 0 184.5 -68.5zM218.5 478.5q-44.5 -66.5 -44.5 -212.5q0 -91 29.5 -132.5t95.5 -41.5q90 0 135 67t45 214
q0 91 -29.5 131.5t-96.5 40.5q-90 0 -134.5 -66.5zM541 837v-11l-63 -87l-11 -5q-23 3 -73 20q-45 15 -56 15t-21 -9.5t-19.5 -22.5t-13.5 -18h-11l-39 38v11l63 87l11 5q23 -3 73 -20q45 -15 56 -15q13 0 23.5 11.5t30.5 38.5h12zM536 993l-7 -73h-224l-9 9l6 73h226z" />
    <glyph glyph-name="uni022D" unicode="&#x22d;" horiz-adv-x="436" 
d="M284 473q128 -26 128 -165q0 -141 -65.5 -225.5t-180.5 -92.5l-12 1q-63 14 -96 56t-33 118q0 89 30 157.5t86 108t131 43.5zM166 324q-25 -54 -25 -161q0 -44 10.5 -62t36.5 -18q56 0 81 55t25 162q0 43 -10.5 60.5t-35.5 17.5q-57 0 -82 -54zM429 658v-11l-63 -87
l-11 -5q-23 3 -73 20q-45 15 -56 15t-21 -9.5t-19.5 -22.5t-13.5 -18h-11l-39 38v11l63 87l11 5q23 -3 73 -20q45 -15 56 -15q13 0 23.5 11.5t30.5 38.5h12zM424 814l-7 -73h-224l-9 9l6 73h226z" />
    <glyph glyph-name="uni0230" unicode="&#x230;" horiz-adv-x="631" 
d="M553.5 583.5q65.5 -68.5 65.5 -199.5q0 -118 -39 -207t-114 -138t-180 -49q-118 0 -183.5 70.5t-65.5 202.5q0 118 38.5 206t113 135.5t180.5 47.5q119 0 184.5 -68.5zM218.5 478.5q-44.5 -66.5 -44.5 -212.5q0 -91 29.5 -132.5t95.5 -41.5q90 0 135 67t45 214
q0 91 -29.5 131.5t-96.5 40.5q-90 0 -134.5 -66.5zM410 832.5q17 -17.5 17 -48.5q0 -34 -19 -53.5t-51 -19.5t-49 17.5t-17 49.5q0 33 19 52.5t52 19.5q31 0 48 -17.5zM494 958l-7 -73h-224l-9 9l6 73h226z" />
    <glyph glyph-name="uni0231" unicode="&#x231;" horiz-adv-x="436" 
d="M284 473q128 -26 128 -165q0 -141 -65.5 -225.5t-180.5 -92.5l-12 1q-63 14 -96 56t-33 118q0 89 30 157.5t86 108t131 43.5zM166 324q-25 -54 -25 -161q0 -44 10.5 -62t36.5 -18q56 0 81 55t25 162q0 43 -10.5 60.5t-35.5 17.5q-57 0 -82 -54zM298 653.5
q17 -17.5 17 -48.5q0 -34 -19 -53.5t-51 -19.5t-49 17.5t-17 49.5q0 33 19 52.5t52 19.5q31 0 48 -17.5zM382 779l-7 -73h-224l-9 9l6 73h226z" />
    <glyph glyph-name="uni0232" unicode="&#x232;" horiz-adv-x="543" 
d="M324 220l-7 -40l-17 -180h-132l30 180l4 41l-146 422h137l8 -43l76 -248h9l148 244l24 47h138zM487 829l-6 -73h-281l-8 9l7 73h280z" />
    <glyph glyph-name="uni0233" unicode="&#x233;" horiz-adv-x="445" 
d="M441 391q0 -35 -10 -68t-32 -72l-123 -227q-63 -117 -121 -168.5t-129 -51.5q-38 0 -91 16l5 104l11 11q41 -9 72 -9q38 0 67.5 14t55.5 44l-101 476l123 9l8 -85l39 -250h14l67 136q29 59 29 109q0 35 -19 64l6 12l110 16q19 -46 19 -80zM417 651l-6 -73h-281l-8 9l7 73
h280z" />
    <glyph glyph-name="uni0237" unicode="&#x237;" horiz-adv-x="257" 
d="M223 464l-50 -350l-8 -89q-10 -79 -50 -129.5t-123 -89.5l-40 55l2 12q45 27 67.5 60t29.5 86l46 334v28h-69l-6 8l9 66h70l118 13z" />
    <glyph glyph-name="uni0259" unicode="&#x259;" horiz-adv-x="405" 
d="M343 421q37 -43 37 -126q0 -87 -30.5 -155t-85.5 -107.5t-128 -42.5l-12 1q-50 8 -76.5 35.5t-26.5 71.5q0 61 59 107t185 82q-2 46 -16.5 67t-42.5 21q-25 0 -49 -15.5t-61 -55.5l-15 2l-37 48q66 93 169 119h14q79 -9 116 -52zM231 108.5q25 36.5 33 102.5
q-69 -19 -101.5 -44.5t-32.5 -60.5q0 -18 8.5 -26t27.5 -8q40 0 65 36.5z" />
    <glyph glyph-name="uni02B0" unicode="&#x2b0;" horiz-adv-x="346" 
d="M325 621.5q19 -18.5 18 -44.5v-9l-27 -164l-4 -73l-87 -6l32 203l1 8q0 11 -4.5 17.5t-10.5 6.5q-13 0 -37.5 -30.5t-56.5 -87.5l-5 -38l-4 -73l-85 -6l54 409l3 71l86 7l-38 -289h8q49 80 97 123h8q33 -6 52 -24.5z" />
    <glyph glyph-name="uni02B2" unicode="&#x2b2;" horiz-adv-x="185" 
d="M185 792q12 -12 12 -34q0 -23 -13.5 -36t-36.5 -13q-47 0 -47 45q0 24 14 37t37 13q22 0 34 -12zM185 642l-31 -240l-7 -54q-7 -54 -33.5 -89.5t-80.5 -62.5l-28 38l2 7q27 18 41 41t18 58l30 227l1 23h-42l-5 5l7 43h47l79 7z" />
    <glyph glyph-name="uni02B7" unicode="&#x2b7;" horiz-adv-x="492" 
d="M515 590q0 -36 -28 -92l-90 -170h-94l-16 203h-7l-80 -203h-94l-36 311l85 6v-48l11 -175h8l67 169l18 51h90l1 -45l12 -175h7l46 98q18 39 18 67q0 23 -12 44l80 16q14 -28 14 -57z" />
    <glyph glyph-name="uni02B8" unicode="&#x2b8;" horiz-adv-x="307" 
d="M330 594q0 -46 -41 -120l-60 -113q-50 -91 -92.5 -128.5t-93.5 -37.5q-32 0 -63 12l-4 70l8 9q29 -9 56 -9q50 0 89 39l-70 323l86 6l6 -57l25 -168h11l42 91q21 48 21 77q0 21 -11 43l79 16q12 -27 12 -53z" />
    <glyph glyph-name="uni02B9" unicode="&#x2b9;" horiz-adv-x="203" 
d="M212 633l-61 -217l-62 -10l-9 9l25 220l101 7z" />
    <glyph glyph-name="uni02BB" unicode="&#x2bb;" horiz-adv-x="209" 
d="M80 432.5q-14 22.5 -14 54.5q0 39 22.5 78.5t68.5 84.5l45 -30l2 -9q-41 -45 -41 -86q0 -24 9.5 -41t31.5 -29v-10q-39 -30 -81 -51q-29 16 -43 38.5z" />
    <glyph glyph-name="uni02BC" unicode="&#x2bc;" horiz-adv-x="209" 
d="M202 611.5q14 -22.5 14 -54.5q0 -39 -22.5 -78.5t-68.5 -84.5l-46 30l-1 9q40 46 40 86q0 24 -9 40.5t-31 28.5v11q40 32 81 50q29 -15 43 -37.5z" />
    <glyph glyph-name="uni02BE" unicode="&#x2be;" horiz-adv-x="270" 
d="M112 494q58 -6 58 47q0 18 -11.5 26.5t-36.5 8.5l8 63q52 0 77 -20.5t25 -63.5q0 -59 -33.5 -91.5t-94.5 -32.5z" />
    <glyph glyph-name="uni02BF" unicode="&#x2bf;" horiz-adv-x="224" 
d="M209 577q-28 2 -43 -10t-15 -38q0 -18 11 -26.5t36 -8.5l-7 -63q-52 0 -77.5 20.5t-25.5 63.5q0 59 33.5 91.5t94.5 32.5z" />
    <glyph glyph-name="circumflex" unicode="&#x2c6;" horiz-adv-x="388" 
d="M83 573q52 44 132 121l21 20h28q46 -58 125 -141l-39 -49h-13q-58 52 -95 93q-34 -30 -120 -93h-13z" />
    <glyph glyph-name="caron" unicode="&#x2c7;" horiz-adv-x="388" 
d="M399 665q-52 -44 -132 -121l-21 -20h-28q-46 58 -125 141l39 49h13q58 -52 95 -93q34 30 120 93h13z" />
    <glyph glyph-name="uni02C8" unicode="&#x2c8;" horiz-adv-x="248" 
d="M119 647h95l-21 -178h-95z" />
    <glyph glyph-name="uni02C9" unicode="&#x2c9;" horiz-adv-x="386" 
d="M388 650l-6 -73h-281l-8 9l7 73h280z" />
    <glyph glyph-name="uni02CA" unicode="&#x2ca;" horiz-adv-x="379" 
d="M309 721l47 -70l-2 -12q-112 -72 -193 -119l-12 1l-32 49q95 74 180 152z" />
    <glyph glyph-name="uni02CB" unicode="&#x2cb;" horiz-adv-x="398" 
d="M338 570l-31 -49l-12 -1q-79 46 -194 119l-2 12l47 70l12 1q86 -77 180 -152z" />
    <glyph glyph-name="uni02CC" unicode="&#x2cc;" horiz-adv-x="230" 
d="M33 -52h94l-21 -178h-95z" />
    <glyph glyph-name="breve" unicode="&#x2d8;" horiz-adv-x="388" 
d="M394 654q-20 -56 -60 -90t-98 -34q-64 0 -97.5 34t-40.5 90l34 44h19q7 -38 31 -57.5t60 -19.5q37 0 65 19.5t44 57.5h19z" />
    <glyph glyph-name="dotaccent" unicode="&#x2d9;" horiz-adv-x="256" 
d="M226 669.5q17 -17.5 17 -48.5q0 -34 -19 -53.5t-51 -19.5t-49 17.5t-17 49.5q0 33 19 52.5t52 19.5q31 0 48 -17.5z" />
    <glyph glyph-name="ring" unicode="&#x2da;" horiz-adv-x="390" 
d="M315 699q24 -24 24 -67q0 -47 -26.5 -72.5t-71.5 -25.5q-43 0 -67.5 24.5t-24.5 69.5t25 70t72 25q45 0 69 -24zM203 630q0 -41 41 -41t41 38q0 40 -42 40q-40 0 -40 -37z" />
    <glyph glyph-name="ogonek" unicode="&#x2db;" horiz-adv-x="321" 
d="M43 -174.5q-27 22.5 -27 59.5q0 22 9 39.5t34 41.5t79 69h71q-43 -44 -70 -72t-33.5 -38t-6.5 -20q0 -27 31 -27q28 0 74 30h6l14 -62q-57 -43 -110 -43q-44 0 -71 22.5z" />
    <glyph glyph-name="tilde" unicode="&#x2dc;" horiz-adv-x="381" 
d="M412 661v-11l-70 -88l-12 -5q-20 3 -83 20q-5 1 -32.5 8.5t-38.5 7.5t-22 -9.5t-23 -23t-17 -19.5h-12l-38 39v11l69 88l13 4q16 -2 43 -9t41 -10q53 -16 70 -16q12 0 23 9.5t22.5 23t16.5 18.5h12z" />
    <glyph glyph-name="hungarumlaut" unicode="&#x2dd;" horiz-adv-x="375" 
d="M209 724l10 2l59 -43l2 -10q-63 -69 -145 -150l-11 -3l-40 34q76 99 125 170zM361 724l9 2l60 -43l1 -10q-63 -69 -145 -150l-10 -3l-40 34q61 79 125 170z" />
    <glyph glyph-name="uni02E1" unicode="&#x2e1;" horiz-adv-x="164" 
d="M140 404l-4 -73l-86 -6l55 409l3 71l85 7z" />
    <glyph glyph-name="uni02E2" unicode="&#x2e2;" horiz-adv-x="249" 
d="M267 631l-18 -63l-12 -5q-16 14 -33 22t-30 8q-16 0 -25 -9.5t-9 -23.5q0 -11 9.5 -20t30.5 -23q32 -19 50 -39t18 -52q0 -44 -37.5 -73.5t-94.5 -29.5q-48 5 -81 18l19 67l8 6q17 -18 37.5 -28.5t38.5 -10.5q16 0 26 9.5t10 22.5t-10.5 23t-33.5 24q-31 21 -48 39.5
t-18 46.5q1 48 39.5 78t93.5 29q33 -3 70 -16z" />
    <glyph glyph-name="uni02E3" unicode="&#x2e3;" horiz-adv-x="325" 
d="M317 331l-95 -7l-9 39l-31 75l-48 -75l-18 -35h-92l112 163l-64 148l91 9l10 -32l30 -70l47 67l14 29h90l-109 -155z" />
    <glyph glyph-name="gravecomb" unicode="&#x300;" 
d="M-33 570l-31 -49l-12 -1q-79 46 -194 119l-2 12l47 70l12 1q86 -77 180 -152z" />
    <glyph glyph-name="acutecomb" unicode="&#x301;" 
d="M-70 721l47 -70l-2 -12q-112 -72 -193 -119l-12 1l-32 49q95 74 180 152z" />
    <glyph glyph-name="uni0302" unicode="&#x302;" 
d="M-304 573q52 44 132 121l21 20h28q46 -58 125 -141l-39 -49h-13q-58 52 -95 93q-34 -30 -120 -93h-13z" />
    <glyph glyph-name="tildecomb" unicode="&#x303;" 
d="M31 661v-11l-71 -89l-12 -4q-20 3 -83 20q-5 1 -32.5 8.5t-38.5 7.5t-21 -8.5t-27 -27.5l-14 -16h-11l-39 39v11l71 88l11 5q21 -3 86 -20q52 -16 68 -16q12 0 23 9t22.5 22.5t16.5 19.5h12z" />
    <glyph glyph-name="uni0304" unicode="&#x304;" 
d="M2 650l-6 -73h-281l-8 9l7 73h280z" />
    <glyph glyph-name="uni0306" unicode="&#x306;" 
d="M6 654q-20 -56 -60 -90t-98 -34q-64 0 -97.5 34t-40.5 90l34 44h19q7 -38 31 -57.5t60 -19.5q37 0 65 19.5t44 57.5h19z" />
    <glyph glyph-name="uni0307" unicode="&#x307;" 
d="M-30 669.5q17 -17.5 17 -48.5q0 -34 -19 -53.5t-51 -19.5t-49 17.5t-17 49.5q0 33 19 52.5t52 19.5q31 0 48 -17.5z" />
    <glyph glyph-name="uni0308" unicode="&#x308;" 
d="M-192 662.5q15 -15.5 15 -42.5q0 -30 -16.5 -47t-45.5 -17q-28 0 -43 15t-15 44t17 46t46 17q27 0 42 -15.5zM-14.5 662.5q15.5 -15.5 15.5 -42.5q0 -30 -17 -47t-46 -17q-28 0 -43 15.5t-15 43.5q0 29 16.5 46t45.5 17q28 0 43.5 -15.5z" />
    <glyph glyph-name="hookabovecomb" unicode="&#x309;" 
d="M-139 573q25 18 39 37t14 34q0 11 -8 16.5t-21 5.5q-15 0 -32.5 -6.5t-32.5 -18.5l-22 36q24 24 51.5 37.5t55.5 13.5q35 0 58 -20t23 -51q0 -20 -12.5 -38.5t-43.5 -45.5l23 -38l-49 -29z" />
    <glyph glyph-name="uni030A" unicode="&#x30a;" 
d="M-75 699q24 -24 24 -67q0 -47 -26.5 -72.5t-71.5 -25.5q-43 0 -67.5 24.5t-24.5 69.5t25 70t72 25q45 0 69 -24zM-187 630q0 -41 41 -41t41 38q0 40 -42 40q-40 0 -40 -37z" />
    <glyph glyph-name="uni030B" unicode="&#x30b;" 
d="M-211 724l10 2l59 -43l2 -10q-63 -69 -145 -150l-11 -3l-40 34q76 99 125 170zM-59 724l9 2l60 -43l1 -10q-63 -69 -145 -150l-10 -3l-40 34q61 79 125 170z" />
    <glyph glyph-name="uni030C" unicode="&#x30c;" 
d="M11 665q-52 -44 -132 -121l-21 -20h-28q-46 58 -125 141l39 49h13q58 -52 95 -93q34 30 120 93h13z" />
    <glyph glyph-name="uni030F" unicode="&#x30f;" 
d="M-204 523q-74 72 -144 150l1 10l59 43l10 -2q68 -96 126 -170l-41 -34zM-52 523q-82 81 -145 150l2 10l59 43l10 -2q49 -71 125 -170l-40 -34z" />
    <glyph glyph-name="uni0311" unicode="&#x311;" 
d="M-301 573q20 56 60 90t98 34q64 0 97.5 -34t40.5 -90l-34 -44h-19q-7 38 -31 57.5t-60 19.5q-37 0 -65 -19.5t-44 -57.5h-19z" />
    <glyph glyph-name="uni0312" unicode="&#x312;" 
d="M-129 432.5q-14 22.5 -14 54.5q0 39 22.5 78.5t68.5 84.5l46 -30l1 -9q-40 -46 -40 -86q0 -24 9 -40.5t31 -28.5v-11q-40 -32 -81 -50q-29 15 -43 37.5z" />
    <glyph glyph-name="uni031B" unicode="&#x31b;" 
d="M-174 464q27 0 43.5 14.5t16.5 39.5q0 17 -8 34.5t-23 30.5l3 11q38 25 63 25q26 0 46 -27t20 -67q0 -57 -44.5 -91.5t-116.5 -35.5v66z" />
    <glyph glyph-name="dotbelowcomb" unicode="&#x323;" 
d="M-110 -71.5q17 -17.5 17 -48.5q0 -34 -19 -53.5t-51 -19.5t-49 17.5t-17 49.5q0 33 19 52.5t52 19.5q31 0 48 -17.5z" />
    <glyph glyph-name="uni0324" unicode="&#x324;" 
d="M-282 -81.5q15 -15.5 15 -42.5q0 -30 -16.5 -47t-45.5 -17q-28 0 -43 15t-15 44t17 46t46 17q27 0 42 -15.5zM-104.5 -81.5q15.5 -15.5 15.5 -42.5q0 -30 -17 -47t-46 -17q-28 0 -43 15.5t-15 43.5q0 29 16.5 46t45.5 17q28 0 43.5 -15.5z" />
    <glyph glyph-name="uni0326" unicode="&#x326;" 
d="M-94 -113q0 -41 -27.5 -81t-85.5 -80l-39 35l-1 9q52 43 52 92q0 32 -29 56v11q43 25 88 38q42 -33 42 -80z" />
    <glyph glyph-name="uni0327" unicode="&#x327;" 
d="M-223 -48l34 -19q22 -12 31.5 -26.5t9.5 -32.5q0 -33 -26 -54t-68 -21q-45 0 -81 29l9 55l6 2q32 -30 58 -30q25 0 25 22q0 7 -4 11.5t-13 8.5l-49 28l23 100h63z" />
    <glyph glyph-name="uni0328" unicode="&#x328;" 
d="M-278 -174.5q-27 22.5 -27 59.5q0 22 9 39.5t34 41.5t79 69h71q-43 -44 -70 -72t-33.5 -38t-6.5 -20q0 -27 31 -27q28 0 74 30h6l14 -62q-57 -43 -110 -43q-44 0 -71 22.5z" />
    <glyph glyph-name="uni032E" unicode="&#x32e;" 
d="M-79 -101q-20 -56 -60 -90t-98 -34q-64 0 -97.5 34t-40.5 90l34 44h19q7 -38 31 -57.5t60 -19.5q37 0 65 19.5t44 57.5h19z" />
    <glyph glyph-name="uni0331" unicode="&#x331;" 
d="M-90 -98l-6 -73h-230l-9 10l7 72h230z" />
    <glyph glyph-name="uni0335" unicode="&#x335;" 
d="M-39 286l-13 -71h-359l-6 8l14 71h359z" />
    <glyph glyph-name="uni0342" unicode="&#x342;" 
d="M31 661v-11l-63 -88l-11 -5q-18 2 -43.5 10.5l-31.5 10.5q-45 15 -55 15q-11 0 -21 -10t-20.5 -23.5t-14.5 -18.5h-10l-38 39v11l62 87l12 5q18 -3 72 -20q7 -2 28 -9t30 -7q13 0 24 12t31 40h11z" />
    <glyph glyph-name="uni0343" unicode="&#x343;" 
d="M27 679q0 -37 -23.5 -74t-73.5 -79l-39 25v8q44 47 44 86q0 34 -27 50l1 9q39 27 77 42q41 -22 41 -67z" />
    <glyph glyph-name="uni0344" unicode="&#x344;" 
d="M-209 560q31 93 51 170l9 6l71 -28l6 -10l-78 -153l-15 -5zM-319 567.5q-13 13.5 -13 38.5q0 26 15 41.5t40 15.5t38.5 -14t13.5 -39t-15 -40.5t-41 -15.5q-25 0 -38 13.5zM-82 606q0 26 15 41.5t41 15.5q24 0 38 -14t14 -39q0 -26 -15 -41t-41 -15q-52 0 -52 52z" />
    <glyph glyph-name="uni0345" unicode="&#x345;" 
d="M-206 -220l36 181l65 5l8 -9l-5 -180l-97 -5z" />
    <glyph glyph-name="uni0374" unicode="&#x374;" horiz-adv-x="202" 
d="M212 633l-62 -217l-62 -10l-9 9l25 220l101 7z" />
    <glyph glyph-name="uni0375" unicode="&#x375;" horiz-adv-x="202" 
d="M-7 -149l61 217l62 9l10 -8l-26 -221l-100 -6z" />
    <glyph glyph-name="uni037A" unicode="&#x37a;" horiz-adv-x="213" 
d="M-8 -220l36 181l65 5l8 -9l-5 -180l-97 -5z" />
    <glyph glyph-name="uni037E" unicode="&#x37e;" horiz-adv-x="229" 
d="M161 45q0 -44 -29 -86t-90 -85l-42 37l-1 10q55 45 55 97q0 34 -31 59v12q47 28 94 40q44 -35 44 -84zM174 377.5q17 -17.5 17 -48.5q0 -34 -19 -53.5t-51 -19.5t-49 17.5t-17 49.5q0 33 19 52.5t52 19.5q31 0 48 -17.5z" />
    <glyph glyph-name="tonos" unicode="&#x384;" horiz-adv-x="201" 
d="M158 738l77 -31l3 -13l-101 -164l-12 -6l-61 26q43 89 82 182z" />
    <glyph glyph-name="dieresistonos" unicode="&#x385;" horiz-adv-x="399" 
d="M190 560q31 93 51 170l9 6l71 -28l6 -10l-78 -153l-15 -5zM80 567.5q-13 13.5 -13 38.5q0 26 15 41.5t40 15.5t38.5 -14t13.5 -39t-15 -40.5t-41 -15.5q-25 0 -38 13.5zM317 606q0 26 15 41.5t41 15.5q24 0 38 -14t14 -39q0 -26 -15 -41t-41 -15q-52 0 -52 52z" />
    <glyph glyph-name="Alphatonos" unicode="&#x386;" horiz-adv-x="635" 
d="M591 0h-133l-6 83l-9 63l-121 2l-107 -2l-24 -56l-29 -90h-130l291 643h157zM428 248l-40 271h-9l-118 -270l82 -2zM145 676l77 -31l3 -13l-101 -164l-12 -6l-61 26q43 89 82 182z" />
    <glyph glyph-name="anoteleia" unicode="&#x387;" horiz-adv-x="230" 
d="M176 363.5q17 -17.5 17 -48.5q0 -34 -19 -53.5t-51 -19.5t-49 17.5t-17 49.5q0 33 19 52.5t52 19.5q31 0 48 -17.5z" />
    <glyph glyph-name="Epsilontonos" unicode="&#x388;" horiz-adv-x="649" 
d="M400 538l-22 -159l107 -1l102 3l7 -10l-22 -99l-110 3l-99 -1l-10 -70l-10 -99l111 -1l154 5l5 -10l-20 -99h-393l31 192l50 451h396l6 -10l-22 -99l-149 5zM142 676l77 -31l3 -13l-101 -164l-12 -6l-61 26q43 89 82 182z" />
    <glyph glyph-name="Etatonos" unicode="&#x389;" horiz-adv-x="831" 
d="M805 643l-62 -439l-20 -204h-132l31 192l8 76l-142 3l-127 -4l-9 -63l-19 -204h-133l31 192l49 451h134l-37 -265l133 -3l132 3l28 265h135zM142 676l77 -31l3 -13l-101 -164l-12 -6l-61 26q43 89 82 182z" />
    <glyph glyph-name="Iotatonos" unicode="&#x38a;" horiz-adv-x="441" 
d="M352 204l-19 -204h-133l31 192l49 451h134zM142 676l77 -31l3 -13l-101 -164l-12 -6l-61 26q43 89 82 182z" />
    <glyph glyph-name="Omicrontonos" unicode="&#x38c;" horiz-adv-x="732" 
d="M654.5 583.5q65.5 -68.5 65.5 -199.5q0 -118 -39 -207t-114 -138t-180 -49q-118 0 -183.5 70.5t-65.5 202.5q0 118 38.5 206t113 135.5t180.5 47.5q119 0 184.5 -68.5zM319.5 478.5q-44.5 -66.5 -44.5 -212.5q0 -91 29.5 -132.5t95.5 -41.5q90 0 135 67t45 214
q0 91 -29.5 131.5t-96.5 40.5q-90 0 -134.5 -66.5zM109 676l77 -31l3 -13l-101 -164l-12 -6l-61 26q43 89 82 182z" />
    <glyph glyph-name="Upsilontonos" unicode="&#x38e;" horiz-adv-x="737" 
d="M518 220l-7 -40l-17 -180h-132l30 180l4 41l-146 422h137l8 -43l76 -248h9l148 244l24 47h138zM137 676l77 -31l3 -13l-101 -164l-12 -6l-61 26q43 89 82 182z" />
    <glyph glyph-name="Omegatonos" unicode="&#x38f;" horiz-adv-x="766" 
d="M104 5l25 100l75 -6h67l1 7q-116 69 -116 215q0 97 41.5 172t116 117t169.5 42q117 0 182 -66t65 -184q0 -99 -47.5 -176t-134.5 -120l-1 -7h67l83 7l6 -9l-25 -99l-75 2h-123l-40 -2l-5 5l16 123q77 47 110 107.5t33 154.5q0 81 -32 119.5t-99 38.5q-81 0 -128 -63
t-47 -173q0 -62 20 -104.5t67 -79.5l-13 -123l-7 -5l-39 2h-123l-82 -4zM108 676l77 -31l3 -13l-101 -164l-12 -6l-61 26q43 89 82 182z" />
    <glyph glyph-name="iotadieresistonos" unicode="&#x390;" horiz-adv-x="235" 
d="M156 112l-4 -107l-123 -9l50 360l4 104l122 9zM109 560q31 93 51 170l9 6l71 -28l6 -10l-78 -153l-15 -5zM-1 567.5q-13 13.5 -13 38.5q0 26 15 41.5t40 15.5t38.5 -14t13.5 -39t-15 -40.5t-41 -15.5q-25 0 -38 13.5zM236 606q0 26 15 41.5t41 15.5q24 0 38 -14t14 -39
q0 -26 -15 -41t-41 -15q-52 0 -52 52z" />
    <glyph glyph-name="Alpha" unicode="&#x391;" horiz-adv-x="583" 
d="M539 0h-133l-6 83l-9 63l-121 2l-107 -2l-24 -56l-29 -90h-130l291 643h157zM376 248l-40 271h-9l-118 -270l82 -2z" />
    <glyph glyph-name="Beta" unicode="&#x392;" horiz-adv-x="565" 
d="M503.5 282q25.5 -32 25.5 -83q0 -101 -75.5 -152.5t-231.5 -51.5q-89 0 -172 5h-1l31 192l49 451l216 1q89 0 140 -36t51 -105q0 -57 -29.5 -101t-85.5 -68q57 -20 82.5 -52zM377.5 406.5q21.5 27.5 21.5 73.5q0 37 -23 53t-79 16h-50l-25 -178l90 -3q44 11 65.5 38.5z
M358 118.5q37 28.5 37 79.5q0 34 -19.5 53t-59.5 27l-108 -2l-10 -72l-11 -110q50 -4 67 -4q67 0 104 28.5z" />
    <glyph glyph-name="Gamma" unicode="&#x393;" horiz-adv-x="447" 
d="M499 639l-22 -99l-141 3h-88l-46 -341l-21 -208h-136l30 195l50 461h367z" />
    <glyph glyph-name="uni0394" unicode="&#x394;" horiz-adv-x="563" 
d="M8 86l250 557h159l101 -557l-11 -86h-510zM390 103l-66 416h-9l-181 -416h256z" />
    <glyph glyph-name="Epsilon" unicode="&#x395;" horiz-adv-x="497" 
d="M248 538l-22 -159l107 -1l102 3l7 -10l-22 -99l-110 3l-99 -1l-10 -70l-10 -99l111 -1l154 5l5 -10l-20 -99h-393l31 192l50 451h396l6 -10l-22 -99l-149 5z" />
    <glyph glyph-name="Zeta" unicode="&#x396;" horiz-adv-x="532" 
d="M537 548l-367 -447h210l106 8l4 -7l-23 -105l-141 3h-249l-76 -4l12 95l370 451h-198l-107 -9l-5 7l24 105l126 -2h266l60 1z" />
    <glyph glyph-name="Eta" unicode="&#x397;" horiz-adv-x="679" 
d="M653 643l-62 -439l-20 -204h-132l31 192l8 76l-142 3l-127 -4l-9 -63l-19 -204h-133l31 192l49 451h134l-37 -265l133 -3l132 3l28 265h135z" />
    <glyph glyph-name="Theta" unicode="&#x398;" horiz-adv-x="663" 
d="M584 582q67 -70 67 -197q0 -120 -43.5 -209.5t-124.5 -137.5t-191 -48q-123 0 -189.5 71.5t-66.5 200.5q0 120 43 208t124 135t191 47q123 0 190 -70zM220.5 479q-50.5 -67 -50.5 -211q0 -92 35.5 -135t109.5 -43q104 0 152 70t48 210q0 91 -35 133.5t-110 42.5
q-99 0 -149.5 -67zM229 278l14 84l205 7l8 -8l-14 -84l-206 -8z" />
    <glyph glyph-name="Iota" unicode="&#x399;" horiz-adv-x="289" 
d="M200 204l-19 -204h-133l31 192l49 451h134z" />
    <glyph glyph-name="Kappa" unicode="&#x39a;" horiz-adv-x="569" 
d="M352 335q80 -141 200 -307l-4 -15q-60 -15 -132 -23l-13 8q-118 199 -185 332l-18 -126l-20 -204h-132l31 192l49 451h134l-42 -298l204 237l44 61h142z" />
    <glyph glyph-name="Lambda" unicode="&#x39b;" horiz-adv-x="587" 
d="M271 643h158l114 -643h-133l-5 83l-66 436h-9l-190 -429l-29 -90h-131z" />
    <glyph glyph-name="Mu" unicode="&#x39c;" horiz-adv-x="776" 
d="M701 0h-117l15 195l8 253h-9l-187 -380h-103l-80 380h-10l-53 -241l-39 -207h-111l144 643h151l14 -95l60 -309h9l143 310l39 94h150z" />
    <glyph glyph-name="Nu" unicode="&#x39d;" horiz-adv-x="678" 
d="M590 198l-19 -198h-142l-200 441h-9l-28 -220l-22 -221h-121l30 190l50 453h142l200 -441h9l51 436l123 8z" />
    <glyph glyph-name="Xi" unicode="&#x39e;" horiz-adv-x="555" 
d="M95 537l25 106h420l7 -10l-24 -107l-205 4l-216 -4zM107 279l25 106l171 -3l157 3l7 -11l-25 -106l-159 2l-168 -2zM44 107l10 11l205 -5l217 5l8 -11l-25 -107h-420z" />
    <glyph glyph-name="Omicron" unicode="&#x39f;" horiz-adv-x="631" 
d="M553.5 583.5q65.5 -68.5 65.5 -199.5q0 -118 -39 -207t-114 -138t-180 -49q-118 0 -183.5 70.5t-65.5 202.5q0 118 38.5 206t113 135.5t180.5 47.5q119 0 184.5 -68.5zM218.5 478.5q-44.5 -66.5 -44.5 -212.5q0 -91 29.5 -132.5t95.5 -41.5q90 0 135 67t45 214
q0 91 -29.5 131.5t-96.5 40.5q-90 0 -134.5 -66.5z" />
    <glyph glyph-name="Pi" unicode="&#x3a0;" horiz-adv-x="664" 
d="M576 204l-20 -204h-132l29 192l37 343l-129 3l-115 -4l-45 -330l-20 -204h-133l30 192l49 451h510z" />
    <glyph glyph-name="Rho" unicode="&#x3a1;" horiz-adv-x="540" 
d="M499.5 600.5q50.5 -43.5 50.5 -127.5q0 -77 -34.5 -137.5t-98.5 -94.5t-149 -34h-67v-3l-20 -204h-132l31 192l49 451l230 1q90 0 140.5 -43.5zM385 356q27 39 27 96q0 46 -23 69t-74 26l-66 -3l-33 -236l94 -3q48 12 75 51z" />
    <glyph glyph-name="Sigma" unicode="&#x3a3;" horiz-adv-x="506" 
d="M21 90l191 238l-126 220l13 96l80 -1h236l101 2l8 -11l-21 -97l-88 4h-171l109 -195l-2 -18l-180 -224h170l104 7l7 -12l-22 -100l-334 1l-86 -2z" />
    <glyph glyph-name="Tau" unicode="&#x3a4;" horiz-adv-x="489" 
d="M525 633l-20 -98l-117 6h-38l-47 -337l-20 -204h-132l32 192l38 349h-39l-121 -6l-7 10l22 98h443z" />
    <glyph glyph-name="Upsilon" unicode="&#x3a5;" horiz-adv-x="543" 
d="M324 220l-7 -40l-17 -180h-132l30 180l4 41l-146 422h137l8 -43l76 -248h9l148 244l24 47h138z" />
    <glyph glyph-name="Phi" unicode="&#x3a6;" horiz-adv-x="788" 
d="M691 147.5q-89 -79.5 -258 -91.5l-9 -90h-126l13 89q-137 9 -207 68t-70 167q0 150 87 227.5t257 89.5l8 72h128l-10 -71q136 -9 206 -67.5t70 -164.5q0 -149 -89 -228.5zM205.5 199q39.5 -36 121.5 -44l5 35l35 316q-103 -10 -152 -58.5t-49 -144.5q0 -68 39.5 -104z
M598.5 212.5q49.5 48.5 49.5 145.5q0 68 -38.5 103.5t-119.5 44.5l-41 -303l-5 -49q105 10 154.5 58.5z" />
    <glyph glyph-name="Chi" unicode="&#x3a7;" horiz-adv-x="593" 
d="M393 330l156 -330h-154l-21 64l-83 169l-135 -177l-35 -56h-135l238 325l-154 318h155l21 -63l78 -161l122 166l35 58h139z" />
    <glyph glyph-name="Psi" unicode="&#x3a8;" horiz-adv-x="735" 
d="M739 643l-26 -186l-12 -91q-13 -104 -87.5 -167.5t-198.5 -76.5l-12 -122h-126l19 121q-113 10 -172 65t-59 148q0 10 2 32l10 96l20 181h124l-32 -259q-2 -22 -2 -31q0 -111 123 -129l46 419h126l-56 -419q145 21 161 160l31 259h121z" />
    <glyph glyph-name="uni03A9" unicode="&#x3a9;" horiz-adv-x="681" 
d="M18 5l25 100l75 -6h67l1 7q-116 69 -116 215q0 97 41.5 172t116 117t169.5 42q117 0 182 -66t65 -184q0 -99 -47.5 -176t-134.5 -120l-1 -7h67l83 7l6 -9l-25 -99l-75 2h-123l-40 -2l-5 5l16 123q77 47 110 107.5t33 154.5q0 81 -32 119.5t-99 38.5q-81 0 -128 -63
t-47 -173q0 -62 20 -104.5t67 -79.5l-13 -123l-7 -5l-39 2h-123l-82 -4z" />
    <glyph glyph-name="Iotadieresis" unicode="&#x3aa;" horiz-adv-x="289" 
d="M200 204l-19 -204h-133l31 192l49 451h134zM175 841.5q15 -15.5 15 -42.5q0 -30 -16.5 -47t-45.5 -17q-28 0 -43 15t-15 44t17 46t46 17q27 0 42 -15.5zM352.5 841.5q15.5 -15.5 15.5 -42.5q0 -30 -17 -47t-46 -17q-28 0 -43 15.5t-15 43.5q0 29 16.5 46t45.5 17
q28 0 43.5 -15.5z" />
    <glyph glyph-name="Upsilondieresis" unicode="&#x3ab;" horiz-adv-x="543" 
d="M324 220l-7 -40l-17 -180h-132l30 180l4 41l-146 422h137l8 -43l76 -248h9l148 244l24 47h138zM301 841.5q15 -15.5 15 -42.5q0 -30 -16.5 -47t-45.5 -17q-28 0 -43 15t-15 44t17 46t46 17q27 0 42 -15.5zM478.5 841.5q15.5 -15.5 15.5 -42.5q0 -30 -17 -47t-46 -17
q-28 0 -43 15.5t-15 43.5q0 29 16.5 46t45.5 17q28 0 43.5 -15.5z" />
    <glyph glyph-name="alphatonos" unicode="&#x3ac;" horiz-adv-x="453" 
d="M423 470l-48 -358l-5 -107l-122 -9l22 158h-14q-53 -95 -118 -163h-18q-55 20 -79 60.5t-24 102.5q0 67 25.5 130.5t75 112.5t116.5 72h6l68 -44l5 37zM186 135.5q22 26.5 51 78.5t59 125l2 14l-66 24q-48 0 -76 -51.5t-28 -131.5q0 -46 7 -65.5t17 -19.5q12 0 34 26.5z
M341 738l77 -31l3 -13l-101 -164l-12 -6l-61 26q43 89 82 182z" />
    <glyph glyph-name="epsilontonos" unicode="&#x3ad;" horiz-adv-x="386" 
d="M184 371q-17 -14 -17 -41q0 -21 14.5 -35.5t39.5 -19.5h74l4 -8l-15 -71h-75q-31 0 -52.5 -19.5t-21.5 -47.5q0 -24 14.5 -36.5t40.5 -12.5q27 0 58.5 15.5t57.5 44.5h15l30 -64q-33 -35 -77 -56.5t-94 -28.5q-85 0 -126 27.5t-41 85.5q0 48 28 84t77 53q-32 14 -49 37.5
t-17 53.5q0 65 56.5 103.5t151.5 38.5q72 -15 122 -33l-30 -93l-19 -1q-52 38 -102 38q-30 0 -47 -14zM284 738l77 -31l3 -13l-101 -164l-12 -6l-61 26q43 89 82 182z" />
    <glyph glyph-name="etatonos" unicode="&#x3ae;" horiz-adv-x="484" 
d="M423.5 433.5q29.5 -25.5 28.5 -61.5l-1 -13l-69 -431l-5 -108l-126 -9l80 493l1 11q0 24 -18 24q-23 0 -63.5 -51.5t-91.5 -150.5l-3 -25l-4 -107l-123 -9l50 360l4 104l122 9l-25 -181h12q38 62 72.5 104.5t72.5 75.5l12 1q45 -10 74.5 -35.5zM333 738l77 -31l3 -13
l-101 -164l-12 -6l-61 26q43 89 82 182z" />
    <glyph glyph-name="iotatonos" unicode="&#x3af;" horiz-adv-x="235" 
d="M156 112l-4 -107l-123 -9l50 360l4 104l122 9zM209 738l77 -31l3 -13l-101 -164l-12 -6l-61 26q43 89 82 182z" />
    <glyph glyph-name="upsilondieresistonos" unicode="&#x3b0;" horiz-adv-x="456" 
d="M79 29.5q-41 37.5 -41 102.5q0 10 2 30l25 194l5 104l121 8l-40 -288q-2 -22 -2 -30q0 -35 15 -50.5t47 -15.5q38 0 56 20t25 74l23 178l5 104l120 8l-38 -294q-11 -83 -68 -132.5t-141 -49.5q-73 0 -114 37.5zM219 560q31 93 51 170l9 6l71 -28l6 -10l-78 -153l-15 -5z
M109 567.5q-13 13.5 -13 38.5q0 26 15 41.5t40 15.5t38.5 -14t13.5 -39t-15 -40.5t-41 -15.5q-25 0 -38 13.5zM346 606q0 26 15 41.5t41 15.5q24 0 38 -14t14 -39q0 -26 -15 -41t-41 -15q-52 0 -52 52z" />
    <glyph glyph-name="alpha" unicode="&#x3b1;" horiz-adv-x="453" 
d="M423 470l-48 -358l-5 -107l-122 -9l22 158h-14q-53 -95 -118 -163h-18q-55 20 -79 60.5t-24 102.5q0 67 25.5 130.5t75 112.5t116.5 72h6l68 -44l5 37zM186 135.5q22 26.5 51 78.5t59 125l2 14l-66 24q-48 0 -76 -51.5t-28 -131.5q0 -46 7 -65.5t17 -19.5q12 0 34 26.5z
" />
    <glyph glyph-name="beta" unicode="&#x3b2;" horiz-adv-x="480" 
d="M423.5 324q28.5 -40 28.5 -100q0 -66 -29.5 -119t-81.5 -83t-116 -30q-43 0 -79 13l-10 -82l-6 -108l-120 -9l84 642q17 124 75.5 190t152.5 66q69 0 108 -35.5t39 -99.5q0 -57 -34 -105.5t-96 -80.5q56 -19 84.5 -59zM308.5 117.5q30.5 38.5 30.5 99.5q0 52 -27 76.5
t-83 24.5l-5 8l11 83q59 19 89.5 54.5t30.5 85.5q0 59 -57 59q-39 0 -61 -27.5t-30 -85.5l-49 -395q38 -21 73 -21q47 0 77.5 38.5z" />
    <glyph glyph-name="gamma" unicode="&#x3b3;" horiz-adv-x="420" 
d="M375 251l-161 -274l-7 -52l-4 -110l-123 -9l24 170l-63 485l122 8l1 -85l18 -256h10l82 155q29 53 29 93q0 30 -19 62l5 14l113 19q19 -41 19 -80q0 -63 -46 -140z" />
    <glyph glyph-name="delta" unicode="&#x3b4;" horiz-adv-x="428" 
d="M238 529.5q16 -19.5 49 -49.5q36 -32 60 -58.5t41.5 -67.5t17.5 -95q0 -74 -30.5 -135.5t-83.5 -96.5t-116 -35q-74 0 -114.5 48t-40.5 135q0 101 44 167.5t124 88.5l3 6q-36 32 -54.5 59t-18.5 68q0 67 50.5 105t139.5 38q57 -7 116 -28l-28 -94l-16 -2
q-30 23 -52.5 32.5t-42.5 9.5q-30 0 -47 -14t-17 -38t16 -43.5zM268.5 122q26.5 42 26.5 113q0 47 -12.5 82.5t-35.5 64.5q-61 -17 -87.5 -61t-26.5 -129q0 -61 14.5 -86.5t48.5 -25.5q46 0 72.5 42z" />
    <glyph glyph-name="epsilon" unicode="&#x3b5;" horiz-adv-x="386" 
d="M184 371q-17 -14 -17 -41q0 -21 14.5 -35.5t39.5 -19.5h74l4 -8l-15 -71h-75q-31 0 -52.5 -19.5t-21.5 -47.5q0 -24 14.5 -36.5t40.5 -12.5q27 0 58.5 15.5t57.5 44.5h15l30 -64q-33 -35 -77 -56.5t-94 -28.5q-85 0 -126 27.5t-41 85.5q0 48 28 84t77 53q-32 14 -49 37.5
t-17 53.5q0 65 56.5 103.5t151.5 38.5q72 -15 122 -33l-30 -93l-19 -1q-52 38 -102 38q-30 0 -47 -14z" />
    <glyph glyph-name="zeta" unicode="&#x3b6;" horiz-adv-x="372" 
d="M174 100q21 0 59 5q46 4 55 4q26 0 40 -17t14 -50q0 -47 -33.5 -99t-111.5 -127l-68 47v8q40 32 73.5 70t33.5 52q0 15 -14 15q-8 0 -40 -4q-52 -5 -61 -5q-53 0 -80.5 34t-27.5 99q0 92 71.5 213t220.5 268h-124l-80 -6l-3 5l20 89l95 -1h173l52 1l-10 -85
q-296 -319 -296 -464q0 -52 42 -52z" />
    <glyph glyph-name="eta" unicode="&#x3b7;" horiz-adv-x="484" 
d="M423.5 433.5q29.5 -25.5 28.5 -61.5l-1 -13l-69 -431l-5 -108l-126 -9l80 493l1 11q0 24 -18 24q-23 0 -63.5 -51.5t-91.5 -150.5l-3 -25l-4 -107l-123 -9l50 360l4 104l122 9l-25 -181h12q38 62 72.5 104.5t72.5 75.5l12 1q45 -10 74.5 -35.5z" />
    <glyph glyph-name="theta" unicode="&#x3b8;" horiz-adv-x="463" 
d="M409.5 647.5q35.5 -59.5 35.5 -174.5q0 -146 -30 -254.5t-88 -167.5t-138 -59q-69 0 -105 59t-36 175q0 146 30.5 254.5t88.5 167.5t138 59q69 0 104.5 -59.5zM211.5 558q-31.5 -57 -45.5 -172l168 6q2 56 2 90q0 133 -52 133q-41 0 -72.5 -57zM281 137q31 56 45 168
l-167 -7q-2 -52 -2 -83q0 -134 54 -134q39 0 70 56z" />
    <glyph glyph-name="iota" unicode="&#x3b9;" horiz-adv-x="235" 
d="M156 112l-4 -107l-123 -9l50 360l4 104l122 9z" />
    <glyph glyph-name="kappa" unicode="&#x3ba;" horiz-adv-x="453" 
d="M285 245q20 -38 92 -158q8 -14 18 -30t21 -35l-1 -14q-39 -9 -109 -18l-13 6l-122 231l-15 -115l-5 -107l-121 -9l48 360l5 104l119 8l-27 -207l133 156l28 47h130z" />
    <glyph glyph-name="lambda" unicode="&#x3bb;" horiz-adv-x="435" 
d="M414 84l-20 -72q-26 -15 -64 -20q-35 2 -52 19.5t-24 63.5l-30 216h-7l-96 -220l-27 -78l-116 12l221 462l-1 7q-7 48 -16 73.5t-24.5 37t-42.5 11.5q-15 0 -33 -3l-4 12l27 94q24 4 50 4q64 0 96.5 -39t46.5 -134l62 -416q2 -15 7.5 -21.5t15.5 -6.5q9 0 24 6z" />
    <glyph glyph-name="uni03BC" unicode="&#x3bc;" horiz-adv-x="491" 
d="M462 469l-50 -357l-3 -107l-123 -9l25 177h-10q-61 -109 -124 -176h-12q-18 8 -31 21l-6 -203l-123 -9l76 550l4 104l122 9l-44 -320v-5q0 -19 18 -19q23 0 61.5 50t88.5 148l5 33l4 104z" />
    <glyph glyph-name="nu" unicode="&#x3bd;" horiz-adv-x="421" 
d="M421 391q0 -59 -45 -140l-142 -251h-138l-54 461l122 8l1 -85l18 -256h10l82 155q29 53 29 93q0 30 -19 62l5 14l113 19q18 -39 18 -80z" />
    <glyph glyph-name="xi" unicode="&#x3be;" horiz-adv-x="384" 
d="M431 669l-31 -92l-23 -1q-46 34 -84 34q-42 0 -69.5 -34t-27.5 -85q0 -43 23 -66t65 -23h65l6 -9l-16 -73h-46q-76 -26 -119 -70.5t-43 -95.5q0 -26 12 -41t33 -15q12 0 27 2t28 3q48 6 62 6q25 0 38 -17.5t13 -49.5q0 -47 -33.5 -98.5t-110.5 -127.5l-71 47v8
q46 36 77.5 72.5t31.5 51.5q0 13 -14 13q-3 0 -37 -4q-56 -7 -70 -7q-47 0 -74 34t-27 92q0 70 40 127.5t112 92.5q-41 20 -63 53.5t-22 79.5q0 60 33.5 113t90 85t121.5 32q53 -7 99 -28z" />
    <glyph glyph-name="omicron" unicode="&#x3bf;" horiz-adv-x="429" 
d="M280 473q128 -26 128 -165q0 -141 -65.5 -225.5t-180.5 -92.5l-12 1q-63 14 -96 56t-33 118q0 89 30 157.5t86 108t131 43.5zM162 324q-25 -54 -25 -161q0 -44 10.5 -62t36.5 -18q56 0 81 55t25 162q0 43 -10.5 60.5t-35.5 17.5q-57 0 -82 -54z" />
    <glyph glyph-name="pi" unicode="&#x3c0;" horiz-adv-x="535" 
d="M549 381h-90l-38 -271l-7 -105l-120 -9l56 385h-126l-36 -269l-7 -107l-120 -9l54 385h-81l-7 9l9 74h514l8 -8z" />
    <glyph glyph-name="rho" unicode="&#x3c1;" horiz-adv-x="441" 
d="M382.5 428.5q38.5 -43.5 38.5 -126.5t-32.5 -153t-88.5 -112.5t-122 -44.5l-52 11l-11 -80l-4 -108l-121 -9l57 426q14 111 74.5 175.5t150.5 64.5q72 0 110.5 -43.5zM280.5 136.5q27.5 53.5 27.5 148.5q0 56 -11.5 76.5t-43.5 20.5q-77 0 -91 -107l-24 -177l65 -18
q50 3 77.5 56.5z" />
    <glyph glyph-name="uni03C2" unicode="&#x3c2;" horiz-adv-x="362" 
d="M100 -137v8q41 33 73.5 71t32.5 52t-14 14q-7 0 -35 -4q-8 -1 -22.5 -3t-21.5 -2q-44 0 -68 41.5t-24 115.5q0 91 33.5 162.5t92.5 112t133 40.5l78 -23l4 -13l-34 -86l-26 -2q-18 18 -30.5 25.5t-26.5 7.5q-32 0 -57 -26.5t-39 -72.5t-14 -104q0 -42 9 -59.5t30 -17.5
q14 0 41 5q9 1 23 3t20 2q54 0 54 -68q0 -46 -34 -98t-111 -127z" />
    <glyph glyph-name="sigma" unicode="&#x3c3;" horiz-adv-x="465" 
d="M379 377l-3 -7q24 -52 24 -119q0 -70 -30.5 -130t-82.5 -95.5t-114 -35.5q-72 0 -111 48.5t-39 140.5q0 134 65.5 209.5t183.5 75.5h203l3 -7l-16 -80h-83zM285 377h-32q-61 0 -89 -46.5t-28 -151.5q0 -57 11.5 -77.5t43.5 -20.5q49 0 75 51.5t26 148.5q0 51 -7 96z" />
    <glyph glyph-name="tau" unicode="&#x3c4;" horiz-adv-x="382" 
d="M212 136l-2 -13q0 -20 19 -20q12 0 26 12t36 43h10l35 -43q-32 -54 -63 -83t-70 -40q-51 0 -79.5 26.5t-27.5 72.5l2 26l42 264h-109l-7 9l9 74h353l8 -8l-9 -75h-134z" />
    <glyph glyph-name="upsilon" unicode="&#x3c5;" horiz-adv-x="456" 
d="M79 29.5q-41 37.5 -41 102.5q0 10 2 30l25 194l5 104l121 8l-40 -288q-2 -22 -2 -30q0 -35 15 -50.5t47 -15.5q38 0 56 20t25 74l23 178l5 104l120 8l-38 -294q-11 -83 -68 -132.5t-141 -49.5q-73 0 -114 37.5z" />
    <glyph glyph-name="phi" unicode="&#x3c6;" horiz-adv-x="593" 
d="M317 -4l-10 -73l-7 -108l-119 -9l25 189q-94 10 -139 58.5t-45 138.5q0 100 46 174.5t127 105.5l41 -44l-1 -14q-55 -48 -79.5 -97t-24.5 -114q0 -53 21 -84t65 -41l29 219q11 81 60 128t122 47q69 0 106 -47.5t37 -134.5q0 -265 -254 -294zM428.5 140.5
q32.5 49.5 32.5 142.5q0 52 -13 79t-38 27q-42 0 -50 -63l-33 -248q69 13 101.5 62.5z" />
    <glyph glyph-name="chi" unicode="&#x3c7;" horiz-adv-x="454" 
d="M377 -93q5 -6 14 -6q4 0 18 4l7 -7l-22 -72q-32 -15 -65 -19q-31 2 -45.5 17.5t-27.5 62.5l-51 183l-101 -199l-22 -56h-122l183 330l-59 180q-10 29 -18 38.5t-21 9.5q-4 0 -18 -2l-4 10l25 84q24 3 42 3q43 0 64.5 -20t35.5 -68l47 -165l97 193l22 56h122l-180 -323
l69 -215q5 -13 10 -19z" />
    <glyph glyph-name="psi" unicode="&#x3c8;" horiz-adv-x="613" 
d="M599 468l-36 -277q-8 -58 -41 -102.5t-83 -69.5t-108 -27l-9 -69l-6 -108l-120 -9l24 186h-8q-78 0 -126 42.5t-48 115.5q0 9 2 29l23 177l5 104l121 8l-38 -271q-2 -18 -2 -26q0 -44 21.5 -65.5t59.5 -21.5h2l47 355l5 105l119 8l-60 -468q95 0 109 111l22 161l5 104z
" />
    <glyph glyph-name="omega" unicode="&#x3c9;" horiz-adv-x="599" 
d="M543 385.5q27 -51.5 27 -133.5q0 -123 -48.5 -192t-135.5 -69q-88 0 -114 81q-20 -42 -51 -61.5t-77 -19.5q-62 0 -91.5 41t-29.5 125q0 114 43.5 194.5t124.5 116.5l42 -43l-2 -15q-47 -42 -72 -106t-25 -140q0 -42 9.5 -61.5t31.5 -19.5q49 0 61 98l18 134l101 5l9 -9
l-19 -136q-2 -22 -2 -30q0 -62 40 -62q34 0 53.5 42t19.5 116q0 103 -48 169v15l50 43q58 -31 85 -82.5z" />
    <glyph glyph-name="iotadieresis" unicode="&#x3ca;" horiz-adv-x="235" 
d="M156 112l-4 -107l-123 -9l50 360l4 104l122 9zM122 662.5q15 -15.5 15 -42.5q0 -30 -16.5 -47t-45.5 -17q-28 0 -43 15t-15 44t17 46t46 17q27 0 42 -15.5zM299.5 662.5q15.5 -15.5 15.5 -42.5q0 -30 -17 -47t-46 -17q-28 0 -43 15.5t-15 43.5q0 29 16.5 46t45.5 17
q28 0 43.5 -15.5z" />
    <glyph glyph-name="upsilondieresis" unicode="&#x3cb;" horiz-adv-x="456" 
d="M79 29.5q-41 37.5 -41 102.5q0 10 2 30l25 194l5 104l121 8l-40 -288q-2 -22 -2 -30q0 -35 15 -50.5t47 -15.5q38 0 56 20t25 74l23 178l5 104l120 8l-38 -294q-11 -83 -68 -132.5t-141 -49.5q-73 0 -114 37.5zM232 662.5q15 -15.5 15 -42.5q0 -30 -16.5 -47t-45.5 -17
q-28 0 -43 15t-15 44t17 46t46 17q27 0 42 -15.5zM409.5 662.5q15.5 -15.5 15.5 -42.5q0 -30 -17 -47t-46 -17q-28 0 -43 15.5t-15 43.5q0 29 16.5 46t45.5 17q28 0 43.5 -15.5z" />
    <glyph glyph-name="omicrontonos" unicode="&#x3cc;" horiz-adv-x="429" 
d="M280 473q128 -26 128 -165q0 -141 -65.5 -225.5t-180.5 -92.5l-12 1q-63 14 -96 56t-33 118q0 89 30 157.5t86 108t131 43.5zM162 324q-25 -54 -25 -161q0 -44 10.5 -62t36.5 -18q56 0 81 55t25 162q0 43 -10.5 60.5t-35.5 17.5q-57 0 -82 -54zM327 738l77 -31l3 -13
l-101 -164l-12 -6l-61 26q43 89 82 182z" />
    <glyph glyph-name="upsilontonos" unicode="&#x3cd;" horiz-adv-x="456" 
d="M79 29.5q-41 37.5 -41 102.5q0 10 2 30l25 194l5 104l121 8l-40 -288q-2 -22 -2 -30q0 -35 15 -50.5t47 -15.5q38 0 56 20t25 74l23 178l5 104l120 8l-38 -294q-11 -83 -68 -132.5t-141 -49.5q-73 0 -114 37.5zM319 738l77 -31l3 -13l-101 -164l-12 -6l-61 26
q43 89 82 182z" />
    <glyph glyph-name="omegatonos" unicode="&#x3ce;" horiz-adv-x="599" 
d="M543 385.5q27 -51.5 27 -133.5q0 -123 -48.5 -192t-135.5 -69q-88 0 -114 81q-20 -42 -51 -61.5t-77 -19.5q-62 0 -91.5 41t-29.5 125q0 114 43.5 194.5t124.5 116.5l42 -43l-2 -15q-47 -42 -72 -106t-25 -140q0 -42 9.5 -61.5t31.5 -19.5q49 0 61 98l18 134l101 5l9 -9
l-19 -136q-2 -22 -2 -30q0 -62 40 -62q34 0 53.5 42t19.5 116q0 103 -48 169v15l50 43q58 -31 85 -82.5zM388 719l77 -31l3 -13l-101 -164l-12 -6l-61 26q43 89 82 182z" />
    <glyph glyph-name="uni03CF" unicode="&#x3cf;" horiz-adv-x="614" 
d="M449 2l72 10q-55 -121 -117.5 -176.5t-144.5 -55.5q-10 0 -34 2q-42 39 -45 101l10 6q22 -3 43 -3q54 0 92 25t71 82l-25 15q-121 189 -192 329l-1 3l-19 -136l-20 -204h-133l31 192l49 451h134l-41 -298l210 237l45 61h146l-270 -305q87 -150 210 -313v-10z" />
    <glyph glyph-name="uni03D1" unicode="&#x3d1;" horiz-adv-x="463" 
d="M409.5 647.5q35.5 -59.5 35.5 -174.5q0 -146 -30 -254.5t-88 -167.5t-138 -59q-69 0 -105 59t-36 175q0 146 30.5 254.5t88.5 167.5t138 59q69 0 104.5 -59.5zM211.5 558q-31.5 -57 -45.5 -172l168 6q2 56 2 90q0 133 -52 133q-41 0 -72.5 -57zM281 137q31 56 45 168
l-167 -7q-2 -52 -2 -83q0 -134 54 -134q39 0 70 56z" />
    <glyph glyph-name="uni03D5" unicode="&#x3d5;" horiz-adv-x="593" 
d="M317 -4l-10 -73l-7 -108l-119 -9l25 189q-94 10 -139 58.5t-45 138.5q0 100 46 174.5t127 105.5l41 -44l-1 -14q-55 -48 -79.5 -97t-24.5 -114q0 -53 21 -84t65 -41l29 219q11 81 60 128t122 47q69 0 106 -47.5t37 -134.5q0 -265 -254 -294zM428.5 140.5
q32.5 49.5 32.5 142.5q0 52 -13 79t-38 27q-42 0 -50 -63l-33 -248q69 13 101.5 62.5z" />
    <glyph glyph-name="uni03D6" unicode="&#x3d6;" horiz-adv-x="535" 
d="M549 381h-90l-38 -271l-7 -105l-120 -9l56 385h-126l-36 -269l-7 -107l-120 -9l54 385h-81l-7 9l9 74h514l8 -8z" />
    <glyph glyph-name="uni03D7" unicode="&#x3d7;" horiz-adv-x="496" 
d="M258 252q30 -52 99 -156l50 -76l-1 -12l-55 -6l55 3q-46 -98 -101 -144t-125 -46q-14 0 -22 1q-44 37 -49 96l8 7q22 -2 32 -2q47 0 80.5 19t62.5 60l-23 12q-48 79 -77.5 130.5t-52.5 99.5l-5 -33l-20 -205h-128l29 192l28 264l130 10l-31 -206l141 157l34 47h136z" />
    <glyph glyph-name="uni03F0" unicode="&#x3f0;" horiz-adv-x="453" 
d="M285 245q20 -38 92 -158q8 -14 18 -30t21 -35l-1 -14q-39 -9 -109 -18l-13 6l-122 231l-15 -115l-5 -107l-121 -9l48 360l5 104l119 8l-27 -207l133 156l28 47h130z" />
    <glyph glyph-name="uni0400" unicode="&#x400;" horiz-adv-x="517" 
d="M247 538l-22 -159l107 -1l102 3l7 -10l-22 -99l-110 3l-99 -1l-10 -70l-10 -99l111 -1l154 5l5 -10l-20 -99h-393l31 192l50 451h396l6 -10l-22 -99l-149 5zM440 775l-21 -54l-13 -4q-130 45 -213 78l-4 12l33 77l12 3q96 -57 206 -112z" />
    <glyph glyph-name="uni0401" unicode="&#x401;" horiz-adv-x="517" 
d="M247 538l-22 -159l107 -1l102 3l7 -10l-22 -99l-110 3l-99 -1l-10 -70l-10 -99l111 -1l154 5l5 -10l-20 -99h-393l31 192l50 451h396l6 -10l-22 -99l-149 5zM297 841.5q15 -15.5 15 -42.5q0 -30 -16.5 -47t-45.5 -17q-28 0 -43 15t-15 44t17 46t46 17q27 0 42 -15.5z
M474.5 841.5q15.5 -15.5 15.5 -42.5q0 -30 -17 -47t-46 -17q-28 0 -43 15.5t-15 43.5q0 29 16.5 46t45.5 17q28 0 43.5 -15.5z" />
    <glyph glyph-name="uni0402" unicode="&#x402;" horiz-adv-x="661" 
d="M580.5 391q39.5 -38 39.5 -129q0 -42 -5 -78q-17 -130 -66 -220t-144 -159l-44 53v14q56 52 89 125.5t46 173.5q4 31 4 59q0 46 -15.5 65.5t-51.5 19.5q-66 0 -137 -62l-7 -49l-20 -204h-129l31 192l38 348h-41l-106 -4l-7 11l19 96h473l7 -10l-20 -97l-119 4h-80
l-25 -186l7 1q59 52 132 76q92 -2 131.5 -40z" />
    <glyph glyph-name="uni0403" unicode="&#x403;" horiz-adv-x="459" 
d="M498 639l-22 -99l-141 3h-88l-46 -341l-21 -208h-136l30 195l50 461h367zM421 884l33 -77l-4 -12q-89 -35 -214 -78l-13 4l-21 54q108 54 207 112z" />
    <glyph glyph-name="uni0404" unicode="&#x404;" horiz-adv-x="550" 
d="M562 612l-35 -111l-10 -3q-29 22 -66 33.5t-76 11.5q-144 0 -186 -164l105 -1l151 3l7 -10l-20 -99l-160 3l-98 -1q-4 -89 30 -130.5t111 -41.5q75 0 167 45l14 -8l-23 -114q-87 -34 -176 -34q-130 0 -196.5 64t-66.5 189q0 29 5 71q20 162 110.5 249t240.5 87
q99 0 172 -39z" />
    <glyph glyph-name="uni0405" unicode="&#x405;" horiz-adv-x="491" 
d="M486 619l-35 -114l-20 -8q-31 24 -65 37.5t-64 13.5q-41 0 -67 -21.5t-26 -51.5q0 -28 23 -48t73 -48q46 -26 76 -47.5t51 -55t21 -78.5q0 -57 -32.5 -104t-90.5 -75t-130 -28q-47 0 -96 10.5t-92 31.5l32 122l15 8q36 -35 79.5 -53t81.5 -18q45 0 71.5 22t26.5 54
q0 30 -23.5 50.5t-73.5 48.5q-45 25 -74 46t-49.5 54t-20.5 79q0 57 32 104.5t88.5 74.5t126.5 27q82 0 162 -33z" />
    <glyph glyph-name="uni0406" unicode="&#x406;" horiz-adv-x="285" 
d="M199 204l-19 -204h-133l31 192l49 451h134z" />
    <glyph glyph-name="uni0407" unicode="&#x407;" horiz-adv-x="289" 
d="M200 204l-19 -204h-133l31 192l49 451h134zM171 841.5q15 -15.5 15 -42.5q0 -30 -16.5 -47t-45.5 -17q-28 0 -43 15t-15 44t17 46t46 17q27 0 42 -15.5zM348.5 841.5q15.5 -15.5 15.5 -42.5q0 -30 -17 -47t-46 -17q-28 0 -43 15.5t-15 43.5q0 29 16.5 46t45.5 17
q28 0 43.5 -15.5z" />
    <glyph glyph-name="uni0408" unicode="&#x408;" horiz-adv-x="337" 
d="M256 212l-8 -92q-11 -83 -60.5 -133.5t-160.5 -92.5l-32 70l1 13q65 32 94 64t36 82l10 77l37 346l-103 -2l-8 9l17 90h239z" />
    <glyph glyph-name="uni0409" unicode="&#x409;" horiz-adv-x="891" 
d="M820 356.5q45 -38.5 45 -111.5q0 -9 -2 -31q-12 -101 -89 -157.5t-203 -56.5h-188l30 192l38 352h-125l-11 -44q-45 -196 -83 -302.5t-82 -154.5t-107 -56l-36 -2l-9 108q50 13 82.5 53.5t60.5 127t64 250.5l27 119h364l-34 -248h127q86 0 131 -38.5zM730 225
q0 37 -22.5 57t-67.5 20l-91 -2l-13 -96l-11 -107l90 -5q49 8 78 38.5t36 78.5q1 6 1 16z" />
    <glyph glyph-name="uni040A" unicode="&#x40a;" horiz-adv-x="941" 
d="M872 353.5q45 -37.5 45 -109.5q0 -9 -2 -31q-13 -101 -89 -157t-203 -56h-184l30 191l10 96h-142l-130 -3l-11 -80l-20 -204h-128l30 192l49 451h130l-36 -256l136 -2l133 1l28 258h129l-34 -253h127q87 0 132 -37.5zM781 222q0 73 -91 72l-91 -2l-12 -88l-11 -108l90 -4
q49 8 78.5 37.5t35.5 76.5q1 6 1 16z" />
    <glyph glyph-name="uni040B" unicode="&#x40b;" horiz-adv-x="666" 
d="M584.5 392q43.5 -40 43.5 -121q0 -22 -3 -46l-23 -231h-131l32 210q2 20 2 29q0 81 -73 81q-64 0 -137 -63l-7 -49l-20 -208h-132l30 195l39 354h-41l-108 -3l-8 11l20 99h484l7 -11l-21 -99l-122 3h-81l-26 -188l8 1q59 52 134 77q90 -1 133.5 -41z" />
    <glyph glyph-name="uni040C" unicode="&#x40c;" horiz-adv-x="593" 
d="M351 335q80 -141 200 -307l-4 -15q-60 -15 -132 -23l-13 8q-118 199 -185 332l-18 -126l-20 -204h-132l31 192l49 451h134l-42 -298l204 237l44 61h142zM401 884l33 -77l-4 -12q-89 -35 -214 -78l-13 4l-21 54q108 54 207 112z" />
    <glyph glyph-name="uni040D" unicode="&#x40d;" horiz-adv-x="686" 
d="M78 192l49 448l134 7l-63 -446h9l310 442h142l-61 -439l-20 -204h-133l30 192l31 251h-8l-312 -443h-138zM512 775l-21 -54l-13 -4q-130 45 -213 78l-4 12l33 77l12 3q96 -57 206 -112z" />
    <glyph glyph-name="uni040E" unicode="&#x40e;" horiz-adv-x="575" 
d="M610 643l-227 -441q-50 -87 -88 -130t-84.5 -60t-124.5 -21l-11 3q-10 50 -10 105l4 9q70 7 107 17.5t62 32.5l-173 485h135l15 -69l91 -286h10l142 294l26 61h126zM521 825q-30 -53 -82.5 -82.5t-108.5 -29.5q-51 0 -90 24.5t-53 71.5l62 52h13q19 -32 46.5 -49
t58.5 -17t61 16.5t54 48.5h13z" />
    <glyph glyph-name="uni040F" unicode="&#x40f;" horiz-adv-x="642" 
d="M613 643l-61 -439l-21 -204h-182l-28 -147l-96 -8l8 155h-184l30 192l49 451h131l-61 -439l-10 -102h231l14 90l50 451h130z" />
    <glyph glyph-name="uni0410" unicode="&#x410;" horiz-adv-x="595" 
d="M548 0h-133l-6 83l-9 63l-121 2l-107 -2l-24 -56l-29 -90h-130l291 643h157zM385 248l-40 271h-9l-118 -270l82 -2z" />
    <glyph glyph-name="uni0411" unicode="&#x411;" horiz-adv-x="598" 
d="M254 543l-21 -155h140q94 0 142 -38.5t48 -111.5q0 -75 -38 -130t-109.5 -84.5t-168.5 -29.5h-195l31 195l49 461h449l7 -11l-22 -99l-163 3h-149zM220 291l-12 -90l-11 -110l99 -5q59 9 90 41t31 83q0 40 -25.5 62t-73.5 21z" />
    <glyph glyph-name="uni0412" unicode="&#x412;" horiz-adv-x="568" 
d="M500.5 282q25.5 -32 25.5 -83q0 -101 -75.5 -152.5t-231.5 -51.5q-89 0 -172 5h-1l31 192l49 451l216 1q89 0 140 -36t51 -105q0 -57 -29.5 -101t-85.5 -68q57 -20 82.5 -52zM374.5 406.5q21.5 27.5 21.5 73.5q0 37 -23 53t-79 16h-50l-25 -178l90 -3q44 11 65.5 38.5z
M355 118.5q37 28.5 37 79.5q0 34 -19.5 53t-59.5 27l-108 -2l-10 -72l-11 -110q50 -4 67 -4q67 0 104 28.5z" />
    <glyph glyph-name="uni0413" unicode="&#x413;" horiz-adv-x="459" 
d="M498 639l-22 -99l-141 3h-88l-46 -341l-21 -208h-136l30 195l50 461h367z" />
    <glyph glyph-name="uni0414" unicode="&#x414;" horiz-adv-x="688" 
d="M656 106l-30 -241l-101 -8l-2 138h-419l-33 -130l-103 -8l30 249h54q47 22 77.5 66t56 125.5t58.5 231.5l27 123h368l-62 -449l-9 -97h88zM438 106l13 85l39 358h-123l-10 -45q-38 -175 -74 -264.5t-86 -133.5h241z" />
    <glyph glyph-name="uni0415" unicode="&#x415;" horiz-adv-x="517" 
d="M247 538l-22 -159l107 -1l102 3l7 -10l-22 -99l-110 3l-99 -1l-10 -70l-10 -99l111 -1l154 5l5 -10l-20 -99h-393l31 192l50 451h396l6 -10l-22 -99l-149 5z" />
    <glyph glyph-name="uni0416" unicode="&#x416;" horiz-adv-x="868" 
d="M637 338q88 -165 188 -313l-1 -13q-59 -14 -129 -22l-15 10q-92 160 -171 335l-18 -131l-20 -204h-130l29 192l15 136q-52 -77 -110 -153t-141 -180l-15 -5q-69 8 -124 23l-3 17q149 163 266 313l-171 300h138l26 -61l136 -237l33 298h131l-40 -296l191 235l42 61h142z
" />
    <glyph glyph-name="uni0417" unicode="&#x417;" horiz-adv-x="519" 
d="M478 203q0 -65 -35.5 -113.5t-101 -74t-153.5 -25.5q-54 0 -101.5 10.5t-80.5 30.5l38 110l11 5q28 -22 66.5 -34t78.5 -12q64 0 104.5 28.5t40.5 75.5q0 28 -17.5 47.5t-50.5 27.5h-142l-7 10l19 89l133 -1q32 14 51.5 41t19.5 58q0 32 -23.5 47.5t-72.5 15.5
q-73 0 -166 -41l-13 6l25 111q80 36 172 36q102 0 158.5 -38.5t56.5 -107.5q0 -56 -32.5 -101t-89.5 -70q112 -31 112 -131z" />
    <glyph glyph-name="uni0418" unicode="&#x418;" horiz-adv-x="686" 
d="M78 192l49 448l134 7l-63 -446h9l310 442h142l-61 -439l-20 -204h-133l30 192l31 251h-8l-312 -443h-138z" />
    <glyph glyph-name="uni0419" unicode="&#x419;" horiz-adv-x="686" 
d="M78 192l49 448l134 7l-63 -446h9l310 442h142l-61 -439l-20 -204h-133l30 192l31 251h-8l-312 -443h-138zM570 825q-30 -53 -80.5 -82.5t-103.5 -29.5q-49 0 -86 24.5t-51 71.5l62 52h13q19 -33 44.5 -49.5t54.5 -16.5q28 0 56.5 16.5t52.5 48.5h13z" />
    <glyph glyph-name="uni041A" unicode="&#x41a;" horiz-adv-x="593" 
d="M351 335q80 -141 200 -307l-4 -15q-60 -15 -132 -23l-13 8q-118 199 -185 332l-18 -126l-20 -204h-132l31 192l49 451h134l-42 -298l204 237l44 61h142z" />
    <glyph glyph-name="uni041B" unicode="&#x41b;" horiz-adv-x="622" 
d="M542 202l-21 -208h-137l31 195l39 358h-127l-10 -44q-46 -200 -85.5 -309t-84 -157.5t-109.5 -56.5l-37 -2l-9 111q51 14 84.5 55t62 129t64.5 255l28 120l-1 2h373z" />
    <glyph glyph-name="uni041C" unicode="&#x41c;" horiz-adv-x="786" 
d="M705 0h-117l15 195l8 253h-9l-187 -380h-103l-80 380h-10l-53 -241l-39 -207h-111l144 643h151l14 -95l60 -309h9l143 310l39 94h150z" />
    <glyph glyph-name="uni041D" unicode="&#x41d;" horiz-adv-x="676" 
d="M652 643l-62 -439l-20 -204h-132l31 192l8 76l-142 3l-127 -4l-9 -63l-19 -204h-133l31 192l49 451h134l-37 -265l133 -3l132 3l28 265h135z" />
    <glyph glyph-name="uni041E" unicode="&#x41e;" horiz-adv-x="656" 
d="M565.5 583.5q65.5 -68.5 65.5 -199.5q0 -118 -39 -207t-114 -138t-180 -49q-118 0 -183.5 70.5t-65.5 202.5q0 118 38.5 206t113 135.5t180.5 47.5q119 0 184.5 -68.5zM230.5 478.5q-44.5 -66.5 -44.5 -212.5q0 -91 29.5 -132.5t95.5 -41.5q90 0 135 67t45 214
q0 91 -29.5 131.5t-96.5 40.5q-90 0 -134.5 -66.5z" />
    <glyph glyph-name="uni041F" unicode="&#x41f;" horiz-adv-x="662" 
d="M576 204l-20 -204h-132l29 192l37 343l-129 3l-115 -4l-45 -330l-20 -204h-133l30 192l49 451h510z" />
    <glyph glyph-name="uni0420" unicode="&#x420;" horiz-adv-x="549" 
d="M497.5 600.5q50.5 -43.5 50.5 -127.5q0 -77 -34.5 -137.5t-98.5 -94.5t-149 -34h-67v-3l-20 -204h-132l31 192l49 451l230 1q90 0 140.5 -43.5zM383 356q27 39 27 96q0 46 -23 69t-74 26l-66 -3l-33 -236l94 -3q48 12 75 51z" />
    <glyph glyph-name="uni0421" unicode="&#x421;" horiz-adv-x="537" 
d="M552 613l-37 -112l-11 -4q-27 22 -60.5 34t-70.5 12q-91 0 -138 -67t-47 -196q0 -88 34.5 -133t100.5 -45q36 0 76 11.5t73 32.5l11 -7l-25 -113q-40 -18 -76.5 -26.5t-77.5 -8.5q-123 0 -189.5 69.5t-66.5 198.5q0 122 40 210t116 135t183 47q95 0 165 -38z" />
    <glyph glyph-name="uni0422" unicode="&#x422;" horiz-adv-x="493" 
d="M526 633l-20 -98l-117 6h-38l-47 -337l-20 -204h-132l32 192l38 349h-39l-121 -6l-7 10l22 98h443z" />
    <glyph glyph-name="uni0423" unicode="&#x423;" horiz-adv-x="575" 
d="M610 643l-227 -441q-50 -87 -88 -130t-84.5 -60t-124.5 -21l-11 3q-10 50 -10 105l4 9q70 7 107 17.5t62 32.5l-173 485h135l15 -69l91 -286h10l142 294l26 61h126z" />
    <glyph glyph-name="uni0424" unicode="&#x424;" horiz-adv-x="787" 
d="M690 147.5q-89 -79.5 -258 -91.5l-9 -90h-126l13 89q-137 9 -207 68t-70 167q0 150 87 227.5t257 89.5l8 72h128l-10 -71q136 -9 206 -67.5t70 -164.5q0 -149 -89 -228.5zM204.5 199q39.5 -36 121.5 -44l5 35l35 316q-103 -10 -152 -58.5t-49 -144.5q0 -68 39.5 -104z
M597.5 212.5q49.5 48.5 49.5 145.5q0 68 -38.5 103.5t-119.5 44.5l-41 -303l-5 -49q105 10 154.5 58.5z" />
    <glyph glyph-name="uni0425" unicode="&#x425;" horiz-adv-x="606" 
d="M401 330l156 -330h-154l-21 64l-83 169l-135 -177l-35 -56h-135l238 325l-154 318h155l21 -63l78 -161l122 166l35 58h139z" />
    <glyph glyph-name="uni0426" unicode="&#x426;" horiz-adv-x="689" 
d="M652 108l-31 -235l-95 -8l-1 135h-476l30 192l50 451h134l-61 -439l-9 -96h237l13 84l49 451h135l-61 -439l-9 -96h95z" />
    <glyph glyph-name="uni0427" unicode="&#x427;" horiz-adv-x="607" 
d="M586 650l-63 -448l-20 -208h-137l31 195l8 78l-8 -1q-63 -51 -144 -76q-99 1 -147 41t-48 121q0 11 2 35l29 263h139l-31 -233q-2 -18 -2 -24q0 -41 20 -63t57 -22q66 0 145 63l30 279h139z" />
    <glyph glyph-name="uni0428" unicode="&#x428;" horiz-adv-x="910" 
d="M881 643l-61 -439l-20 -204h-751l30 192l50 451h134l-61 -439l-9 -96h182l14 84l49 451h134l-60 -439l-10 -96h183l13 84l49 451h134z" />
    <glyph glyph-name="uni0429" unicode="&#x429;" horiz-adv-x="939" 
d="M879 643l-61 -439l-20 -204h-751l30 192l50 451h134l-61 -439l-9 -96h182l14 84l49 451h134l-60 -439l-10 -96h183l13 84l49 451h134zM873 -127l-95 -8l-1 135h-113l44 108h196z" />
    <glyph glyph-name="uni042A" unicode="&#x42a;" horiz-adv-x="655" 
d="M585 356.5q45 -38.5 45 -111.5q0 -75 -36 -130.5t-103.5 -85t-160.5 -29.5h-182l31 191l38 349h-62l-99 -4l-7 11l20 96h292l-34 -248h126q87 0 132 -38.5zM460 134q29 33 29 83q0 41 -23 63t-67 22l-86 -2l-13 -96l-11 -107l88 -5q54 9 83 42z" />
    <glyph glyph-name="uni042B" unicode="&#x42b;" horiz-adv-x="779" 
d="M462 356.5q43 -38.5 43 -110.5q0 -75 -35 -130.5t-100.5 -85.5t-155.5 -30h-174l29 191l49 453h134l-35 -249h121q81 0 124 -38.5zM755 643l-62 -439l-19 -204h-133l31 192l49 451h134zM338 134q27 33 27 84q0 40 -21 62t-60 22l-80 -2l-13 -96l-11 -108l82 -4
q49 9 76 42z" />
    <glyph glyph-name="uni042C" unicode="&#x42c;" horiz-adv-x="573" 
d="M508 357.5q47 -39.5 47 -114.5q0 -76 -37.5 -132.5t-107.5 -86.5t-166 -30h-192l31 195l50 461h137l-35 -253h136q90 0 137 -39.5zM378.5 130q29.5 33 29.5 85q0 41 -24 63.5t-70 22.5l-92 -2l-14 -98l-10 -108l95 -5q56 9 85.5 42z" />
    <glyph glyph-name="uni042D" unicode="&#x42d;" horiz-adv-x="546" 
d="M473 593q67 -65 67 -193q0 -30 -5 -72q-20 -165 -113 -254t-246 -89q-98 0 -176 40l36 114l10 3q64 -45 145 -45q152 0 192 175l-108 1l-152 -3l-7 10l20 102l161 -3l99 1q2 85 -32.5 124.5t-111.5 39.5q-75 0 -170 -46l-14 9l23 117q88 34 182 34q133 0 200 -65z" />
    <glyph glyph-name="uni042E" unicode="&#x42e;" horiz-adv-x="861" 
d="M792.5 586q58.5 -66 58.5 -189q0 -35 -4 -67q-20 -163 -102.5 -251.5t-214.5 -88.5q-113 0 -171.5 72.5t-52.5 205.5l-52 1l-44 -1l-9 -64l-20 -204h-133l30 192l50 451h133l-36 -267l48 -1l46 1q29 133 107.5 204.5t197.5 71.5q110 0 168.5 -66zM713 403q0 76 -25 109.5
t-79 33.5q-70 0 -108.5 -52t-52.5 -169q-7 -50 -7 -93q0 -75 25.5 -108.5t78.5 -33.5q71 0 109 52.5t53 172.5q6 51 6 88z" />
    <glyph glyph-name="uni042F" unicode="&#x42f;" horiz-adv-x="577" 
d="M550 642l-63 -450l-17 -192h-132l30 204l2 16h-89q-68 -111 -144 -222l-14 -8q-73 5 -125 27l-4 16q95 106 185 220q-49 26 -74.5 66.5t-25.5 93.5q0 67 33.5 120t92 82.5t131.5 29.5l215 -2zM381 319l24 229l-66 3q-51 -2 -82.5 -33t-38.5 -88q-2 -16 -2 -23
q0 -69 73 -93z" />
    <glyph glyph-name="uni0430" unicode="&#x430;" horiz-adv-x="452" 
d="M423 467l-49 -355l-4 -107l-123 -9l22 158h-13q-53 -95 -118 -163h-18q-55 20 -79 60.5t-24 102.5q0 67 26.5 133t80 115.5t130.5 68.5h6l76 -21l76 24zM211.5 171.5q39.5 59.5 83.5 165.5l2 17v2l-65 21q-48 0 -75.5 -49.5t-27.5 -130.5q0 -85 25 -85q18 0 57.5 59.5z
" />
    <glyph glyph-name="uni0431" unicode="&#x431;" horiz-adv-x="449" 
d="M404 403q24 -36 24 -101q0 -90 -29.5 -159.5t-83 -109t-122.5 -40.5q-75 0 -114.5 48.5t-39.5 141.5q0 164 58 281t165 163l93 41q23 11 36 20t30 28l39 -25q-16 -42 -31.5 -70t-40.5 -55l-93 -24q-52 -15 -83.5 -70.5t-42.5 -145.5l-6 -37h10q60 101 133 167h19
q55 -17 79 -53zM288.5 126q30.5 50 30.5 129q0 41 -7.5 66t-20.5 25q-18 0 -62.5 -60.5t-80.5 -134.5q4 -39 18.5 -57t42.5 -18q49 0 79.5 50z" />
    <glyph glyph-name="uni0432" unicode="&#x432;" horiz-adv-x="407" 
d="M374 140v-9q-17 -65 -68.5 -102.5t-124.5 -37.5q-78 0 -119 46t-41 134q0 85 31 153t86.5 107.5t128.5 42.5l12 -1q50 -8 77.5 -35.5t27.5 -70.5q0 -38 -21.5 -69t-67.5 -58q52 -40 79 -100zM170 356q-27 -39 -34 -107q141 41 141 109q0 37 -39 37q-41 0 -68 -39z
M250.5 93q20.5 18 20.5 42q0 15 -10 36t-26 40q-58 -22 -100 -33q2 -54 18.5 -78.5t48.5 -24.5q28 0 48.5 18z" />
    <glyph glyph-name="uni0433" unicode="&#x433;" horiz-adv-x="349" 
d="M50 21.5q-39 29.5 -39 81.5q0 36 19 64.5t45 49t67 46.5q40 25 58.5 41.5t18.5 34.5q0 14 -9.5 22.5t-25.5 8.5q-17 0 -36.5 -8.5t-63.5 -35.5l-17 3l-27 59q65 63 148 86q65 0 104.5 -31t39.5 -82q0 -50 -34 -84t-96 -72q-43 -28 -61.5 -44.5t-18.5 -35.5q0 -14 10 -23
t28 -9q19 0 44.5 14t65.5 45l16 -3l30 -60q-61 -68 -159 -99q-68 2 -107 31.5z" />
    <glyph glyph-name="uni0434" unicode="&#x434;" horiz-adv-x="434" 
d="M221 707q90 0 140 -65t50 -187q0 -226 -63 -343.5t-187 -121.5q-67 7 -103.5 55.5t-36.5 131.5q0 78 30 145t81 106.5t109 39.5q23 -1 52 -6q-3 84 -37 123t-102 39q-28 0 -61 -6l-5 5l12 59q65 25 121 25zM261.5 147q26.5 67 30.5 221l-60 12q-98 -3 -98 -217
q0 -45 11 -64t36 -19q54 0 80.5 67z" />
    <glyph glyph-name="uni0435" unicode="&#x435;" horiz-adv-x="392" 
d="M321 158l37 -48q-66 -93 -169 -119h-14q-79 9 -116 52t-37 126q0 87 30.5 155t85.5 107.5t128 42.5l12 -1q50 -8 76.5 -35.5t26.5 -71.5q0 -61 -59 -107t-185 -82q2 -46 16.5 -67t42.5 -21q25 0 49 15.5t61 55.5zM171 355.5q-25 -36.5 -33 -102.5q69 19 101.5 44.5
t32.5 60.5q0 18 -8.5 26t-27.5 8q-40 0 -65 -36.5z" />
    <glyph glyph-name="uni0436" unicode="&#x436;" horiz-adv-x="664" 
d="M418 468l-46 -356l-7 -107l-120 -9l48 360l5 104zM274 240q-81 -130 -167 -246l-12 -4q-41 3 -108 19l-3 16q113 146 172 232l-105 207h122l16 -47l84 -164zM510 252q57 -126 118 -233l-2 -12q-59 -13 -112 -17l-13 9q-60 120 -107 246l1 8l121 164l29 47h127z" />
    <glyph glyph-name="uni0437" unicode="&#x437;" horiz-adv-x="368" 
d="M-7 19l27 86l25 2q25 -14 44.5 -19.5t45.5 -5.5q39 0 63 18t24 48q0 45 -61 47h-71l-4 7l15 71l54 -2q28 0 50 21.5t22 48.5q0 19 -11 30t-32 11q-25 0 -47 -10.5t-53 -37.5l-15 1l-29 52q40 44 83.5 65t95.5 21q56 0 91 -28.5t35 -74.5q0 -38 -26 -71.5t-71 -53.5v-4
q40 -14 61 -39t21 -61q0 -43 -25.5 -77t-71 -53t-101.5 -19q-75 0 -139 27z" />
    <glyph glyph-name="uni0438" unicode="&#x438;" horiz-adv-x="480" 
d="M450 469l-50 -357l-3 -107l-123 -9l25 177h-10q-40 -63 -73 -104t-69 -72h-12q-47 8 -76 33t-28 62l1 16l39 244l6 109l123 8l-47 -302l-2 -18q0 -24 18 -24q23 0 61.5 50t88.5 148l5 33l4 104z" />
    <glyph glyph-name="uni0439" unicode="&#x439;" horiz-adv-x="480" 
d="M450 469l-50 -357l-3 -107l-123 -9l25 177h-10q-40 -63 -73 -104t-69 -72h-12q-47 8 -76 33t-28 62l1 16l39 244l6 109l123 8l-47 -302l-2 -18q0 -24 18 -24q23 0 61.5 50t88.5 148l5 33l4 104zM445 646q-30 -53 -80.5 -82.5t-103.5 -29.5q-49 0 -86 24.5t-51 71.5l62 52
h13q19 -33 44.5 -49.5t54.5 -16.5q28 0 56.5 16.5t52.5 48.5h13z" />
    <glyph glyph-name="uni043A" unicode="&#x43a;" horiz-adv-x="454" 
d="M78 356l5 104l119 8l-46 -356l-6 -107l-120 -9zM295 252q58 -123 123 -233l-2 -12q-57 -13 -111 -17l-13 9q-63 119 -113 246l1 8l126 164l29 47h127z" />
    <glyph glyph-name="uni043B" unicode="&#x43b;" horiz-adv-x="441" 
d="M400 4l-119 -8l-2 84l-20 260h-17l-76 -212q-26 -75 -60 -105.5t-92 -30.5l-20 1l-9 89l7 12q33 9 52.5 32t42.5 82l102 256h155z" />
    <glyph glyph-name="uni043C" unicode="&#x43c;" horiz-adv-x="598" 
d="M111 460l130 9l9 -73l39 -205h6l93 203l28 66l129 9l-16 -469h-101l11 144l5 159h-8l-123 -255h-87l-53 255h-9l-31 -145l-29 -158h-96z" />
    <glyph glyph-name="uni043D" unicode="&#x43d;" horiz-adv-x="494" 
d="M463 468l-46 -356l-6 -107l-120 -9l24 187l-76 1l-74 -1l-9 -71l-5 -107l-121 -9l48 360l5 104l119 8l-24 -188l78 -1l72 1l10 76l5 104z" />
    <glyph glyph-name="uni043E" unicode="&#x43e;" horiz-adv-x="429" 
d="M280 473q128 -26 128 -165q0 -141 -65.5 -225.5t-180.5 -92.5l-12 1q-63 14 -96 56t-33 118q0 89 30 157.5t86 108t131 43.5zM162 324q-25 -54 -25 -161q0 -44 10.5 -62t36.5 -18q56 0 81 55t25 162q0 43 -10.5 60.5t-35.5 17.5q-57 0 -82 -54z" />
    <glyph glyph-name="uni043F" unicode="&#x43f;" horiz-adv-x="482" 
d="M423.5 433.5q29.5 -25.5 28.5 -61.5l-1 -13l-40 -246l-5 -108l-126 -9l50 308l1 11q0 12 -4 18t-13 6q-23 0 -63.5 -51.5t-91.5 -150.5l-3 -25l-4 -107l-124 -9l51 360l4 104l121 9l-24 -181h11q39 63 73.5 105.5t71.5 74.5l12 1q46 -10 75.5 -35.5z" />
    <glyph glyph-name="uni0440" unicode="&#x440;" horiz-adv-x="457" 
d="M415.5 411q24.5 -40 24.5 -103q0 -68 -27 -134t-80.5 -115.5t-128.5 -67.5h-5l-56 11l-10 -77l-4 -110l-124 -9l77 550l4 104l121 9l-22 -162h14q54 96 120 164h18q54 -20 78.5 -60zM301 135q27 51 27 130q0 87 -25 87q-18 0 -58.5 -60.5t-84.5 -165.5l-3 -24l70 -18
q47 0 74 51z" />
    <glyph glyph-name="uni0441" unicode="&#x441;" horiz-adv-x="357" 
d="M353 449l6 -14l-35 -93l-26 -2q-19 22 -32 30t-30 8q-45 0 -70.5 -48t-25.5 -136q0 -54 10.5 -76t34.5 -22q22 0 42 17t45 56l16 -1l37 -47q-32 -54 -66.5 -83.5t-84.5 -45.5h-17q-70 11 -102 51.5t-32 126.5q0 87 29.5 155.5t87 107.5t138.5 39z" />
    <glyph glyph-name="uni0442" unicode="&#x442;" horiz-adv-x="742" 
d="M682.5 434.5q28.5 -25.5 27.5 -62.5l-1 -13l-39 -246l-5 -108l-125 -9l49 308l1 11q0 24 -17 24q-24 0 -66 -54t-94 -158l-2 -14l-4 -108l-126 -9l49 308l1 11q0 12 -4 18t-13 6q-23 0 -63.5 -51.5t-91.5 -150.5l-3 -25l-4 -107l-124 -9l51 360l4 104l121 9l-24 -181h12
q38 62 72.5 104.5t72.5 75.5l12 1q47 -9 75.5 -34.5t27.5 -62.5l-1 -13l-12 -71h11q39 63 73.5 105.5t71.5 74.5l12 1q47 -9 75.5 -34.5z" />
    <glyph glyph-name="uni0443" unicode="&#x443;" horiz-adv-x="439" 
d="M436 391q0 -35 -10 -68t-32 -72l-123 -227q-63 -117 -121 -168.5t-129 -51.5q-38 0 -91 16l5 104l11 11q41 -9 72 -9q38 0 67.5 14t55.5 44l-101 476l123 9l8 -85l39 -250h14l67 136q29 59 29 109q0 35 -19 64l6 12l110 16q19 -46 19 -80z" />
    <glyph glyph-name="uni0444" unicode="&#x444;" horiz-adv-x="630" 
d="M582 417.5q28 -39.5 28 -106.5q0 -78 -27.5 -145t-76.5 -112t-113 -60l-53 11l-11 -83l-6 -108l-119 -8l34 257h-11q-39 -48 -78 -71h-18q-56 14 -83.5 53.5t-27.5 106.5q0 78 27.5 145.5t77 112.5t114.5 60l51 -11l17 132l5 104l120 8l-40 -302h11q40 49 79 71h16
q56 -15 84 -54.5zM202.5 114.5q19.5 13.5 47.5 43.5l27 208l-54 16q-43 0 -68.5 -50t-25.5 -136q0 -45 10.5 -70t28.5 -25q15 0 34.5 13.5zM476 131.5q24 49.5 24 135.5q0 46 -9.5 71t-27.5 25q-15 0 -35 -13.5t-48 -42.5l-28 -209l57 -16q43 0 67 49.5z" />
    <glyph glyph-name="uni0445" unicode="&#x445;" horiz-adv-x="456" 
d="M414 4l-136 -11l-15 59l-46 108l-76 -107l-25 -53h-134l168 240l-96 220l131 12l14 -48l46 -105l72 101l23 44h129l-164 -232z" />
    <glyph glyph-name="uni0446" unicode="&#x446;" horiz-adv-x="509" 
d="M476 73l-21 -107q-9 -46 -27 -80t-49 -63l-95 43l-1 19q51 34 77 90l9 25h-28q-28 0 -42 16t-14 46q0 11 1 17l12 94h-9q-38 -61 -71 -102t-71 -74h-11q-48 8 -77 33t-28 62l1 16l40 244l5 109l123 8l-47 -302l-1 -18v-3q0 -21 18 -21q22 0 60 48.5t87 143.5l5 39l6 104
l120 8l-47 -353v-7q0 -10 4 -13.5t15 -3.5h46z" />
    <glyph glyph-name="uni0447" unicode="&#x447;" horiz-adv-x="456" 
d="M425 468l-47 -356l-5 -107l-120 -9l28 211h-10q-41 -35 -70.5 -56t-59.5 -37h-12q-47 5 -71.5 28.5t-24.5 61.5l2 16l19 135l5 105l120 8l-28 -204l-1 -12q0 -28 23 -28q18 0 50 20.5t70 56.5l7 55l5 104z" />
    <glyph glyph-name="uni0448" unicode="&#x448;" horiz-adv-x="734" 
d="M704 469l-49 -357l-4 -107l-123 -9l25 177h-10q-38 -61 -71.5 -103t-69.5 -73h-12q-47 8 -75 32.5t-28 62.5l1 16l10 65h-9q-38 -62 -71.5 -103.5t-70.5 -72.5h-11q-48 8 -77 33t-28 62l1 16l40 244l5 109l123 8l-47 -302l-1 -18v-3q0 -21 18 -21q22 0 61.5 51t90.5 150
l4 26l6 109l123 8l-48 -302l-1 -18v-3q0 -21 18 -21q22 0 60 49.5t89 146.5l5 35l4 104z" />
    <glyph glyph-name="uni0449" unicode="&#x449;" horiz-adv-x="762" 
d="M730 73l-21 -107q-9 -46 -27 -80t-49 -63l-95 43l-1 19q51 34 77 90l9 25h-28q-28 0 -42 16t-14 46q0 11 1 17l12 94h-9q-38 -61 -71.5 -103t-69.5 -73h-12q-47 8 -75 32.5t-28 62.5l1 16l10 65h-9q-38 -62 -71.5 -103.5t-70.5 -72.5h-11q-48 8 -77 33t-28 62l1 16
l40 244l5 109l123 8l-47 -302l-1 -18v-3q0 -21 18 -21q22 0 61.5 51t90.5 150l4 26l6 109l123 8l-48 -302l-1 -18v-3q0 -21 18 -21q22 0 59.5 48.5t87.5 142.5l5 40l6 104l120 8l-47 -353v-7q0 -10 4 -13.5t15 -3.5h46z" />
    <glyph glyph-name="uni044A" unicode="&#x44a;" horiz-adv-x="448" 
d="M431 213q0 -54 -32.5 -103t-87.5 -81t-120 -37h-5l-145 31l111 352h-51l-68 -3l-6 8l17 84h239l-70 -220h7q29 35 49.5 56t47.5 42h19q95 -27 95 -129zM294 108q29 33 30 80q0 29 -8 43.5t-21 14.5q-26 0 -119 -116l-14 -43l61 -12q42 0 71 33z" />
    </font>
</defs>
</svg>
