<?xml version="1.0" standalone="no"?>
<!DOCTYPE svg PUBLIC "-//W3C//DTD SVG 1.1//EN" "http://www.w3.org/Graphics/SVG/1.1/DTD/svg11.dtd" >
<svg xmlns="http://www.w3.org/2000/svg" xmlns:xlink="http://www.w3.org/1999/xlink" version="1.1">
<metadata>
Created by FontForge 20170731 at Thu Nov  9 17:49:37 2017
 By Aleksey,,,
Copyright 2013 The Alegreya Sans Project Authors (https://github.com/huertatipografica/Alegreya-Sans)
</metadata>
<defs>
<font id="AlegreyaSans-ExtraBold" horiz-adv-x="0" >
  <font-face 
    font-family="Alegreya Sans ExtraBold"
    font-weight="800"
    font-stretch="normal"
    units-per-em="1000"
    panose-1="0 0 9 0 0 0 0 0 0 0"
    ascent="800"
    descent="-200"
    x-height="470"
    cap-height="645"
    bbox="-457 -285 1283 1084"
    underline-thickness="42"
    underline-position="-216"
    unicode-range="U+000D-FB02"
  />
<missing-glyph horiz-adv-x="145" 
 />
    <glyph glyph-name="Idieresis" unicode="&#xa8;I" horiz-adv-x="308" 
d="M227 207l6 -207h-163l9 191l-9 454h166zM129.5 851q16.5 -17 16.5 -48q0 -32 -19 -51.5t-50 -19.5t-47.5 17t-16.5 48q0 33 19 52t51 19q30 0 46.5 -17zM277.5 851q16.5 -17 16.5 -48q0 -32 -19 -51.5t-50 -19.5t-48 17t-17 48q0 33 19 52t51 19q31 0 47.5 -17z" />
    <glyph glyph-name="Odieresis" unicode="&#xa8;O" horiz-adv-x="647" 
d="M549 572.5q75 -82.5 75 -234.5q0 -166 -82 -257.5t-231 -91.5q-137 0 -212 84.5t-75 239.5q0 164 81.5 253t230.5 89q138 0 213 -82.5zM247 506.5q-28 -18.5 -41 -60t-13 -112.5q0 -85 13 -133.5t41.5 -69.5t77.5 -21q48 0 76 18.5t40.5 60.5t12.5 115q0 84 -13 132
t-41 68.5t-78 20.5q-47 0 -75 -18.5zM286.5 854.5q18.5 -18.5 18.5 -51.5q0 -35 -20 -55.5t-55 -20.5q-34 0 -51.5 18t-17.5 52q0 35 20 55.5t55 20.5q32 0 50.5 -18.5zM468 854.5q18 -18.5 18 -51.5q0 -35 -20 -55.5t-54 -20.5t-51.5 18t-17.5 52q0 35 20 55.5t55 20.5
q32 0 50 -18.5z" />
    <glyph glyph-name="Yacute" unicode="&#xb4;Y" horiz-adv-x="573" 
d="M353 175l7 -175h-162l8 175l-1 35l-206 435h171l15 -48l94 -225h11l106 219l20 54h166l-227 -431zM397 897l40 -95l-5 -13q-98 -36 -225 -75l-14 4l-25 66q111 55 214 116z" />
    <glyph glyph-name="idieresis" unicode="&#xa8;i" horiz-adv-x="271" 
d="M62 191l-5 267l157 12l-7 -263l6 -207h-158zM110.5 674q16.5 -17 16.5 -48q0 -32 -19 -51.5t-50 -19.5t-47.5 17t-16.5 48q0 33 19 52t51 19q30 0 46.5 -17zM258.5 674q16.5 -17 16.5 -48q0 -32 -19 -51.5t-50 -19.5t-48 17t-17 48q0 33 19 52t51 19q31 0 47.5 -17z" />
    <glyph glyph-name="odieresis" unicode="&#xa8;o" horiz-adv-x="495" 
d="M416.5 418q55.5 -60 55.5 -175q0 -124 -59.5 -189t-172.5 -65q-106 0 -161.5 60t-55.5 174q0 124 59.5 189.5t172.5 65.5q106 0 161.5 -60zM187.5 344.5q-16.5 -26.5 -16.5 -92.5q0 -61 7.5 -95.5t25 -49t47.5 -14.5q39 0 55.5 26.5t16.5 93.5q0 89 -17.5 123.5
t-61.5 34.5q-40 0 -56.5 -26.5zM211.5 677.5q18.5 -18.5 18.5 -51.5q0 -35 -20 -55.5t-55 -20.5q-34 0 -51.5 18t-17.5 52q0 35 20 55.5t55 20.5q32 0 50.5 -18.5zM393 677.5q18 -18.5 18 -51.5q0 -35 -20 -55.5t-54 -20.5t-51.5 18t-17.5 52q0 35 20 55.5t55 20.5
q32 0 50 -18.5z" />
    <glyph glyph-name="yacute" unicode="&#xb4;y" horiz-adv-x="457" 
d="M161 391l70 -235h9l68 221l18 91h134l-146 -429q-23 -69 -54 -112t-77.5 -70.5t-120.5 -49.5l-11 1q-39 38 -69 94l6 15q57 9 98 28t79 55l-170 465l150 6zM329 736l57 -87l-3 -14q-99 -57 -206 -115l-14 1l-37 60q105 80 189 156z" />
    <glyph glyph-name="Itilde" unicode="&#x7e;I" horiz-adv-x="308" 
d="M227 207l6 -207h-163l9 191l-9 454h166zM314 846v-13l-66 -98l-13 -5q-24 3 -74 20q-41 13 -52 13q-15 0 -26 -12t-31 -40h-14l-46 45v14l67 97l13 5q24 -3 74 -20q41 -13 52 -13q14 0 25 12t32 41h13z" />
    <glyph glyph-name="itilde" unicode="&#x7e;i" horiz-adv-x="271" 
d="M62 191l-5 267l157 12l-7 -263l6 -207h-158zM295 669v-13l-66 -98l-13 -5q-24 3 -74 20q-41 13 -52 13q-15 0 -26 -12t-31 -40h-14l-46 45v14l67 97l13 5q24 -3 74 -20q41 -13 52 -13q14 0 25 12t32 41h13z" />
    <glyph glyph-name="Utilde" unicode="&#x7e;U" horiz-adv-x="644" 
d="M584 318l-1 -93q1 -113 -69.5 -174t-200.5 -61q-126 0 -192.5 60t-63.5 172l2 98l-4 325h162l-7 -401q-1 -64 26 -94t84 -30q58 0 85.5 29.5t26.5 90.5l-7 405h165zM506 849v-13l-74 -99l-14 -6q-19 2 -46 9.5t-37 9.5q-53 16 -71 16q-13 0 -25 -10t-23.5 -24t-16.5 -20
h-14l-46 46v13l74 99l14 5q22 -3 87 -20q53 -15 67 -15q13 0 24.5 10t23 24t17.5 21h14z" />
    <glyph glyph-name="utilde" unicode="&#x7e;u" horiz-adv-x="528" 
d="M513 101l-14 -83q-42 -27 -86 -27q-58 12 -80 79h-10q-58 -58 -117 -76q-75 0 -115 34.5t-40 98.5l3 112l-5 219l152 12l-2 -285q-1 -65 52 -65q18 0 34 7t35 23v308l150 12l-9 -338q0 -14 4.5 -20t14.5 -6q9 0 22 4zM443 672v-13l-74 -99l-14 -6q-19 2 -46 9.5t-37 9.5
q-53 16 -71 16q-13 0 -25 -10t-23.5 -24t-16.5 -20h-14l-46 46v13l74 99l14 5q22 -3 87 -20q53 -15 67 -15q13 0 24.5 10t23 24t17.5 21h14z" />
    <glyph glyph-name="uni1EBC" unicode="&#x7e;E" horiz-adv-x="522" 
d="M497 132l9 -12l-10 -120h-426l9 191l-9 454h432l9 -12l-11 -120l-157 6l-110 -1l-2 -129h105l105 3l9 -12l-10 -120l-115 3h-97l-1 -56l2 -80l106 -1zM469 849v-13l-74 -99l-14 -6q-19 2 -46 9.5t-37 9.5q-53 16 -71 16q-13 0 -25 -10t-23.5 -24t-16.5 -20h-14l-46 46v13
l74 99l14 5q22 -3 87 -20q53 -15 67 -15q13 0 24.5 10t23 24t17.5 21h14z" />
    <glyph glyph-name="uni1EBD" unicode="&#x7e;e" horiz-adv-x="477" 
d="M430 208l-262 -2q7 -52 36 -77t82 -25t140 31l12 -8l-24 -113q-80 -25 -145 -25q-115 0 -180.5 65t-65.5 179t63 179.5t171 65.5q93 0 144.5 -50t51.5 -139q0 -29 -6 -61zM316 306q0 69 -60 69q-34 0 -56 -22.5t-30 -64.5l144 4zM431 671v-13l-74 -99l-14 -6
q-19 2 -46 9.5t-37 9.5q-53 16 -71 16q-13 0 -25 -10t-23.5 -24t-16.5 -20h-14l-46 46v13l74 99l14 5q22 -3 87 -20q53 -15 67 -15q13 0 24.5 10t23 24t17.5 21h14z" />
    <glyph glyph-name="uni1EF8" unicode="&#x7e;Y" horiz-adv-x="573" 
d="M353 175l7 -175h-162l8 175l-1 35l-206 435h171l15 -48l94 -225h11l106 219l20 54h166l-227 -431zM468 849v-13l-74 -99l-14 -6q-19 2 -46 9.5t-37 9.5q-53 16 -71 16q-13 0 -25 -10t-23.5 -24t-16.5 -20h-14l-46 46v13l74 99l14 5q22 -3 87 -20q53 -15 67 -15
q13 0 24.5 10t23 24t17.5 21h14z" />
    <glyph glyph-name="uni1EF9" unicode="&#x7e;y" horiz-adv-x="457" 
d="M161 391l70 -235h9l68 221l18 91h134l-146 -429q-23 -69 -54 -112t-77.5 -70.5t-120.5 -49.5l-11 1q-39 38 -69 94l6 15q57 9 98 28t79 55l-170 465l150 6zM417 672v-13l-74 -99l-14 -6q-19 2 -46 9.5t-37 9.5q-53 16 -71 16q-13 0 -25 -10t-23.5 -24t-16.5 -20h-14
l-46 46v13l74 99l14 5q22 -3 87 -20q53 -15 67 -15q13 0 24.5 10t23 24t17.5 21h14z" />
    <glyph glyph-name="fi" unicode="fi" horiz-adv-x="622" 
d="M466 689l-17 -122l-15 -7q-79 35 -123 35q-33 0 -48.5 -17t-16.5 -53v-61h231l85 11l9 -7l-8 -261l7 -207h-158l8 191l-4 179h-172l-2 -163l7 -207h-158l8 192l-2 178h-71l-4 8l7 86h66v26q0 110 57.5 162.5t176.5 52.5q60 0 137 -16z" />
    <glyph glyph-name="fl" unicode="fl" horiz-adv-x="632" 
d="M490 681l-34 -111l-10 -7q-79 36 -132 36q-32 0 -49.5 -15.5t-18.5 -53.5l-1 -66h110l5 -9l-7 -85h-109l-2 -164l7 -206h-158l8 191l-3 179h-70l-4 8l7 86h66l-1 43q0 98 59 150.5t168 52.5q74 0 169 -29zM568 207l7 -207h-158l8 192l-6 499l157 11z" />
    <glyph glyph-name="f_j" unicode="fj" horiz-adv-x="627" 
d="M466 689l-17 -122l-15 -7q-79 35 -123 35q-33 0 -48.5 -17t-15.5 -53l-1 -61h233l83 11l9 -7l-8 -261l6 -177q0 -80 -41 -133.5t-132 -92.5l-54 70v14q41 22 59 54.5t18 83.5l1 165l-4 179h-172l-2 -163l7 -207h-158l8 192l-2 178h-71l-4 8l7 86h66v26q0 110 57 162.5
t177 52.5q60 0 137 -16z" />
    <glyph glyph-name="Gtilde" unicode="&#x7e;G" horiz-adv-x="597" 
d="M559 619l-34 -145h-14q-49 27 -87.5 38.5t-81.5 11.5q-54 0 -86 -19.5t-47.5 -64.5t-15.5 -123q0 -77 15 -120.5t47.5 -62.5t89.5 -19q28 0 65 10l1 45l-3 105l149 11l-2 -89l1 -165q-119 -42 -225 -42q-153 0 -230 82.5t-77 236.5q0 168 90 256.5t258 88.5
q108 0 187 -35zM510 849v-13l-74 -99l-14 -6q-19 2 -46 9.5t-37 9.5q-53 16 -71 16q-13 0 -25 -10t-23.5 -24t-16.5 -20h-14l-46 46v13l74 99l14 5q22 -3 87 -20q53 -15 67 -15q13 0 24.5 10t23 24t17.5 21h14z" />
    <glyph glyph-name="gtilde" unicode="&#x7e;g" horiz-adv-x="507" 
d="M448 383l-2 -4q13 -26 13 -60q0 -76 -57 -121t-155 -45q-33 0 -57 4q-10 -11 -10 -20q0 -17 22 -23t74 -12q62 -7 101.5 -16.5t69 -36.5t29.5 -76t-29.5 -87.5t-83 -60t-123.5 -21.5q-95 0 -147 37t-52 99q34 41 81 70v5q-33 13 -51.5 36t-18.5 60q35 38 71 61v6
q-38 19 -57.5 52t-19.5 78q0 78 57 123t155 45q56 0 104 -19q74 15 146 43l11 -9v-97q-32 -8 -71 -11zM323 315q0 34 -16.5 49.5t-51.5 15.5q-38 0 -55.5 -15.5t-17.5 -48.5q0 -36 17 -53.5t52 -17.5q72 0 72 70zM316.5 -22q-27.5 9 -85.5 16l-30 3q-34 -25 -34 -51
q0 -25 22.5 -39.5t65.5 -14.5q42 0 65.5 13t23.5 40q0 24 -27.5 33zM440 664v-13l-74 -99l-14 -6q-19 2 -46 9.5t-37 9.5q-53 16 -71 16q-13 0 -25 -10t-23.5 -24t-16.5 -20h-14l-46 46v13l74 99l14 5q22 -3 87 -20q53 -15 67 -15q13 0 24.5 10t23 24t17.5 21h14z" />
    <glyph glyph-name=".notdef" horiz-adv-x="145" 
 />
    <glyph glyph-name=".null" 
 />
    <glyph glyph-name="nonmarkingreturn" unicode="&#xd;" horiz-adv-x="145" 
 />
    <glyph glyph-name="space" unicode=" " horiz-adv-x="145" 
 />
    <glyph glyph-name="exclam" unicode="!" horiz-adv-x="268" 
d="M225 649l-42 -403l-90 -13l-15 16l-12 393l14 18l127 8zM183 137q20 -21 20 -58q0 -40 -22.5 -63.5t-60.5 -23.5t-58.5 21t-20.5 59q0 39 23 62.5t62 23.5q37 0 57 -21z" />
    <glyph glyph-name="quotedbl" unicode="&#x22;" horiz-adv-x="391" 
d="M185 633l-40 -237l-73 -11l-12 10l-6 241l123 8zM353 633l-41 -237l-73 -11l-12 10l-5 241l122 8z" />
    <glyph glyph-name="numbersign" unicode="#" horiz-adv-x="564" 
d="M439 352l-18 -98h82l10 -10l-7 -80h-101l-24 -133h-91l-8 11l22 122h-96l-24 -133h-91l-8 11l22 122h-78l-9 10l7 80h96l18 98h-80l-9 10l6 80h99l24 131h88l10 -12l-21 -119h96l24 131h88l10 -12l-21 -119h80l9 -10l-7 -80h-98zM338 352h-96l-18 -98h96z" />
    <glyph glyph-name="dollar" unicode="$" horiz-adv-x="458" 
d="M378.5 56.5q-37.5 -45.5 -112.5 -60.5l-8 -134h-92l-12 12l7 118q-66 5 -129 28l21 135l15 11q35 -31 78 -49.5t75 -18.5q21 0 34 10t13 25q0 17 -17 28t-58 28q-45 18 -74.5 35t-51 47t-21.5 76q0 60 39 104t108 59l8 136h90l14 -13l-7 -118q56 -6 107 -24l-22 -130
l-22 -5q-32 23 -65.5 36t-56.5 13q-21 0 -32.5 -9.5t-11.5 -23.5q0 -17 17 -28t58 -28q44 -17 73.5 -33.5t51 -46.5t21.5 -75q0 -59 -37.5 -104.5z" />
    <glyph glyph-name="percent" unicode="%" horiz-adv-x="868" 
d="M677 650l9 -20l-465 -723l-67 41l-6 15l466 726zM309 606.5q39 -45.5 39 -130.5q0 -93 -43.5 -142.5t-124.5 -49.5q-74 0 -114 45.5t-40 130.5q0 93 44 142.5t126 49.5q74 0 113 -45.5zM137.5 531.5q-14.5 -19.5 -14.5 -63.5q0 -47 15 -68.5t49 -21.5t49.5 20.5
t15.5 63.5q0 47 -15.5 68t-50.5 21q-34 0 -48.5 -19.5zM802 315.5q39 -45.5 39 -130.5q0 -93 -43.5 -142t-124.5 -49q-74 0 -114 45.5t-40 130.5q0 92 44 141.5t126 49.5q74 0 113 -45.5zM630.5 241.5q-14.5 -19.5 -14.5 -63.5q0 -48 15 -69.5t49 -21.5t49.5 20.5t15.5 64.5
q0 47 -16 68t-50 21t-48.5 -19.5z" />
    <glyph glyph-name="ampersand" unicode="&#x26;" horiz-adv-x="719" 
d="M578 340l-4 -10q8 -35 8 -76q0 -65 -24 -116l130 -118v-10q-36 -40 -85 -71l-10 1l-115 104q-77 -54 -196 -54q-114 0 -181.5 49.5t-67.5 134.5q0 108 113 163l1 9q-32 35 -47.5 69.5t-15.5 72.5q0 76 57 120t161 44q91 0 166 -27l-36 -117h-19q-61 35 -116 35
q-37 0 -56 -16.5t-19 -47.5q0 -22 10.5 -40t41.5 -44l197 -179q8 29 8 57q0 36 -11 67h-57l-7 9l10 102h291l9 -11l-10 -100h-126zM394 120l-182 164q-43 -34 -43 -84q0 -49 33.5 -75t94.5 -26q57 0 97 21z" />
    <glyph glyph-name="quotesingle" unicode="'" horiz-adv-x="223" 
d="M185 633l-40 -237l-73 -11l-12 10l-6 241l123 8z" />
    <glyph glyph-name="parenleft" unicode="(" horiz-adv-x="298" 
d="M295 613v-13q-54 -52 -78.5 -135t-25.5 -212q1 -122 25.5 -200.5t78.5 -130.5v-13l-57 -47h-14q-83 61 -121 154t-39 236q1 152 39 249.5t121 158.5h14z" />
    <glyph glyph-name="parenright" unicode=")" horiz-adv-x="298" 
d="M-4 -91v13q54 52 78.5 135t25.5 212q-1 122 -25.5 200.5t-78.5 130.5v13l57 47h14q83 -61 121 -154t39 -236q-1 -152 -39 -249.5t-121 -158.5h-14z" />
    <glyph glyph-name="asterisk" unicode="*" horiz-adv-x="388" 
d="M248 737l-32 -125l-46 -5l-8 7l-4 117q37 13 85 15zM150 602l-8 -46l-10 -4l-110 31q0 43 12 86l10 3zM378 566l-6 -7l-125 -7l-21 41l5 10l107 41q27 -39 40 -78zM242 534l71 -92q-21 -31 -61 -62l-9 3l-45 121l33 31zM179 513l1 -11l-61 -97q-28 8 -79 37l1 11l97 81z
" />
    <glyph glyph-name="plus" unicode="+" horiz-adv-x="480" 
d="M294 469v-158h156l11 -10l-8 -96h-159v-160l-96 -7l-11 10v157h-157l-10 11l8 95h159v160l96 8z" />
    <glyph glyph-name="comma" unicode="," horiz-adv-x="228" 
d="M196 59q0 -50 -32.5 -97t-100.5 -95l-51 44l-1 12q56 47 56 102q0 36 -33 66l1 14q60 33 115 48q46 -40 46 -94z" />
    <glyph glyph-name="hyphen" unicode="-" horiz-adv-x="302" 
d="M275 316v-98l-237 -37l-12 12v98l237 36z" />
    <glyph glyph-name="period" unicode="." horiz-adv-x="228" 
d="M174.5 137q20.5 -21 20.5 -58q0 -40 -23 -63.5t-61 -23.5t-58 21t-20 59q0 39 22.5 62.5t61.5 23.5q37 0 57.5 -21z" />
    <glyph glyph-name="slash" unicode="/" horiz-adv-x="282" 
d="M314 668l-207 -784h-110l-9 12l207 785h107z" />
    <glyph glyph-name="zero" unicode="0" horiz-adv-x="518" 
d="M427 451.5q56 -66.5 56 -187.5q0 -131 -61 -202.5t-172 -71.5q-102 0 -158.5 66t-56.5 187q0 130 61.5 202.5t173.5 72.5q101 0 157 -66.5zM181.5 342.5q-23.5 -27.5 -23.5 -89.5q0 -64 24 -94t77 -30t77.5 28t24.5 89q0 65 -25 94.5t-78 29.5t-76.5 -27.5z" />
    <glyph glyph-name="one" unicode="1" horiz-adv-x="368" 
d="M278 499l-8 -290l7 -209h-161l7 192v143l-105 -26l-11 8v128l248 71z" />
    <glyph glyph-name="two" unicode="2" horiz-adv-x="479" 
d="M367 482q47 -34 47 -94q0 -41 -25.5 -87.5t-84.5 -108.5l-62 -67l3 -4h111l93 9l8 -10l-18 -127l-131 7h-228l-36 -3l-8 6v97l132 123q46 45 67.5 73.5t21.5 49.5q0 16 -12.5 25.5t-35.5 9.5q-30 0 -64.5 -14.5t-65.5 -40.5h-17l-27 123q112 67 212 67q73 0 120 -34z" />
    <glyph glyph-name="three" unicode="3" horiz-adv-x="440" 
d="M344 478q51 -39 51 -103q0 -39 -22 -77t-71 -65v-6q103 -31 103 -133q0 -56 -32.5 -98.5t-92 -66t-137.5 -23.5q-55 0 -112 10l-9 120l11 10q63 -20 115 -20q51 0 78 17.5t27 51.5q0 54 -72 55h-76l-7 10l4 109l44 2q36 1 61.5 20t25.5 50q0 23 -15 35.5t-44 12.5
q-25 0 -52.5 -10.5t-62.5 -30.5h-16l-23 112q44 28 93 42.5t97 14.5q83 0 134 -39z" />
    <glyph glyph-name="four" unicode="4" horiz-adv-x="514" 
d="M482 43l-77 2l5 -122l-8 -11l-124 -8l-8 10l4 132h-148l-97 -3l-10 13v101l241 352h146l-3 -341h76l10 -14zM154 168h122v164h-10z" />
    <glyph glyph-name="five" unicode="5" horiz-adv-x="438" 
d="M411 506l-17 -122l-10 -11l-100 12h-100l-3 -91l61 -13q84 -18 122 -57t38 -104q0 -64 -33 -113t-92.5 -76t-137.5 -27q-61 0 -118 13l-8 118l11 11q64 -21 122 -21q49 0 77 20t28 55q0 29 -19 45t-62 24l-102 17l-9 12l5 297l17 17l60 -3h152l109 7z" />
    <glyph glyph-name="six" unicode="6" horiz-adv-x="489" 
d="M383 343q38 -24 58 -64.5t20 -88.5q0 -53 -25 -99t-74.5 -74t-120.5 -28q-101 0 -157.5 61t-56.5 167q0 119 75.5 218t212.5 162h8l105 -70v-16q-98 -37 -151.5 -73t-78.5 -83l7 -8q43 20 87 20q53 0 91 -24zM299.5 112.5q18.5 20.5 18.5 60.5q0 84 -74 84q-33 0 -73 -21
v-17q0 -66 16 -96.5t59 -30.5q35 0 53.5 20.5z" />
    <glyph glyph-name="seven" unicode="7" horiz-adv-x="440" 
d="M146 509h216l52 2v-116l-151 -329l-62 -165l-127 35l-9 25l197 417h-142l-100 -11l-8 13l10 133z" />
    <glyph glyph-name="eight" unicode="8" horiz-adv-x="502" 
d="M396.5 556q48.5 -40 48.5 -109q0 -42 -22 -74t-63 -59v-7q46 -23 73 -55t27 -83q0 -83 -60.5 -131t-162.5 -48q-95 0 -147 42t-52 110q0 50 27.5 82.5t79.5 55.5v7q-41 22 -65.5 55t-24.5 83q0 79 57 125t152 46q84 0 132.5 -40zM202 472.5q-18 -15.5 -18 -41.5
q0 -29 21 -46.5t61 -33.5q27 17 41 35t14 43q0 27 -18.5 43t-49.5 16q-33 0 -51 -15.5zM186 210q-17 -17 -17 -47q0 -31 21.5 -49.5t59.5 -18.5q39 0 60 18t21 44q0 30 -23 47t-70 36q-35 -13 -52 -30z" />
    <glyph glyph-name="nine" unicode="9" horiz-adv-x="489" 
d="M106 166q-38 24 -58 64.5t-20 88.5q0 53 25 99t74.5 74t120.5 28q101 0 157.5 -61t56.5 -167q0 -119 -75.5 -218t-212.5 -162h-8l-105 70v16q98 37 151.5 73t78.5 83l-7 8q-43 -20 -87 -20q-53 0 -91 24zM189.5 396.5q-18.5 -20.5 -18.5 -60.5q0 -84 74 -84q33 0 73 21
v17q0 66 -16 96.5t-59 30.5q-35 0 -53.5 -20.5z" />
    <glyph glyph-name="colon" unicode=":" horiz-adv-x="228" 
d="M169.5 137q20.5 -21 20.5 -58q0 -40 -23 -63.5t-61 -23.5t-58 21t-20 59q0 39 22.5 62.5t61.5 23.5q37 0 57.5 -21zM169.5 397q20.5 -21 20.5 -58q0 -40 -23 -63.5t-61 -23.5t-58 21t-20 59q0 39 22.5 62.5t61.5 23.5q37 0 57.5 -21z" />
    <glyph glyph-name="semicolon" unicode=";" horiz-adv-x="228" 
d="M191 59q0 -50 -32.5 -97t-100.5 -95l-51 44l-1 12q56 47 56 102q0 36 -33 66l1 14q60 33 115 48q46 -40 46 -94zM169.5 397q20.5 -21 20.5 -58q0 -40 -23 -63.5t-61 -23.5t-58 21t-20 59q0 39 22.5 62.5t61.5 23.5q37 0 57.5 -21z" />
    <glyph glyph-name="less" unicode="&#x3c;" horiz-adv-x="480" 
d="M446 384l-6 -11l-297 -107v-8l297 -104l-22 -89l-13 -10l-372 139v128l10 14l370 139z" />
    <glyph glyph-name="equal" unicode="=" horiz-adv-x="480" 
d="M461 400l-8 -96h-423l-10 11l8 95h422zM461 201l-8 -96h-423l-10 11l8 95h422z" />
    <glyph glyph-name="greater" unicode="&#x3e;" horiz-adv-x="480" 
d="M437 336l10 -14v-128l-372 -139l-13 10l-22 89l297 104v8l-297 107l-6 11l33 91z" />
    <glyph glyph-name="question" unicode="?" horiz-adv-x="345" 
d="M295 623q74 -42 74 -115q0 -41 -24.5 -78t-70.5 -62l-66 -38l-2 -5l6 -79l-110 -16l-11 11l-12 122l6 11l88 40q52 27 52 70q0 35 -39.5 53.5t-133.5 24.5l-12 14l29 88l15 8q137 -7 211 -49zM220.5 137q20.5 -21 20.5 -58q0 -40 -23 -63.5t-61 -23.5t-58 21t-20 59
q0 39 22.5 62.5t61.5 23.5q37 0 57.5 -21z" />
    <glyph glyph-name="at" unicode="@" horiz-adv-x="853" 
d="M734 84q-102 -82 -292 -84l19 135h-14q-46 -84 -99 -141h-19q-62 19 -87.5 58t-25.5 101q0 64 25.5 126t77.5 110.5t128 69.5h5l84 -18l84 22l11 -7l-47 -343v-5q70 13 110 68t40 137q0 70 -32 123t-90.5 82t-137.5 29q-102 0 -180.5 -44.5t-121.5 -123t-43 -177.5
q0 -103 47 -178t132.5 -114t199.5 -39l6 -14l-42 -73q-135 1 -236 47.5t-156.5 136.5t-55.5 216q0 131 57 236t160.5 165t238.5 60q107 0 187.5 -39.5t124.5 -113.5t44 -174q0 -152 -102 -234zM415 176.5q32 49.5 71 141.5l2 19l-64 19q-38 0 -59 -40t-21 -109q0 -80 23 -80
q16 0 48 49.5z" />
    <glyph glyph-name="A" unicode="A" horiz-adv-x="611" 
d="M598 0h-165l-17 93l-9 37l-116 2l-100 -3l-8 -26l-18 -103h-159l208 645h195zM376 252l-63 245h-10l-75 -245l74 -2z" />
    <glyph glyph-name="B" unicode="B" horiz-adv-x="600" 
d="M540 280.5q30 -36.5 30 -96.5q0 -97 -77.5 -143.5t-230.5 -46.5q-100 0 -191 6h-1l9 191l-9 454l254 1q103 0 161 -42t58 -121q0 -51 -25.5 -89.5t-72.5 -60.5q65 -16 95 -52.5zM352.5 518q-25.5 16 -91.5 16h-32l-4 -157l86 -4q34 10 50.5 31t16.5 57q0 41 -25.5 57z
M376 128q30 22 30 63q0 31 -19 49.5t-59 27.5l-105 -2l-1 -59l3 -97q52 -4 67 -4q54 0 84 22z" />
    <glyph glyph-name="C" unicode="C" horiz-adv-x="516" 
d="M509 621l-29 -133l-11 -6q-28 19 -63.5 29.5t-69.5 10.5q-72 0 -106.5 -45t-34.5 -142q0 -210 149 -210q33 0 70 9t67 25l14 -8l-13 -133q-70 -28 -151 -28q-151 0 -229 84t-78 243q0 161 83 249t235 88q92 0 167 -33z" />
    <glyph glyph-name="D" unicode="D" horiz-adv-x="659" 
d="M560 571.5q75 -77.5 75 -223.5q0 -172 -86 -264t-246 -92q-92 0 -232 8h-1l9 191l-9 454h1l272 4q142 0 217 -77.5zM466 309q0 114 -32 163t-104 49q-53 0 -97 -4l-6 -310l2 -84q59 -8 104 -8q133 0 133 194z" />
    <glyph glyph-name="E" unicode="E" horiz-adv-x="522" 
d="M497 132l9 -12l-10 -120h-426l9 191l-9 454h432l9 -12l-11 -120l-157 6l-110 -1l-2 -129h105l105 3l9 -12l-10 -120l-115 3h-97l-1 -56l2 -80l106 -1z" />
    <glyph glyph-name="F" unicode="F" horiz-adv-x="466" 
d="M233 518l-3 -150h81l112 3l9 -12l-10 -120l-123 3h-71l-1 -35l6 -207h-163l9 191l-9 454h404l9 -12l-11 -120l-156 6z" />
    <glyph glyph-name="G" unicode="G" horiz-adv-x="597" 
d="M559 619l-34 -145h-14q-49 27 -87.5 38.5t-81.5 11.5q-54 0 -86 -19.5t-47.5 -64.5t-15.5 -123q0 -77 15 -120.5t47.5 -62.5t89.5 -19q28 0 65 10l1 45l-3 105l149 11l-2 -89l1 -165q-119 -42 -225 -42q-153 0 -230 82.5t-77 236.5q0 168 90 256.5t258 88.5
q108 0 187 -35z" />
    <glyph glyph-name="H" unicode="H" horiz-adv-x="702" 
d="M628 207l6 -207h-162l8 191l-1 65l-130 1l-115 -3l-1 -47l6 -207h-162l8 191l-8 454h164l-5 -257l123 -2l118 2l-5 257h165z" />
    <glyph glyph-name="I" unicode="I" horiz-adv-x="308" 
d="M227 207l6 -207h-163l9 191l-9 454h166z" />
    <glyph glyph-name="J" unicode="J" horiz-adv-x="346" 
d="M268 213l2 -91q0 -59 -19.5 -100.5t-64.5 -72.5t-124 -58l-46 85v14q58 29 81 59t23 77v71l-6 332l-97 -3l-10 11l7 108h263z" />
    <glyph glyph-name="K" unicode="K" horiz-adv-x="602" 
d="M615 34l-2 -18q-79 -19 -160 -27l-19 10q-123 180 -205 319l-2 -111l6 -207h-162l8 191l-8 454h164l-5 -288l157 223l36 65h173l-212 -304q102 -151 231 -307z" />
    <glyph glyph-name="L" unicode="L" horiz-adv-x="441" 
d="M440 121l-11 -121h-363l9 191l-9 454h165l-9 -438l3 -74h205z" />
    <glyph glyph-name="M" unicode="M" horiz-adv-x="801" 
d="M759 0h-143l-8 196l-18 212h-10l-128 -343h-124l-112 343h-11l-20 -197l-13 -211h-135l64 645h187l23 -94l83 -276h10l90 273l26 97h184z" />
    <glyph glyph-name="N" unicode="N" horiz-adv-x="701" 
d="M622 204l6 -204h-176l-229 399h-10l-1 -172l6 -227h-147l8 190l-8 455h175l230 -399h10l-4 393l149 9z" />
    <glyph glyph-name="O" unicode="O" horiz-adv-x="647" 
d="M549 572.5q75 -82.5 75 -234.5q0 -166 -82 -257.5t-231 -91.5q-137 0 -212 84.5t-75 239.5q0 164 81.5 253t230.5 89q138 0 213 -82.5zM247 506.5q-28 -18.5 -41 -60t-13 -112.5q0 -85 13 -133.5t41.5 -69.5t77.5 -21q48 0 76 18.5t40.5 60.5t12.5 115q0 84 -13 132
t-41 68.5t-78 20.5q-47 0 -75 -18.5z" />
    <glyph glyph-name="P" unicode="P" horiz-adv-x="570" 
d="M502.5 594q56.5 -52 56.5 -148q0 -75 -34 -131.5t-96 -87.5t-144 -31h-58l6 -196h-163l9 191l-9 454l272 1q104 0 160.5 -52zM370.5 354.5q18.5 28.5 18.5 75.5q0 50 -24.5 74t-76.5 26l-54 -3l-5 -210l85 -4q38 13 56.5 41.5z" />
    <glyph glyph-name="Q" unicode="Q" horiz-adv-x="654" 
d="M738 -97q-33 -64 -77 -103l-12 -6q-174 74 -319 195h-18q-138 0 -213 84.5t-75 239.5q0 164 81.5 253t230.5 89q138 0 213 -82.5t75 -235.5q0 -113 -38.5 -192t-110.5 -118q124 -72 257 -108zM206 201.5q13 -47.5 42 -68.5t78 -21q47 0 74.5 18.5t40.5 60.5t13 114
q0 83 -13 130.5t-42 68.5t-78 21q-47 0 -75 -18.5t-40.5 -60t-12.5 -113.5q0 -84 13 -131.5z" />
    <glyph glyph-name="R" unicode="R" horiz-adv-x="607" 
d="M595 38l-2 -18q-76 -25 -161 -31l-16 13q-60 112 -104 205h-85l6 -207h-163l9 191l-9 454l272 1q105 0 161.5 -50.5t56.5 -144.5q0 -59 -30 -110t-85 -86q83 -129 150 -217zM230 329l87 -4q37 14 54.5 41t17.5 70q0 47 -24.5 69.5t-76.5 24.5l-54 -3z" />
    <glyph glyph-name="S" unicode="S" horiz-adv-x="510" 
d="M467 621l-26 -136l-24 -9q-38 25 -76 39t-66 14q-33 0 -52.5 -16.5t-19.5 -38.5q0 -25 24.5 -42.5t77.5 -41.5q56 -26 90.5 -47.5t60 -57.5t25.5 -88q0 -58 -31.5 -105t-89.5 -74.5t-134 -27.5q-101 0 -200 40l23 145l17 10q42 -35 91.5 -54.5t85.5 -19.5q38 0 57.5 17
t19.5 40q0 27 -25 45t-78 42q-54 25 -88.5 46.5t-59.5 57.5t-25 88q0 59 31.5 106.5t88 74.5t129.5 27q86 0 174 -34z" />
    <glyph glyph-name="T" unicode="T" horiz-adv-x="510" 
d="M499 633l-9 -119l-126 6h-28l-5 -313l6 -207h-162l9 191l-5 329h-30l-127 -6l-10 12l10 119h468z" />
    <glyph glyph-name="U" unicode="U" horiz-adv-x="644" 
d="M584 318l-1 -93q1 -113 -69.5 -174t-200.5 -61q-126 0 -192.5 60t-63.5 172l2 98l-4 325h162l-7 -401q-1 -64 26 -94t84 -30q58 0 85.5 29.5t26.5 90.5l-7 405h165z" />
    <glyph glyph-name="V" unicode="V" horiz-adv-x="599" 
d="M391 0h-195l-189 645h165l17 -94l103 -403h10l120 394l18 103h159z" />
    <glyph glyph-name="W" unicode="W" horiz-adv-x="907" 
d="M701 0h-171l-81 278h-10l-80 -278h-172l-169 645h158l10 -88l93 -392h10l95 326l-40 154h164l14 -104l97 -376h10l109 383l17 97h150z" />
    <glyph glyph-name="X" unicode="X" horiz-adv-x="638" 
d="M423 339l202 -339h-194l-32 70l-86 142l-99 -150l-30 -62h-166l200 315l-202 330h195l32 -71l83 -135l88 142l29 64h170z" />
    <glyph glyph-name="Y" unicode="Y" horiz-adv-x="573" 
d="M353 175l7 -175h-162l8 175l-1 35l-206 435h171l15 -48l94 -225h11l106 219l20 54h166l-227 -431z" />
    <glyph glyph-name="Z" unicode="Z" horiz-adv-x="557" 
d="M522 529l-302 -407h194l114 8l6 -8l-13 -126l-159 4h-246l-87 -5v116l305 412h-184l-114 -9l-6 7l12 126l138 -2h274l68 1v-117z" />
    <glyph glyph-name="bracketleft" unicode="[" horiz-adv-x="298" 
d="M302 640v-70l-102 -14v-589l102 -13v-71l-7 -8l-224 10l9 377l-9 376l224 10z" />
    <glyph glyph-name="backslash" unicode="\" horiz-adv-x="282" 
d="M-17 668l12 13h107l207 -785l-10 -12h-109z" />
    <glyph glyph-name="bracketright" unicode="]" horiz-adv-x="298" 
d="M-4 -117v70l102 14v589l-102 13v71l7 8l224 -10l-9 -377l9 -376l-224 -10z" />
    <glyph glyph-name="asciicircum" unicode="^" horiz-adv-x="449" 
d="M435 152l-11 -13l-88 -21l-104 272h-8l-108 -272l-11 -7l-90 33l138 346l15 9h127z" />
    <glyph glyph-name="underscore" unicode="_" horiz-adv-x="442" 
d="M457 -101l-8 -88h-454l-10 11l8 88h454z" />
    <glyph glyph-name="grave" unicode="`" horiz-adv-x="388" 
d="M325 581l-37 -60l-15 -1q-107 58 -206 115l-3 14l57 87l14 1q87 -78 190 -156z" />
    <glyph glyph-name="a" unicode="a" horiz-adv-x="490" 
d="M379 442.5q46 -35.5 46 -101.5q0 -23 -2 -53t-3 -57q-5 -72 -5 -99q0 -14 4.5 -20t15.5 -6q9 0 22 4l11 -9l-14 -83q-33 -23 -81 -27q-30 3 -51 21t-30 51h-7q-50 -53 -102 -73q-74 1 -116.5 40t-42.5 106q0 103 108 121l148 25v29q0 31 -13.5 44.5t-43.5 13.5t-64.5 -13
t-79.5 -41l-10 7l-18 103q45 25 97 39t102 14q83 0 129 -35.5zM194 191q-15 -3 -22.5 -12t-7.5 -27q0 -24 12.5 -37t34.5 -13q32 0 68 34l1 72z" />
    <glyph glyph-name="b" unicode="b" horiz-adv-x="528" 
d="M456 414q48 -60 48 -167q0 -124 -62.5 -191t-172.5 -67q-55 0 -121 24l-76 -25l-16 15l8 188l-7 500l158 11l-5 -301h5q26 26 51 43.5t54 29.5q88 0 136 -60zM356 223q-2 125 -81 125q-34 0 -66 -28l-2 -109l1 -109q32 -12 56 -12q92 0 92 133z" />
    <glyph glyph-name="c" unicode="c" horiz-adv-x="384" 
d="M378 454l-26 -124l-12 -5q-27 13 -46.5 19t-38.5 6q-40 0 -60.5 -27t-20.5 -80q0 -130 91 -130q36 0 93 21l12 -9l-16 -119q-60 -17 -124 -17q-98 0 -152.5 62.5t-54.5 175.5q0 118 61 184.5t171 66.5q69 0 123 -24z" />
    <glyph glyph-name="d" unicode="d" horiz-adv-x="530" 
d="M462 207l2 -74q0 -15 4 -21t14 -6q9 0 22 4l11 -9l-14 -83q-33 -23 -81 -27q-32 3 -54.5 21t-32.5 49h-8q-41 -41 -97 -69q-97 0 -151 63t-54 174q0 120 63.5 183.5t175.5 63.5q29 0 53 -5l-2 220l157 11zM192 344.5q-21 -25.5 -21 -84.5q0 -76 20 -112t60 -36
q35 0 67 33l1 47l-2 163q-33 15 -62 15q-42 0 -63 -25.5z" />
    <glyph glyph-name="e" unicode="e" horiz-adv-x="477" 
d="M430 208l-262 -2q7 -52 36 -77t82 -25t140 31l12 -8l-24 -113q-80 -25 -145 -25q-115 0 -180.5 65t-65.5 179t63 179.5t171 65.5q93 0 144.5 -50t51.5 -139q0 -29 -6 -61zM316 306q0 69 -60 69q-34 0 -56 -22.5t-30 -64.5l144 4z" />
    <glyph glyph-name="f" unicode="f" horiz-adv-x="342" 
d="M409 695l-10 -116l-10 -8q-54 22 -87 22q-54 0 -55 -59l-1 -70h111l4 -9l-7 -85h-110l-2 -163l7 -207h-158l8 192l-2 178h-71l-4 8l7 86h67l-1 42q0 95 58.5 146.5t164.5 51.5q43 0 91 -9z" />
    <glyph glyph-name="g" unicode="g" horiz-adv-x="507" 
d="M448 383l-2 -4q13 -26 13 -60q0 -76 -57 -121t-155 -45q-33 0 -57 4q-10 -11 -10 -20q0 -17 22 -23t74 -12q62 -7 101.5 -16.5t69 -36.5t29.5 -76t-29.5 -87.5t-83 -60t-123.5 -21.5q-95 0 -147 37t-52 99q34 41 81 70v5q-33 13 -51.5 36t-18.5 60q35 38 71 61v6
q-38 19 -57.5 52t-19.5 78q0 78 57 123t155 45q56 0 104 -19q74 15 146 43l11 -9v-97q-32 -8 -71 -11zM323 315q0 34 -16.5 49.5t-51.5 15.5q-38 0 -55.5 -15.5t-17.5 -48.5q0 -36 17 -53.5t52 -17.5q72 0 72 70zM316.5 -22q-27.5 9 -85.5 16l-30 3q-34 -25 -34 -51
q0 -25 22.5 -39.5t65.5 -14.5q42 0 65.5 13t23.5 40q0 24 -27.5 33z" />
    <glyph glyph-name="h" unicode="h" horiz-adv-x="540" 
d="M332 0l9 279q0 69 -56 69q-33 0 -76 -30l-2 -111l7 -207h-158l8 192l-6 499l157 11l-5 -301h6q55 52 119 73q76 0 115.5 -34.5t37.5 -98.5l-3 -134l6 -207h-159z" />
    <glyph glyph-name="i" unicode="i" horiz-adv-x="271" 
d="M62 191l-5 267l157 12l-7 -263l6 -207h-158zM195.5 687q20.5 -21 20.5 -58q0 -40 -23 -63.5t-61 -23.5t-58 21t-20 59q0 39 22.5 62.5t61.5 23.5q37 0 57.5 -21z" />
    <glyph glyph-name="j" unicode="j" horiz-adv-x="294" 
d="M238 468l-9 -261l7 -177q0 -79 -41.5 -133t-132.5 -93l-54 70v14q41 22 59.5 55t18.5 83v165l-4 179h-73l-9 9l7 85h79l147 7zM206.5 687q20.5 -21 20.5 -58q0 -40 -23 -63.5t-61 -23.5t-58 21t-20 59q0 39 22.5 62.5t61.5 23.5q37 0 57.5 -21z" />
    <glyph glyph-name="k" unicode="k" horiz-adv-x="513" 
d="M207 207l7 -207h-158l8 192l-6 499l157 11zM359 258q51 -88 148 -232l-1 -16q-52 -11 -148 -21l-16 8q-80 123 -134 247v10l103 162l23 52h164z" />
    <glyph glyph-name="l" unicode="l" horiz-adv-x="271" 
d="M207 207l7 -207h-158l8 192l-6 499l157 11z" />
    <glyph glyph-name="m" unicode="m" horiz-adv-x="810" 
d="M612 280q2 69 -56 69q-35 0 -75 -29l-3 -113l7 -207h-157l8 280q2 69 -57 69q-34 0 -76 -31v-111l7 -207h-157l7 191l-6 267l149 12v-69h7q55 52 119 73q56 0 92.5 -19.5t50.5 -55.5h6q55 52 128 75q75 0 114.5 -34.5t37.5 -98.5l-3 -134l6 -207h-157z" />
    <glyph glyph-name="n" unicode="n" horiz-adv-x="535" 
d="M336 279q2 69 -56 69q-35 0 -76 -30v-111l7 -207h-158l7 191l-6 267l151 12v-69h6q54 51 120 73q75 0 114.5 -34.5t38.5 -98.5l-4 -134l6 -207h-158z" />
    <glyph glyph-name="o" unicode="o" horiz-adv-x="495" 
d="M416.5 418q55.5 -60 55.5 -175q0 -124 -59.5 -189t-172.5 -65q-106 0 -161.5 60t-55.5 174q0 124 59.5 189.5t172.5 65.5q106 0 161.5 -60zM187.5 344.5q-16.5 -26.5 -16.5 -92.5q0 -61 7.5 -95.5t25 -49t47.5 -14.5q39 0 55.5 26.5t16.5 93.5q0 89 -17.5 123.5
t-61.5 34.5q-40 0 -56.5 -26.5z" />
    <glyph glyph-name="p" unicode="p" horiz-adv-x="523" 
d="M451 414.5q48 -59.5 48 -168.5q0 -123 -61.5 -190t-174.5 -67q-24 0 -56 5l3 -179h-157l7 376l-7 267l151 12v-69h7q26 27 50.5 44t54.5 29q87 0 135 -59.5zM351 223q-1 125 -80 125q-33 0 -68 -29v-112l2 -107q32 -10 55 -10q91 0 91 133z" />
    <glyph glyph-name="q" unicode="q" horiz-adv-x="523" 
d="M457 478l13 -8l-8 -263l7 -392h-158l8 205v28h-8q-40 -36 -85 -56q-96 0 -149.5 63t-53.5 172q0 120 63.5 184.5t167.5 64.5q32 0 59.5 -6t60.5 -18zM191 343.5q-20 -26.5 -20 -88.5q0 -71 20 -107t58 -36q36 0 69 33l1 45l-3 164q-32 16 -63 16q-42 0 -62 -26.5z" />
    <glyph glyph-name="r" unicode="r" horiz-adv-x="359" 
d="M356 467v-145l-16 -5q-14 7 -37 7q-54 0 -99 -58v-59l7 -207h-158l8 191l-7 267l151 12v-90h7q47 89 120 89q6 0 24 -2z" />
    <glyph glyph-name="s" unicode="s" horiz-adv-x="392" 
d="M359 453l-20 -113l-19 -6q-32 20 -62.5 31t-52.5 11q-20 0 -31 -9.5t-11 -22.5q0 -18 18 -29.5t55 -25.5q42 -17 68 -32t45.5 -42t19.5 -68q0 -42 -21 -78t-65.5 -58t-110.5 -22q-74 0 -157 28l19 120l14 10q33 -27 73.5 -43t69.5 -16q22 0 33.5 10t11.5 25
q0 17 -17.5 28.5t-55.5 26.5q-41 16 -68 31t-46.5 42.5t-19.5 69.5q0 69 52 112.5t142 43.5q72 0 136 -24z" />
    <glyph glyph-name="t" unicode="t" horiz-adv-x="348" 
d="M326 131l11 -12l-15 -91q-50 -28 -104 -35q-73 4 -111 38.5t-38 94.5l5 91l-1 153h-62l-5 8l7 86h59v80l145 43l11 -10l-4 -113h110l5 -9l-7 -85h-111l-6 -202q0 -29 10.5 -40.5t36.5 -11.5q30 0 64 15z" />
    <glyph glyph-name="u" unicode="u" horiz-adv-x="528" 
d="M513 101l-14 -83q-42 -27 -86 -27q-58 12 -80 79h-10q-58 -58 -117 -76q-75 0 -115 34.5t-40 98.5l3 112l-5 219l152 12l-2 -285q-1 -65 52 -65q18 0 34 7t35 23v308l150 12l-9 -338q0 -14 4.5 -20t14.5 -6q9 0 22 4z" />
    <glyph glyph-name="v" unicode="v" horiz-adv-x="454" 
d="M167 387l56 -240h8l68 231l17 90h138l-149 -468h-172l-126 465l147 6z" />
    <glyph glyph-name="w" unicode="w" horiz-adv-x="709" 
d="M164 392l45 -234h8l57 225l17 85h153l9 -76l48 -234h9l54 225l17 85h132l-142 -468h-149l-59 272h-11l-69 -272h-155l-118 465l143 6z" />
    <glyph glyph-name="x" unicode="x" horiz-adv-x="473" 
d="M198 410l50 -87l52 93l26 51h137l-130 -230l134 -232l-167 -12l-24 64l-50 90l-56 -97l-23 -50h-138l130 234l-131 230l169 7z" />
    <glyph glyph-name="y" unicode="y" horiz-adv-x="457" 
d="M161 391l70 -235h9l68 221l18 91h134l-146 -429q-23 -69 -54 -112t-77.5 -70.5t-120.5 -49.5l-11 1q-39 38 -69 94l6 15q57 9 98 28t79 55l-170 465l150 6z" />
    <glyph glyph-name="z" unicode="z" horiz-adv-x="430" 
d="M142 468h201l57 1l1 -94l-211 -275h123l89 7l8 -10l-10 -100l-127 3h-176l-73 -4v93l213 279h-116l-88 -7l-9 10l11 99z" />
    <glyph glyph-name="braceleft" unicode="{" horiz-adv-x="298" 
d="M290 647l6 -11l-13 -79q-20 5 -34 5q-51 0 -51 -56q0 -19 12 -63t12 -65q0 -34 -17.5 -60.5t-51.5 -42.5v-6q34 -15 51.5 -42t17.5 -59q0 -22 -12 -68q-12 -42 -12 -61q0 -57 51 -57q14 0 34 5l13 -79l-6 -11q-33 -10 -71 -10q-70 0 -107.5 31.5t-37.5 88.5q0 34 12 90
q9 43 9 64q0 56 -63 75v72q63 21 63 76q0 20 -9 63q-12 56 -12 90q0 58 37.5 89.5t107.5 31.5q35 0 71 -11z" />
    <glyph glyph-name="bar" unicode="|" horiz-adv-x="304" 
d="M214 795l-4 -503l1 -541l-108 -9l-12 14l1 524l1 517l110 9z" />
    <glyph glyph-name="braceright" unicode="}" horiz-adv-x="298" 
d="M8 -102l-6 11l13 79q20 -5 34 -5q51 0 51 56q0 19 -12 63t-12 65q0 34 17.5 60.5t51.5 42.5v6q-34 15 -51.5 42t-17.5 59q0 22 12 68q12 42 12 61q0 57 -51 57q-14 0 -34 -5l-13 79l6 11q33 10 71 10q70 0 107.5 -31.5t37.5 -88.5q0 -34 -12 -90q-9 -43 -9 -64
q0 -55 63 -75v-72q-63 -21 -63 -76q0 -20 9 -63q12 -56 12 -90q0 -58 -37.5 -89.5t-107.5 -31.5q-35 0 -71 11z" />
    <glyph glyph-name="asciitilde" unicode="~" horiz-adv-x="480" 
d="M122.5 215q-13.5 -11 -27.5 -26t-19 -21h-14l-42 52v14l86 101l14 7q37 -7 103 -28q89 -27 109 -27q14 0 27.5 11.5t27.5 26.5t19 20h13l41 -52v-13l-85 -102l-14 -5q-27 4 -111 29q-9 2 -47 13t-53 11q-14 0 -27.5 -11z" />
    <glyph glyph-name="uni00A0" unicode="&#xa0;" horiz-adv-x="145" 
 />
    <glyph glyph-name="exclamdown" unicode="&#xa1;" horiz-adv-x="268" 
d="M51 -178l42 403l90 13l15 -16l12 -393l-14 -18l-127 -8zM93 334q-20 21 -20 58q0 40 22.5 63.5t60.5 23.5t58.5 -21t20.5 -59q0 -39 -23 -62.5t-62 -23.5q-37 0 -57 21z" />
    <glyph glyph-name="cent" unicode="&#xa2;" horiz-adv-x="382" 
d="M358 173l12 -9l-16 -119q-38 -10 -72 -14l-9 -157h-106l-12 12l9 151q-68 19 -104.5 78t-36.5 151q0 99 44 162.5t124 81.5l8 149h103l16 -14l-8 -133q40 -6 68 -19l-26 -124l-12 -5q-27 13 -46.5 19t-38.5 6q-40 0 -60.5 -27t-20.5 -80q0 -130 91 -130q36 0 93 21z" />
    <glyph glyph-name="sterling" unicode="&#xa3;" horiz-adv-x="460" 
d="M437 103l-11 -107l-139 4h-266l-6 8l7 88q39 9 56 31.5t17 63.5l-1 71h-73l-5 7l7 79h71l-1 56q-1 92 56.5 142t165.5 50q57 0 117 -15l-9 -110l-10 -7q-64 30 -112 30q-35 0 -51.5 -16.5t-16.5 -49.5l-1 -80h138l4 -8l-6 -78h-137l-1 -40q0 -40 -8.5 -63.5t-31.5 -49.5
v-5h140l102 7z" />
    <glyph glyph-name="currency" unicode="&#xa4;" horiz-adv-x="434" 
d="M439 496v-13l-70 -62q20 -35 20 -76q0 -33 -17 -69l70 -57l3 -15l-69 -72h-13l-61 70q-33 -21 -77 -21q-36 0 -70 18l-57 -69l-14 -2l-73 68l1 14l69 60q-20 34 -20 75q0 37 18 71l-69 58l-2 14l68 72l13 -1l62 -70q34 20 74 20q33 0 69 -17l59 70l14 3zM167 403
q-22 -22 -22 -58t22 -58t58 -22t58 22t22 58t-22 58t-58 22t-58 -22z" />
    <glyph glyph-name="yen" unicode="&#xa5;" horiz-adv-x="548" 
d="M385 244l-39 -67h173l7 -6l-5 -65h-186l5 -106h-137l5 106h-172l-5 8l4 63h162l-35 67h-126l-5 8l4 64h90l-98 191h144l13 -40l88 -168h8l98 163l18 45h140l-110 -191h93l7 -6l-5 -66h-136z" />
    <glyph glyph-name="brokenbar" unicode="&#xa6;" horiz-adv-x="304" 
d="M214 795l-3 -416l-108 -14l-11 10v422l111 9zM210 147l1 -396l-108 -9l-12 14l1 392l106 13z" />
    <glyph glyph-name="section" unicode="&#xa7;" horiz-adv-x="437" 
d="M374 62q0 -43 -25.5 -79.5t-71 -58t-102.5 -21.5q-34 0 -79 8t-80 21l19 121l14 9q35 -28 73 -44t69 -16q24 0 36.5 10t12.5 23q0 15 -18 27t-57 29q-45 20 -74.5 38t-51 47t-21.5 71q0 45 24 85t65 67q-48 38 -48 94q0 44 25.5 81t71 59t102.5 22q31 0 67.5 -6.5
t65.5 -17.5l-19 -116l-18 -6q-33 21 -64 32.5t-53 11.5q-21 0 -33 -10t-12 -24q0 -15 17.5 -26t57.5 -29q47 -21 75.5 -38t50.5 -46t22 -71q0 -44 -25 -83.5t-67 -65.5q51 -42 51 -98zM173 245q22 -17 66 -38q42 26 42 61q0 26 -22 42.5t-69 39.5q-39 -28 -39 -63
q0 -25 22 -42z" />
    <glyph glyph-name="dieresis" unicode="&#xa8;" horiz-adv-x="388" 
d="M157.5 677.5q18.5 -18.5 18.5 -51.5q0 -35 -20 -55.5t-55 -20.5q-34 0 -51.5 18t-17.5 52q0 35 20 55.5t55 20.5q32 0 50.5 -18.5zM339 677.5q18 -18.5 18 -51.5q0 -35 -20 -55.5t-54 -20.5t-51.5 18t-17.5 52q0 35 20 55.5t55 20.5q32 0 50 -18.5z" />
    <glyph glyph-name="copyright" unicode="&#xa9;" horiz-adv-x="688" 
d="M501.5 560q68.5 -38 106 -107t37.5 -160t-37.5 -160t-106 -107t-158.5 -38q-89 0 -157.5 38t-106 107t-37.5 160t37.5 160t106 107t157.5 38q90 0 158.5 -38zM213.5 514.5q-56.5 -31.5 -87.5 -89t-31 -132.5t31 -132.5t87.5 -89t129.5 -31.5q74 0 130.5 31.5t87.5 89
t31 132.5t-31 132.5t-87.5 89t-130.5 31.5q-73 0 -129.5 -31.5zM456 451l-19 -83l-6 -4q-14 7 -32 11t-34 4q-34 0 -49 -17t-15 -58q0 -47 16.5 -69t53.5 -22q34 0 66 10l9 -4l-8 -82q-29 -9 -75 -9q-86 0 -129 42t-43 123t46.5 126t131.5 45q43 0 87 -13z" />
    <glyph glyph-name="ordfeminine" unicode="&#xaa;" horiz-adv-x="350" 
d="M273 628.5q32 -24.5 32 -70.5q0 -28 -3 -73l-2 -61q0 -19 11 -19q10 0 14 3l8 -7l-11 -61q-13 -10 -25.5 -14.5t-28.5 -4.5q-27 0 -40.5 10.5t-21.5 37.5h-4q-30 -35 -71 -49q-51 1 -80.5 28t-29.5 74q0 73 76 85l99 14l1 15q0 19 -8.5 27.5t-27.5 8.5q-39 0 -99 -34
l-8 4l-13 76q32 17 68.5 26t70.5 9q61 0 93 -24.5zM149 460q-22 -5 -22 -27q0 -15 7.5 -23.5t21.5 -8.5q20 0 40 17v50z" />
    <glyph glyph-name="guillemotleft" unicode="&#xab;" horiz-adv-x="444" 
d="M239 214v24l131 181l75 -39l3 -15l-94 -137l94 -136l-3 -14l-75 -39zM46 214v24l131 181l75 -39l3 -15l-94 -137l94 -136l-3 -14l-75 -39z" />
    <glyph glyph-name="logicalnot" unicode="&#xac;" horiz-adv-x="480" 
d="M435 303v-258l-96 -7l-11 10v157h-299l-10 11l8 95h402z" />
    <glyph glyph-name="uni00AD" unicode="&#xad;" horiz-adv-x="302" 
d="M275 316v-98l-237 -37l-12 12v98l237 36z" />
    <glyph glyph-name="registered" unicode="&#xae;" horiz-adv-x="449" 
d="M361.5 651q51.5 -52 51.5 -137t-51.5 -137t-136.5 -52t-137 52t-52 137t52 137t137 52t136.5 -52zM335 404q42 42 42 110t-42 110t-110 42t-110 -42t-42 -110t42 -110t110 -42t110 42zM301.5 524.5q-9.5 -15.5 -27.5 -25.5q15 -22 49 -64l-1 -6q-16 -6 -53 -10l-7 4
q-18 30 -33 60h-28l3 -60h-55l2 56l-2 139l91 1q34 0 52.5 -16t18.5 -46q0 -17 -9.5 -32.5zM246 572q-8 6 -25 7l-17 -1l-2 -54l30 -2q11 6 16.5 13t5.5 18q0 13 -8 19z" />
    <glyph glyph-name="macron" unicode="&#xaf;" horiz-adv-x="388" 
d="M343 662l-8 -88h-278l-10 11l7 88h278z" />
    <glyph glyph-name="degree" unicode="&#xb0;" horiz-adv-x="292" 
d="M239.5 617q38.5 -38 38.5 -93t-38 -93.5t-94 -38.5q-36 0 -66.5 17.5t-48 48t-17.5 66.5t17.5 66t48 47.5t66.5 17.5q55 0 93.5 -38zM99 570.5q-19 -18.5 -19 -46.5t19 -47t47 -19q29 0 47.5 19t18.5 47t-19 46.5t-47 18.5t-47 -18.5z" />
    <glyph glyph-name="plusminus" unicode="&#xb1;" horiz-adv-x="480" 
d="M294 469v-158h156l11 -10l-8 -96h-159v-160l-96 -7l-11 10v157h-157l-10 11l8 95h159v160l96 8zM461 -32l-8 -96h-423l-10 11l8 95h422z" />
    <glyph glyph-name="uni00B2" unicode="&#xb2;" horiz-adv-x="367" 
d="M278 680.5q36 -25.5 36 -71.5q0 -29 -18.5 -63t-60.5 -85l-45 -54l2 -3h77l69 6l6 -8l-14 -95l-99 5h-168l-27 -2l-6 5v71l93 96q37 41 52 61t15 37q0 12 -8.5 19.5t-25.5 7.5q-21 0 -46.5 -11.5t-46.5 -31.5h-14l-20 91q84 51 158 51q55 0 91 -25.5z" />
    <glyph glyph-name="uni00B3" unicode="&#xb3;" horiz-adv-x="328" 
d="M253 680.5q37 -26.5 37 -69.5q0 -25 -14 -49.5t-47 -41.5v-4q70 -20 70 -90q0 -55 -51 -88t-136 -33q-41 0 -81 8l-7 86l8 7q45 -12 82 -12q66 0 66 36q0 29 -41 30h-56l-6 7l2 80l32 1q23 1 38.5 11.5t15.5 27.5q0 26 -37 26q-30 0 -78 -23h-13l-19 80q30 18 66 27.5
t71 9.5q61 0 98 -26.5z" />
    <glyph glyph-name="acute" unicode="&#xb4;" horiz-adv-x="388" 
d="M268 736l57 -87l-3 -14q-99 -57 -206 -115l-14 1l-37 60q105 80 189 156z" />
    <glyph glyph-name="uni00B5" unicode="&#xb5;" horiz-adv-x="546" 
d="M523 101l-14 -83q-42 -27 -86 -27q-58 12 -80 79h-10q-35 -45 -82 -76q-33 0 -55 7l13 -186h-149l4 376l-5 267l150 12v-280l-1 -6l1 1q0 -65 52 -65q18 0 34.5 7t34.5 22v309l150 12l-9 -338q0 -14 4.5 -20t14.5 -6t23 4z" />
    <glyph glyph-name="paragraph" unicode="&#xb6;" horiz-adv-x="539" 
d="M525 634l-10 -110h-64l-6 -321l2 -64q0 -81 -46.5 -133.5t-162.5 -94.5l-41 72v14q54 29 77 59.5t23 76.5v53l-6 339h-39q-31 -7 -47 -34t-16 -70q0 -41 19 -77t55 -61l-55 -80q-91 23 -140 80.5t-49 142.5q0 105 66.5 162t189.5 57h241z" />
    <glyph glyph-name="periodcentered" unicode="&#xb7;" horiz-adv-x="228" 
d="M174.5 318q20.5 -21 20.5 -58q0 -40 -23 -63.5t-61 -23.5t-58 21t-20 59q0 39 22.5 62.5t61.5 23.5q37 0 57.5 -21z" />
    <glyph glyph-name="cedilla" unicode="&#xb8;" horiz-adv-x="388" 
d="M215 -46l34 -19q23 -12 32.5 -27t9.5 -34q0 -34 -27.5 -56t-73.5 -22q-44 0 -86 26l10 64l7 3q15 -14 30.5 -21.5t28.5 -7.5q21 0 21 18q0 10 -15 18l-49 27l23 106h71z" />
    <glyph glyph-name="uni00B9" unicode="&#xb9;" horiz-adv-x="284" 
d="M216 694l-5 -243l4 -139h-125l5 127v133l-80 -15l-8 6v95l192 48z" />
    <glyph glyph-name="ordmasculine" unicode="&#xba;" horiz-adv-x="351" 
d="M293 612.5q38 -40.5 38 -119.5q0 -86 -41 -130t-121 -44q-74 0 -112 41t-38 120q0 86 41 129.5t121 43.5q74 0 112 -40.5zM139.5 556q-9.5 -17 -9.5 -62q0 -56 10.5 -77t36.5 -21q25 0 35 18t10 65q0 54 -10.5 74t-37.5 20q-25 0 -34.5 -17z" />
    <glyph glyph-name="guillemotright" unicode="&#xbb;" horiz-adv-x="444" 
d="M398 246v-24l-131 -181l-75 39l-3 15l94 137l-94 136l3 14l75 39zM204 246v-24l-131 -181l-75 39l-3 15l94 137l-94 136l3 14l75 39z" />
    <glyph glyph-name="onequarter" unicode="&#xbc;" horiz-adv-x="776" 
d="M216 639l-5 -243l4 -139h-125l5 127v133l-80 -15l-8 6v95l192 48zM586 650l9 -20l-465 -723l-67 41l-6 15l466 726zM748 78l-50 2l5 -72l-7 -8l-97 -5l-6 7l2 79h-95l-73 -3l-8 10v74l165 227h114l-2 -219h50l7 -10zM524 170h73v90h-7z" />
    <glyph glyph-name="onehalf" unicode="&#xbd;" horiz-adv-x="769" 
d="M216 639l-5 -243l4 -139h-125l5 127v133l-80 -15l-8 6v95l192 48zM586 650l9 -20l-465 -723l-67 41l-6 15l466 726zM680 368.5q36 -25.5 36 -71.5q0 -29 -18.5 -63t-60.5 -85l-45 -54l2 -3h77l69 6l6 -8l-14 -95l-99 5h-168l-27 -2l-6 5v71l93 96q37 41 52 61t15 37
q0 12 -8.5 19.5t-25.5 7.5q-21 0 -46.5 -11.5t-46.5 -31.5h-14l-20 91q84 51 158 51q55 0 91 -25.5z" />
    <glyph glyph-name="threequarters" unicode="&#xbe;" horiz-adv-x="820" 
d="M253 625.5q37 -26.5 37 -69.5q0 -25 -14 -49.5t-47 -41.5v-4q70 -20 70 -90q0 -55 -51 -88t-136 -33q-41 0 -81 8l-7 86l8 7q45 -12 82 -12q66 0 66 36q0 29 -41 30h-56l-6 7l2 80l32 1q23 1 38.5 11.5t15.5 27.5q0 26 -37 26q-30 0 -78 -23h-13l-19 80q30 18 66 27.5
t71 9.5q61 0 98 -26.5zM630 650l9 -20l-465 -723l-67 41l-6 15l466 726zM792 78l-50 2l5 -72l-7 -8l-97 -5l-6 7l2 79h-95l-73 -3l-8 10v74l165 227h114l-2 -219h50l7 -10zM568 170h73v90h-7z" />
    <glyph glyph-name="questiondown" unicode="&#xbf;" horiz-adv-x="345" 
d="M54 -152q-74 42 -74 115q0 41 24.5 78t70.5 62l66 38l2 5l-6 79l110 16l11 -11l12 -122l-6 -11l-88 -40q-52 -27 -52 -70q0 -35 39.5 -53.5t133.5 -24.5l12 -14l-29 -88l-15 -8q-137 7 -211 49zM128.5 334q-20.5 21 -20.5 58q0 40 23 63.5t61 23.5t58 -21t20 -59
q0 -39 -22.5 -62.5t-61.5 -23.5q-37 0 -57.5 21z" />
    <glyph glyph-name="Agrave" unicode="&#xc0;" horiz-adv-x="611" 
d="M598 0h-165l-17 93l-9 37l-116 2l-100 -3l-8 -26l-18 -103h-159l208 645h195zM376 252l-63 245h-10l-75 -245l74 -2zM442 784l-25 -66l-14 -4q-129 41 -225 75l-5 13l40 95l15 3q105 -62 214 -116z" />
    <glyph glyph-name="Aacute" unicode="&#xc1;" horiz-adv-x="611" 
d="M598 0h-165l-17 93l-9 37l-116 2l-100 -3l-8 -26l-18 -103h-159l208 645h195zM376 252l-63 245h-10l-75 -245l74 -2zM419 897l40 -95l-5 -13q-98 -36 -225 -75l-14 4l-25 66q111 55 214 116z" />
    <glyph glyph-name="Acircumflex" unicode="&#xc2;" horiz-adv-x="611" 
d="M598 0h-165l-17 93l-9 37l-116 2l-100 -3l-8 -26l-18 -103h-159l208 645h195zM376 252l-63 245h-10l-75 -245l74 -2zM152 788q76 51 141 110h30q68 -61 142 -110l-28 -63h-15l-45 24q-14 8 -31 17t-37 21l-114 -62h-15z" />
    <glyph glyph-name="Atilde" unicode="&#xc3;" horiz-adv-x="611" 
d="M598 0h-165l-17 93l-9 37l-116 2l-100 -3l-8 -26l-18 -103h-159l208 645h195zM376 252l-63 245h-10l-75 -245l74 -2zM490 849v-13l-74 -99l-14 -6q-19 2 -46 9.5t-37 9.5q-53 16 -71 16q-13 0 -25 -10t-23.5 -24t-16.5 -20h-14l-46 46v13l74 99l14 5q22 -3 87 -20
q53 -15 67 -15q13 0 24.5 10t23 24t17.5 21h14z" />
    <glyph glyph-name="Adieresis" unicode="&#xc4;" horiz-adv-x="611" 
d="M598 0h-165l-17 93l-9 37l-116 2l-100 -3l-8 -26l-18 -103h-159l208 645h195zM376 252l-63 245h-10l-75 -245l74 -2zM269.5 854.5q18.5 -18.5 18.5 -51.5q0 -35 -20 -55.5t-55 -20.5q-34 0 -51.5 18t-17.5 52q0 35 20 55.5t55 20.5q32 0 50.5 -18.5zM451 854.5
q18 -18.5 18 -51.5q0 -35 -20 -55.5t-54 -20.5t-51.5 18t-17.5 52q0 35 20 55.5t55 20.5q32 0 50 -18.5z" />
    <glyph glyph-name="Aring" unicode="&#xc5;" horiz-adv-x="611" 
d="M598 0h-165l-17 93l-9 37l-116 2l-100 -3l-8 -26l-18 -103h-159l208 645h195zM376 252l-63 245h-10l-75 -245l74 -2zM384 889q25 -25 25 -71q0 -50 -27.5 -77.5t-77.5 -27.5q-48 0 -73.5 25.5t-25.5 73.5q0 50 27 76t78 26q49 0 74 -25zM278 840.5q-9 -8.5 -9 -25.5
q0 -20 9.5 -29t29.5 -9q19 0 28 8.5t9 26.5q0 19 -9 28t-30 9q-19 0 -28 -8.5z" />
    <glyph glyph-name="AE" unicode="&#xc6;" horiz-adv-x="830" 
d="M825 120l-11 -120h-408l-5 93l-12 109l-197 -56l-19 -43l-32 -103h-160l296 645h473l10 -12l-12 -120l-153 6h-82l16 -153l184 51l11 -9l14 -113l-197 -51l12 -118h98l164 6zM376 323l-19 174h-10l-92 -208z" />
    <glyph glyph-name="Ccedilla" unicode="&#xc7;" horiz-adv-x="516" 
d="M509 621l-29 -133l-11 -6q-28 19 -63.5 29.5t-69.5 10.5q-72 0 -106.5 -45t-34.5 -142q0 -210 149 -210q33 0 70 9t67 25l14 -8l-13 -133q-70 -28 -151 -28q-151 0 -229 84t-78 243q0 161 83 249t235 88q92 0 167 -33zM340 -45l34 -19q23 -12 32.5 -27t9.5 -34
q0 -34 -27.5 -56t-73.5 -22q-44 0 -86 26l10 64l7 3q15 -14 30.5 -21.5t28.5 -7.5q21 0 21 18q0 10 -15 18l-49 27l23 106h71z" />
    <glyph glyph-name="Egrave" unicode="&#xc8;" horiz-adv-x="522" 
d="M497 132l9 -12l-10 -120h-426l9 191l-9 454h432l9 -12l-11 -120l-157 6l-110 -1l-2 -129h105l105 3l9 -12l-10 -120l-115 3h-97l-1 -56l2 -80l106 -1zM421 784l-25 -66l-14 -4q-129 41 -225 75l-5 13l40 95l15 3q105 -62 214 -116z" />
    <glyph glyph-name="Eacute" unicode="&#xc9;" horiz-adv-x="522" 
d="M497 132l9 -12l-10 -120h-426l9 191l-9 454h432l9 -12l-11 -120l-157 6l-110 -1l-2 -129h105l105 3l9 -12l-10 -120l-115 3h-97l-1 -56l2 -80l106 -1zM398 897l40 -95l-5 -13q-98 -36 -225 -75l-14 4l-25 66q111 55 214 116z" />
    <glyph glyph-name="Ecircumflex" unicode="&#xca;" horiz-adv-x="522" 
d="M497 132l9 -12l-10 -120h-426l9 191l-9 454h432l9 -12l-11 -120l-157 6l-110 -1l-2 -129h105l105 3l9 -12l-10 -120l-115 3h-97l-1 -56l2 -80l106 -1zM131 788q76 51 141 110h30q68 -61 142 -110l-28 -63h-15l-45 24q-14 8 -31 17t-37 21l-114 -62h-15z" />
    <glyph glyph-name="Edieresis" unicode="&#xcb;" horiz-adv-x="522" 
d="M497 132l9 -12l-10 -120h-426l9 191l-9 454h432l9 -12l-11 -120l-157 6l-110 -1l-2 -129h105l105 3l9 -12l-10 -120l-115 3h-97l-1 -56l2 -80l106 -1zM248.5 854.5q18.5 -18.5 18.5 -51.5q0 -35 -20 -55.5t-55 -20.5q-34 0 -51.5 18t-17.5 52q0 35 20 55.5t55 20.5
q32 0 50.5 -18.5zM430 854.5q18 -18.5 18 -51.5q0 -35 -20 -55.5t-54 -20.5t-51.5 18t-17.5 52q0 35 20 55.5t55 20.5q32 0 50 -18.5z" />
    <glyph glyph-name="Igrave" unicode="&#xcc;" horiz-adv-x="308" 
d="M227 207l6 -207h-163l9 191l-9 454h166zM288 784l-25 -66l-14 -4q-129 41 -225 75l-5 13l40 95l15 3q105 -62 214 -116z" />
    <glyph glyph-name="Iacute" unicode="&#xcd;" horiz-adv-x="308" 
d="M227 207l6 -207h-163l9 191l-9 454h166zM265 897l40 -95l-5 -13q-98 -36 -225 -75l-14 4l-25 66q111 55 214 116z" />
    <glyph glyph-name="Icircumflex" unicode="&#xce;" horiz-adv-x="308" 
d="M227 207l6 -207h-163l9 191l-9 454h166zM-2 788q76 51 141 110h30q68 -61 142 -110l-28 -63h-15l-45 24q-14 8 -31 17t-37 21l-114 -62h-15z" />
    <glyph glyph-name="Eth" unicode="&#xd0;" horiz-adv-x="686" 
d="M587 571.5q75 -77.5 75 -223.5q0 -172 -86 -264t-246 -92q-92 0 -232 8h-1l9 191l-9 454h1l272 4q142 0 217 -77.5zM493 309q0 114 -32 163t-104 49q-53 0 -97 -4l-6 -310l2 -84q59 -8 104 -8q133 0 133 194zM365.875 360l-5.74316 -96h-338.876l-7.17871 11l5.74316 96
h338.876z" />
    <glyph glyph-name="Ntilde" unicode="&#xd1;" horiz-adv-x="701" 
d="M622 204l6 -204h-176l-229 399h-10l-1 -172l6 -227h-147l8 190l-8 455h175l230 -399h10l-4 393l149 9zM533 849v-13l-74 -99l-14 -6q-19 2 -46 9.5t-37 9.5q-53 16 -71 16q-13 0 -25 -10t-23.5 -24t-16.5 -20h-14l-46 46v13l74 99l14 5q22 -3 87 -20q53 -15 67 -15
q13 0 24.5 10t23 24t17.5 21h14z" />
    <glyph glyph-name="Ograve" unicode="&#xd2;" horiz-adv-x="647" 
d="M549 572.5q75 -82.5 75 -234.5q0 -166 -82 -257.5t-231 -91.5q-137 0 -212 84.5t-75 239.5q0 164 81.5 253t230.5 89q138 0 213 -82.5zM247 506.5q-28 -18.5 -41 -60t-13 -112.5q0 -85 13 -133.5t41.5 -69.5t77.5 -21q48 0 76 18.5t40.5 60.5t12.5 115q0 84 -13 132
t-41 68.5t-78 20.5q-47 0 -75 -18.5zM459 784l-25 -66l-14 -4q-129 41 -225 75l-5 13l40 95l15 3q105 -62 214 -116z" />
    <glyph glyph-name="Oacute" unicode="&#xd3;" horiz-adv-x="647" 
d="M549 572.5q75 -82.5 75 -234.5q0 -166 -82 -257.5t-231 -91.5q-137 0 -212 84.5t-75 239.5q0 164 81.5 253t230.5 89q138 0 213 -82.5zM247 506.5q-28 -18.5 -41 -60t-13 -112.5q0 -85 13 -133.5t41.5 -69.5t77.5 -21q48 0 76 18.5t40.5 60.5t12.5 115q0 84 -13 132
t-41 68.5t-78 20.5q-47 0 -75 -18.5zM436 897l40 -95l-5 -13q-98 -36 -225 -75l-14 4l-25 66q111 55 214 116z" />
    <glyph glyph-name="Ocircumflex" unicode="&#xd4;" horiz-adv-x="647" 
d="M549 572.5q75 -82.5 75 -234.5q0 -166 -82 -257.5t-231 -91.5q-137 0 -212 84.5t-75 239.5q0 164 81.5 253t230.5 89q138 0 213 -82.5zM247 506.5q-28 -18.5 -41 -60t-13 -112.5q0 -85 13 -133.5t41.5 -69.5t77.5 -21q48 0 76 18.5t40.5 60.5t12.5 115q0 84 -13 132
t-41 68.5t-78 20.5q-47 0 -75 -18.5zM169 788q76 51 141 110h30q68 -61 142 -110l-28 -63h-15l-45 24q-14 8 -31 17t-37 21l-114 -62h-15z" />
    <glyph glyph-name="Otilde" unicode="&#xd5;" horiz-adv-x="647" 
d="M549 572.5q75 -82.5 75 -234.5q0 -166 -82 -257.5t-231 -91.5q-137 0 -212 84.5t-75 239.5q0 164 81.5 253t230.5 89q138 0 213 -82.5zM247 506.5q-28 -18.5 -41 -60t-13 -112.5q0 -85 13 -133.5t41.5 -69.5t77.5 -21q48 0 76 18.5t40.5 60.5t12.5 115q0 84 -13 132
t-41 68.5t-78 20.5q-47 0 -75 -18.5zM507 849v-13l-74 -99l-14 -6q-19 2 -46 9.5t-37 9.5q-53 16 -71 16q-13 0 -25 -10t-23.5 -24t-16.5 -20h-14l-46 46v13l74 99l14 5q22 -3 87 -20q53 -15 67 -15q13 0 24.5 10t23 24t17.5 21h14z" />
    <glyph glyph-name="multiply" unicode="&#xd7;" horiz-adv-x="480" 
d="M426 384l1 -15l-111 -111l110 -111v-15l-73 -62l-112 113l-114 -114l-73 63v14l111 112l-111 111v15l73 62l114 -112l112 112z" />
    <glyph glyph-name="Oslash" unicode="&#xd8;" horiz-adv-x="647" 
d="M599 490q25 -65 25 -152q0 -166 -82 -257.5t-231 -91.5q-38 0 -75 8l-60 -124l-101 37l-7 14l59 123q-50 41 -76.5 108.5t-26.5 157.5q0 164 81.5 253t230.5 89q44 0 81 -9l56 115l98 -37l10 -16l-56 -113q49 -40 74 -105zM401 128.5q28 18.5 40.5 60.5t12.5 115
q0 84 -13 132t-41 68.5t-78 20.5q-47 0 -75 -18.5t-41 -60t-13 -112.5q0 -85 13 -133.5t41.5 -69.5t77.5 -21q48 0 76 18.5z" />
    <glyph glyph-name="Ugrave" unicode="&#xd9;" horiz-adv-x="644" 
d="M584 318l-1 -93q1 -113 -69.5 -174t-200.5 -61q-126 0 -192.5 60t-63.5 172l2 98l-4 325h162l-7 -401q-1 -64 26 -94t84 -30q58 0 85.5 29.5t26.5 90.5l-7 405h165zM458 784l-25 -66l-14 -4q-129 41 -225 75l-5 13l40 95l15 3q105 -62 214 -116z" />
    <glyph glyph-name="Uacute" unicode="&#xda;" horiz-adv-x="644" 
d="M584 318l-1 -93q1 -113 -69.5 -174t-200.5 -61q-126 0 -192.5 60t-63.5 172l2 98l-4 325h162l-7 -401q-1 -64 26 -94t84 -30q58 0 85.5 29.5t26.5 90.5l-7 405h165zM435 897l40 -95l-5 -13q-98 -36 -225 -75l-14 4l-25 66q111 55 214 116z" />
    <glyph glyph-name="Ucircumflex" unicode="&#xdb;" horiz-adv-x="644" 
d="M584 318l-1 -93q1 -113 -69.5 -174t-200.5 -61q-126 0 -192.5 60t-63.5 172l2 98l-4 325h162l-7 -401q-1 -64 26 -94t84 -30q58 0 85.5 29.5t26.5 90.5l-7 405h165zM168 788q76 51 141 110h30q68 -61 142 -110l-28 -63h-15l-45 24q-14 8 -31 17t-37 21l-114 -62h-15z" />
    <glyph glyph-name="Udieresis" unicode="&#xdc;" horiz-adv-x="644" 
d="M584 318l-1 -93q1 -113 -69.5 -174t-200.5 -61q-126 0 -192.5 60t-63.5 172l2 98l-4 325h162l-7 -401q-1 -64 26 -94t84 -30q58 0 85.5 29.5t26.5 90.5l-7 405h165zM285.5 854.5q18.5 -18.5 18.5 -51.5q0 -35 -20 -55.5t-55 -20.5q-34 0 -51.5 18t-17.5 52q0 35 20 55.5
t55 20.5q32 0 50.5 -18.5zM467 854.5q18 -18.5 18 -51.5q0 -35 -20 -55.5t-54 -20.5t-51.5 18t-17.5 52q0 35 20 55.5t55 20.5q32 0 50 -18.5z" />
    <glyph glyph-name="Thorn" unicode="&#xde;" horiz-adv-x="578" 
d="M509.5 498q56.5 -51 56.5 -151q0 -115 -72 -178.5t-205 -63.5l-58 -1l4 -104h-164l8 191l-6 355l-2 2h2l-2 97h166l-2 -96h112q106 0 162.5 -51zM374.5 261q19.5 27 19.5 74q0 50 -24.5 73t-77.5 25l-59 -4l-5 -204l89 -4q38 13 57.5 40z" />
    <glyph glyph-name="germandbls" unicode="&#xdf;" horiz-adv-x="629" 
d="M464 334q18 -17 56 -39q35 -21 57 -37.5t37.5 -43.5t15.5 -65q0 -43 -21 -79.5t-64.5 -58.5t-107.5 -22q-70 0 -148 28l19 120l14 10q31 -27 67.5 -43t63.5 -16q21 0 32 9t11 24q0 17 -15 30.5t-49 33.5q-36 21 -60.5 40t-42 49.5t-17.5 72.5q0 38 13.5 61t38.5 48
q21 21 31 37t10 39q0 61 -73 61q-87 0 -88 -91l-4 -296l7 -206h-158l8 190l-3 180h-68l-4 8l7 86h63v18q0 105 68.5 163.5t180.5 58.5q97 0 146.5 -41t49.5 -106q0 -36 -13.5 -60t-40.5 -54q-19 -21 -28 -35.5t-9 -31.5q0 -25 18 -42z" />
    <glyph glyph-name="agrave" unicode="&#xe0;" horiz-adv-x="490" 
d="M379 442.5q46 -35.5 46 -101.5q0 -23 -2 -53t-3 -57q-5 -72 -5 -99q0 -14 4.5 -20t15.5 -6q9 0 22 4l11 -9l-14 -83q-33 -23 -81 -27q-30 3 -51 21t-30 51h-7q-50 -53 -102 -73q-74 1 -116.5 40t-42.5 106q0 103 108 121l148 25v29q0 31 -13.5 44.5t-43.5 13.5t-64.5 -13
t-79.5 -41l-10 7l-18 103q45 25 97 39t102 14q83 0 129 -35.5zM194 191q-15 -3 -22.5 -12t-7.5 -27q0 -24 12.5 -37t34.5 -13q32 0 68 34l1 72zM369 581l-37 -60l-15 -1q-107 58 -206 115l-3 14l57 87l14 1q87 -78 190 -156z" />
    <glyph glyph-name="aacute" unicode="&#xe1;" horiz-adv-x="490" 
d="M379 442.5q46 -35.5 46 -101.5q0 -23 -2 -53t-3 -57q-5 -72 -5 -99q0 -14 4.5 -20t15.5 -6q9 0 22 4l11 -9l-14 -83q-33 -23 -81 -27q-30 3 -51 21t-30 51h-7q-50 -53 -102 -73q-74 1 -116.5 40t-42.5 106q0 103 108 121l148 25v29q0 31 -13.5 44.5t-43.5 13.5t-64.5 -13
t-79.5 -41l-10 7l-18 103q45 25 97 39t102 14q83 0 129 -35.5zM194 191q-15 -3 -22.5 -12t-7.5 -27q0 -24 12.5 -37t34.5 -13q32 0 68 34l1 72zM334 736l57 -87l-3 -14q-99 -57 -206 -115l-14 1l-37 60q105 80 189 156z" />
    <glyph glyph-name="acircumflex" unicode="&#xe2;" horiz-adv-x="490" 
d="M379 442.5q46 -35.5 46 -101.5q0 -23 -2 -53t-3 -57q-5 -72 -5 -99q0 -14 4.5 -20t15.5 -6q9 0 22 4l11 -9l-14 -83q-33 -23 -81 -27q-30 3 -51 21t-30 51h-7q-50 -53 -102 -73q-74 1 -116.5 40t-42.5 106q0 103 108 121l148 25v29q0 31 -13.5 44.5t-43.5 13.5t-64.5 -13
t-79.5 -41l-10 7l-18 103q45 25 97 39t102 14q83 0 129 -35.5zM194 191q-15 -3 -22.5 -12t-7.5 -27q0 -24 12.5 -37t34.5 -13q32 0 68 34l1 72zM74 587q62 55 150 145h31q67 -70 150 -145l-39 -59h-15q-77 55 -111 86q-32 -27 -111 -86h-16z" />
    <glyph glyph-name="atilde" unicode="&#xe3;" horiz-adv-x="490" 
d="M379 442.5q46 -35.5 46 -101.5q0 -23 -2 -53t-3 -57q-5 -72 -5 -99q0 -14 4.5 -20t15.5 -6q9 0 22 4l11 -9l-14 -83q-33 -23 -81 -27q-30 3 -51 21t-30 51h-7q-50 -53 -102 -73q-74 1 -116.5 40t-42.5 106q0 103 108 121l148 25v29q0 31 -13.5 44.5t-43.5 13.5t-64.5 -13
t-79.5 -41l-10 7l-18 103q45 25 97 39t102 14q83 0 129 -35.5zM194 191q-15 -3 -22.5 -12t-7.5 -27q0 -24 12.5 -37t34.5 -13q32 0 68 34l1 72zM422 672v-13l-74 -99l-14 -6q-19 2 -46 9.5t-37 9.5q-53 16 -71 16q-13 0 -25 -10t-23.5 -24t-16.5 -20h-14l-46 46v13l74 99
l14 5q22 -3 87 -20q53 -15 67 -15q13 0 24.5 10t23 24t17.5 21h14z" />
    <glyph glyph-name="adieresis" unicode="&#xe4;" horiz-adv-x="490" 
d="M379 442.5q46 -35.5 46 -101.5q0 -23 -2 -53t-3 -57q-5 -72 -5 -99q0 -14 4.5 -20t15.5 -6q9 0 22 4l11 -9l-14 -83q-33 -23 -81 -27q-30 3 -51 21t-30 51h-7q-50 -53 -102 -73q-74 1 -116.5 40t-42.5 106q0 103 108 121l148 25v29q0 31 -13.5 44.5t-43.5 13.5t-64.5 -13
t-79.5 -41l-10 7l-18 103q45 25 97 39t102 14q83 0 129 -35.5zM194 191q-15 -3 -22.5 -12t-7.5 -27q0 -24 12.5 -37t34.5 -13q32 0 68 34l1 72zM201.5 677.5q18.5 -18.5 18.5 -51.5q0 -35 -20 -55.5t-55 -20.5q-34 0 -51.5 18t-17.5 52q0 35 20 55.5t55 20.5
q32 0 50.5 -18.5zM383 677.5q18 -18.5 18 -51.5q0 -35 -20 -55.5t-54 -20.5t-51.5 18t-17.5 52q0 35 20 55.5t55 20.5q32 0 50 -18.5z" />
    <glyph glyph-name="aring" unicode="&#xe5;" horiz-adv-x="490" 
d="M379 442.5q46 -35.5 46 -101.5q0 -23 -2 -53t-3 -57q-5 -72 -5 -99q0 -14 4.5 -20t15.5 -6q9 0 22 4l11 -9l-14 -83q-33 -23 -81 -27q-30 3 -51 21t-30 51h-7q-50 -53 -102 -73q-74 1 -116.5 40t-42.5 106q0 103 108 121l148 25v29q0 31 -13.5 44.5t-43.5 13.5t-64.5 -13
t-79.5 -41l-10 7l-18 103q45 25 97 39t102 14q83 0 129 -35.5zM194 191q-15 -3 -22.5 -12t-7.5 -27q0 -24 12.5 -37t34.5 -13q32 0 68 34l1 72zM316 712q25 -25 25 -71q0 -50 -27.5 -77.5t-77.5 -27.5q-48 0 -73.5 25.5t-25.5 73.5q0 50 27 76t78 26q49 0 74 -25zM210 663.5
q-9 -8.5 -9 -25.5q0 -20 9.5 -29t29.5 -9q19 0 28 8.5t9 26.5q0 19 -9 28t-30 9q-19 0 -28 -8.5z" />
    <glyph glyph-name="ae" unicode="&#xe6;" horiz-adv-x="701" 
d="M627.5 426q48.5 -51 48.5 -144q0 -20 -1 -30l-14 -18l-258 -24q5 -55 31 -80t79 -25q29 0 64 8t68 23l13 -8l-24 -113q-31 -12 -67 -19t-68 -7q-121 0 -178 81q-54 -54 -119 -80q-81 1 -130 38t-49 105q0 50 27.5 84.5t80.5 38.5l144 13v42q0 30 -13 44t-43 14
q-28 0 -62.5 -13t-79.5 -41l-11 6l-18 104q43 25 93 39t98 14q83 0 123 -46q53 45 132 45q85 0 133.5 -51zM425 348q-23 -26 -23 -66l135 16q6 76 -54 76q-35 0 -58 -26zM242.5 111.5q16.5 8.5 42.5 29.5q-6 31 -9 55l-78 -10q-18 -3 -25.5 -12t-7.5 -26q0 -21 11.5 -33
t33.5 -12q16 0 32.5 8.5z" />
    <glyph glyph-name="ccedilla" unicode="&#xe7;" horiz-adv-x="384" 
d="M378 454l-26 -124l-12 -5q-27 13 -46.5 19t-38.5 6q-40 0 -60.5 -27t-20.5 -80q0 -130 91 -130q36 0 93 21l12 -9l-16 -119q-60 -17 -124 -17q-98 0 -152.5 62.5t-54.5 175.5q0 118 61 184.5t171 66.5q69 0 123 -24zM254 -45l34 -19q23 -12 32.5 -27t9.5 -34
q0 -34 -27.5 -56t-73.5 -22q-44 0 -86 26l10 64l7 3q15 -14 30.5 -21.5t28.5 -7.5q21 0 21 18q0 10 -15 18l-49 27l23 106h71z" />
    <glyph glyph-name="egrave" unicode="&#xe8;" horiz-adv-x="477" 
d="M430 208l-262 -2q7 -52 36 -77t82 -25t140 31l12 -8l-24 -113q-80 -25 -145 -25q-115 0 -180.5 65t-65.5 179t63 179.5t171 65.5q93 0 144.5 -50t51.5 -139q0 -29 -6 -61zM316 306q0 69 -60 69q-34 0 -56 -22.5t-30 -64.5l144 4zM378 580l-37 -60l-15 -1
q-107 58 -206 115l-3 14l57 87l14 1q87 -78 190 -156z" />
    <glyph glyph-name="eacute" unicode="&#xe9;" horiz-adv-x="477" 
d="M430 208l-262 -2q7 -52 36 -77t82 -25t140 31l12 -8l-24 -113q-80 -25 -145 -25q-115 0 -180.5 65t-65.5 179t63 179.5t171 65.5q93 0 144.5 -50t51.5 -139q0 -29 -6 -61zM316 306q0 69 -60 69q-34 0 -56 -22.5t-30 -64.5l144 4zM343 735l57 -87l-3 -14
q-99 -57 -206 -115l-14 1l-37 60q105 80 189 156z" />
    <glyph glyph-name="ecircumflex" unicode="&#xea;" horiz-adv-x="477" 
d="M430 208l-262 -2q7 -52 36 -77t82 -25t140 31l12 -8l-24 -113q-80 -25 -145 -25q-115 0 -180.5 65t-65.5 179t63 179.5t171 65.5q93 0 144.5 -50t51.5 -139q0 -29 -6 -61zM316 306q0 69 -60 69q-34 0 -56 -22.5t-30 -64.5l144 4zM83 586q62 55 150 145h31
q67 -70 150 -145l-39 -59h-15q-77 55 -111 86q-32 -27 -111 -86h-16z" />
    <glyph glyph-name="edieresis" unicode="&#xeb;" horiz-adv-x="477" 
d="M430 208l-262 -2q7 -52 36 -77t82 -25t140 31l12 -8l-24 -113q-80 -25 -145 -25q-115 0 -180.5 65t-65.5 179t63 179.5t171 65.5q93 0 144.5 -50t51.5 -139q0 -29 -6 -61zM316 306q0 69 -60 69q-34 0 -56 -22.5t-30 -64.5l144 4zM210.5 676.5q18.5 -18.5 18.5 -51.5
q0 -35 -20 -55.5t-55 -20.5q-34 0 -51.5 18t-17.5 52q0 35 20 55.5t55 20.5q32 0 50.5 -18.5zM392 676.5q18 -18.5 18 -51.5q0 -35 -20 -55.5t-54 -20.5t-51.5 18t-17.5 52q0 35 20 55.5t55 20.5q32 0 50 -18.5z" />
    <glyph glyph-name="igrave" unicode="&#xec;" horiz-adv-x="271" 
d="M62 191l-5 267l157 12l-7 -263l6 -207h-158zM264 581l-37 -60l-15 -1q-107 58 -206 115l-3 14l57 87l14 1q87 -78 190 -156z" />
    <glyph glyph-name="iacute" unicode="&#xed;" horiz-adv-x="271" 
d="M62 191l-5 267l157 12l-7 -263l6 -207h-158zM229 736l57 -87l-3 -14q-99 -57 -206 -115l-14 1l-37 60q105 80 189 156z" />
    <glyph glyph-name="icircumflex" unicode="&#xee;" horiz-adv-x="271" 
d="M62 191l-5 267l157 12l-7 -263l6 -207h-158zM-31 587q62 55 150 145h31q67 -70 150 -145l-39 -59h-15q-77 55 -111 86q-32 -27 -111 -86h-16z" />
    <glyph glyph-name="eth" unicode="&#xf0;" horiz-adv-x="501" 
d="M432.5 436q38.5 -88 38.5 -187q0 -125 -59.5 -192.5t-169.5 -67.5q-103 0 -158.5 59.5t-55.5 174.5q0 114 55.5 175t160.5 61q19 0 28 -1q-26 36 -68 69l-114 -69l-13 5l-32 60l86 52q-32 17 -87 43v18l101 74h10q56 -30 99 -61l105 63l13 -4l32 -60l-86 -52
q76 -72 114.5 -160zM310.5 122q16.5 31 16.5 110q0 56 -7 98q-28 21 -67 21q-44 0 -62.5 -28t-18.5 -98q0 -74 19.5 -104t61.5 -30q41 0 57.5 31z" />
    <glyph glyph-name="ntilde" unicode="&#xf1;" horiz-adv-x="535" 
d="M336 279q2 69 -56 69q-35 0 -76 -30v-111l7 -207h-158l7 191l-6 267l151 12v-69h6q54 51 120 73q75 0 114.5 -34.5t38.5 -98.5l-4 -134l6 -207h-158zM469 672v-13l-74 -99l-14 -6q-19 2 -46 9.5t-37 9.5q-53 16 -71 16q-13 0 -25 -10t-23.5 -24t-16.5 -20h-14l-46 46v13
l74 99l14 5q22 -3 87 -20q53 -15 67 -15q13 0 24.5 10t23 24t17.5 21h14z" />
    <glyph glyph-name="ograve" unicode="&#xf2;" horiz-adv-x="495" 
d="M416.5 418q55.5 -60 55.5 -175q0 -124 -59.5 -189t-172.5 -65q-106 0 -161.5 60t-55.5 174q0 124 59.5 189.5t172.5 65.5q106 0 161.5 -60zM187.5 344.5q-16.5 -26.5 -16.5 -92.5q0 -61 7.5 -95.5t25 -49t47.5 -14.5q39 0 55.5 26.5t16.5 93.5q0 89 -17.5 123.5
t-61.5 34.5q-40 0 -56.5 -26.5zM379 581l-37 -60l-15 -1q-107 58 -206 115l-3 14l57 87l14 1q87 -78 190 -156z" />
    <glyph glyph-name="oacute" unicode="&#xf3;" horiz-adv-x="495" 
d="M416.5 418q55.5 -60 55.5 -175q0 -124 -59.5 -189t-172.5 -65q-106 0 -161.5 60t-55.5 174q0 124 59.5 189.5t172.5 65.5q106 0 161.5 -60zM187.5 344.5q-16.5 -26.5 -16.5 -92.5q0 -61 7.5 -95.5t25 -49t47.5 -14.5q39 0 55.5 26.5t16.5 93.5q0 89 -17.5 123.5
t-61.5 34.5q-40 0 -56.5 -26.5zM344 736l57 -87l-3 -14q-99 -57 -206 -115l-14 1l-37 60q105 80 189 156z" />
    <glyph glyph-name="ocircumflex" unicode="&#xf4;" horiz-adv-x="495" 
d="M416.5 418q55.5 -60 55.5 -175q0 -124 -59.5 -189t-172.5 -65q-106 0 -161.5 60t-55.5 174q0 124 59.5 189.5t172.5 65.5q106 0 161.5 -60zM187.5 344.5q-16.5 -26.5 -16.5 -92.5q0 -61 7.5 -95.5t25 -49t47.5 -14.5q39 0 55.5 26.5t16.5 93.5q0 89 -17.5 123.5
t-61.5 34.5q-40 0 -56.5 -26.5zM84 587q62 55 150 145h31q67 -70 150 -145l-39 -59h-15q-77 55 -111 86q-32 -27 -111 -86h-16z" />
    <glyph glyph-name="otilde" unicode="&#xf5;" horiz-adv-x="495" 
d="M416.5 418q55.5 -60 55.5 -175q0 -124 -59.5 -189t-172.5 -65q-106 0 -161.5 60t-55.5 174q0 124 59.5 189.5t172.5 65.5q106 0 161.5 -60zM187.5 344.5q-16.5 -26.5 -16.5 -92.5q0 -61 7.5 -95.5t25 -49t47.5 -14.5q39 0 55.5 26.5t16.5 93.5q0 89 -17.5 123.5
t-61.5 34.5q-40 0 -56.5 -26.5zM432 672v-13l-74 -99l-14 -6q-19 2 -46 9.5t-37 9.5q-53 16 -71 16q-13 0 -25 -10t-23.5 -24t-16.5 -20h-14l-46 46v13l74 99l14 5q22 -3 87 -20q53 -15 67 -15q13 0 24.5 10t23 24t17.5 21h14z" />
    <glyph glyph-name="divide" unicode="&#xf7;" horiz-adv-x="480" 
d="M464 301l-8 -96h-423l-10 11l8 95h422zM304.481 145.358q17.5615 -17.9893 17.5615 -49.6846q0 -34.2656 -19.7031 -54.3965q-19.7021 -20.1309 -52.2539 -20.1309t-49.6846 17.9893t-17.1328 50.542q0 33.4082 19.2744 53.5391t52.6826 20.1309
q31.6953 0 49.2559 -17.9893zM304.481 478.358q17.5615 -17.9893 17.5615 -49.6846q0 -34.2656 -19.7031 -54.3965q-19.7021 -20.1309 -52.2539 -20.1309t-49.6846 17.9893t-17.1328 50.542q0 33.4082 19.2744 53.5391t52.6826 20.1309q31.6953 0 49.2559 -17.9893z" />
    <glyph glyph-name="oslash" unicode="&#xf8;" horiz-adv-x="495" 
d="M417 418q55 -61 55 -175q0 -124 -59.5 -189t-172.5 -65q-37 0 -65 7l-73 -125l-90 45l-3 13l69 120q-55 61 -55 174q0 124 59.5 189.5t172.5 65.5q38 0 65 -7l64 109l86 -43l7 -15zM306.5 119.5q16.5 26.5 16.5 93.5q0 89 -17.5 123.5t-61.5 34.5q-40 0 -56.5 -26.5
t-16.5 -92.5q0 -61 7.5 -95.5t25 -49t47.5 -14.5q39 0 55.5 26.5z" />
    <glyph glyph-name="ugrave" unicode="&#xf9;" horiz-adv-x="528" 
d="M513 101l-14 -83q-42 -27 -86 -27q-58 12 -80 79h-10q-58 -58 -117 -76q-75 0 -115 34.5t-40 98.5l3 112l-5 219l152 12l-2 -285q-1 -65 52 -65q18 0 34 7t35 23v308l150 12l-9 -338q0 -14 4.5 -20t14.5 -6q9 0 22 4zM390 581l-37 -60l-15 -1q-107 58 -206 115l-3 14
l57 87l14 1q87 -78 190 -156z" />
    <glyph glyph-name="uacute" unicode="&#xfa;" horiz-adv-x="528" 
d="M513 101l-14 -83q-42 -27 -86 -27q-58 12 -80 79h-10q-58 -58 -117 -76q-75 0 -115 34.5t-40 98.5l3 112l-5 219l152 12l-2 -285q-1 -65 52 -65q18 0 34 7t35 23v308l150 12l-9 -338q0 -14 4.5 -20t14.5 -6q9 0 22 4zM355 736l57 -87l-3 -14q-99 -57 -206 -115l-14 1
l-37 60q105 80 189 156z" />
    <glyph glyph-name="ucircumflex" unicode="&#xfb;" horiz-adv-x="528" 
d="M513 101l-14 -83q-42 -27 -86 -27q-58 12 -80 79h-10q-58 -58 -117 -76q-75 0 -115 34.5t-40 98.5l3 112l-5 219l152 12l-2 -285q-1 -65 52 -65q18 0 34 7t35 23v308l150 12l-9 -338q0 -14 4.5 -20t14.5 -6q9 0 22 4zM95 587q62 55 150 145h31q67 -70 150 -145l-39 -59
h-15q-77 55 -111 86q-32 -27 -111 -86h-16z" />
    <glyph glyph-name="udieresis" unicode="&#xfc;" horiz-adv-x="528" 
d="M513 101l-14 -83q-42 -27 -86 -27q-58 12 -80 79h-10q-58 -58 -117 -76q-75 0 -115 34.5t-40 98.5l3 112l-5 219l152 12l-2 -285q-1 -65 52 -65q18 0 34 7t35 23v308l150 12l-9 -338q0 -14 4.5 -20t14.5 -6q9 0 22 4zM222.5 677.5q18.5 -18.5 18.5 -51.5q0 -35 -20 -55.5
t-55 -20.5q-34 0 -51.5 18t-17.5 52q0 35 20 55.5t55 20.5q32 0 50.5 -18.5zM404 677.5q18 -18.5 18 -51.5q0 -35 -20 -55.5t-54 -20.5t-51.5 18t-17.5 52q0 35 20 55.5t55 20.5q32 0 50 -18.5z" />
    <glyph glyph-name="thorn" unicode="&#xfe;" horiz-adv-x="527" 
d="M455 414q48 -60 48 -167q0 -124 -62.5 -191t-172.5 -67q-29 0 -59 6l2 -180h-154l6 376l-7 500l158 11l-5 -301h5q26 26 51 43.5t54 29.5q88 0 136 -60zM355 226q-2 122 -80 122q-34 0 -67 -29l-2 -109l1 -108q30 -12 55 -12q93 0 93 136z" />
    <glyph glyph-name="ydieresis" unicode="&#xff;" horiz-adv-x="457" 
d="M161 391l70 -235h9l68 221l18 91h134l-146 -429q-23 -69 -54 -112t-77.5 -70.5t-120.5 -49.5l-11 1q-39 38 -69 94l6 15q57 9 98 28t79 55l-170 465l150 6zM196.5 677.5q18.5 -18.5 18.5 -51.5q0 -35 -20 -55.5t-55 -20.5q-34 0 -51.5 18t-17.5 52q0 35 20 55.5t55 20.5
q32 0 50.5 -18.5zM378 677.5q18 -18.5 18 -51.5q0 -35 -20 -55.5t-54 -20.5t-51.5 18t-17.5 52q0 35 20 55.5t55 20.5q32 0 50 -18.5z" />
    <glyph glyph-name="Amacron" unicode="&#x100;" horiz-adv-x="611" 
d="M598 0h-165l-17 93l-9 37l-116 2l-100 -3l-8 -26l-18 -103h-159l208 645h195zM376 252l-63 245h-10l-75 -245l74 -2zM455 839l-8 -88h-278l-10 11l7 88h278z" />
    <glyph glyph-name="amacron" unicode="&#x101;" horiz-adv-x="490" 
d="M379 442.5q46 -35.5 46 -101.5q0 -23 -2 -53t-3 -57q-5 -72 -5 -99q0 -14 4.5 -20t15.5 -6q9 0 22 4l11 -9l-14 -83q-33 -23 -81 -27q-30 3 -51 21t-30 51h-7q-50 -53 -102 -73q-74 1 -116.5 40t-42.5 106q0 103 108 121l148 25v29q0 31 -13.5 44.5t-43.5 13.5t-64.5 -13
t-79.5 -41l-10 7l-18 103q45 25 97 39t102 14q83 0 129 -35.5zM194 191q-15 -3 -22.5 -12t-7.5 -27q0 -24 12.5 -37t34.5 -13q32 0 68 34l1 72zM387 662l-8 -88h-278l-10 11l7 88h278z" />
    <glyph glyph-name="Abreve" unicode="&#x102;" horiz-adv-x="611" 
d="M598 0h-165l-17 93l-9 37l-116 2l-100 -3l-8 -26l-18 -103h-159l208 645h195zM376 252l-63 245h-10l-75 -245l74 -2zM470 832q-20 -55 -62.5 -84.5t-101.5 -29.5q-58 0 -99 29.5t-60 84.5l34 49h22q15 -26 43 -39.5t65 -13.5q35 0 61.5 13.5t40.5 39.5h23z" />
    <glyph glyph-name="abreve" unicode="&#x103;" horiz-adv-x="490" 
d="M379 442.5q46 -35.5 46 -101.5q0 -23 -2 -53t-3 -57q-5 -72 -5 -99q0 -14 4.5 -20t15.5 -6q9 0 22 4l11 -9l-14 -83q-33 -23 -81 -27q-30 3 -51 21t-30 51h-7q-50 -53 -102 -73q-74 1 -116.5 40t-42.5 106q0 103 108 121l148 25v29q0 31 -13.5 44.5t-43.5 13.5t-64.5 -13
t-79.5 -41l-10 7l-18 103q45 25 97 39t102 14q83 0 129 -35.5zM194 191q-15 -3 -22.5 -12t-7.5 -27q0 -24 12.5 -37t34.5 -13q32 0 68 34l1 72zM402 662q-16 -57 -58 -93.5t-108 -36.5q-65 0 -104 37t-53 93l37 51h22q13 -33 40.5 -51.5t62.5 -18.5t62 18.5t40 51.5h21z" />
    <glyph glyph-name="Aogonek" unicode="&#x104;" horiz-adv-x="611" 
d="M598 0h-165l-17 93l-9 37l-116 2l-100 -3l-8 -26l-18 -103h-159l208 645h195zM376 252l-63 245h-10l-75 -245l74 -2zM521.5 -57q-20.5 -19 -20.5 -32q0 -19 23 -19q27 0 67 27l8 -2l19 -68q-53 -44 -113 -44q-43 0 -69.5 22.5t-26.5 59.5q0 68 97 113h92
q-56 -38 -76.5 -57z" />
    <glyph glyph-name="aogonek" unicode="&#x105;" horiz-adv-x="490" 
d="M379 442.5q46 -35.5 46 -101.5q0 -23 -2 -53t-3 -57q-5 -72 -5 -99q0 -14 4.5 -20t15.5 -6q9 0 22 4l11 -9l-14 -83q-33 -23 -81 -27q-30 3 -51 21t-30 51h-7q-50 -53 -102 -73q-74 1 -116.5 40t-42.5 106q0 103 108 121l148 25v29q0 31 -13.5 44.5t-43.5 13.5t-64.5 -13
t-79.5 -41l-10 7l-18 103q45 25 97 39t102 14q83 0 129 -35.5zM194 191q-15 -3 -22.5 -12t-7.5 -27q0 -24 12.5 -37t34.5 -13q32 0 68 34l1 72zM281 -193.5q-30 24.5 -30 65.5q0 34 25.5 67.5t95.5 78.5h82q-67 -65 -87 -88t-20 -38q0 -22 26 -22q28 0 72 25l8 -2l18 -71
q-56 -40 -110 -40q-50 0 -80 24.5z" />
    <glyph glyph-name="Cacute" unicode="&#x106;" horiz-adv-x="516" 
d="M509 621l-29 -133l-11 -6q-28 19 -63.5 29.5t-69.5 10.5q-72 0 -106.5 -45t-34.5 -142q0 -210 149 -210q33 0 70 9t67 25l14 -8l-13 -133q-70 -28 -151 -28q-151 0 -229 84t-78 243q0 161 83 249t235 88q92 0 167 -33zM428 897l40 -95l-5 -13q-98 -36 -225 -75l-14 4
l-25 66q111 55 214 116z" />
    <glyph glyph-name="cacute" unicode="&#x107;" horiz-adv-x="384" 
d="M378 454l-26 -124l-12 -5q-27 13 -46.5 19t-38.5 6q-40 0 -60.5 -27t-20.5 -80q0 -130 91 -130q36 0 93 21l12 -9l-16 -119q-60 -17 -124 -17q-98 0 -152.5 62.5t-54.5 175.5q0 118 61 184.5t171 66.5q69 0 123 -24zM334 736l57 -87l-3 -14q-99 -57 -206 -115l-14 1
l-37 60q105 80 189 156z" />
    <glyph glyph-name="Ccircumflex" unicode="&#x108;" horiz-adv-x="516" 
d="M509 621l-29 -133l-11 -6q-28 19 -63.5 29.5t-69.5 10.5q-72 0 -106.5 -45t-34.5 -142q0 -210 149 -210q33 0 70 9t67 25l14 -8l-13 -133q-70 -28 -151 -28q-151 0 -229 84t-78 243q0 161 83 249t235 88q92 0 167 -33zM161 788q76 51 141 110h30q68 -61 142 -110l-28 -63
h-15l-45 24q-14 8 -31 17t-37 21l-114 -62h-15z" />
    <glyph glyph-name="ccircumflex" unicode="&#x109;" horiz-adv-x="384" 
d="M378 454l-26 -124l-12 -5q-27 13 -46.5 19t-38.5 6q-40 0 -60.5 -27t-20.5 -80q0 -130 91 -130q36 0 93 21l12 -9l-16 -119q-60 -17 -124 -17q-98 0 -152.5 62.5t-54.5 175.5q0 118 61 184.5t171 66.5q69 0 123 -24zM74 587q62 55 150 145h31q67 -70 150 -145l-39 -59
h-15q-77 55 -111 86q-32 -27 -111 -86h-16z" />
    <glyph glyph-name="Cdotaccent" unicode="&#x10a;" horiz-adv-x="516" 
d="M509 621l-29 -133l-11 -6q-28 19 -63.5 29.5t-69.5 10.5q-72 0 -106.5 -45t-34.5 -142q0 -210 149 -210q33 0 70 9t67 25l14 -8l-13 -133q-70 -28 -151 -28q-151 0 -229 84t-78 243q0 161 83 249t235 88q92 0 167 -33zM376.5 864q20.5 -21 20.5 -58q0 -40 -23 -63.5
t-61 -23.5t-58 21t-20 59q0 39 22.5 62.5t61.5 23.5q37 0 57.5 -21z" />
    <glyph glyph-name="cdotaccent" unicode="&#x10b;" horiz-adv-x="384" 
d="M378 454l-26 -124l-12 -5q-27 13 -46.5 19t-38.5 6q-40 0 -60.5 -27t-20.5 -80q0 -130 91 -130q36 0 93 21l12 -9l-16 -119q-60 -17 -124 -17q-98 0 -152.5 62.5t-54.5 175.5q0 118 61 184.5t171 66.5q69 0 123 -24zM299.5 687q20.5 -21 20.5 -58q0 -40 -23 -63.5
t-61 -23.5t-58 21t-20 59q0 39 22.5 62.5t61.5 23.5q37 0 57.5 -21z" />
    <glyph glyph-name="Ccaron" unicode="&#x10c;" horiz-adv-x="516" 
d="M509 621l-29 -133l-11 -6q-28 19 -63.5 29.5t-69.5 10.5q-72 0 -106.5 -45t-34.5 -142q0 -210 149 -210q33 0 70 9t67 25l14 -8l-13 -133q-70 -28 -151 -28q-151 0 -229 84t-78 243q0 161 83 249t235 88q92 0 167 -33zM473 825q-76 -51 -141 -110h-30q-68 61 -142 110
l28 63h15l45 -24q14 -8 31 -17t37 -21l114 62h15z" />
    <glyph glyph-name="ccaron" unicode="&#x10d;" horiz-adv-x="384" 
d="M378 454l-26 -124l-12 -5q-27 13 -46.5 19t-38.5 6q-40 0 -60.5 -27t-20.5 -80q0 -130 91 -130q36 0 93 21l12 -9l-16 -119q-60 -17 -124 -17q-98 0 -152.5 62.5t-54.5 175.5q0 118 61 184.5t171 66.5q69 0 123 -24zM405 670q-62 -55 -150 -145h-31q-67 70 -150 145
l39 59h15q77 -55 111 -86q32 27 111 86h16z" />
    <glyph glyph-name="Dcaron" unicode="&#x10e;" horiz-adv-x="659" 
d="M560 571.5q75 -77.5 75 -223.5q0 -172 -86 -264t-246 -92q-92 0 -232 8h-1l9 191l-9 454h1l272 4q142 0 217 -77.5zM466 309q0 114 -32 163t-104 49q-53 0 -97 -4l-6 -310l2 -84q59 -8 104 -8q133 0 133 194zM487 825q-76 -51 -141 -110h-30q-68 61 -142 110l28 63h15
l45 -24q14 -8 31 -17t37 -21l114 62h15z" />
    <glyph glyph-name="dcaron" unicode="&#x10f;" horiz-adv-x="611" 
d="M462 207l2 -74q0 -15 4 -21t14 -6q9 0 22 4l11 -9l-14 -83q-33 -23 -81 -27q-32 3 -54.5 21t-32.5 49h-8q-41 -41 -97 -69q-97 0 -151 63t-54 174q0 120 63.5 183.5t175.5 63.5q29 0 53 -5l-2 220l157 11zM638 632l-37 -213l-68 -11l-11 9l-6 218l113 7zM192 344.5
q-21 -25.5 -21 -84.5q0 -76 20 -112t60 -36q35 0 67 33l1 47l-2 163q-33 15 -62 15q-42 0 -63 -25.5z" />
    <glyph glyph-name="Dcroat" unicode="&#x110;" horiz-adv-x="686" 
d="M587 571.5q75 -77.5 75 -223.5q0 -172 -86 -264t-246 -92q-92 0 -232 8h-1l9 191l-9 454h1l272 4q142 0 217 -77.5zM493 309q0 114 -32 163t-104 49q-53 0 -97 -4l-6 -310l2 -84q59 -8 104 -8q133 0 133 194zM365.875 360l-5.74316 -96h-338.876l-7.17871 11l5.74316 96
h338.876z" />
    <glyph glyph-name="dcroat" unicode="&#x111;" horiz-adv-x="536" 
d="M467 535l-5 -328l2 -74q0 -15 4 -21t14 -6q9 0 22 4l11 -9l-14 -83q-33 -23 -81 -27q-32 3 -54.5 21t-32.5 49h-8q-41 -41 -97 -69q-97 0 -151 63t-54 174q0 120 63.5 183.5t175.5 63.5q29 0 53 -5l-1 64h-103l-10 10l6 74h107l-1 72l157 11l-1 -83h63l10 -11l-6 -73h-69
zM319 192l-2 163q-33 15 -62 15q-42 0 -63 -25.5t-21 -84.5q0 -76 20 -112t60 -36q35 0 67 33z" />
    <glyph glyph-name="Emacron" unicode="&#x112;" horiz-adv-x="522" 
d="M497 132l9 -12l-10 -120h-426l9 191l-9 454h432l9 -12l-11 -120l-157 6l-110 -1l-2 -129h105l105 3l9 -12l-10 -120l-115 3h-97l-1 -56l2 -80l106 -1zM434 839l-8 -88h-278l-10 11l7 88h278z" />
    <glyph glyph-name="emacron" unicode="&#x113;" horiz-adv-x="477" 
d="M430 208l-262 -2q7 -52 36 -77t82 -25t140 31l12 -8l-24 -113q-80 -25 -145 -25q-115 0 -180.5 65t-65.5 179t63 179.5t171 65.5q93 0 144.5 -50t51.5 -139q0 -29 -6 -61zM316 306q0 69 -60 69q-34 0 -56 -22.5t-30 -64.5l144 4zM396 661l-8 -88h-278l-10 11l7 88h278z
" />
    <glyph glyph-name="Ebreve" unicode="&#x114;" horiz-adv-x="522" 
d="M497 132l9 -12l-10 -120h-426l9 191l-9 454h432l9 -12l-11 -120l-157 6l-110 -1l-2 -129h105l105 3l9 -12l-10 -120l-115 3h-97l-1 -56l2 -80l106 -1zM449 832q-20 -55 -62.5 -84.5t-101.5 -29.5q-58 0 -99 29.5t-60 84.5l34 49h22q15 -26 43 -39.5t65 -13.5
q35 0 61.5 13.5t40.5 39.5h23z" />
    <glyph glyph-name="ebreve" unicode="&#x115;" horiz-adv-x="477" 
d="M430 208l-262 -2q7 -52 36 -77t82 -25t140 31l12 -8l-24 -113q-80 -25 -145 -25q-115 0 -180.5 65t-65.5 179t63 179.5t171 65.5q93 0 144.5 -50t51.5 -139q0 -29 -6 -61zM316 306q0 69 -60 69q-34 0 -56 -22.5t-30 -64.5l144 4zM411 661q-16 -57 -58 -93.5t-108 -36.5
q-65 0 -104 37t-53 93l37 51h22q13 -33 40.5 -51.5t62.5 -18.5t62 18.5t40 51.5h21z" />
    <glyph glyph-name="Edotaccent" unicode="&#x116;" horiz-adv-x="522" 
d="M497 132l9 -12l-10 -120h-426l9 191l-9 454h432l9 -12l-11 -120l-157 6l-110 -1l-2 -129h105l105 3l9 -12l-10 -120l-115 3h-97l-1 -56l2 -80l106 -1zM346.5 864q20.5 -21 20.5 -58q0 -40 -23 -63.5t-61 -23.5t-58 21t-20 59q0 39 22.5 62.5t61.5 23.5q37 0 57.5 -21z
" />
    <glyph glyph-name="edotaccent" unicode="&#x117;" horiz-adv-x="477" 
d="M430 208l-262 -2q7 -52 36 -77t82 -25t140 31l12 -8l-24 -113q-80 -25 -145 -25q-115 0 -180.5 65t-65.5 179t63 179.5t171 65.5q93 0 144.5 -50t51.5 -139q0 -29 -6 -61zM316 306q0 69 -60 69q-34 0 -56 -22.5t-30 -64.5l144 4zM308.5 686q20.5 -21 20.5 -58
q0 -40 -23 -63.5t-61 -23.5t-58 21t-20 59q0 39 22.5 62.5t61.5 23.5q37 0 57.5 -21z" />
    <glyph glyph-name="Eogonek" unicode="&#x118;" horiz-adv-x="522" 
d="M497 132l9 -12l-10 -120h-426l9 191l-9 454h432l9 -12l-11 -120l-157 6l-110 -1l-2 -129h105l105 3l9 -12l-10 -120l-115 3h-97l-1 -56l2 -80l106 -1zM298 -199.5q-30 24.5 -30 65.5q0 34 25.5 67.5t95.5 78.5h82q-67 -65 -87 -88t-20 -38q0 -22 26 -22q28 0 72 25l8 -2
l18 -71q-56 -40 -110 -40q-50 0 -80 24.5z" />
    <glyph glyph-name="eogonek" unicode="&#x119;" horiz-adv-x="477" 
d="M430 208l-262 -2q7 -52 36 -77t82 -25t140 31l12 -8l-24 -113q-80 -25 -145 -25q-115 0 -180.5 65t-65.5 179t63 179.5t171 65.5q93 0 144.5 -50t51.5 -139q0 -29 -6 -61zM316 306q0 69 -60 69q-34 0 -56 -22.5t-30 -64.5l144 4zM241 -197.5q-30 24.5 -30 65.5
q0 34 25.5 67.5t95.5 78.5h82q-67 -65 -87 -88t-20 -38q0 -22 26 -22q28 0 72 25l8 -2l18 -71q-56 -40 -110 -40q-50 0 -80 24.5z" />
    <glyph glyph-name="Ecaron" unicode="&#x11a;" horiz-adv-x="522" 
d="M497 132l9 -12l-10 -120h-426l9 191l-9 454h432l9 -12l-11 -120l-157 6l-110 -1l-2 -129h105l105 3l9 -12l-10 -120l-115 3h-97l-1 -56l2 -80l106 -1zM443 825q-76 -51 -141 -110h-30q-68 61 -142 110l28 63h15l45 -24q14 -8 31 -17t37 -21l114 62h15z" />
    <glyph glyph-name="ecaron" unicode="&#x11b;" horiz-adv-x="477" 
d="M430 208l-262 -2q7 -52 36 -77t82 -25t140 31l12 -8l-24 -113q-80 -25 -145 -25q-115 0 -180.5 65t-65.5 179t63 179.5t171 65.5q93 0 144.5 -50t51.5 -139q0 -29 -6 -61zM316 306q0 69 -60 69q-34 0 -56 -22.5t-30 -64.5l144 4zM414 669q-62 -55 -150 -145h-31
q-67 70 -150 145l39 59h15q77 -55 111 -86q32 27 111 86h16z" />
    <glyph glyph-name="Gcircumflex" unicode="&#x11c;" horiz-adv-x="597" 
d="M559 619l-34 -145h-14q-49 27 -87.5 38.5t-81.5 11.5q-54 0 -86 -19.5t-47.5 -64.5t-15.5 -123q0 -77 15 -120.5t47.5 -62.5t89.5 -19q28 0 65 10l1 45l-3 105l149 11l-2 -89l1 -165q-119 -42 -225 -42q-153 0 -230 82.5t-77 236.5q0 168 90 256.5t258 88.5
q108 0 187 -35zM172 788q76 51 141 110h30q68 -61 142 -110l-28 -63h-15l-45 24q-14 8 -31 17t-37 21l-114 -62h-15z" />
    <glyph glyph-name="gcircumflex" unicode="&#x11d;" horiz-adv-x="507" 
d="M448 383l-2 -4q13 -26 13 -60q0 -76 -57 -121t-155 -45q-33 0 -57 4q-10 -11 -10 -20q0 -17 22 -23t74 -12q62 -7 101.5 -16.5t69 -36.5t29.5 -76t-29.5 -87.5t-83 -60t-123.5 -21.5q-95 0 -147 37t-52 99q34 41 81 70v5q-33 13 -51.5 36t-18.5 60q35 38 71 61v6
q-38 19 -57.5 52t-19.5 78q0 78 57 123t155 45q56 0 104 -19q74 15 146 43l11 -9v-97q-32 -8 -71 -11zM323 315q0 34 -16.5 49.5t-51.5 15.5q-38 0 -55.5 -15.5t-17.5 -48.5q0 -36 17 -53.5t52 -17.5q72 0 72 70zM316.5 -22q-27.5 9 -85.5 16l-30 3q-34 -25 -34 -51
q0 -25 22.5 -39.5t65.5 -14.5q42 0 65.5 13t23.5 40q0 24 -27.5 33zM92 579q62 55 150 145h31q67 -70 150 -145l-39 -59h-15q-77 55 -111 86q-32 -27 -111 -86h-16z" />
    <glyph glyph-name="Gbreve" unicode="&#x11e;" horiz-adv-x="597" 
d="M559 619l-34 -145h-14q-49 27 -87.5 38.5t-81.5 11.5q-54 0 -86 -19.5t-47.5 -64.5t-15.5 -123q0 -77 15 -120.5t47.5 -62.5t89.5 -19q28 0 65 10l1 45l-3 105l149 11l-2 -89l1 -165q-119 -42 -225 -42q-153 0 -230 82.5t-77 236.5q0 168 90 256.5t258 88.5
q108 0 187 -35zM490 832q-20 -55 -62.5 -84.5t-101.5 -29.5q-58 0 -99 29.5t-60 84.5l34 49h22q15 -26 43 -39.5t65 -13.5q35 0 61.5 13.5t40.5 39.5h23z" />
    <glyph glyph-name="gbreve" unicode="&#x11f;" horiz-adv-x="507" 
d="M448 383l-2 -4q13 -26 13 -60q0 -76 -57 -121t-155 -45q-33 0 -57 4q-10 -11 -10 -20q0 -17 22 -23t74 -12q62 -7 101.5 -16.5t69 -36.5t29.5 -76t-29.5 -87.5t-83 -60t-123.5 -21.5q-95 0 -147 37t-52 99q34 41 81 70v5q-33 13 -51.5 36t-18.5 60q35 38 71 61v6
q-38 19 -57.5 52t-19.5 78q0 78 57 123t155 45q56 0 104 -19q74 15 146 43l11 -9v-97q-32 -8 -71 -11zM323 315q0 34 -16.5 49.5t-51.5 15.5q-38 0 -55.5 -15.5t-17.5 -48.5q0 -36 17 -53.5t52 -17.5q72 0 72 70zM316.5 -22q-27.5 9 -85.5 16l-30 3q-34 -25 -34 -51
q0 -25 22.5 -39.5t65.5 -14.5q42 0 65.5 13t23.5 40q0 24 -27.5 33zM420 654q-16 -57 -58 -93.5t-108 -36.5q-65 0 -104 37t-53 93l37 51h22q13 -33 40.5 -51.5t62.5 -18.5t62 18.5t40 51.5h21z" />
    <glyph glyph-name="Gdotaccent" unicode="&#x120;" horiz-adv-x="597" 
d="M559 619l-34 -145h-14q-49 27 -87.5 38.5t-81.5 11.5q-54 0 -86 -19.5t-47.5 -64.5t-15.5 -123q0 -77 15 -120.5t47.5 -62.5t89.5 -19q28 0 65 10l1 45l-3 105l149 11l-2 -89l1 -165q-119 -42 -225 -42q-153 0 -230 82.5t-77 236.5q0 168 90 256.5t258 88.5
q108 0 187 -35zM387.5 864q20.5 -21 20.5 -58q0 -40 -23 -63.5t-61 -23.5t-58 21t-20 59q0 39 22.5 62.5t61.5 23.5q37 0 57.5 -21z" />
    <glyph glyph-name="gdotaccent" unicode="&#x121;" horiz-adv-x="507" 
d="M448 383l-2 -4q13 -26 13 -60q0 -76 -57 -121t-155 -45q-33 0 -57 4q-10 -11 -10 -20q0 -17 22 -23t74 -12q62 -7 101.5 -16.5t69 -36.5t29.5 -76t-29.5 -87.5t-83 -60t-123.5 -21.5q-95 0 -147 37t-52 99q34 41 81 70v5q-33 13 -51.5 36t-18.5 60q35 38 71 61v6
q-38 19 -57.5 52t-19.5 78q0 78 57 123t155 45q56 0 104 -19q74 15 146 43l11 -9v-97q-32 -8 -71 -11zM323 315q0 34 -16.5 49.5t-51.5 15.5q-38 0 -55.5 -15.5t-17.5 -48.5q0 -36 17 -53.5t52 -17.5q72 0 72 70zM316.5 -22q-27.5 9 -85.5 16l-30 3q-34 -25 -34 -51
q0 -25 22.5 -39.5t65.5 -14.5q42 0 65.5 13t23.5 40q0 24 -27.5 33zM317.5 679q20.5 -21 20.5 -58q0 -40 -23 -63.5t-61 -23.5t-58 21t-20 59q0 39 22.5 62.5t61.5 23.5q37 0 57.5 -21z" />
    <glyph glyph-name="Gcommaaccent" unicode="&#x122;" horiz-adv-x="597" 
d="M559 619l-34 -145h-14q-49 27 -87.5 38.5t-81.5 11.5q-54 0 -86 -19.5t-47.5 -64.5t-15.5 -123q0 -77 15 -120.5t47.5 -62.5t89.5 -19q28 0 65 10l1 45l-3 105l149 11l-2 -89l1 -165q-119 -42 -225 -42q-153 0 -230 82.5t-77 236.5q0 168 90 256.5t258 88.5
q108 0 187 -35zM382 -116q0 -45 -28.5 -86t-88.5 -83l-44 39l-1 10q49 43 49 90q0 17 -7 30.5t-22 27.5l1 12q49 29 101 43q40 -36 40 -83z" />
    <glyph glyph-name="gcommaaccent" unicode="&#x123;" horiz-adv-x="507" 
d="M197 554.5q-13 22.5 -13 55.5q0 40 23 80t71 86l50 -33l2 -9q-37 -41 -37 -81q0 -24 8.5 -41t29.5 -31v-11q-53 -40 -93 -55q-28 17 -41 39.5zM448 383l-2 -4q13 -26 13 -60q0 -76 -57 -121t-155 -45q-33 0 -57 4q-10 -11 -10 -20q0 -17 22 -23t74 -12q62 -7 101.5 -16.5
t69 -36.5t29.5 -76t-29.5 -87.5t-83 -60t-123.5 -21.5q-95 0 -147 37t-52 99q34 41 81 70v5q-33 13 -51.5 36t-18.5 60q35 38 71 61v6q-38 19 -57.5 52t-19.5 78q0 78 57 123t155 45q56 0 104 -19q74 15 146 43l11 -9v-97q-32 -8 -71 -11zM323 315q0 34 -16.5 49.5
t-51.5 15.5q-38 0 -55.5 -15.5t-17.5 -48.5q0 -36 17 -53.5t52 -17.5q72 0 72 70zM316.5 -22q-27.5 9 -85.5 16l-30 3q-34 -25 -34 -51q0 -25 22.5 -39.5t65.5 -14.5q42 0 65.5 13t23.5 40q0 24 -27.5 33z" />
    <glyph glyph-name="Hcircumflex" unicode="&#x124;" horiz-adv-x="702" 
d="M628 207l6 -207h-162l8 191l-1 65l-130 1l-115 -3l-1 -47l6 -207h-162l8 191l-8 454h164l-5 -257l123 -2l118 2l-5 257h165zM197 788q76 51 141 110h30q68 -61 142 -110l-28 -63h-15l-45 24q-14 8 -31 17t-37 21l-114 -62h-15z" />
    <glyph glyph-name="hcircumflex" unicode="&#x125;" horiz-adv-x="540" 
d="M332 0l9 279q0 69 -56 69q-33 0 -76 -30l-2 -111l7 -207h-158l8 192l-6 499l157 11l-5 -301h6q55 52 119 73q76 0 115.5 -34.5t37.5 -98.5l-3 -134l6 -207h-159zM-22 799q76 51 141 110h30q68 -61 142 -110l-28 -63h-15l-45 24q-14 8 -31 17t-37 21l-114 -62h-15z" />
    <glyph glyph-name="Hbar" unicode="&#x126;" horiz-adv-x="735" 
d="M641 474l-5 -267l6 -207h-163l8 191l-1 65l-130 1l-115 -3l-1 -47l6 -207h-162l8 191l-5 283h-60l-7 8l5 79h60l-1 84h165l-2 -84h233l-1 84h165l-2 -84h66l7 -9l-4 -78h-70zM482 474h-237l-1 -86l123 -2l117 2z" />
    <glyph glyph-name="hbar" unicode="&#x127;" horiz-adv-x="540" 
d="M336 0l9 279q0 69 -56 69q-33 0 -76 -30l-2 -111l7 -207h-158l8 192l-4 329h-62l-11 10l6 73h66l-1 87l157 11l-2 -98h117l10 -11l-6 -72h-122l-2 -120h6q55 52 119 73q76 0 115.5 -34.5t37.5 -98.5l-3 -134l6 -207h-159z" />
    <glyph glyph-name="Imacron" unicode="&#x12a;" horiz-adv-x="308" 
d="M227 207l6 -207h-163l9 191l-9 454h166zM276 839l-7 -88h-230l-10 11l7 88h230z" />
    <glyph glyph-name="imacron" unicode="&#x12b;" horiz-adv-x="271" 
d="M62 191l-5 267l157 12l-7 -263l6 -207h-158zM257 662l-7 -88h-230l-10 11l7 88h230z" />
    <glyph glyph-name="Ibreve" unicode="&#x12c;" horiz-adv-x="308" 
d="M227 207l6 -207h-163l9 191l-9 454h166zM316 832q-20 -55 -62.5 -84.5t-101.5 -29.5q-58 0 -99 29.5t-60 84.5l34 49h22q15 -26 43 -39.5t65 -13.5q35 0 61.5 13.5t40.5 39.5h23z" />
    <glyph glyph-name="ibreve" unicode="&#x12d;" horiz-adv-x="271" 
d="M62 191l-5 267l157 12l-7 -263l6 -207h-158zM297 662q-16 -57 -58 -93.5t-108 -36.5q-65 0 -104 37t-53 93l37 51h22q13 -33 40.5 -51.5t62.5 -18.5t62 18.5t40 51.5h21z" />
    <glyph glyph-name="Iogonek" unicode="&#x12e;" horiz-adv-x="308" 
d="M227 207l6 -207h-163l9 191l-9 454h166zM156.5 -57q-20.5 -19 -20.5 -32q0 -19 23 -19q27 0 67 27l8 -2l19 -68q-53 -44 -113 -44q-43 0 -69.5 22.5t-26.5 59.5q0 68 97 113h92q-56 -38 -76.5 -57z" />
    <glyph glyph-name="iogonek" unicode="&#x12f;" horiz-adv-x="271" 
d="M62 191l-5 267l157 12l-7 -263l6 -207h-158zM194.5 687q20.5 -21 20.5 -58q0 -40 -23 -63.5t-61 -23.5t-58 21t-20 59q0 39 22.5 62.5t61.5 23.5q37 0 57.5 -21zM136.5 -57q-20.5 -19 -20.5 -32q0 -19 23 -19q27 0 67 27l8 -2l19 -68q-53 -44 -113 -44q-43 0 -69.5 22.5
t-26.5 59.5q0 68 97 113h92q-56 -38 -76.5 -57z" />
    <glyph glyph-name="Idotaccent" unicode="&#x130;" horiz-adv-x="308" 
d="M227 207l6 -207h-163l9 191l-9 454h166zM213.5 864q20.5 -21 20.5 -58q0 -40 -23 -63.5t-61 -23.5t-58 21t-20 59q0 39 22.5 62.5t61.5 23.5q37 0 57.5 -21z" />
    <glyph glyph-name="dotlessi" unicode="&#x131;" horiz-adv-x="271" 
d="M62 191l-5 267l157 12l-7 -263l6 -207h-158z" />
    <glyph glyph-name="IJ" unicode="&#x132;" horiz-adv-x="654" 
d="M227 207l6 -207h-163l9 191l-9 454h166zM576 213l2 -91q0 -59 -19.5 -100.5t-64.5 -72.5t-124 -58l-46 85v14q58 29 81 59t23 77v71l-6 332l-97 -3l-10 11l7 108h263z" />
    <glyph glyph-name="ij" unicode="&#x133;" horiz-adv-x="565" 
d="M62 191l-5 267l157 12l-7 -263l6 -207h-158zM195.5 687q20.5 -21 20.5 -58q0 -40 -23 -63.5t-61 -23.5t-58 21t-20 59q0 39 22.5 62.5t61.5 23.5q37 0 57.5 -21zM509 468l-9 -261l7 -177q0 -79 -41.5 -133t-132.5 -93l-54 70v14q41 22 59.5 55t18.5 83v165l-4 179h-73
l-9 9l7 85h79l147 7zM477.5 687q20.5 -21 20.5 -58q0 -40 -23 -63.5t-61 -23.5t-58 21t-20 59q0 39 22.5 62.5t61.5 23.5q37 0 57.5 -21z" />
    <glyph glyph-name="Jcircumflex" unicode="&#x134;" horiz-adv-x="346" 
d="M268 213l2 -91q0 -59 -19.5 -100.5t-64.5 -72.5t-124 -58l-46 85v14q58 29 81 59t23 77v71l-6 332l-97 -3l-10 11l7 108h263zM-1 788q76 51 141 110h30q68 -61 142 -110l-28 -63h-15l-45 24q-14 8 -31 17t-37 21l-114 -62h-15z" />
    <glyph glyph-name="jcircumflex" unicode="&#x135;" horiz-adv-x="294" 
d="M238 468l-9 -261l7 -177q0 -79 -41.5 -133t-132.5 -93l-54 70v14q41 22 59.5 55t18.5 83v165l-4 179h-73l-9 9l7 85h79l147 7zM-19 587q62 55 150 145h31q67 -70 150 -145l-39 -59h-15q-77 55 -111 86q-32 -27 -111 -86h-16z" />
    <glyph glyph-name="Kcommaaccent" unicode="&#x136;" horiz-adv-x="602" 
d="M615 34l-2 -18q-79 -19 -160 -27l-19 10q-123 180 -205 319l-2 -111l6 -207h-162l8 191l-8 454h164l-5 -288l157 223l36 65h173l-212 -304q102 -151 231 -307zM386 -116q0 -45 -28.5 -86t-88.5 -83l-44 39l-1 10q49 43 49 90q0 17 -7 30.5t-22 27.5l1 12q49 29 101 43
q40 -36 40 -83z" />
    <glyph glyph-name="kcommaaccent" unicode="&#x137;" horiz-adv-x="513" 
d="M207 207l7 -207h-158l8 192l-6 499l157 11zM359 258q51 -88 148 -232l-1 -16q-52 -11 -148 -21l-16 8q-80 123 -134 247v10l103 162l23 52h164zM353 -116q0 -45 -28.5 -86t-88.5 -83l-44 39l-1 10q49 43 49 90q0 17 -7 30.5t-22 27.5l1 12q49 29 101 43q40 -36 40 -83z
" />
    <glyph glyph-name="kgreenlandic" unicode="&#x138;" horiz-adv-x="511" 
d="M504 26v-16q-52 -11 -148 -21l-16 8q-81 126 -135 247v1l-1 -38l6 -207h-157l7 191l-6 267l157 12l-6 -216l105 162l22 52h163l-139 -210q51 -88 148 -232z" />
    <glyph glyph-name="Lacute" unicode="&#x139;" horiz-adv-x="441" 
d="M440 121l-11 -121h-363l9 191l-9 454h165l-9 -438l3 -74h205zM266 897l40 -95l-5 -13q-98 -36 -225 -75l-14 4l-25 66q111 55 214 116z" />
    <glyph glyph-name="lacute" unicode="&#x13a;" horiz-adv-x="271" 
d="M207 207l7 -207h-158l8 192l-6 499l157 11zM247 932l40 -95l-5 -13q-98 -36 -225 -75l-14 4l-25 66q111 55 214 116z" />
    <glyph glyph-name="Lcommaaccent" unicode="&#x13b;" horiz-adv-x="441" 
d="M440 121l-11 -121h-363l9 191l-9 454h165l-9 -438l3 -74h205zM314 -116q0 -45 -28.5 -86t-88.5 -83l-44 39l-1 10q49 43 49 90q0 17 -7 30.5t-22 27.5l1 12q49 29 101 43q40 -36 40 -83z" />
    <glyph glyph-name="lcommaaccent" unicode="&#x13c;" horiz-adv-x="271" 
d="M207 207l7 -207h-158l8 192l-6 499l157 11zM216 -116q0 -45 -28.5 -86t-88.5 -83l-44 39l-1 10q49 43 49 90q0 17 -7 30.5t-22 27.5l1 12q49 29 101 43q40 -36 40 -83z" />
    <glyph glyph-name="Lcaron" unicode="&#x13d;" horiz-adv-x="496" 
d="M430 133l10 -12l-11 -121h-363l9 191l-9 454h165l-9 -438l3 -74h205zM344 370l-6 218l113 7l9 -10l-37 -213l-68 -10z" />
    <glyph glyph-name="lcaron" unicode="&#x13e;" horiz-adv-x="353" 
d="M207 207l7 -207h-158l8 192l-6 499l157 11zM381 634l-37 -213l-68 -11l-11 9l-6 218l113 7z" />
    <glyph glyph-name="Ldot" unicode="&#x13f;" horiz-adv-x="475" 
d="M440 121l-11 -121h-363l9 191l-9 454h165l-9 -438l3 -74h205zM438.5 456q20.5 -21 20.5 -58q0 -40 -23 -63.5t-61 -23.5t-58 21t-20 59q0 39 22.5 62.5t61.5 23.5q37 0 57.5 -21z" />
    <glyph glyph-name="ldot" unicode="&#x140;" horiz-adv-x="349" 
d="M207 207l7 -207h-158l8 192l-6 499l157 11zM369.5 360q20.5 -21 20.5 -58q0 -40 -23 -63.5t-61 -23.5t-58 21t-20 59q0 39 22.5 62.5t61.5 23.5q37 0 57.5 -21z" />
    <glyph glyph-name="Lslash" unicode="&#x141;" horiz-adv-x="458" 
d="M458 121l-11 -121h-363l9 191l-1 37l-55 -28l-15 8l-28 94l96 49l-6 294h165l-4 -215l87 44l15 -7l29 -93l-134 -69l-2 -98l3 -74h205z" />
    <glyph glyph-name="lslash" unicode="&#x142;" horiz-adv-x="302" 
d="M223 207l7 -207h-158l8 192l-1 85l-57 -28l-8 2l-31 88l94 48l-4 304l158 11l-4 -256l54 28l7 -3l31 -88l-94 -48z" />
    <glyph glyph-name="Nacute" unicode="&#x143;" horiz-adv-x="701" 
d="M622 204l6 -204h-176l-229 399h-10l-1 -172l6 -227h-147l8 190l-8 455h175l230 -399h10l-4 393l149 9zM462 897l40 -95l-5 -13q-98 -36 -225 -75l-14 4l-25 66q111 55 214 116z" />
    <glyph glyph-name="nacute" unicode="&#x144;" horiz-adv-x="535" 
d="M336 279q2 69 -56 69q-35 0 -76 -30v-111l7 -207h-158l7 191l-6 267l151 12v-69h6q54 51 120 73q75 0 114.5 -34.5t38.5 -98.5l-4 -134l6 -207h-158zM381 736l57 -87l-3 -14q-99 -57 -206 -115l-14 1l-37 60q105 80 189 156z" />
    <glyph glyph-name="Ncommaaccent" unicode="&#x145;" horiz-adv-x="701" 
d="M622 204l6 -204h-176l-229 399h-10l-1 -172l6 -227h-147l8 190l-8 455h175l230 -399h10l-4 393l149 9zM431 -116q0 -45 -28.5 -86t-88.5 -83l-44 39l-1 10q49 43 49 90q0 17 -7 30.5t-22 27.5l1 12q49 29 101 43q40 -36 40 -83z" />
    <glyph glyph-name="ncommaaccent" unicode="&#x146;" horiz-adv-x="535" 
d="M336 279q2 69 -56 69q-35 0 -76 -30v-111l7 -207h-158l7 191l-6 267l151 12v-69h6q54 51 120 73q75 0 114.5 -34.5t38.5 -98.5l-4 -134l6 -207h-158zM355 -116q0 -45 -28.5 -86t-88.5 -83l-44 39l-1 10q49 43 49 90q0 17 -7 30.5t-22 27.5l1 12q49 29 101 43
q40 -36 40 -83z" />
    <glyph glyph-name="Ncaron" unicode="&#x147;" horiz-adv-x="701" 
d="M622 204l6 -204h-176l-229 399h-10l-1 -172l6 -227h-147l8 190l-8 455h175l230 -399h10l-4 393l149 9zM507 825q-76 -51 -141 -110h-30q-68 61 -142 110l28 63h15l45 -24q14 -8 31 -17t37 -21l114 62h15z" />
    <glyph glyph-name="ncaron" unicode="&#x148;" horiz-adv-x="535" 
d="M336 279q2 69 -56 69q-35 0 -76 -30v-111l7 -207h-158l7 191l-6 267l151 12v-69h6q54 51 120 73q75 0 114.5 -34.5t38.5 -98.5l-4 -134l6 -207h-158zM452 670q-62 -55 -150 -145h-31q-67 70 -150 145l39 59h15q77 -55 111 -86q32 27 111 86h16z" />
    <glyph glyph-name="Eng" unicode="&#x14a;" horiz-adv-x="701" 
d="M622 204l4 -149q0 -59 -19.5 -100t-64.5 -72t-124 -58l-45 84v14q37 18 59 36.5t32 40.5l-241 399h-10l-1 -172l7 -227h-149l9 190l-8 455h176l229 -385h10l-5 379l150 9z" />
    <glyph glyph-name="eng" unicode="&#x14b;" horiz-adv-x="543" 
d="M487 30q0 -79 -41 -133t-131 -93l-54 70v14q40 22 58 55t18 83l-1 253q0 69 -56 69q-35 0 -76 -30v-111l7 -207h-158l7 191l-6 267l151 12v-69h6q54 51 120 73q75 0 114.5 -34.5t38.5 -98.5l-4 -134z" />
    <glyph glyph-name="Omacron" unicode="&#x14c;" horiz-adv-x="647" 
d="M549 572.5q75 -82.5 75 -234.5q0 -166 -82 -257.5t-231 -91.5q-137 0 -212 84.5t-75 239.5q0 164 81.5 253t230.5 89q138 0 213 -82.5zM247 506.5q-28 -18.5 -41 -60t-13 -112.5q0 -85 13 -133.5t41.5 -69.5t77.5 -21q48 0 76 18.5t40.5 60.5t12.5 115q0 84 -13 132
t-41 68.5t-78 20.5q-47 0 -75 -18.5zM472 839l-8 -88h-278l-10 11l7 88h278z" />
    <glyph glyph-name="omacron" unicode="&#x14d;" horiz-adv-x="495" 
d="M416.5 418q55.5 -60 55.5 -175q0 -124 -59.5 -189t-172.5 -65q-106 0 -161.5 60t-55.5 174q0 124 59.5 189.5t172.5 65.5q106 0 161.5 -60zM187.5 344.5q-16.5 -26.5 -16.5 -92.5q0 -61 7.5 -95.5t25 -49t47.5 -14.5q39 0 55.5 26.5t16.5 93.5q0 89 -17.5 123.5
t-61.5 34.5q-40 0 -56.5 -26.5zM397 662l-8 -88h-278l-10 11l7 88h278z" />
    <glyph glyph-name="Obreve" unicode="&#x14e;" horiz-adv-x="647" 
d="M549 572.5q75 -82.5 75 -234.5q0 -166 -82 -257.5t-231 -91.5q-137 0 -212 84.5t-75 239.5q0 164 81.5 253t230.5 89q138 0 213 -82.5zM247 506.5q-28 -18.5 -41 -60t-13 -112.5q0 -85 13 -133.5t41.5 -69.5t77.5 -21q48 0 76 18.5t40.5 60.5t12.5 115q0 84 -13 132
t-41 68.5t-78 20.5q-47 0 -75 -18.5zM487 832q-20 -55 -62.5 -84.5t-101.5 -29.5q-58 0 -99 29.5t-60 84.5l34 49h22q15 -26 43 -39.5t65 -13.5q35 0 61.5 13.5t40.5 39.5h23z" />
    <glyph glyph-name="obreve" unicode="&#x14f;" horiz-adv-x="495" 
d="M416.5 418q55.5 -60 55.5 -175q0 -124 -59.5 -189t-172.5 -65q-106 0 -161.5 60t-55.5 174q0 124 59.5 189.5t172.5 65.5q106 0 161.5 -60zM187.5 344.5q-16.5 -26.5 -16.5 -92.5q0 -61 7.5 -95.5t25 -49t47.5 -14.5q39 0 55.5 26.5t16.5 93.5q0 89 -17.5 123.5
t-61.5 34.5q-40 0 -56.5 -26.5zM412 662q-16 -57 -58 -93.5t-108 -36.5q-65 0 -104 37t-53 93l37 51h22q13 -33 40.5 -51.5t62.5 -18.5t62 18.5t40 51.5h21z" />
    <glyph glyph-name="Ohungarumlaut" unicode="&#x150;" horiz-adv-x="647" 
d="M549 572.5q75 -82.5 75 -234.5q0 -166 -82 -257.5t-231 -91.5q-137 0 -212 84.5t-75 239.5q0 164 81.5 253t230.5 89q138 0 213 -82.5zM247 506.5q-28 -18.5 -41 -60t-13 -112.5q0 -85 13 -133.5t41.5 -69.5t77.5 -21q48 0 76 18.5t40.5 60.5t12.5 115q0 84 -13 132
t-41 68.5t-78 20.5q-47 0 -75 -18.5zM283 892l12 3l73 -48l2 -12q-61 -61 -127 -118l-14 -4l-48 39q60 78 102 140zM443 892l12 3l74 -48l2 -12q-53 -52 -128 -118l-13 -4l-49 39q60 78 102 140z" />
    <glyph glyph-name="ohungarumlaut" unicode="&#x151;" horiz-adv-x="495" 
d="M416.5 418q55.5 -60 55.5 -175q0 -124 -59.5 -189t-172.5 -65q-106 0 -161.5 60t-55.5 174q0 124 59.5 189.5t172.5 65.5q106 0 161.5 -60zM187.5 344.5q-16.5 -26.5 -16.5 -92.5q0 -61 7.5 -95.5t25 -49t47.5 -14.5q39 0 55.5 26.5t16.5 93.5q0 89 -17.5 123.5
t-61.5 34.5q-40 0 -56.5 -26.5zM211 739l11 3l73 -51l2 -12q-67 -77 -144 -154l-13 -4l-48 39q72 104 119 179zM369 739l11 3l73 -51l2 -12q-60 -69 -145 -154l-13 -4l-48 39q55 77 120 179z" />
    <glyph glyph-name="OE" unicode="&#x152;" horiz-adv-x="877" 
d="M458 650q12 -1 38 -3t46 -2h314l9 -12l-11 -120l-154 6h-113l-2 -130h104l107 3l9 -12l-10 -120l-117 3h-97v-58l2 -78l105 -1l163 6l10 -12l-11 -120h-308q-38 1 -105 -6q-70 -6 -109 -6q-145 0 -224.5 85.5t-79.5 240.5q0 163 86 253t240 90q50 0 108 -7zM226 481
q-33 -46 -33 -154q0 -116 34 -166.5t114 -50.5q57 0 76 14q17 12 16 48l-5 294q0 36 -12 46q-18 15 -79 15q-78 0 -111 -46z" />
    <glyph glyph-name="oe" unicode="&#x153;" horiz-adv-x="767" 
d="M714 208l-261 -1q6 -52 34.5 -77t85.5 -25q63 0 134 31l12 -9l-23 -112q-68 -26 -140 -26q-108 0 -167 68q-51 -68 -156 -68q-103 0 -157.5 61t-54.5 177q0 121 59 185.5t167 64.5q98 0 146 -63q57 63 154 63q92 0 142 -49.5t50 -138.5q0 -24 -5 -59zM603 306
q0 34 -15.5 51.5t-44.5 17.5q-36 0 -58 -22.5t-30 -66.5l146 6zM306.5 119.5q16.5 26.5 16.5 93.5q0 89 -17.5 123.5t-61.5 34.5q-40 0 -56.5 -26.5t-16.5 -92.5q0 -61 7.5 -95.5t25 -49t47.5 -14.5q39 0 55.5 26.5z" />
    <glyph glyph-name="Racute" unicode="&#x154;" horiz-adv-x="607" 
d="M595 38l-2 -18q-76 -25 -161 -31l-16 13q-60 112 -104 205h-85l6 -207h-163l9 191l-9 454l272 1q105 0 161.5 -50.5t56.5 -144.5q0 -59 -30 -110t-85 -86q83 -129 150 -217zM230 329l87 -4q37 14 54.5 41t17.5 70q0 47 -24.5 69.5t-76.5 24.5l-54 -3zM399 913l57 -87
l-3 -14q-99 -57 -206 -115l-14 1l-37 60q105 80 189 156z" />
    <glyph glyph-name="racute" unicode="&#x155;" horiz-adv-x="359" 
d="M356 467v-145l-16 -5q-14 7 -37 7q-54 0 -99 -58v-59l7 -207h-158l8 191l-7 267l151 12v-90h7q47 89 120 89q6 0 24 -2zM302 736l57 -87l-3 -14q-99 -57 -206 -115l-14 1l-37 60q105 80 189 156z" />
    <glyph glyph-name="Rcommaaccent" unicode="&#x156;" horiz-adv-x="607" 
d="M595 38l-2 -18q-76 -25 -161 -31l-16 13q-60 112 -104 205h-85l6 -207h-163l9 191l-9 454l272 1q105 0 161.5 -50.5t56.5 -144.5q0 -59 -30 -110t-85 -86q83 -129 150 -217zM230 329l87 -4q37 14 54.5 41t17.5 70q0 47 -24.5 69.5t-76.5 24.5l-54 -3zM385 -116
q0 -45 -28.5 -86t-88.5 -83l-44 39l-1 10q49 43 49 90q0 17 -7 30.5t-22 27.5l1 12q49 29 101 43q40 -36 40 -83z" />
    <glyph glyph-name="rcommaaccent" unicode="&#x157;" horiz-adv-x="359" 
d="M356 467v-145l-16 -5q-14 7 -37 7q-54 0 -99 -58v-59l7 -207h-158l8 191l-7 267l151 12v-90h7q47 89 120 89q6 0 24 -2zM212 -116q0 -45 -28.5 -86t-88.5 -83l-44 39l-1 10q49 43 49 90q0 17 -7 30.5t-22 27.5l1 12q49 29 101 43q40 -36 40 -83z" />
    <glyph glyph-name="Rcaron" unicode="&#x158;" horiz-adv-x="607" 
d="M595 38l-2 -18q-76 -25 -161 -31l-16 13q-60 112 -104 205h-85l6 -207h-163l9 191l-9 454l272 1q105 0 161.5 -50.5t56.5 -144.5q0 -59 -30 -110t-85 -86q83 -129 150 -217zM230 329l87 -4q37 14 54.5 41t17.5 70q0 47 -24.5 69.5t-76.5 24.5l-54 -3zM461 825
q-76 -51 -141 -110h-30q-68 61 -142 110l28 63h15l45 -24q14 -8 31 -17t37 -21l114 62h15z" />
    <glyph glyph-name="rcaron" unicode="&#x159;" horiz-adv-x="359" 
d="M356 467v-145l-16 -5q-14 7 -37 7q-54 0 -99 -58v-59l7 -207h-158l8 191l-7 267l151 12v-90h7q47 89 120 89q6 0 24 -2zM373 670q-62 -55 -150 -145h-31q-67 70 -150 145l39 59h15q77 -55 111 -86q32 27 111 86h16z" />
    <glyph glyph-name="Sacute" unicode="&#x15a;" horiz-adv-x="510" 
d="M467 621l-26 -136l-24 -9q-38 25 -76 39t-66 14q-33 0 -52.5 -16.5t-19.5 -38.5q0 -25 24.5 -42.5t77.5 -41.5q56 -26 90.5 -47.5t60 -57.5t25.5 -88q0 -58 -31.5 -105t-89.5 -74.5t-134 -27.5q-101 0 -200 40l23 145l17 10q42 -35 91.5 -54.5t85.5 -19.5q38 0 57.5 17
t19.5 40q0 27 -25 45t-78 42q-54 25 -88.5 46.5t-59.5 57.5t-25 88q0 59 31.5 106.5t88 74.5t129.5 27q86 0 174 -34zM361 913l57 -87l-3 -14q-99 -57 -206 -115l-14 1l-37 60q105 80 189 156z" />
    <glyph glyph-name="sacute" unicode="&#x15b;" horiz-adv-x="392" 
d="M359 453l-20 -113l-19 -6q-32 20 -62.5 31t-52.5 11q-20 0 -31 -9.5t-11 -22.5q0 -18 18 -29.5t55 -25.5q42 -17 68 -32t45.5 -42t19.5 -68q0 -42 -21 -78t-65.5 -58t-110.5 -22q-74 0 -157 28l19 120l14 10q33 -27 73.5 -43t69.5 -16q22 0 33.5 10t11.5 25
q0 17 -17.5 28.5t-55.5 26.5q-41 16 -68 31t-46.5 42.5t-19.5 69.5q0 69 52 112.5t142 43.5q72 0 136 -24zM293 736l57 -87l-3 -14q-99 -57 -206 -115l-14 1l-37 60q105 80 189 156z" />
    <glyph glyph-name="Scircumflex" unicode="&#x15c;" horiz-adv-x="510" 
d="M467 621l-26 -136l-24 -9q-38 25 -76 39t-66 14q-33 0 -52.5 -16.5t-19.5 -38.5q0 -25 24.5 -42.5t77.5 -41.5q56 -26 90.5 -47.5t60 -57.5t25.5 -88q0 -58 -31.5 -105t-89.5 -74.5t-134 -27.5q-101 0 -200 40l23 145l17 10q42 -35 91.5 -54.5t85.5 -19.5q38 0 57.5 17
t19.5 40q0 27 -25 45t-78 42q-54 25 -88.5 46.5t-59.5 57.5t-25 88q0 59 31.5 106.5t88 74.5t129.5 27q86 0 174 -34zM101 764q62 55 150 145h31q67 -70 150 -145l-39 -59h-15q-77 55 -111 86q-32 -27 -111 -86h-16z" />
    <glyph glyph-name="scircumflex" unicode="&#x15d;" horiz-adv-x="392" 
d="M359 453l-20 -113l-19 -6q-32 20 -62.5 31t-52.5 11q-20 0 -31 -9.5t-11 -22.5q0 -18 18 -29.5t55 -25.5q42 -17 68 -32t45.5 -42t19.5 -68q0 -42 -21 -78t-65.5 -58t-110.5 -22q-74 0 -157 28l19 120l14 10q33 -27 73.5 -43t69.5 -16q22 0 33.5 10t11.5 25
q0 17 -17.5 28.5t-55.5 26.5q-41 16 -68 31t-46.5 42.5t-19.5 69.5q0 69 52 112.5t142 43.5q72 0 136 -24zM33 587q62 55 150 145h31q67 -70 150 -145l-39 -59h-15q-77 55 -111 86q-32 -27 -111 -86h-16z" />
    <glyph glyph-name="Scedilla" unicode="&#x15e;" horiz-adv-x="510" 
d="M467 621l-26 -136l-24 -9q-38 25 -76 39t-66 14q-33 0 -52.5 -16.5t-19.5 -38.5q0 -25 24.5 -42.5t77.5 -41.5q56 -26 90.5 -47.5t60 -57.5t25.5 -88q0 -58 -31.5 -105t-89.5 -74.5t-134 -27.5q-101 0 -200 40l23 145l17 10q42 -35 91.5 -54.5t85.5 -19.5q38 0 57.5 17
t19.5 40q0 27 -25 45t-78 42q-54 25 -88.5 46.5t-59.5 57.5t-25 88q0 59 31.5 106.5t88 74.5t129.5 27q86 0 174 -34zM272 -45l34 -19q23 -12 32.5 -27t9.5 -34q0 -34 -27.5 -56t-73.5 -22q-44 0 -86 26l10 64l7 3q15 -14 30.5 -21.5t28.5 -7.5q21 0 21 18q0 10 -15 18
l-49 27l23 106h71z" />
    <glyph glyph-name="scedilla" unicode="&#x15f;" horiz-adv-x="392" 
d="M359 453l-20 -113l-19 -6q-32 20 -62.5 31t-52.5 11q-20 0 -31 -9.5t-11 -22.5q0 -18 18 -29.5t55 -25.5q42 -17 68 -32t45.5 -42t19.5 -68q0 -42 -21 -78t-65.5 -58t-110.5 -22q-74 0 -157 28l19 120l14 10q33 -27 73.5 -43t69.5 -16q22 0 33.5 10t11.5 25
q0 17 -17.5 28.5t-55.5 26.5q-41 16 -68 31t-46.5 42.5t-19.5 69.5q0 69 52 112.5t142 43.5q72 0 136 -24zM217 -45l34 -19q23 -12 32.5 -27t9.5 -34q0 -34 -27.5 -56t-73.5 -22q-44 0 -86 26l10 64l7 3q15 -14 30.5 -21.5t28.5 -7.5q21 0 21 18q0 10 -15 18l-49 27l23 106
h71z" />
    <glyph glyph-name="Scaron" unicode="&#x160;" horiz-adv-x="510" 
d="M467 621l-26 -136l-24 -9q-38 25 -76 39t-66 14q-33 0 -52.5 -16.5t-19.5 -38.5q0 -25 24.5 -42.5t77.5 -41.5q56 -26 90.5 -47.5t60 -57.5t25.5 -88q0 -58 -31.5 -105t-89.5 -74.5t-134 -27.5q-101 0 -200 40l23 145l17 10q42 -35 91.5 -54.5t85.5 -19.5q38 0 57.5 17
t19.5 40q0 27 -25 45t-78 42q-54 25 -88.5 46.5t-59.5 57.5t-25 88q0 59 31.5 106.5t88 74.5t129.5 27q86 0 174 -34zM423 825q-76 -51 -141 -110h-30q-68 61 -142 110l28 63h15l45 -24q14 -8 31 -17t37 -21l114 62h15z" />
    <glyph glyph-name="scaron" unicode="&#x161;" horiz-adv-x="392" 
d="M359 453l-20 -113l-19 -6q-32 20 -62.5 31t-52.5 11q-20 0 -31 -9.5t-11 -22.5q0 -18 18 -29.5t55 -25.5q42 -17 68 -32t45.5 -42t19.5 -68q0 -42 -21 -78t-65.5 -58t-110.5 -22q-74 0 -157 28l19 120l14 10q33 -27 73.5 -43t69.5 -16q22 0 33.5 10t11.5 25
q0 17 -17.5 28.5t-55.5 26.5q-41 16 -68 31t-46.5 42.5t-19.5 69.5q0 69 52 112.5t142 43.5q72 0 136 -24zM364 670q-62 -55 -150 -145h-31q-67 70 -150 145l39 59h15q77 -55 111 -86q32 27 111 86h16z" />
    <glyph glyph-name="uni0162" unicode="&#x162;" horiz-adv-x="510" 
d="M499 633l-9 -119l-126 6h-28l-5 -313l6 -207h-47l-11 -45l34 -19q24 -13 33.5 -28t9.5 -33q0 -34 -27.5 -56.5t-73.5 -22.5q-47 0 -86 27l10 64l7 2q14 -14 30 -21.5t29 -7.5q10 0 15.5 5t5.5 13q0 11 -15 18l-50 28l17 76h-43l9 191l-5 329h-30l-127 -6l-10 12l10 119
h468z" />
    <glyph glyph-name="uni0163" unicode="&#x163;" horiz-adv-x="348" 
d="M326 131l11 -12l-15 -91q-50 -28 -104 -35q-73 4 -111 38.5t-38 94.5l5 91l-1 153h-62l-5 8l7 86h59v80l145 43l11 -10l-4 -113h110l5 -9l-7 -85h-111l-6 -202q0 -29 10.5 -40.5t36.5 -11.5q30 0 64 15zM233 -45l34 -19q23 -12 32.5 -27t9.5 -34q0 -34 -27.5 -56
t-73.5 -22q-44 0 -86 26l10 64l7 3q15 -14 30.5 -21.5t28.5 -7.5q21 0 21 18q0 10 -15 18l-49 27l23 106h71z" />
    <glyph glyph-name="Tcaron" unicode="&#x164;" horiz-adv-x="510" 
d="M499 633l-9 -119l-126 6h-28l-5 -313l6 -207h-162l9 191l-5 329h-30l-127 -6l-10 12l10 119h468zM414 825q-76 -51 -141 -110h-30q-68 61 -142 110l28 63h15l45 -24q14 -8 31 -17t37 -21l114 62h15z" />
    <glyph glyph-name="tcaron" unicode="&#x165;" horiz-adv-x="373" 
d="M326 131l11 -12l-15 -91q-50 -28 -104 -35q-73 4 -111 38.5t-38 94.5l5 91l-1 153h-62l-5 8l7 86h59v80l145 43l11 -10l-4 -113h110l5 -9l-7 -85h-111l-6 -202q0 -29 10.5 -40.5t36.5 -11.5q30 0 64 15zM395 726l-37 -213l-68 -11l-11 9l-5 218l113 6z" />
    <glyph glyph-name="Tbar" unicode="&#x166;" horiz-adv-x="510" 
d="M336 520l-3 -182h94l11 -10l-6 -75h-100l-1 -46l6 -207h-162l9 191l-1 62h-86l-10 11l6 74h89l-3 182h-30l-127 -6l-10 12l10 119h468l9 -12l-9 -119l-126 6h-28z" />
    <glyph glyph-name="tbar" unicode="&#x167;" horiz-adv-x="353" 
d="M329 131l11 -12l-15 -91q-50 -28 -105 -35q-72 4 -110.5 38.5t-38.5 94.5l6 89h-56l-10 10l6 75h59v70h-63l-4 8l7 86h59v80l145 43l11 -10l-4 -113h110l4 -9l-7 -85h-110l-2 -70h95l10 -11l-6 -74h-102l-1 -47q0 -29 10.5 -40.5t36.5 -11.5q30 0 64 15z" />
    <glyph glyph-name="Umacron" unicode="&#x16a;" horiz-adv-x="644" 
d="M584 318l-1 -93q1 -113 -69.5 -174t-200.5 -61q-126 0 -192.5 60t-63.5 172l2 98l-4 325h162l-7 -401q-1 -64 26 -94t84 -30q58 0 85.5 29.5t26.5 90.5l-7 405h165zM471 839l-8 -88h-278l-10 11l7 88h278z" />
    <glyph glyph-name="umacron" unicode="&#x16b;" horiz-adv-x="528" 
d="M513 101l-14 -83q-42 -27 -86 -27q-58 12 -80 79h-10q-58 -58 -117 -76q-75 0 -115 34.5t-40 98.5l3 112l-5 219l152 12l-2 -285q-1 -65 52 -65q18 0 34 7t35 23v308l150 12l-9 -338q0 -14 4.5 -20t14.5 -6q9 0 22 4zM408 662l-8 -88h-278l-10 11l7 88h278z" />
    <glyph glyph-name="Ubreve" unicode="&#x16c;" horiz-adv-x="644" 
d="M584 318l-1 -93q1 -113 -69.5 -174t-200.5 -61q-126 0 -192.5 60t-63.5 172l2 98l-4 325h162l-7 -401q-1 -64 26 -94t84 -30q58 0 85.5 29.5t26.5 90.5l-7 405h165zM486 839q-16 -57 -58 -93.5t-108 -36.5q-65 0 -104 37t-53 93l37 51h22q13 -33 40.5 -51.5t62.5 -18.5
t62 18.5t40 51.5h21z" />
    <glyph glyph-name="ubreve" unicode="&#x16d;" horiz-adv-x="528" 
d="M513 101l-14 -83q-42 -27 -86 -27q-58 12 -80 79h-10q-58 -58 -117 -76q-75 0 -115 34.5t-40 98.5l3 112l-5 219l152 12l-2 -285q-1 -65 52 -65q18 0 34 7t35 23v308l150 12l-9 -338q0 -14 4.5 -20t14.5 -6q9 0 22 4zM423 662q-16 -57 -58 -93.5t-108 -36.5
q-65 0 -104 37t-53 93l37 51h22q13 -33 40.5 -51.5t62.5 -18.5t62 18.5t40 51.5h21z" />
    <glyph glyph-name="Uring" unicode="&#x16e;" horiz-adv-x="644" 
d="M584 318l-1 -93q1 -113 -69.5 -174t-200.5 -61q-126 0 -192.5 60t-63.5 172l2 98l-4 325h162l-7 -401q-1 -64 26 -94t84 -30q58 0 85.5 29.5t26.5 90.5l-7 405h165zM400 889q25 -25 25 -71q0 -50 -27.5 -77.5t-77.5 -27.5q-48 0 -73.5 25.5t-25.5 73.5q0 50 27 76t78 26
q49 0 74 -25zM294 840.5q-9 -8.5 -9 -25.5q0 -20 9.5 -29t29.5 -9q19 0 28 8.5t9 26.5q0 19 -9 28t-30 9q-19 0 -28 -8.5z" />
    <glyph glyph-name="uring" unicode="&#x16f;" horiz-adv-x="528" 
d="M513 101l-14 -83q-42 -27 -86 -27q-58 12 -80 79h-10q-58 -58 -117 -76q-75 0 -115 34.5t-40 98.5l3 112l-5 219l152 12l-2 -285q-1 -65 52 -65q18 0 34 7t35 23v308l150 12l-9 -338q0 -14 4.5 -20t14.5 -6q9 0 22 4zM337 712q25 -25 25 -71q0 -50 -27.5 -77.5
t-77.5 -27.5q-48 0 -73.5 25.5t-25.5 73.5q0 50 27 76t78 26q49 0 74 -25zM231 663.5q-9 -8.5 -9 -25.5q0 -20 9.5 -29t29.5 -9q19 0 28 8.5t9 26.5q0 19 -9 28t-30 9q-19 0 -28 -8.5z" />
    <glyph glyph-name="Uhungarumlaut" unicode="&#x170;" horiz-adv-x="644" 
d="M584 318l-1 -93q1 -113 -69.5 -174t-200.5 -61q-126 0 -192.5 60t-63.5 172l2 98l-4 325h162l-7 -401q-1 -64 26 -94t84 -30q58 0 85.5 29.5t26.5 90.5l-7 405h165zM282 892l12 3l73 -48l2 -12q-61 -61 -127 -118l-14 -4l-48 39q60 78 102 140zM442 892l12 3l74 -48
l2 -12q-53 -52 -128 -118l-13 -4l-49 39q60 78 102 140z" />
    <glyph glyph-name="uhungarumlaut" unicode="&#x171;" horiz-adv-x="528" 
d="M513 101l-14 -83q-42 -27 -86 -27q-58 12 -80 79h-10q-58 -58 -117 -76q-75 0 -115 34.5t-40 98.5l3 112l-5 219l152 12l-2 -285q-1 -65 52 -65q18 0 34 7t35 23v308l150 12l-9 -338q0 -14 4.5 -20t14.5 -6q9 0 22 4zM222 739l11 3l73 -51l2 -12q-67 -77 -144 -154
l-13 -4l-48 39q72 104 119 179zM380 739l11 3l73 -51l2 -12q-60 -69 -145 -154l-13 -4l-48 39q55 77 120 179z" />
    <glyph glyph-name="Uogonek" unicode="&#x172;" horiz-adv-x="644" 
d="M584 318l-1 -93q1 -113 -69.5 -174t-200.5 -61q-126 0 -192.5 60t-63.5 172l2 98l-4 325h162l-7 -401q-1 -64 26 -94t84 -30q58 0 85.5 29.5t26.5 90.5l-7 405h165zM326 -167.5q-30 24.5 -30 65.5q0 34 25.5 67.5t95.5 78.5h82q-67 -65 -87 -88t-20 -38q0 -22 26 -22
q28 0 72 25l8 -2l18 -71q-56 -40 -110 -40q-50 0 -80 24.5z" />
    <glyph glyph-name="uogonek" unicode="&#x173;" horiz-adv-x="528" 
d="M513 101l-14 -83q-42 -27 -86 -27q-58 12 -80 79h-10q-58 -58 -117 -76q-75 0 -115 34.5t-40 98.5l3 112l-5 219l152 12l-2 -285q-1 -65 52 -65q18 0 34 7t35 23v308l150 12l-9 -338q0 -14 4.5 -20t14.5 -6q9 0 22 4zM326 -193.5q-30 24.5 -30 65.5q0 34 25.5 67.5
t95.5 78.5h82q-67 -65 -87 -88t-20 -38q0 -22 26 -22q28 0 72 25l8 -2l18 -71q-56 -40 -110 -40q-50 0 -80 24.5z" />
    <glyph glyph-name="Wcircumflex" unicode="&#x174;" horiz-adv-x="907" 
d="M701 0h-171l-81 278h-10l-80 -278h-172l-169 645h158l10 -88l93 -392h10l95 326l-40 154h164l14 -104l97 -376h10l109 383l17 97h150zM292 788q76 51 141 110h30q68 -61 142 -110l-28 -63h-15l-45 24q-14 8 -31 17t-37 21l-114 -62h-15z" />
    <glyph glyph-name="wcircumflex" unicode="&#x175;" horiz-adv-x="709" 
d="M164 392l45 -234h8l57 225l17 85h153l9 -76l48 -234h9l54 225l17 85h132l-142 -468h-149l-59 272h-11l-69 -272h-155l-118 465l143 6zM196 587q62 55 150 145h31q67 -70 150 -145l-39 -59h-15q-77 55 -111 86q-32 -27 -111 -86h-16z" />
    <glyph glyph-name="Ycircumflex" unicode="&#x176;" horiz-adv-x="573" 
d="M353 175l7 -175h-162l8 175l-1 35l-206 435h171l15 -48l94 -225h11l106 219l20 54h166l-227 -431zM130 788q76 51 141 110h30q68 -61 142 -110l-28 -63h-15l-45 24q-14 8 -31 17t-37 21l-114 -62h-15z" />
    <glyph glyph-name="ycircumflex" unicode="&#x177;" horiz-adv-x="457" 
d="M161 391l70 -235h9l68 221l18 91h134l-146 -429q-23 -69 -54 -112t-77.5 -70.5t-120.5 -49.5l-11 1q-39 38 -69 94l6 15q57 9 98 28t79 55l-170 465l150 6zM69 587q62 55 150 145h31q67 -70 150 -145l-39 -59h-15q-77 55 -111 86q-32 -27 -111 -86h-16z" />
    <glyph glyph-name="Ydieresis" unicode="&#x178;" horiz-adv-x="573" 
d="M353 175l7 -175h-162l8 175l-1 35l-206 435h171l15 -48l94 -225h11l106 219l20 54h166l-227 -431zM247.5 854.5q18.5 -18.5 18.5 -51.5q0 -35 -20 -55.5t-55 -20.5q-34 0 -51.5 18t-17.5 52q0 35 20 55.5t55 20.5q32 0 50.5 -18.5zM429 854.5q18 -18.5 18 -51.5
q0 -35 -20 -55.5t-54 -20.5t-51.5 18t-17.5 52q0 35 20 55.5t55 20.5q32 0 50 -18.5z" />
    <glyph glyph-name="Zacute" unicode="&#x179;" horiz-adv-x="557" 
d="M522 529l-302 -407h194l114 8l6 -8l-13 -126l-159 4h-246l-87 -5v116l305 412h-184l-114 -9l-6 7l12 126l138 -2h274l68 1v-117zM390 897l40 -95l-5 -13q-98 -36 -225 -75l-14 4l-25 66q111 55 214 116z" />
    <glyph glyph-name="zacute" unicode="&#x17a;" horiz-adv-x="430" 
d="M142 468h201l57 1l1 -94l-211 -275h123l89 7l8 -10l-10 -100l-127 3h-176l-73 -4v93l213 279h-116l-88 -7l-9 10l11 99zM310 736l57 -87l-3 -14q-99 -57 -206 -115l-14 1l-37 60q105 80 189 156z" />
    <glyph glyph-name="Zdotaccent" unicode="&#x17b;" horiz-adv-x="557" 
d="M522 529l-302 -407h194l114 8l6 -8l-13 -126l-159 4h-246l-87 -5v116l305 412h-184l-114 -9l-6 7l12 126l138 -2h274l68 1v-117zM338.5 864q20.5 -21 20.5 -58q0 -40 -23 -63.5t-61 -23.5t-58 21t-20 59q0 39 22.5 62.5t61.5 23.5q37 0 57.5 -21z" />
    <glyph glyph-name="zdotaccent" unicode="&#x17c;" horiz-adv-x="430" 
d="M142 468h201l57 1l1 -94l-211 -275h123l89 7l8 -10l-10 -100l-127 3h-176l-73 -4v93l213 279h-116l-88 -7l-9 10l11 99zM275.5 687q20.5 -21 20.5 -58q0 -40 -23 -63.5t-61 -23.5t-58 21t-20 59q0 39 22.5 62.5t61.5 23.5q37 0 57.5 -21z" />
    <glyph glyph-name="Zcaron" unicode="&#x17d;" horiz-adv-x="557" 
d="M522 529l-302 -407h194l114 8l6 -8l-13 -126l-159 4h-246l-87 -5v116l305 412h-184l-114 -9l-6 7l12 126l138 -2h274l68 1v-117zM435 825q-76 -51 -141 -110h-30q-68 61 -142 110l28 63h15l45 -24q14 -8 31 -17t37 -21l114 62h15z" />
    <glyph glyph-name="zcaron" unicode="&#x17e;" horiz-adv-x="430" 
d="M142 468h201l57 1l1 -94l-211 -275h123l89 7l8 -10l-10 -100l-127 3h-176l-73 -4v93l213 279h-116l-88 -7l-9 10l11 99zM381 670q-62 -55 -150 -145h-31q-67 70 -150 145l39 59h15q77 -55 111 -86q32 27 111 86h16z" />
    <glyph glyph-name="uni018F" unicode="&#x18f;" horiz-adv-x="634" 
d="M461.5 613.5q72.5 -39.5 111 -114t38.5 -176.5t-37.5 -177t-107.5 -115.5t-165 -40.5q-81 0 -142.5 31.5t-95 88.5t-33.5 130q0 33 8 78l21 25l389 3q-6 90 -48.5 132.5t-123.5 42.5q-92 0 -197 -48l-16 11l29 130q97 39 198 39q99 0 171.5 -39.5zM397.5 144
q35.5 35 46.5 103l-256 -5l-2 -20q0 -51 32 -82t86 -31q58 0 93.5 35z" />
    <glyph glyph-name="florin" unicode="&#x192;" horiz-adv-x="334" 
d="M424 614l-22 -106l-11 -6q-46 19 -77 19q-55 0 -64 -57l-10 -74h97l4 -9l-8 -78h-105l-17 -117l-14 -127q-9 -74 -43 -121.5t-107 -88.5l-65 64l2 12q36 26 53.5 55t24.5 75l15 116l14 132h-66l-4 7l9 80h71l6 50q11 88 72 135.5t161 47.5q39 0 84 -9z" />
    <glyph glyph-name="Ohorn" unicode="&#x1a0;" horiz-adv-x="689" 
d="M644.5 599q-27.5 -33 -73.5 -47q59 -81 59 -215q0 -166 -81.5 -257t-230.5 -91q-138 0 -213 84.5t-75 239.5q0 107 37 184t104 117.5t154 40.5q62 0 133 -20q36 -9 50 -9q43 0 43 39q0 37 -36 67l1 12q39 30 73 30t58.5 -29t24.5 -71t-27.5 -75zM407 128.5
q28 18.5 41 60.5t13 114q0 85 -13 133t-41.5 68.5t-78.5 20.5q-47 0 -75 -18.5t-41 -60t-13 -112.5q0 -85 13 -133.5t42 -69.5t78 -21q47 0 75 18.5z" />
    <glyph glyph-name="ohorn" unicode="&#x1a1;" horiz-adv-x="535" 
d="M505 445.5q-33 -36.5 -77 -44.5q44 -59 44 -159q0 -123 -59 -188t-172 -65q-108 0 -163 60t-55 178q0 123 59.5 187t172.5 64q26 0 75 -9q32 -6 43 -6q19 0 30.5 12.5t11.5 33.5q0 30 -31 57l3 12q41 35 78 35q30 0 51.5 -25t21.5 -60q0 -46 -33 -82.5zM306.5 120
q16.5 27 16.5 95q0 60 -7.5 94t-25 48t-47.5 14q-40 0 -56.5 -27t-16.5 -94q0 -61 7.5 -95t25 -48t48.5 -14q39 0 55.5 27z" />
    <glyph glyph-name="Uhorn" unicode="&#x1af;" horiz-adv-x="654" 
d="M659 636q-25 -32 -70 -50l-5 -268l-1 -93q1 -113 -69.5 -174t-200.5 -61q-126 0 -192.5 60t-63.5 172l2 98l-4 325h162l-7 -401q-1 -64 26 -94t84 -30q58 0 85.5 29.5t26.5 90.5l-7 405h77q31 0 45 11.5t14 37.5q0 34 -30 59l3 12q42 31 76 31q31 0 52.5 -25t21.5 -63
q0 -40 -25 -72z" />
    <glyph glyph-name="uhorn" unicode="&#x1b0;" horiz-adv-x="555" 
d="M537 596q22 -24 22 -60q0 -40 -25.5 -73t-65.5 -49l-7 -280q0 -15 4.5 -21t15.5 -6q7 0 22 3l11 -9l-16 -83q-35 -25 -78 -26q-36 1 -58.5 19t-35.5 55h-7q-54 -54 -113 -72q-75 0 -115 34.5t-40 98.5l3 112l-5 219l152 12l-2 -285q-1 -65 52 -65q35 0 69 30v308l51 7
q65 7 65 49q0 31 -30 58l3 12q41 36 77 36q29 0 51 -24z" />
    <glyph glyph-name="uni01C4" unicode="&#x1c4;" horiz-adv-x="1216" 
d="M560 571.5q75 -77.5 75 -223.5q0 -172 -86 -264t-246 -92q-92 0 -232 8h-1l9 191l-9 454h1l272 4q142 0 217 -77.5zM466 309q0 114 -32 163t-104 49q-53 0 -97 -4l-6 -310l2 -84q59 -8 104 -8q133 0 133 194zM1181 529l-302 -407h194l114 8l6 -8l-13 -126l-159 4h-246
l-87 -5v116l305 412h-184l-114 -9l-6 7l12 126l138 -2h274l68 1v-117zM1094 825q-76 -51 -141 -110h-30q-68 61 -142 110l28 63h15l45 -24q14 -8 31 -17t37 -21l114 62h15z" />
    <glyph glyph-name="uni01C5" unicode="&#x1c5;" horiz-adv-x="1089" 
d="M560 571.5q75 -77.5 75 -223.5q0 -172 -86 -264t-246 -92q-92 0 -232 8h-1l9 191l-9 454h1l272 4q142 0 217 -77.5zM466 309q0 114 -32 163t-104 49q-53 0 -97 -4l-6 -310l2 -84q59 -8 104 -8q133 0 133 194zM801 468h201l57 1l1 -94l-211 -275h123l89 7l8 -10l-10 -100
l-127 3h-176l-73 -4v93l213 279h-116l-88 -7l-9 10l11 99zM1040 670q-62 -55 -150 -145h-31q-67 70 -150 145l39 59h15q77 -55 111 -86q32 27 111 86h16z" />
    <glyph glyph-name="uni01C6" unicode="&#x1c6;" horiz-adv-x="960" 
d="M462 207l2 -74q0 -15 4 -21t14 -6q9 0 22 4l11 -9l-14 -83q-33 -23 -81 -27q-32 3 -54.5 21t-32.5 49h-8q-41 -41 -97 -69q-97 0 -151 63t-54 174q0 120 63.5 183.5t175.5 63.5q29 0 53 -5l-2 220l157 11zM192 344.5q-21 -25.5 -21 -84.5q0 -76 20 -112t60 -36
q35 0 67 33l1 47l-2 163q-33 15 -62 15q-42 0 -63 -25.5zM672 468h201l57 1l1 -94l-211 -275h123l89 7l8 -10l-10 -100l-127 3h-176l-73 -4v93l213 279h-116l-88 -7l-9 10l11 99zM911 670q-62 -55 -150 -145h-31q-67 70 -150 145l39 59h15q77 -55 111 -86q32 27 111 86h16z
" />
    <glyph glyph-name="uni01C7" unicode="&#x1c7;" horiz-adv-x="774" 
d="M440 121l-11 -121h-363l9 191l-9 454h165l-9 -438l3 -74h205zM696 213l2 -91q0 -59 -19.5 -100.5t-64.5 -72.5t-124 -58l-46 85v14q58 29 81 59t23 77v71l-6 332l-97 -3l-10 11l7 108h263z" />
    <glyph glyph-name="uni01C8" unicode="&#x1c8;" horiz-adv-x="735" 
d="M440 121l-11 -121h-363l9 191l-9 454h165l-9 -438l3 -74h205zM679 468l-9 -261l7 -177q0 -79 -41.5 -133t-132.5 -93l-54 70v14q41 22 59.5 55t18.5 83v165l-4 179h-73l-9 9l7 85h79l147 7zM647.5 687q20.5 -21 20.5 -58q0 -40 -23 -63.5t-61 -23.5t-58 21t-20 59
q0 39 22.5 62.5t61.5 23.5q37 0 57.5 -21z" />
    <glyph glyph-name="uni01C9" unicode="&#x1c9;" horiz-adv-x="565" 
d="M207 207l7 -207h-158l8 192l-6 499l157 11zM509 468l-9 -261l7 -177q0 -79 -41.5 -133t-132.5 -93l-54 70v14q41 22 59.5 55t18.5 83v165l-4 179h-73l-9 9l7 85h79l147 7zM477.5 687q20.5 -21 20.5 -58q0 -40 -23 -63.5t-61 -23.5t-58 21t-20 59q0 39 22.5 62.5
t61.5 23.5q37 0 57.5 -21z" />
    <glyph glyph-name="uni01CA" unicode="&#x1ca;" horiz-adv-x="1047" 
d="M622 204l6 -204h-176l-229 399h-10l-1 -172l6 -227h-147l8 190l-8 455h175l230 -399h10l-4 393l149 9zM969 213l2 -91q0 -59 -19.5 -100.5t-64.5 -72.5t-124 -58l-46 85v14q58 29 81 59t23 77v71l-6 332l-97 -3l-10 11l7 108h263z" />
    <glyph glyph-name="uni01CB" unicode="&#x1cb;" horiz-adv-x="995" 
d="M622 204l6 -204h-176l-229 399h-10l-1 -172l6 -227h-147l8 190l-8 455h175l230 -399h10l-4 393l149 9zM939 468l-9 -261l7 -177q0 -79 -41.5 -133t-132.5 -93l-54 70v14q41 22 59.5 55t18.5 83v165l-4 179h-73l-9 9l7 85h79l147 7zM907.5 687q20.5 -21 20.5 -58
q0 -40 -23 -63.5t-61 -23.5t-58 21t-20 59q0 39 22.5 62.5t61.5 23.5q37 0 57.5 -21z" />
    <glyph glyph-name="uni01CC" unicode="&#x1cc;" horiz-adv-x="829" 
d="M336 279q2 69 -56 69q-35 0 -76 -30v-111l7 -207h-158l7 191l-6 267l151 12v-69h6q54 51 120 73q75 0 114.5 -34.5t38.5 -98.5l-4 -134l6 -207h-158zM773 468l-9 -261l7 -177q0 -79 -41.5 -133t-132.5 -93l-54 70v14q41 22 59.5 55t18.5 83v165l-4 179h-73l-9 9l7 85h79
l147 7zM741.5 687q20.5 -21 20.5 -58q0 -40 -23 -63.5t-61 -23.5t-58 21t-20 59q0 39 22.5 62.5t61.5 23.5q37 0 57.5 -21z" />
    <glyph glyph-name="uni01CD" unicode="&#x1cd;" horiz-adv-x="611" 
d="M598 0h-165l-17 93l-9 37l-116 2l-100 -3l-8 -26l-18 -103h-159l208 645h195zM376 252l-63 245h-10l-75 -245l74 -2zM464 825q-76 -51 -141 -110h-30q-68 61 -142 110l28 63h15l45 -24q14 -8 31 -17t37 -21l114 62h15z" />
    <glyph glyph-name="uni01CE" unicode="&#x1ce;" horiz-adv-x="490" 
d="M379 442.5q46 -35.5 46 -101.5q0 -23 -2 -53t-3 -57q-5 -72 -5 -99q0 -14 4.5 -20t15.5 -6q9 0 22 4l11 -9l-14 -83q-33 -23 -81 -27q-30 3 -51 21t-30 51h-7q-50 -53 -102 -73q-74 1 -116.5 40t-42.5 106q0 103 108 121l148 25v29q0 31 -13.5 44.5t-43.5 13.5t-64.5 -13
t-79.5 -41l-10 7l-18 103q45 25 97 39t102 14q83 0 129 -35.5zM194 191q-15 -3 -22.5 -12t-7.5 -27q0 -24 12.5 -37t34.5 -13q32 0 68 34l1 72zM405 670q-62 -55 -150 -145h-31q-67 70 -150 145l39 59h15q77 -55 111 -86q32 27 111 86h16z" />
    <glyph glyph-name="uni01CF" unicode="&#x1cf;" horiz-adv-x="308" 
d="M227 207l6 -207h-163l9 191l-9 454h166zM310 825q-76 -51 -141 -110h-30q-68 61 -142 110l28 63h15l45 -24q14 -8 31 -17t37 -21l114 62h15z" />
    <glyph glyph-name="uni01D0" unicode="&#x1d0;" horiz-adv-x="271" 
d="M62 191l-5 267l157 12l-7 -263l6 -207h-158zM300 670q-62 -55 -150 -145h-31q-67 70 -150 145l39 59h15q77 -55 111 -86q32 27 111 86h16z" />
    <glyph glyph-name="uni01D1" unicode="&#x1d1;" horiz-adv-x="647" 
d="M549 572.5q75 -82.5 75 -234.5q0 -166 -82 -257.5t-231 -91.5q-137 0 -212 84.5t-75 239.5q0 164 81.5 253t230.5 89q138 0 213 -82.5zM247 506.5q-28 -18.5 -41 -60t-13 -112.5q0 -85 13 -133.5t41.5 -69.5t77.5 -21q48 0 76 18.5t40.5 60.5t12.5 115q0 84 -13 132
t-41 68.5t-78 20.5q-47 0 -75 -18.5zM481 825q-76 -51 -141 -110h-30q-68 61 -142 110l28 63h15l45 -24q14 -8 31 -17t37 -21l114 62h15z" />
    <glyph glyph-name="uni01D2" unicode="&#x1d2;" horiz-adv-x="495" 
d="M416.5 418q55.5 -60 55.5 -175q0 -124 -59.5 -189t-172.5 -65q-106 0 -161.5 60t-55.5 174q0 124 59.5 189.5t172.5 65.5q106 0 161.5 -60zM187.5 344.5q-16.5 -26.5 -16.5 -92.5q0 -61 7.5 -95.5t25 -49t47.5 -14.5q39 0 55.5 26.5t16.5 93.5q0 89 -17.5 123.5
t-61.5 34.5q-40 0 -56.5 -26.5zM415 670q-62 -55 -150 -145h-31q-67 70 -150 145l39 59h15q77 -55 111 -86q32 27 111 86h16z" />
    <glyph glyph-name="uni01D3" unicode="&#x1d3;" horiz-adv-x="644" 
d="M584 318l-1 -93q1 -113 -69.5 -174t-200.5 -61q-126 0 -192.5 60t-63.5 172l2 98l-4 325h162l-7 -401q-1 -64 26 -94t84 -30q58 0 85.5 29.5t26.5 90.5l-7 405h165zM480 825q-76 -51 -141 -110h-30q-68 61 -142 110l28 63h15l45 -24q14 -8 31 -17t37 -21l114 62h15z" />
    <glyph glyph-name="uni01D4" unicode="&#x1d4;" horiz-adv-x="528" 
d="M513 101l-14 -83q-42 -27 -86 -27q-58 12 -80 79h-10q-58 -58 -117 -76q-75 0 -115 34.5t-40 98.5l3 112l-5 219l152 12l-2 -285q-1 -65 52 -65q18 0 34 7t35 23v308l150 12l-9 -338q0 -14 4.5 -20t14.5 -6q9 0 22 4zM426 670q-62 -55 -150 -145h-31q-67 70 -150 145
l39 59h15q77 -55 111 -86q32 27 111 86h16z" />
    <glyph glyph-name="uni01D5" unicode="&#x1d5;" horiz-adv-x="644" 
d="M584 318l-1 -93q1 -113 -69.5 -174t-200.5 -61q-126 0 -192.5 60t-63.5 172l2 98l-4 325h162l-7 -401q-1 -64 26 -94t84 -30q58 0 85.5 29.5t26.5 90.5l-7 405h165zM474 993l-8 -88h-281l-11 11l8 88h282zM285.5 834q17.5 -18 17.5 -51q0 -35 -19.5 -55t-53.5 -20
q-33 0 -51 18t-18 51q0 35 20 55t55 20q32 0 49.5 -18zM467 834q18 -18 18 -51q0 -35 -19.5 -55t-53.5 -20q-33 0 -51 18t-18 51q0 34 20 54.5t54 20.5q32 0 50 -18z" />
    <glyph glyph-name="uni01D6" unicode="&#x1d6;" horiz-adv-x="528" 
d="M513 101l-14 -83q-42 -27 -86 -27q-58 12 -80 79h-10q-58 -58 -117 -76q-75 0 -115 34.5t-40 98.5l3 112l-5 219l152 12l-2 -285q-1 -65 52 -65q18 0 34 7t35 23v308l150 12l-9 -338q0 -14 4.5 -20t14.5 -6q9 0 22 4zM411 816l-8 -88h-281l-11 11l8 88h282zM222.5 657
q17.5 -18 17.5 -51q0 -35 -19.5 -55t-53.5 -20q-33 0 -51 18t-18 51q0 35 20 55t55 20q32 0 49.5 -18zM404 657q18 -18 18 -51q0 -35 -19.5 -55t-53.5 -20q-33 0 -51 18t-18 51q0 34 20 54.5t54 20.5q32 0 50 -18z" />
    <glyph glyph-name="uni01D7" unicode="&#x1d7;" horiz-adv-x="644" 
d="M584 318l-1 -93q1 -113 -69.5 -174t-200.5 -61q-126 0 -192.5 60t-63.5 172l2 98l-4 325h162l-7 -401q-1 -64 26 -94t84 -30q58 0 85.5 29.5t26.5 90.5l-7 405h165zM430 1042l23 -100l-7 -13q-136 -23 -234 -33l-13 6l-14 69q112 33 232 77zM285.5 834q17.5 -18 17.5 -51
q0 -35 -19.5 -55t-53.5 -20q-33 0 -51 18t-18 51q0 35 20 55t55 20q32 0 49.5 -18zM467 834q18 -18 18 -51q0 -35 -19.5 -55t-53.5 -20q-33 0 -51 18t-18 51q0 34 20 54.5t54 20.5q32 0 50 -18z" />
    <glyph glyph-name="uni01D8" unicode="&#x1d8;" horiz-adv-x="528" 
d="M513 101l-14 -83q-42 -27 -86 -27q-58 12 -80 79h-10q-58 -58 -117 -76q-75 0 -115 34.5t-40 98.5l3 112l-5 219l152 12l-2 -285q-1 -65 52 -65q18 0 34 7t35 23v308l150 12l-9 -338q0 -14 4.5 -20t14.5 -6q9 0 22 4zM367 863l23 -100l-8 -13q-129 -22 -233 -34l-14 7
l-14 69q107 31 232 77zM221.5 657q17.5 -18 17.5 -51q0 -35 -19 -55t-53 -20t-51.5 18t-17.5 51q0 35 20 55t54 20q32 0 49.5 -18zM403.5 657q17.5 -18 17.5 -51q0 -35 -19.5 -55t-53.5 -20q-33 0 -50.5 18t-17.5 51q0 35 20 55t54 20q32 0 49.5 -18z" />
    <glyph glyph-name="uni01D9" unicode="&#x1d9;" horiz-adv-x="644" 
d="M584 318l-1 -93q1 -113 -69.5 -174t-200.5 -61q-126 0 -192.5 60t-63.5 172l2 98l-4 325h162l-7 -401q-1 -64 26 -94t84 -30q58 0 85.5 29.5t26.5 90.5l-7 405h165zM479 972q-75 -52 -141 -110h-30q-70 60 -142 110l28 62h15q52 -27 113 -62q76 42 114 62h15zM285.5 834
q17.5 -18 17.5 -51q0 -35 -19.5 -55t-53.5 -20q-33 0 -51 18t-18 51q0 35 20 55t55 20q32 0 49.5 -18zM467 834q18 -18 18 -51q0 -35 -19.5 -55t-53.5 -20q-33 0 -51 18t-18 51q0 34 20 54.5t54 20.5q32 0 50 -18z" />
    <glyph glyph-name="uni01DA" unicode="&#x1da;" horiz-adv-x="528" 
d="M513 101l-14 -83q-42 -27 -86 -27q-58 12 -80 79h-10q-58 -58 -117 -76q-75 0 -115 34.5t-40 98.5l3 112l-5 219l152 12l-2 -285q-1 -65 52 -65q18 0 34 7t35 23v308l150 12l-9 -338q0 -14 4.5 -20t14.5 -6q9 0 22 4zM416 795q-75 -52 -141 -110h-30q-70 60 -142 110
l28 62h15q52 -27 113 -62q76 42 114 62h15zM222.5 657q17.5 -18 17.5 -51q0 -35 -19.5 -55t-53.5 -20q-33 0 -51 18t-18 51q0 35 20 55t55 20q32 0 49.5 -18zM404 657q18 -18 18 -51q0 -35 -19.5 -55t-53.5 -20q-33 0 -51 18t-18 51q0 34 20 54.5t54 20.5q32 0 50 -18z" />
    <glyph glyph-name="uni01DB" unicode="&#x1db;" horiz-adv-x="644" 
d="M584 318l-1 -93q1 -113 -69.5 -174t-200.5 -61q-126 0 -192.5 60t-63.5 172l2 98l-4 325h162l-7 -401q-1 -64 26 -94t84 -30q58 0 85.5 29.5t26.5 90.5l-7 405h165zM453 971l-13 -69l-14 -6q-102 11 -233 33l-8 13l23 100l14 6q124 -46 231 -77zM285.5 834
q17.5 -18 17.5 -51q0 -35 -19.5 -55t-53.5 -20q-33 0 -51 18t-18 51q0 35 20 55t55 20q32 0 49.5 -18zM467 834q18 -18 18 -51q0 -35 -19.5 -55t-53.5 -20q-33 0 -51 18t-18 51q0 34 20 54.5t54 20.5q32 0 50 -18z" />
    <glyph glyph-name="uni01DC" unicode="&#x1dc;" horiz-adv-x="528" 
d="M513 101l-14 -83q-42 -27 -86 -27q-58 12 -80 79h-10q-58 -58 -117 -76q-75 0 -115 34.5t-40 98.5l3 112l-5 219l152 12l-2 -285q-1 -65 52 -65q18 0 34 7t35 23v308l150 12l-9 -338q0 -14 4.5 -20t14.5 -6q9 0 22 4zM130 750l-8 13l23 100l14 6q124 -46 231 -77l-13 -69
l-14 -7q-109 13 -233 34zM116 549q-18 18 -18 51q0 35 20 55t55 20q32 0 49.5 -18t17.5 -51q0 -35 -19.5 -55t-53.5 -20q-33 0 -51 18zM298 549q-18 18 -18 51q0 34 20 54.5t54 20.5q32 0 50 -18t18 -51q0 -35 -19.5 -55t-53.5 -20q-33 0 -51 18z" />
    <glyph glyph-name="Gcaron" unicode="&#x1e6;" horiz-adv-x="597" 
d="M559 619l-34 -145h-14q-49 27 -87.5 38.5t-81.5 11.5q-54 0 -86 -19.5t-47.5 -64.5t-15.5 -123q0 -77 15 -120.5t47.5 -62.5t89.5 -19q28 0 65 10l1 45l-3 105l149 11l-2 -89l1 -165q-119 -42 -225 -42q-153 0 -230 82.5t-77 236.5q0 168 90 256.5t258 88.5
q108 0 187 -35zM484 825q-76 -51 -141 -110h-30q-68 61 -142 110l28 63h15l45 -24q14 -8 31 -17t37 -21l114 62h15z" />
    <glyph glyph-name="gcaron" unicode="&#x1e7;" horiz-adv-x="507" 
d="M448 383l-2 -4q13 -26 13 -60q0 -76 -57 -121t-155 -45q-33 0 -57 4q-10 -11 -10 -20q0 -17 22 -23t74 -12q62 -7 101.5 -16.5t69 -36.5t29.5 -76t-29.5 -87.5t-83 -60t-123.5 -21.5q-95 0 -147 37t-52 99q34 41 81 70v5q-33 13 -51.5 36t-18.5 60q35 38 71 61v6
q-38 19 -57.5 52t-19.5 78q0 78 57 123t155 45q56 0 104 -19q74 15 146 43l11 -9v-97q-32 -8 -71 -11zM323 315q0 34 -16.5 49.5t-51.5 15.5q-38 0 -55.5 -15.5t-17.5 -48.5q0 -36 17 -53.5t52 -17.5q72 0 72 70zM316.5 -22q-27.5 9 -85.5 16l-30 3q-34 -25 -34 -51
q0 -25 22.5 -39.5t65.5 -14.5q42 0 65.5 13t23.5 40q0 24 -27.5 33zM423 662q-62 -55 -150 -145h-31q-67 70 -150 145l39 59h15q77 -55 111 -86q32 27 111 86h16z" />
    <glyph glyph-name="uni01EA" unicode="&#x1ea;" horiz-adv-x="647" 
d="M549 572.5q75 -82.5 75 -234.5q0 -166 -82 -257.5t-231 -91.5q-137 0 -212 84.5t-75 239.5q0 164 81.5 253t230.5 89q138 0 213 -82.5zM247 506.5q-28 -18.5 -41 -60t-13 -112.5q0 -85 13 -133.5t41.5 -69.5t77.5 -21q48 0 76 18.5t40.5 60.5t12.5 115q0 84 -13 132
t-41 68.5t-78 20.5q-47 0 -75 -18.5zM311 -171.5q-30 24.5 -30 65.5q0 34 25.5 67.5t95.5 78.5h82q-67 -65 -87 -88t-20 -38q0 -22 26 -22q28 0 72 25l8 -2l18 -71q-56 -40 -110 -40q-50 0 -80 24.5z" />
    <glyph glyph-name="uni01EB" unicode="&#x1eb;" horiz-adv-x="495" 
d="M416.5 418q55.5 -60 55.5 -175q0 -124 -59.5 -189t-172.5 -65q-106 0 -161.5 60t-55.5 174q0 124 59.5 189.5t172.5 65.5q106 0 161.5 -60zM187.5 344.5q-16.5 -26.5 -16.5 -92.5q0 -61 7.5 -95.5t25 -49t47.5 -14.5q39 0 55.5 26.5t16.5 93.5q0 89 -17.5 123.5
t-61.5 34.5q-40 0 -56.5 -26.5zM218 -168.5q-30 24.5 -30 65.5q0 34 25.5 67.5t95.5 78.5h82q-67 -65 -87 -88t-20 -38q0 -22 26 -22q28 0 72 25l8 -2l18 -71q-56 -40 -110 -40q-50 0 -80 24.5z" />
    <glyph glyph-name="Aringacute" unicode="&#x1fa;" horiz-adv-x="611" 
d="M217 801l-16 68q107 35 229 84l14 -5l26 -100l-7 -12q-121 -25 -233 -41zM598 0h-165l-17 90l-10 37l-115 2l-100 -3l-8 -26l-18 -100h-159l216 626q-11 24 -11 54q0 50 26.5 76t77.5 26q49 0 74 -25t25 -72q0 -35 -13 -57zM282.5 708q-8.5 -8 -8.5 -26q0 -37 39 -37
q38 0 38 35q0 36 -40 36q-20 0 -28.5 -8zM375 245l-62 238h-10l-75 -238l74 -1z" />
    <glyph glyph-name="aringacute" unicode="&#x1fb;" horiz-adv-x="490" 
d="M379 442.5q46 -35.5 46 -101.5q0 -23 -2 -53t-3 -57q-5 -72 -5 -99q0 -14 4.5 -20t15.5 -6q9 0 22 4l11 -9l-14 -83q-33 -23 -81 -27q-30 3 -51 21t-30 51h-7q-50 -53 -102 -73q-74 1 -116.5 40t-42.5 106q0 103 108 121l148 25v29q0 31 -13.5 44.5t-43.5 13.5t-64.5 -13
t-79.5 -41l-10 7l-18 103q45 25 97 39t102 14q83 0 129 -35.5zM194 191q-15 -3 -22.5 -12t-7.5 -27q0 -24 12.5 -37t34.5 -13q32 0 68 34l1 72zM317 711q25 -25 25 -71q0 -50 -27.5 -77.5t-77.5 -27.5q-48 0 -73.5 25.5t-25.5 73.5q0 50 27 76t78 26q49 0 74 -25zM211 662.5
q-9 -8.5 -9 -25.5q0 -20 9.5 -29t29.5 -9q19 0 28 8.5t9 26.5q0 19 -9 28t-30 9q-19 0 -28 -8.5zM372.497 901.828l25.6533 -99.8047l-6.84766 -12.125q-102.187 -21.2578 -233.491 -41.2393l-13.2598 6.00488l-15.0645 68.9297q117.824 38.1465 228.614 83.3975z" />
    <glyph glyph-name="AEacute" unicode="&#x1fc;" horiz-adv-x="830" 
d="M825 120l-11 -120h-408l-5 93l-12 109l-197 -56l-19 -43l-32 -103h-160l296 645h473l10 -12l-12 -120l-153 6h-82l16 -153l184 51l11 -9l14 -113l-197 -51l12 -118h98l164 6zM376 323l-19 174h-10l-92 -208zM616 897l40 -95l-5 -13q-98 -36 -225 -75l-14 4l-25 66
q111 55 214 116z" />
    <glyph glyph-name="aeacute" unicode="&#x1fd;" horiz-adv-x="701" 
d="M627.5 426q48.5 -51 48.5 -144q0 -20 -1 -30l-14 -18l-258 -24q5 -55 31 -80t79 -25q29 0 64 8t68 23l13 -8l-24 -113q-31 -12 -67 -19t-68 -7q-121 0 -178 81q-54 -54 -119 -80q-81 1 -130 38t-49 105q0 50 27.5 84.5t80.5 38.5l144 13v42q0 30 -13 44t-43 14
q-28 0 -62.5 -13t-79.5 -41l-11 6l-18 104q43 25 93 39t98 14q83 0 123 -46q53 45 132 45q85 0 133.5 -51zM425 348q-23 -26 -23 -66l135 16q6 76 -54 76q-35 0 -58 -26zM242.5 111.5q16.5 8.5 42.5 29.5q-6 31 -9 55l-78 -10q-18 -3 -25.5 -12t-7.5 -26q0 -21 11.5 -33
t33.5 -12q16 0 32.5 8.5zM448 736l57 -87l-3 -14q-99 -57 -206 -115l-14 1l-37 60q105 80 189 156z" />
    <glyph glyph-name="Oslashacute" unicode="&#x1fe;" horiz-adv-x="647" 
d="M599 490q25 -65 25 -152q0 -166 -82 -257.5t-231 -91.5q-38 0 -75 8l-60 -124l-101 37l-7 14l59 123q-50 41 -76.5 108.5t-26.5 157.5q0 164 81.5 253t230.5 89q44 0 81 -9l56 115l98 -37l10 -16l-56 -113q49 -40 74 -105zM401 128.5q28 18.5 40.5 60.5t12.5 115
q0 84 -13 132t-41 68.5t-78 20.5q-47 0 -75 -18.5t-41 -60t-13 -112.5q0 -85 13 -133.5t41.5 -69.5t77.5 -21q48 0 76 18.5zM436 899l40 -95l-5 -13q-98 -36 -225 -75l-14 4l-25 66q111 55 214 116z" />
    <glyph glyph-name="oslashacute" unicode="&#x1ff;" horiz-adv-x="495" 
d="M417 418q55 -61 55 -175q0 -124 -59.5 -189t-172.5 -65q-37 0 -65 7l-73 -125l-90 45l-3 13l69 120q-55 61 -55 174q0 124 59.5 189.5t172.5 65.5q38 0 65 -7l64 109l86 -43l7 -15zM306.5 119.5q16.5 26.5 16.5 93.5q0 89 -17.5 123.5t-61.5 34.5q-40 0 -56.5 -26.5
t-16.5 -92.5q0 -61 7.5 -95.5t25 -49t47.5 -14.5q39 0 55.5 26.5zM343 736l57 -87l-3 -14q-99 -57 -206 -115l-14 1l-37 60q105 80 189 156z" />
    <glyph glyph-name="uni0200" unicode="&#x200;" horiz-adv-x="611" 
d="M598 0h-165l-17 93l-9 37l-116 2l-100 -3l-8 -26l-18 -103h-159l208 645h195zM376 252l-63 245h-10l-75 -245l74 -2zM241 713l-12 4q-73 63 -128 118l2 12l74 48l11 -3q25 -35 45 -62t34 -47l23 -31zM402 713l-14 4q-77 68 -127 118l3 12l73 48l12 -3q32 -48 102 -140z
" />
    <glyph glyph-name="uni0201" unicode="&#x201;" horiz-adv-x="490" 
d="M379 442.5q46 -35.5 46 -101.5q0 -23 -2 -53t-3 -57q-5 -72 -5 -99q0 -14 4.5 -20t15.5 -6q9 0 22 4l11 -9l-14 -83q-33 -23 -81 -27q-30 3 -51 21t-30 51h-7q-50 -53 -102 -73q-74 1 -116.5 40t-42.5 106q0 103 108 121l148 25v29q0 31 -13.5 44.5t-43.5 13.5t-64.5 -13
t-79.5 -41l-10 7l-18 103q45 25 97 39t102 14q83 0 129 -35.5zM194 191q-15 -3 -22.5 -12t-7.5 -27q0 -24 12.5 -37t34.5 -13q32 0 68 34l1 72zM129 739l-11 3l-73 -51l-3 -12q60 -69 145 -154l13 -4l48 39q-72 104 -119 179zM286 739l-11 3l-73 -51l-2 -12q60 -69 145 -154
l13 -4l48 39q-55 77 -120 179z" />
    <glyph glyph-name="uni0202" unicode="&#x202;" horiz-adv-x="611" 
d="M598 0h-165l-17 93l-9 37l-116 2l-100 -3l-8 -26l-18 -103h-159l208 645h195zM376 252l-63 245h-10l-75 -245l74 -2zM145 778q16 57 58 93.5t108 36.5q65 0 104 -37t53 -93l-37 -51h-22q-13 33 -40.5 51.5t-62.5 18.5t-62 -18.5t-40 -51.5h-21z" />
    <glyph glyph-name="uni0203" unicode="&#x203;" horiz-adv-x="490" 
d="M379 442.5q46 -35.5 46 -101.5q0 -23 -2 -53t-3 -57q-5 -72 -5 -99q0 -14 4.5 -20t15.5 -6q9 0 22 4l11 -9l-14 -83q-33 -23 -81 -27q-30 3 -51 21t-30 51h-7q-50 -53 -102 -73q-74 1 -116.5 40t-42.5 106q0 103 108 121l148 25v29q0 31 -13.5 44.5t-43.5 13.5t-64.5 -13
t-79.5 -41l-10 7l-18 103q45 25 97 39t102 14q83 0 129 -35.5zM194 191q-15 -3 -22.5 -12t-7.5 -27q0 -24 12.5 -37t34.5 -13q32 0 68 34l1 72zM77 601q16 57 58 93.5t108 36.5q65 0 104 -37t53 -93l-37 -51h-22q-13 33 -40.5 51.5t-62.5 18.5t-62 -18.5t-40 -51.5h-21z" />
    <glyph glyph-name="uni0204" unicode="&#x204;" horiz-adv-x="522" 
d="M497 132l9 -12l-10 -120h-426l9 191l-9 454h432l9 -12l-11 -120l-157 6l-110 -1l-2 -129h105l105 3l9 -12l-10 -120l-115 3h-97l-1 -56l2 -80l106 -1zM220 713l-12 4q-73 63 -128 118l2 12l74 48l11 -3q25 -35 45 -62t34 -47l23 -31zM381 713l-14 4q-77 68 -127 118l3 12
l73 48l12 -3q32 -48 102 -140z" />
    <glyph glyph-name="uni0205" unicode="&#x205;" horiz-adv-x="477" 
d="M430 208l-262 -2q7 -52 36 -77t82 -25t140 31l12 -8l-24 -113q-80 -25 -145 -25q-115 0 -180.5 65t-65.5 179t63 179.5t171 65.5q93 0 144.5 -50t51.5 -139q0 -29 -6 -61zM316 306q0 69 -60 69q-34 0 -56 -22.5t-30 -64.5l144 4zM138 738l-11 3l-73 -51l-3 -12
q60 -69 145 -154l13 -4l48 39q-72 104 -119 179zM295 738l-11 3l-73 -51l-2 -12q60 -69 145 -154l13 -4l48 39q-55 77 -120 179z" />
    <glyph glyph-name="uni0206" unicode="&#x206;" horiz-adv-x="522" 
d="M497 132l9 -12l-10 -120h-426l9 191l-9 454h432l9 -12l-11 -120l-157 6l-110 -1l-2 -129h105l105 3l9 -12l-10 -120l-115 3h-97l-1 -56l2 -80l106 -1zM124 778q16 57 58 93.5t108 36.5q65 0 104 -37t53 -93l-37 -51h-22q-13 33 -40.5 51.5t-62.5 18.5t-62 -18.5
t-40 -51.5h-21z" />
    <glyph glyph-name="uni0207" unicode="&#x207;" horiz-adv-x="477" 
d="M430 208l-262 -2q7 -52 36 -77t82 -25t140 31l12 -8l-24 -113q-80 -25 -145 -25q-115 0 -180.5 65t-65.5 179t63 179.5t171 65.5q93 0 144.5 -50t51.5 -139q0 -29 -6 -61zM316 306q0 69 -60 69q-34 0 -56 -22.5t-30 -64.5l144 4zM86 600q16 57 58 93.5t108 36.5
q65 0 104 -37t53 -93l-37 -51h-22q-13 33 -40.5 51.5t-62.5 18.5t-62 -18.5t-40 -51.5h-21z" />
    <glyph glyph-name="uni0208" unicode="&#x208;" horiz-adv-x="308" 
d="M227 207l6 -207h-163l9 191l-9 454h166zM87 713l-12 4q-73 63 -128 118l2 12l74 48l11 -3q25 -35 45 -62t34 -47l23 -31zM248 713l-14 4q-77 68 -127 118l3 12l73 48l12 -3q32 -48 102 -140z" />
    <glyph glyph-name="uni0209" unicode="&#x209;" horiz-adv-x="271" 
d="M62 191l-5 267l157 12l-7 -263l6 -207h-158zM24 739l-11 3l-73 -51l-3 -12q60 -69 145 -154l13 -4l48 39q-72 104 -119 179zM181 739l-11 3l-73 -51l-2 -12q60 -69 145 -154l13 -4l48 39q-55 77 -120 179z" />
    <glyph glyph-name="uni020A" unicode="&#x20a;" horiz-adv-x="308" 
d="M227 207l6 -207h-163l9 191l-9 454h166zM-9 778q16 57 58 93.5t108 36.5q65 0 104 -37t53 -93l-37 -51h-22q-13 33 -40.5 51.5t-62.5 18.5t-62 -18.5t-40 -51.5h-21z" />
    <glyph glyph-name="uni020B" unicode="&#x20b;" horiz-adv-x="271" 
d="M62 191l-5 267l157 12l-7 -263l6 -207h-158zM-28 601q16 57 58 93.5t108 36.5q65 0 104 -37t53 -93l-37 -51h-22q-13 33 -40.5 51.5t-62.5 18.5t-62 -18.5t-40 -51.5h-21z" />
    <glyph glyph-name="uni020C" unicode="&#x20c;" horiz-adv-x="647" 
d="M549 572.5q75 -82.5 75 -234.5q0 -166 -82 -257.5t-231 -91.5q-137 0 -212 84.5t-75 239.5q0 164 81.5 253t230.5 89q138 0 213 -82.5zM247 506.5q-28 -18.5 -41 -60t-13 -112.5q0 -85 13 -133.5t41.5 -69.5t77.5 -21q48 0 76 18.5t40.5 60.5t12.5 115q0 84 -13 132
t-41 68.5t-78 20.5q-47 0 -75 -18.5zM258 713l-12 4q-73 63 -128 118l2 12l74 48l11 -3q25 -35 45 -62t34 -47l23 -31zM419 713l-14 4q-77 68 -127 118l3 12l73 48l12 -3q32 -48 102 -140z" />
    <glyph glyph-name="uni020D" unicode="&#x20d;" horiz-adv-x="495" 
d="M416.5 418q55.5 -60 55.5 -175q0 -124 -59.5 -189t-172.5 -65q-106 0 -161.5 60t-55.5 174q0 124 59.5 189.5t172.5 65.5q106 0 161.5 -60zM187.5 344.5q-16.5 -26.5 -16.5 -92.5q0 -61 7.5 -95.5t25 -49t47.5 -14.5q39 0 55.5 26.5t16.5 93.5q0 89 -17.5 123.5
t-61.5 34.5q-40 0 -56.5 -26.5zM139 739l-11 3l-73 -51l-3 -12q60 -69 145 -154l13 -4l48 39q-72 104 -119 179zM296 739l-11 3l-73 -51l-2 -12q60 -69 145 -154l13 -4l48 39q-55 77 -120 179z" />
    <glyph glyph-name="uni020E" unicode="&#x20e;" horiz-adv-x="647" 
d="M549 572.5q75 -82.5 75 -234.5q0 -166 -82 -257.5t-231 -91.5q-137 0 -212 84.5t-75 239.5q0 164 81.5 253t230.5 89q138 0 213 -82.5zM247 506.5q-28 -18.5 -41 -60t-13 -112.5q0 -85 13 -133.5t41.5 -69.5t77.5 -21q48 0 76 18.5t40.5 60.5t12.5 115q0 84 -13 132
t-41 68.5t-78 20.5q-47 0 -75 -18.5zM162 778q16 57 58 93.5t108 36.5q65 0 104 -37t53 -93l-37 -51h-22q-13 33 -40.5 51.5t-62.5 18.5t-62 -18.5t-40 -51.5h-21z" />
    <glyph glyph-name="uni020F" unicode="&#x20f;" horiz-adv-x="495" 
d="M416.5 418q55.5 -60 55.5 -175q0 -124 -59.5 -189t-172.5 -65q-106 0 -161.5 60t-55.5 174q0 124 59.5 189.5t172.5 65.5q106 0 161.5 -60zM187.5 344.5q-16.5 -26.5 -16.5 -92.5q0 -61 7.5 -95.5t25 -49t47.5 -14.5q39 0 55.5 26.5t16.5 93.5q0 89 -17.5 123.5
t-61.5 34.5q-40 0 -56.5 -26.5zM87 601q16 57 58 93.5t108 36.5q65 0 104 -37t53 -93l-37 -51h-22q-13 33 -40.5 51.5t-62.5 18.5t-62 -18.5t-40 -51.5h-21z" />
    <glyph glyph-name="uni0210" unicode="&#x210;" horiz-adv-x="607" 
d="M595 38l-2 -18q-76 -25 -161 -31l-16 13q-60 112 -104 205h-85l6 -207h-163l9 191l-9 454l272 1q105 0 161.5 -50.5t56.5 -144.5q0 -59 -30 -110t-85 -86q83 -129 150 -217zM230 329l87 -4q37 14 54.5 41t17.5 70q0 47 -24.5 69.5t-76.5 24.5l-54 -3zM238 713l-12 4
q-73 63 -128 118l2 12l74 48l11 -3q25 -35 45 -62t34 -47l23 -31zM399 713l-14 4q-77 68 -127 118l3 12l73 48l12 -3q32 -48 102 -140z" />
    <glyph glyph-name="uni0211" unicode="&#x211;" horiz-adv-x="359" 
d="M356 467v-145l-16 -5q-14 7 -37 7q-54 0 -99 -58v-59l7 -207h-158l8 191l-7 267l151 12v-90h7q47 89 120 89q6 0 24 -2zM97 739l-11 3l-73 -51l-3 -12q60 -69 145 -154l13 -4l48 39q-72 104 -119 179zM254 739l-11 3l-73 -51l-2 -12q60 -69 145 -154l13 -4l48 39
q-55 77 -120 179z" />
    <glyph glyph-name="uni0212" unicode="&#x212;" horiz-adv-x="607" 
d="M595 38l-2 -18q-76 -25 -161 -31l-16 13q-60 112 -104 205h-85l6 -207h-163l9 191l-9 454l272 1q105 0 161.5 -50.5t56.5 -144.5q0 -59 -30 -110t-85 -86q83 -129 150 -217zM230 329l87 -4q37 14 54.5 41t17.5 70q0 47 -24.5 69.5t-76.5 24.5l-54 -3zM142 778
q16 57 58 93.5t108 36.5q65 0 104 -37t53 -93l-37 -51h-22q-13 33 -40.5 51.5t-62.5 18.5t-62 -18.5t-40 -51.5h-21z" />
    <glyph glyph-name="uni0213" unicode="&#x213;" horiz-adv-x="359" 
d="M356 467v-145l-16 -5q-14 7 -37 7q-54 0 -99 -58v-59l7 -207h-158l8 191l-7 267l151 12v-90h7q47 89 120 89q6 0 24 -2zM45 601q16 57 58 93.5t108 36.5q65 0 104 -37t53 -93l-37 -51h-22q-13 33 -40.5 51.5t-62.5 18.5t-62 -18.5t-40 -51.5h-21z" />
    <glyph glyph-name="uni0214" unicode="&#x214;" horiz-adv-x="644" 
d="M584 318l-1 -93q1 -113 -69.5 -174t-200.5 -61q-126 0 -192.5 60t-63.5 172l2 98l-4 325h162l-7 -401q-1 -64 26 -94t84 -30q58 0 85.5 29.5t26.5 90.5l-7 405h165zM257 713l-12 4q-73 63 -128 118l2 12l74 48l11 -3q25 -35 45 -62t34 -47l23 -31zM418 713l-14 4
q-77 68 -127 118l3 12l73 48l12 -3q32 -48 102 -140z" />
    <glyph glyph-name="uni0215" unicode="&#x215;" horiz-adv-x="528" 
d="M513 101l-14 -83q-42 -27 -86 -27q-58 12 -80 79h-10q-58 -58 -117 -76q-75 0 -115 34.5t-40 98.5l3 112l-5 219l152 12l-2 -285q-1 -65 52 -65q18 0 34 7t35 23v308l150 12l-9 -338q0 -14 4.5 -20t14.5 -6q9 0 22 4zM150 739l-11 3l-73 -51l-3 -12q60 -69 145 -154
l13 -4l48 39q-72 104 -119 179zM307 739l-11 3l-73 -51l-2 -12q60 -69 145 -154l13 -4l48 39q-55 77 -120 179z" />
    <glyph glyph-name="uni0216" unicode="&#x216;" horiz-adv-x="644" 
d="M584 318l-1 -93q1 -113 -69.5 -174t-200.5 -61q-126 0 -192.5 60t-63.5 172l2 98l-4 325h162l-7 -401q-1 -64 26 -94t84 -30q58 0 85.5 29.5t26.5 90.5l-7 405h165zM161 778q16 57 58 93.5t108 36.5q65 0 104 -37t53 -93l-37 -51h-22q-13 33 -40.5 51.5t-62.5 18.5
t-62 -18.5t-40 -51.5h-21z" />
    <glyph glyph-name="uni0217" unicode="&#x217;" horiz-adv-x="528" 
d="M513 101l-14 -83q-42 -27 -86 -27q-58 12 -80 79h-10q-58 -58 -117 -76q-75 0 -115 34.5t-40 98.5l3 112l-5 219l152 12l-2 -285q-1 -65 52 -65q18 0 34 7t35 23v308l150 12l-9 -338q0 -14 4.5 -20t14.5 -6q9 0 22 4zM98 601q16 57 58 93.5t108 36.5q65 0 104 -37t53 -93
l-37 -51h-22q-13 33 -40.5 51.5t-62.5 18.5t-62 -18.5t-40 -51.5h-21z" />
    <glyph glyph-name="Scommaaccent" unicode="&#x218;" horiz-adv-x="510" 
d="M467 621l-26 -136l-24 -9q-38 25 -76 39t-66 14q-33 0 -52.5 -16.5t-19.5 -38.5q0 -25 24.5 -42.5t77.5 -41.5q56 -26 90.5 -47.5t60 -57.5t25.5 -88q0 -58 -31.5 -105t-89.5 -74.5t-134 -27.5q-101 0 -200 40l23 145l17 10q42 -35 91.5 -54.5t85.5 -19.5q38 0 57.5 17
t19.5 40q0 27 -25 45t-78 42q-54 25 -88.5 46.5t-59.5 57.5t-25 88q0 59 31.5 106.5t88 74.5t129.5 27q86 0 174 -34zM328 -116q0 -45 -28.5 -86t-88.5 -83l-44 39l-1 10q49 43 49 90q0 17 -7 30.5t-22 27.5l1 12q49 29 101 43q40 -36 40 -83z" />
    <glyph glyph-name="scommaaccent" unicode="&#x219;" horiz-adv-x="392" 
d="M359 453l-20 -113l-19 -6q-32 20 -62.5 31t-52.5 11q-20 0 -31 -9.5t-11 -22.5q0 -18 18 -29.5t55 -25.5q42 -17 68 -32t45.5 -42t19.5 -68q0 -42 -21 -78t-65.5 -58t-110.5 -22q-74 0 -157 28l19 120l14 10q33 -27 73.5 -43t69.5 -16q22 0 33.5 10t11.5 25
q0 17 -17.5 28.5t-55.5 26.5q-41 16 -68 31t-46.5 42.5t-19.5 69.5q0 69 52 112.5t142 43.5q72 0 136 -24zM273 -116q0 -45 -28.5 -86t-88.5 -83l-44 39l-1 10q49 43 49 90q0 17 -7 30.5t-22 27.5l1 12q49 29 101 43q40 -36 40 -83z" />
    <glyph glyph-name="uni021A" unicode="&#x21a;" horiz-adv-x="510" 
d="M499 633l-9 -119l-126 6h-28l-5 -313l6 -207h-162l9 191l-5 329h-30l-127 -6l-10 12l10 119h468zM335 -116q0 -45 -28.5 -86t-88.5 -83l-44 39l-1 10q49 43 49 90q0 17 -7 30.5t-22 27.5l1 12q49 29 101 43q40 -36 40 -83z" />
    <glyph glyph-name="uni021B" unicode="&#x21b;" horiz-adv-x="348" 
d="M326 131l11 -12l-15 -91q-50 -28 -104 -35q-73 4 -111 38.5t-38 94.5l5 91l-1 153h-62l-5 8l7 86h59v80l145 43l11 -10l-4 -113h110l5 -9l-7 -85h-111l-6 -202q0 -29 10.5 -40.5t36.5 -11.5q30 0 64 15zM289 -116q0 -45 -28.5 -86t-88.5 -83l-44 39l-1 10q49 43 49 90
q0 17 -7 30.5t-22 27.5l1 12q49 29 101 43q40 -36 40 -83z" />
    <glyph glyph-name="uni022A" unicode="&#x22a;" horiz-adv-x="647" 
d="M549 572.5q75 -82.5 75 -234.5q0 -166 -82 -257.5t-231 -91.5q-137 0 -212 84.5t-75 239.5q0 164 81.5 253t230.5 89q138 0 213 -82.5zM247 506.5q-28 -18.5 -41 -60t-13 -112.5q0 -85 13 -133.5t41.5 -69.5t77.5 -21q48 0 76 18.5t40.5 60.5t12.5 115q0 84 -13 132
t-41 68.5t-78 20.5q-47 0 -75 -18.5zM475 993l-8 -88h-281l-11 11l8 88h282zM286.5 834q17.5 -18 17.5 -51q0 -35 -19.5 -55t-53.5 -20q-33 0 -51 18t-18 51q0 35 20 55t55 20q32 0 49.5 -18zM468 834q18 -18 18 -51q0 -35 -19.5 -55t-53.5 -20q-33 0 -51 18t-18 51
q0 34 20 54.5t54 20.5q32 0 50 -18z" />
    <glyph glyph-name="uni022B" unicode="&#x22b;" horiz-adv-x="495" 
d="M416.5 418q55.5 -60 55.5 -175q0 -124 -59.5 -189t-172.5 -65q-106 0 -161.5 60t-55.5 174q0 124 59.5 189.5t172.5 65.5q106 0 161.5 -60zM187.5 344.5q-16.5 -26.5 -16.5 -92.5q0 -61 7.5 -95.5t25 -49t47.5 -14.5q39 0 55.5 26.5t16.5 93.5q0 89 -17.5 123.5
t-61.5 34.5q-40 0 -56.5 -26.5zM400 816l-8 -88h-281l-11 11l8 88h282zM211.5 657q17.5 -18 17.5 -51q0 -35 -19.5 -55t-53.5 -20q-33 0 -51 18t-18 51q0 35 20 55t55 20q32 0 49.5 -18zM393 657q18 -18 18 -51q0 -35 -19.5 -55t-53.5 -20q-33 0 -51 18t-18 51q0 34 20 54.5
t54 20.5q32 0 50 -18z" />
    <glyph glyph-name="uni022C" unicode="&#x22c;" horiz-adv-x="647" 
d="M549 572.5q75 -82.5 75 -234.5q0 -166 -82 -257.5t-231 -91.5q-137 0 -212 84.5t-75 239.5q0 164 81.5 253t230.5 89q138 0 213 -82.5zM247 506.5q-28 -18.5 -41 -60t-13 -112.5q0 -85 13 -133.5t41.5 -69.5t77.5 -21q48 0 76 18.5t40.5 60.5t12.5 115q0 84 -13 132
t-41 68.5t-78 20.5q-47 0 -75 -18.5zM485 834v-13l-66 -98l-13 -5q-24 3 -74 20q-41 13 -52 13q-15 0 -26 -12t-31 -40h-14l-46 45v14l67 97l13 5q24 -3 74 -20q41 -13 52 -13q14 0 25 12t32 41h13zM447 1015l-7 -88h-230l-10 11l7 88h230z" />
    <glyph glyph-name="uni022D" unicode="&#x22d;" horiz-adv-x="495" 
d="M416.5 418q55.5 -60 55.5 -175q0 -124 -59.5 -189t-172.5 -65q-106 0 -161.5 60t-55.5 174q0 124 59.5 189.5t172.5 65.5q106 0 161.5 -60zM187.5 344.5q-16.5 -26.5 -16.5 -92.5q0 -61 7.5 -95.5t25 -49t47.5 -14.5q39 0 55.5 26.5t16.5 93.5q0 89 -17.5 123.5
t-61.5 34.5q-40 0 -56.5 -26.5zM410 657v-13l-66 -98l-13 -5q-24 3 -74 20q-41 13 -52 13q-15 0 -26 -12t-31 -40h-14l-46 45v14l67 97l13 5q24 -3 74 -20q41 -13 52 -13q14 0 25 12t32 41h13zM372 838l-7 -88h-230l-10 11l7 88h230z" />
    <glyph glyph-name="uni0230" unicode="&#x230;" horiz-adv-x="647" 
d="M549 572.5q75 -82.5 75 -234.5q0 -166 -82 -257.5t-231 -91.5q-137 0 -212 84.5t-75 239.5q0 164 81.5 253t230.5 89q138 0 213 -82.5zM247 506.5q-28 -18.5 -41 -60t-13 -112.5q0 -85 13 -133.5t41.5 -69.5t77.5 -21q48 0 76 18.5t40.5 60.5t12.5 115q0 84 -13 132
t-41 68.5t-78 20.5q-47 0 -75 -18.5zM384.5 850q20.5 -21 20.5 -58q0 -40 -23 -63.5t-61 -23.5t-58 21t-20 59q0 39 22.5 62.5t61.5 23.5q37 0 57.5 -21zM447 993l-7 -88h-230l-10 11l7 88h230z" />
    <glyph glyph-name="uni0231" unicode="&#x231;" horiz-adv-x="495" 
d="M416.5 418q55.5 -60 55.5 -175q0 -124 -59.5 -189t-172.5 -65q-106 0 -161.5 60t-55.5 174q0 124 59.5 189.5t172.5 65.5q106 0 161.5 -60zM187.5 344.5q-16.5 -26.5 -16.5 -92.5q0 -61 7.5 -95.5t25 -49t47.5 -14.5q39 0 55.5 26.5t16.5 93.5q0 89 -17.5 123.5
t-61.5 34.5q-40 0 -56.5 -26.5zM309.5 673q20.5 -21 20.5 -58q0 -40 -23 -63.5t-61 -23.5t-58 21t-20 59q0 39 22.5 62.5t61.5 23.5q37 0 57.5 -21zM372 816l-7 -88h-230l-10 11l7 88h230z" />
    <glyph glyph-name="uni0232" unicode="&#x232;" horiz-adv-x="573" 
d="M353 175l7 -175h-162l8 175l-1 35l-206 435h171l15 -48l94 -225h11l106 219l20 54h166l-227 -431zM433 839l-8 -88h-278l-10 11l7 88h278z" />
    <glyph glyph-name="uni0233" unicode="&#x233;" horiz-adv-x="457" 
d="M161 391l70 -235h9l68 221l18 91h134l-146 -429q-23 -69 -54 -112t-77.5 -70.5t-120.5 -49.5l-11 1q-39 38 -69 94l6 15q57 9 98 28t79 55l-170 465l150 6zM382 662l-8 -88h-278l-10 11l7 88h278z" />
    <glyph glyph-name="uni0237" unicode="&#x237;" horiz-adv-x="294" 
d="M238 468l-9 -261l7 -177q0 -79 -41.5 -133t-132.5 -93l-54 70v14q41 22 59.5 55t18.5 83v165l-4 179h-73l-9 9l7 85h79l147 7z" />
    <glyph glyph-name="uni0259" unicode="&#x259;" horiz-adv-x="477" 
d="M388.5 414q65.5 -65 65.5 -179t-63 -179.5t-171 -65.5q-93 0 -144.5 50t-51.5 139q0 30 6 61l17 20l262 2q-7 52 -36 77t-82 25t-140 -31l-12 8l24 113q80 25 145 25q115 0 180.5 -65zM277 115.5q22 22.5 30 64.5l-144 -4l-2 -14q0 -69 60 -69q34 0 56 22.5z" />
    <glyph glyph-name="uni02B0" unicode="&#x2b0;" horiz-adv-x="379" 
d="M225 327l7 184q0 22 -10 33.5t-28 11.5q-21 0 -42 -14l-1 -74l5 -141h-118l5 130l-4 338l117 8l-3 -204h3q42 40 83 49q50 0 76.5 -22.5t25.5 -65.5l-2 -92l4 -141h-118z" />
    <glyph glyph-name="uni02B2" unicode="&#x2b2;" horiz-adv-x="220" 
d="M147 797.5q15 -15.5 15 -43.5q0 -29 -16.5 -46t-45.5 -17q-28 0 -43 15.5t-15 43.5t17 45.5t45 17.5t43 -15.5zM169 645l-6 -177l5 -119q0 -54 -28.5 -91.5t-89.5 -63.5l-39 52v10q23 14 34 35.5t11 54.5v111l-1 98l-44 -2l-6 8l6 81h46l109 6z" />
    <glyph glyph-name="uni02B7" unicode="&#x2b7;" horiz-adv-x="492" 
d="M122 591l27 -146h6l34 139l10 61h117l6 -54l28 -144h7l31 137l12 61h99l-96 -318h-112l-37 172h-8l-42 -172h-117l-80 317l108 4z" />
    <glyph glyph-name="uni02B8" unicode="&#x2b8;" horiz-adv-x="308" 
d="M110 591l44 -148h7l41 137l13 65h100l-99 -288q-22 -67 -59 -101t-116 -60l-9 1q-25 24 -51 70l4 11q71 11 120 49l-118 317l112 4z" />
    <glyph glyph-name="uni02B9" unicode="&#x2b9;" horiz-adv-x="223" 
d="M185 633l-40 -237l-73 -11l-12 10l-6 241l123 8z" />
    <glyph glyph-name="uni02BB" unicode="&#x2bb;" horiz-adv-x="226" 
d="M48 414q-14 25 -14 60q0 43 25 87t76 92l54 -35l3 -10q-40 -44 -40 -87q0 -26 9 -44.5t32 -33.5v-12q-53 -40 -101 -60q-30 18 -44 43z" />
    <glyph glyph-name="uni02BC" unicode="&#x2bc;" horiz-adv-x="226" 
d="M179 611q14 -25 14 -60q0 -43 -25 -87t-76 -92l-54 35l-2 10q40 44 40 87q0 26 -9.5 44.5t-31.5 33.5v12q52 40 100 60q30 -18 44 -43z" />
    <glyph glyph-name="uni02BE" unicode="&#x2be;" horiz-adv-x="240" 
d="M62 489l12 -1q40 0 40 39q0 22 -11.5 31t-40.5 9v75q65 0 94.5 -26t29.5 -83q0 -58 -31.5 -88t-92.5 -30v74z" />
    <glyph glyph-name="uni02BF" unicode="&#x2bf;" horiz-adv-x="215" 
d="M165 568l-12 1q-40 0 -40 -38q0 -23 11.5 -32t40.5 -9v-75q-65 0 -94.5 26t-29.5 83q0 58 31.5 88t92.5 30v-74z" />
    <glyph glyph-name="circumflex" unicode="&#x2c6;" horiz-adv-x="388" 
d="M28 587q62 55 150 145h31q67 -70 150 -145l-39 -59h-15q-77 55 -111 86q-32 -27 -111 -86h-16z" />
    <glyph glyph-name="caron" unicode="&#x2c7;" horiz-adv-x="388" 
d="M359 670q-62 -55 -150 -145h-31q-67 70 -150 145l39 59h15q77 -55 111 -86q32 27 111 86h16z" />
    <glyph glyph-name="uni02C8" unicode="&#x2c8;" horiz-adv-x="241" 
d="M59 651h114v-181h-114v181z" />
    <glyph glyph-name="uni02C9" unicode="&#x2c9;" horiz-adv-x="388" 
d="M343 662l-8 -88h-278l-10 11l7 88h278z" />
    <glyph glyph-name="uni02CA" unicode="&#x2ca;" horiz-adv-x="388" 
d="M268 736l57 -87l-3 -14q-99 -57 -206 -115l-14 1l-37 60q105 80 189 156z" />
    <glyph glyph-name="uni02CB" unicode="&#x2cb;" horiz-adv-x="388" 
d="M325 581l-37 -60l-15 -1q-107 58 -206 115l-3 14l57 87l14 1q87 -78 190 -156z" />
    <glyph glyph-name="uni02CC" unicode="&#x2cc;" horiz-adv-x="232" 
d="M59 -49h114v-181h-114v181z" />
    <glyph glyph-name="breve" unicode="&#x2d8;" horiz-adv-x="388" 
d="M356 662q-16 -57 -58 -93.5t-108 -36.5q-65 0 -104 37t-53 93l37 51h22q13 -33 40.5 -51.5t62.5 -18.5t62 18.5t40 51.5h21z" />
    <glyph glyph-name="dotaccent" unicode="&#x2d9;" horiz-adv-x="261" 
d="M191.5 687q20.5 -21 20.5 -58q0 -40 -23 -63.5t-61 -23.5t-58 21t-20 59q0 39 22.5 62.5t61.5 23.5q37 0 57.5 -21z" />
    <glyph glyph-name="ring" unicode="&#x2da;" horiz-adv-x="388" 
d="M271 712q25 -25 25 -71q0 -50 -27.5 -77.5t-77.5 -27.5q-48 0 -73.5 25.5t-25.5 73.5q0 50 27 76t78 26q49 0 74 -25zM165 663.5q-9 -8.5 -9 -25.5q0 -20 9.5 -29t29.5 -9q19 0 28 8.5t9 26.5q0 19 -9 28t-30 9q-19 0 -28 -8.5z" />
    <glyph glyph-name="ogonek" unicode="&#x2db;" horiz-adv-x="277" 
d="M59 -172.5q-30 24.5 -30 65.5q0 34 25.5 67.5t95.5 78.5h82q-67 -65 -87 -88t-20 -38q0 -22 26 -22q28 0 72 25l8 -2l18 -71q-56 -40 -110 -40q-50 0 -80 24.5z" />
    <glyph glyph-name="tilde" unicode="&#x2dc;" horiz-adv-x="388" 
d="M377 672v-13l-74 -99l-14 -6q-19 2 -46 9.5t-37 9.5q-53 16 -71 16q-13 0 -25 -10t-23.5 -24t-16.5 -20h-14l-46 46v13l74 99l14 5q22 -3 87 -20q53 -15 67 -15q13 0 24.5 10t23 24t17.5 21h14z" />
    <glyph glyph-name="hungarumlaut" unicode="&#x2dd;" horiz-adv-x="388" 
d="M132 739l11 3l73 -51l2 -12q-67 -77 -144 -154l-13 -4l-48 39q72 104 119 179zM290 739l11 3l73 -51l2 -12q-60 -69 -145 -154l-13 -4l-48 39q55 77 120 179z" />
    <glyph glyph-name="uni02E1" unicode="&#x2e1;" horiz-adv-x="192" 
d="M151 468l4 -141h-117l5 130l-4 338l116 8z" />
    <glyph glyph-name="uni02E2" unicode="&#x2e2;" horiz-adv-x="280" 
d="M255 636l-16 -82l-13 -5q-22 14 -44.5 21.5t-36.5 7.5q-12 0 -18.5 -5.5t-6.5 -13.5q0 -10 11.5 -17t34.5 -15q44 -17 69 -37t25 -62q0 -45 -34.5 -77t-101.5 -32q-51 0 -111 18l13 88l10 8q25 -19 52.5 -30t47.5 -11q27 0 27 18q0 11 -11 17.5t-36 16.5q-44 17 -69 37.5
t-25 61.5q0 48 36.5 78.5t100.5 30.5q46 0 96 -16z" />
    <glyph glyph-name="uni02E3" unicode="&#x2e3;" horiz-adv-x="331" 
d="M145 605l29 -52l33 56l18 36h101l-89 -157l90 -157l-124 -9l-17 46l-29 53l-35 -58l-16 -36h-103l89 159l-88 157l126 4z" />
    <glyph glyph-name="gravecomb" unicode="&#x300;" 
d="M-63 581l-37 -60l-15 -1q-107 58 -206 115l-3 14l57 87l14 1q87 -78 190 -156z" />
    <glyph glyph-name="acutecomb" unicode="&#x301;" 
d="M-120 736l57 -87l-3 -14q-99 -57 -206 -115l-14 1l-37 60q105 80 189 156z" />
    <glyph glyph-name="uni0302" unicode="&#x302;" 
d="M-360 587q62 55 150 145h31q67 -70 150 -145l-39 -59h-15q-77 55 -111 86q-32 -27 -111 -86h-16z" />
    <glyph glyph-name="tildecomb" unicode="&#x303;" 
d="M-11 672v-14l-75 -99l-14 -5q-19 2 -46 9.5t-37 9.5q-53 16 -70 16q-15 0 -27.5 -12t-37.5 -42h-14l-46 46v13l75 99l13 5q22 -3 87 -20q52 -15 67 -15q13 0 25 10.5t24 24.5t16 19h13z" />
    <glyph glyph-name="uni0304" unicode="&#x304;" 
d="M-45 662l-8 -88h-278l-10 11l7 88h278z" />
    <glyph glyph-name="uni0306" unicode="&#x306;" 
d="M-32 662q-16 -57 -58 -93.5t-108 -36.5q-65 0 -104 37t-53 93l37 51h22q13 -33 40.5 -51.5t62.5 -18.5t62 18.5t40 51.5h21z" />
    <glyph glyph-name="uni0307" unicode="&#x307;" 
d="M-69.5 687q20.5 -21 20.5 -58q0 -40 -23 -63.5t-61 -23.5t-58 21t-20 59q0 39 22.5 62.5t61.5 23.5q37 0 57.5 -21z" />
    <glyph glyph-name="uni0308" unicode="&#x308;" 
d="M-230.5 677.5q18.5 -18.5 18.5 -51.5q0 -35 -20 -55.5t-55 -20.5q-34 0 -51.5 18t-17.5 52q0 35 20 55.5t55 20.5q32 0 50.5 -18.5zM-49 677.5q18 -18.5 18 -51.5q0 -35 -20 -55.5t-54 -20.5t-51.5 18t-17.5 52q0 35 20 55.5t55 20.5q32 0 50 -18.5z" />
    <glyph glyph-name="hookabovecomb" unicode="&#x309;" 
d="M-169 576q25 18 39.5 38.5t14.5 35.5q0 11 -8.5 17t-21.5 6q-15 0 -33 -7t-34 -19l-25 41q24 26 54.5 40.5t60.5 14.5q39 0 64.5 -21.5t25.5 -56.5q0 -21 -12.5 -39.5t-45.5 -47.5l24 -41l-55 -33z" />
    <glyph glyph-name="uni030A" unicode="&#x30a;" 
d="M-117 712q25 -25 25 -71q0 -50 -27.5 -77.5t-77.5 -27.5q-48 0 -73.5 25.5t-25.5 73.5q0 50 27 76t78 26q49 0 74 -25zM-223 663.5q-9 -8.5 -9 -25.5q0 -20 9.5 -29t29.5 -9q19 0 28 8.5t9 26.5q0 19 -9 28t-30 9q-19 0 -28 -8.5z" />
    <glyph glyph-name="uni030B" unicode="&#x30b;" 
d="M-256 739l11 3l73 -51l2 -12q-67 -77 -144 -154l-13 -4l-48 39q72 104 119 179zM-98 739l11 3l73 -51l2 -12q-60 -69 -145 -154l-13 -4l-48 39q55 77 120 179z" />
    <glyph glyph-name="uni030C" unicode="&#x30c;" 
d="M-29 670q-62 -55 -150 -145h-31q-67 70 -150 145l39 59h15q77 -55 111 -86q32 27 111 86h16z" />
    <glyph glyph-name="uni030F" unicode="&#x30f;" 
d="M-289 739l-11 3l-73 -51l-3 -12q60 -69 145 -154l13 -4l48 39q-72 104 -119 179zM-132 739l-11 3l-73 -51l-2 -12q60 -69 145 -154l13 -4l48 39q-55 77 -120 179z" />
    <glyph glyph-name="uni0311" unicode="&#x311;" 
d="M-356 601q16 57 58 93.5t108 36.5q65 0 104 -37t53 -93l-37 -51h-22q-13 33 -40.5 51.5t-62.5 18.5t-62 -18.5t-40 -51.5h-21z" />
    <glyph glyph-name="uni0312" unicode="&#x312;" 
d="M-178 414q-14 25 -14 60q0 43 25 87t76 92l54 -35l2 -10q-40 -44 -40 -87q0 -26 9.5 -44.5t31.5 -33.5v-12q-52 -40 -100 -60q-30 18 -44 43z" />
    <glyph glyph-name="uni031B" unicode="&#x31b;" 
d="M-213 468q25 0 39.5 13t14.5 36q0 17 -8 34t-22 30l3 12q43 31 76 31q31 0 52.5 -28t21.5 -70q0 -62 -49 -99.5t-128 -38.5v80z" />
    <glyph glyph-name="dotbelowcomb" unicode="&#x323;" 
d="M-56.5 -65q20.5 -21 20.5 -58q0 -40 -23 -63.5t-61 -23.5t-58 21t-20 59q0 39 22.5 62.5t61.5 23.5q37 0 57.5 -21z" />
    <glyph glyph-name="uni0324" unicode="&#x324;" 
d="M-230.5 -79.5q18.5 -18.5 18.5 -51.5q0 -35 -20 -55.5t-55 -20.5q-34 0 -51.5 18t-17.5 52q0 35 20 55.5t55 20.5q32 0 50.5 -18.5zM-49 -79.5q18 -18.5 18 -51.5q0 -35 -20 -55.5t-54 -20.5t-51.5 18t-17.5 52q0 35 20 55.5t55 20.5q32 0 50 -18.5z" />
    <glyph glyph-name="uni0326" unicode="&#x326;" 
d="M-32 -116q0 -45 -28.5 -86t-88.5 -83l-44 39l-1 10q49 43 49 90q0 17 -7 30.5t-22 27.5l1 12q49 29 101 43q40 -36 40 -83z" />
    <glyph glyph-name="uni0327" unicode="&#x327;" 
d="M-173 -46l34 -19q23 -12 32.5 -27t9.5 -34q0 -34 -27.5 -56t-73.5 -22q-44 0 -86 26l10 64l7 3q15 -14 30.5 -21.5t28.5 -7.5q21 0 21 18q0 10 -15 18l-49 27l23 106h71z" />
    <glyph glyph-name="uni0328" unicode="&#x328;" 
d="M-218 -172.5q-30 24.5 -30 65.5q0 34 25.5 67.5t95.5 78.5h82q-67 -65 -87 -88t-20 -38q0 -22 26 -22q28 0 72 25l8 -2l18 -71q-56 -40 -110 -40q-50 0 -80 24.5z" />
    <glyph glyph-name="uni032E" unicode="&#x32e;" 
d="M-27 -103q-16 -57 -58 -93.5t-108 -36.5q-65 0 -104 37t-53 93l37 51h22q13 -33 40.5 -51.5t62.5 -18.5t62 18.5t40 51.5h21z" />
    <glyph glyph-name="uni0331" unicode="&#x331;" 
d="M-46 -88l-7 -88h-250l-10 11l7 87h250z" />
    <glyph glyph-name="uni0335" unicode="&#x335;" 
d="M-47 291l-4 -78h-399l-7 8l5 79h398z" />
    <glyph glyph-name="uni0342" unicode="&#x342;" 
d="M-11 672v-13l-68 -99l-12 -6q-27 5 -74 20q-45 15 -56 15q-14 0 -25 -11.5t-33 -42.5h-13l-46 46v13l67 99l13 5q21 -3 72 -20q47 -15 58 -15q14 0 25 11.5t33 42.5h13z" />
    <glyph glyph-name="uni0343" unicode="&#x343;" 
d="M-39 730q12 -21 12 -50q0 -37 -21 -74t-64 -78l-51 29l-2 9q32 39 32 78q0 41 -33 63v10q48 33 89 49q26 -15 38 -36z" />
    <glyph glyph-name="uni0344" unicode="&#x344;" 
d="M-286 564q29 91 53 186l10 8l89 -35l6 -12l-88 -164l-18 -6zM-409.5 569.5q-15.5 15.5 -15.5 45.5t17.5 48t48.5 18q29 0 44.5 -16t15.5 -45q0 -30 -17.5 -48t-48.5 -18q-29 0 -44.5 15.5zM-144 615q0 30 17.5 48t48.5 18q29 0 44.5 -16t15.5 -45q0 -30 -17.5 -48
t-47.5 -18q-61 0 -61 61z" />
    <glyph glyph-name="uni0345" unicode="&#x345;" 
d="M-170 -223l17 183l78 7l12 -11l20 -182l-117 -6z" />
    <glyph glyph-name="uni0374" unicode="&#x374;" horiz-adv-x="223" 
d="M185 633l-40 -237l-73 -11l-12 10l-6 241l123 8z" />
    <glyph glyph-name="uni0375" unicode="&#x375;" horiz-adv-x="223" 
d="M38 -154l40 237l73 11l13 -9l5 -242l-122 -7z" />
    <glyph glyph-name="uni037A" unicode="&#x37a;" horiz-adv-x="215" 
d="M45 -223l17 183l78 7l12 -11l20 -182l-117 -6z" />
    <glyph glyph-name="uni037E" unicode="&#x37e;" horiz-adv-x="228" 
d="M191 59q0 -50 -32.5 -97t-100.5 -95l-51 44l-1 12q56 47 56 102q0 36 -33 66l1 14q60 33 115 48q46 -40 46 -94zM169.5 397q20.5 -21 20.5 -58q0 -40 -23 -63.5t-61 -23.5t-58 21t-20 59q0 39 22.5 62.5t61.5 23.5q37 0 57.5 -21z" />
    <glyph glyph-name="tonos" unicode="&#x384;" horiz-adv-x="218" 
d="M94 755l100 -39l5 -14q-51 -102 -87 -169l-12 -8l-79 31q31 89 60 192z" />
    <glyph glyph-name="dieresistonos" unicode="&#x385;" horiz-adv-x="442" 
d="M156 564q29 91 53 186l10 8l89 -35l6 -12l-88 -164l-18 -6zM32.5 569.5q-15.5 15.5 -15.5 45.5t17.5 48t48.5 18q29 0 44.5 -16t15.5 -45q0 -30 -17.5 -48t-48.5 -18q-29 0 -44.5 15.5zM298 615q0 30 17.5 48t48.5 18q29 0 44.5 -16t15.5 -45q0 -30 -17.5 -48t-47.5 -18
q-61 0 -61 61z" />
    <glyph glyph-name="Alphatonos" unicode="&#x386;" horiz-adv-x="664" 
d="M651 0h-165l-17 93l-9 37l-116 2l-100 -3l-8 -26l-18 -103h-159l208 645h195zM429 252l-63 245h-10l-75 -245l74 -2zM69 683l100 -39l5 -14q-51 -102 -87 -169l-12 -8l-79 31q31 89 60 192z" />
    <glyph glyph-name="anoteleia" unicode="&#x387;" horiz-adv-x="228" 
d="M174.5 380q20.5 -21 20.5 -58q0 -40 -23 -63.5t-61 -23.5t-58 21t-20 59q0 39 22.5 62.5t61.5 23.5q37 0 57.5 -21z" />
    <glyph glyph-name="Epsilontonos" unicode="&#x388;" horiz-adv-x="685" 
d="M660 132l9 -12l-10 -120h-426l9 191l-9 454h432l9 -12l-11 -120l-157 6l-110 -1l-2 -129h105l105 3l9 -12l-10 -120l-115 3h-97l-1 -56l2 -80l106 -1zM78 683l100 -39l5 -14q-51 -102 -87 -169l-12 -8l-79 31q31 89 60 192z" />
    <glyph glyph-name="Etatonos" unicode="&#x389;" horiz-adv-x="865" 
d="M791 207l6 -207h-162l8 191l-1 65l-130 1l-115 -3l-1 -47l6 -207h-162l8 191l-8 454h164l-5 -257l123 -2l118 2l-5 257h165zM78 683l100 -39l5 -14q-51 -102 -87 -169l-12 -8l-79 31q31 89 60 192z" />
    <glyph glyph-name="Iotatonos" unicode="&#x38a;" horiz-adv-x="471" 
d="M390 207l6 -207h-163l9 191l-9 454h166zM78 683l100 -39l5 -14q-51 -102 -87 -169l-12 -8l-79 31q31 89 60 192z" />
    <glyph glyph-name="Omicrontonos" unicode="&#x38c;" horiz-adv-x="753" 
d="M655 572.5q75 -82.5 75 -234.5q0 -166 -82 -257.5t-231 -91.5q-137 0 -212 84.5t-75 239.5q0 164 81.5 253t230.5 89q138 0 213 -82.5zM353 506.5q-28 -18.5 -41 -60t-13 -112.5q0 -85 13 -133.5t41.5 -69.5t77.5 -21q48 0 76 18.5t40.5 60.5t12.5 115q0 84 -13 132
t-41 68.5t-78 20.5q-47 0 -75 -18.5zM44 683l100 -39l5 -14q-51 -102 -87 -169l-12 -8l-79 31q31 89 60 192z" />
    <glyph glyph-name="Upsilontonos" unicode="&#x38e;" horiz-adv-x="760" 
d="M540 175l7 -175h-162l8 175l-1 35l-206 435h171l15 -48l94 -225h11l106 219l20 54h166l-227 -431zM49 683l100 -39l5 -14q-51 -102 -87 -169l-12 -8l-79 31q31 89 60 192z" />
    <glyph glyph-name="Omegatonos" unicode="&#x38f;" horiz-adv-x="790" 
d="M140 5l15 122l81 -6h58v7q-73 37 -109 96.5t-36 143.5q0 87 37 152t105.5 100t159.5 35q88 0 153 -33.5t100 -95.5t35 -145q0 -84 -36 -146t-111 -107v-7h56l89 8l9 -10l-15 -122l-81 3h-130l-41 -3l-6 6l2 152q52 34 74 77.5t22 116.5q0 92 -31.5 134.5t-99.5 42.5
q-65 0 -95.5 -40.5t-30.5 -128.5q0 -74 22 -119.5t75 -82.5l2 -152l-7 -6l-40 3h-128l-89 -5zM55 683l100 -39l5 -14q-51 -102 -87 -169l-12 -8l-79 31q31 89 60 192z" />
    <glyph glyph-name="iotadieresistonos" unicode="&#x390;" horiz-adv-x="272" 
d="M80.5 25.5q-29.5 31.5 -29.5 83.5l3 134l-6 215l157 12l-8 -333q0 -17 4 -24t15 -7q9 0 22 4l11 -9l-14 -83q-39 -19 -78 -24q-47 0 -76.5 31.5zM72 564q29 91 53 186l10 8l89 -35l6 -12l-88 -164l-18 -6zM-51.5 569.5q-15.5 15.5 -15.5 45.5t17.5 48t48.5 18
q29 0 44.5 -16t15.5 -45q0 -30 -17.5 -48t-48.5 -18q-29 0 -44.5 15.5zM214 615q0 30 17.5 48t48.5 18q29 0 44.5 -16t15.5 -45q0 -30 -17.5 -48t-47.5 -18q-61 0 -61 61z" />
    <glyph glyph-name="Alpha" unicode="&#x391;" horiz-adv-x="611" 
d="M598 0h-165l-17 93l-9 37l-116 2l-100 -3l-8 -26l-18 -103h-159l208 645h195zM376 252l-63 245h-10l-75 -245l74 -2z" />
    <glyph glyph-name="Beta" unicode="&#x392;" horiz-adv-x="600" 
d="M540 280.5q30 -36.5 30 -96.5q0 -97 -77.5 -143.5t-230.5 -46.5q-100 0 -191 6h-1l9 191l-9 454l254 1q103 0 161 -42t58 -121q0 -51 -25.5 -89.5t-72.5 -60.5q65 -16 95 -52.5zM352.5 518q-25.5 16 -91.5 16h-32l-4 -157l86 -4q34 10 50.5 31t16.5 57q0 41 -25.5 57z
M376 128q30 22 30 63q0 31 -19 49.5t-59 27.5l-105 -2l-1 -59l3 -97q52 -4 67 -4q54 0 84 22z" />
    <glyph glyph-name="Gamma" unicode="&#x393;" horiz-adv-x="470" 
d="M461 633l-11 -118l-142 4h-69l-6 -312l6 -207h-162l8 191l-8 454h375z" />
    <glyph glyph-name="uni0394" unicode="&#x394;" horiz-adv-x="607" 
d="M29 104l185 541h195l170 -541v-104h-550v104zM420 125l-106 372h-11l-123 -372h240z" />
    <glyph glyph-name="Epsilon" unicode="&#x395;" horiz-adv-x="522" 
d="M497 132l9 -12l-10 -120h-426l9 191l-9 454h432l9 -12l-11 -120l-157 6l-110 -1l-2 -129h105l105 3l9 -12l-10 -120l-115 3h-97l-1 -56l2 -80l106 -1z" />
    <glyph glyph-name="Zeta" unicode="&#x396;" horiz-adv-x="557" 
d="M522 529l-302 -407h194l114 8l6 -8l-13 -126l-159 4h-246l-87 -5v116l305 412h-184l-114 -9l-6 7l12 126l138 -2h274l68 1v-117z" />
    <glyph glyph-name="Eta" unicode="&#x397;" horiz-adv-x="702" 
d="M628 207l6 -207h-162l8 191l-1 65l-130 1l-115 -3l-1 -47l6 -207h-162l8 191l-8 454h164l-5 -257l123 -2l118 2l-5 257h165z" />
    <glyph glyph-name="Theta" unicode="&#x398;" horiz-adv-x="671" 
d="M568 571q79 -84 79 -233q0 -109 -38.5 -187.5t-111.5 -120t-174 -41.5q-141 0 -220 86t-79 238q0 161 85.5 251.5t238.5 90.5q141 0 220 -84zM222 480.5q-34 -44.5 -34 -145.5q0 -83 15 -132t47 -71t87 -22q76 0 111 46t35 147q0 82 -15 130t-47 70t-87 22
q-78 0 -112 -44.5zM238 271l5 102l179 6l11 -10l-5 -102l-180 -7z" />
    <glyph glyph-name="Iota" unicode="&#x399;" horiz-adv-x="308" 
d="M227 207l6 -207h-163l9 191l-9 454h166z" />
    <glyph glyph-name="Kappa" unicode="&#x39a;" horiz-adv-x="602" 
d="M615 34l-2 -18q-79 -19 -160 -27l-19 10q-123 180 -205 319l-2 -111l6 -207h-162l8 191l-8 454h164l-5 -288l157 223l36 65h173l-212 -304q102 -151 231 -307z" />
    <glyph glyph-name="Lambda" unicode="&#x39b;" horiz-adv-x="606" 
d="M592 0h-169l-17 95l-95 399h-11l-112 -390l-18 -104h-164l202 645h201z" />
    <glyph glyph-name="Mu" unicode="&#x39c;" horiz-adv-x="801" 
d="M759 0h-143l-8 196l-18 212h-10l-128 -343h-124l-112 343h-11l-20 -197l-13 -211h-135l64 645h187l23 -94l83 -276h10l90 273l26 97h184z" />
    <glyph glyph-name="Nu" unicode="&#x39d;" horiz-adv-x="701" 
d="M622 204l6 -204h-176l-229 399h-10l-1 -172l6 -227h-147l8 190l-8 455h175l230 -399h10l-4 393l149 9z" />
    <glyph glyph-name="Xi" unicode="&#x39e;" horiz-adv-x="590" 
d="M47 514l12 131h477l10 -13l-12 -131l-230 6l-246 -6zM97 267l12 130l194 -3l175 3l10 -12l-11 -131l-176 3l-193 -3zM46 131l10 13l234 -6l243 6l11 -13l-12 -131h-475z" />
    <glyph glyph-name="Omicron" unicode="&#x39f;" horiz-adv-x="647" 
d="M549 572.5q75 -82.5 75 -234.5q0 -166 -82 -257.5t-231 -91.5q-137 0 -212 84.5t-75 239.5q0 164 81.5 253t230.5 89q138 0 213 -82.5zM247 506.5q-28 -18.5 -41 -60t-13 -112.5q0 -85 13 -133.5t41.5 -69.5t77.5 -21q48 0 76 18.5t40.5 60.5t12.5 115q0 84 -13 132
t-41 68.5t-78 20.5q-47 0 -75 -18.5z" />
    <glyph glyph-name="Pi" unicode="&#x3a0;" horiz-adv-x="673" 
d="M592 207l6 -207h-162l7 191l-5 330h-206l-6 -314l7 -207h-163l8 191l-8 454h530z" />
    <glyph glyph-name="Rho" unicode="&#x3a1;" horiz-adv-x="570" 
d="M502.5 594q56.5 -52 56.5 -148q0 -75 -34 -131.5t-96 -87.5t-144 -31h-58l6 -196h-163l9 191l-9 454l272 1q104 0 160.5 -52zM370.5 354.5q18.5 28.5 18.5 75.5q0 50 -24.5 74t-76.5 26l-54 -3l-5 -210l85 -4q38 13 56.5 41.5z" />
    <glyph glyph-name="Sigma" unicode="&#x3a3;" horiz-adv-x="549" 
d="M510 635l-11 -123l-101 6h-154l136 -158v-26l-160 -207h171l116 8l10 -14l-11 -123l-152 2h-216l-101 -2v114l172 221l-166 190v123l92 -1h248l115 2z" />
    <glyph glyph-name="Tau" unicode="&#x3a4;" horiz-adv-x="510" 
d="M499 633l-9 -119l-126 6h-28l-5 -313l6 -207h-162l9 191l-5 329h-30l-127 -6l-10 12l10 119h468z" />
    <glyph glyph-name="Upsilon" unicode="&#x3a5;" horiz-adv-x="573" 
d="M353 175l7 -175h-162l8 175l-1 35l-206 435h171l15 -48l94 -225h11l106 219l20 54h166l-227 -431z" />
    <glyph glyph-name="Phi" unicode="&#x3a6;" horiz-adv-x="807" 
d="M704.5 139q-76.5 -68 -228.5 -82l1 -89h-149l3 88q-305 23 -305 268q0 133 76 200.5t227 81.5l-1 71h152l-1 -70q302 -24 302 -267q0 -133 -76.5 -201zM216.5 220q36.5 -37 117.5 -46l1 18l-4 295q-78 -10 -114.5 -47t-36.5 -109q0 -74 36.5 -111zM589 218.5
q37 36.5 37 108.5q0 74 -35 112t-114 48l-4 -280l1 -34q78 9 115 45.5z" />
    <glyph glyph-name="Chi" unicode="&#x3a7;" horiz-adv-x="638" 
d="M423 339l202 -339h-194l-32 70l-86 142l-99 -150l-30 -62h-166l200 315l-202 330h195l32 -71l83 -135l88 142l29 64h170z" />
    <glyph glyph-name="Psi" unicode="&#x3a8;" horiz-adv-x="787" 
d="M745 645l-5 -191l-1 -94q-1 -107 -69.5 -170.5t-201.5 -77.5l4 -112h-156l5 111q-136 13 -205.5 76.5t-69.5 172.5v98l-2 187h158l-6 -262q-2 -63 28 -98t99 -46l-7 406h158l-8 -406q68 11 99 46.5t29 97.5l-7 262h158z" />
    <glyph glyph-name="uni03A9" unicode="&#x3a9;" horiz-adv-x="695" 
d="M44 5l15 122l81 -6h58v7q-73 37 -109 96.5t-36 143.5q0 87 37 152t105.5 100t159.5 35q88 0 153 -33.5t100 -95.5t35 -145q0 -84 -36 -146t-111 -107v-7h56l89 8l9 -10l-15 -122l-81 3h-130l-41 -3l-6 6l2 152q52 34 74 77.5t22 116.5q0 92 -31.5 134.5t-99.5 42.5
q-65 0 -95.5 -40.5t-30.5 -128.5q0 -74 22 -119.5t75 -82.5l2 -152l-7 -6l-40 3h-128l-89 -5z" />
    <glyph glyph-name="Iotadieresis" unicode="&#x3aa;" horiz-adv-x="308" 
d="M227 207l6 -207h-163l9 191l-9 454h166zM117.5 854.5q18.5 -18.5 18.5 -51.5q0 -35 -20 -55.5t-55 -20.5q-34 0 -51.5 18t-17.5 52q0 35 20 55.5t55 20.5q32 0 50.5 -18.5zM299 854.5q18 -18.5 18 -51.5q0 -35 -20 -55.5t-54 -20.5t-51.5 18t-17.5 52q0 35 20 55.5
t55 20.5q32 0 50 -18.5z" />
    <glyph glyph-name="Upsilondieresis" unicode="&#x3ab;" horiz-adv-x="573" 
d="M353 175l7 -175h-162l8 175l-1 35l-206 435h171l15 -48l94 -225h11l106 219l20 54h166l-227 -431zM249.5 854.5q18.5 -18.5 18.5 -51.5q0 -35 -20 -55.5t-55 -20.5q-34 0 -51.5 18t-17.5 52q0 35 20 55.5t55 20.5q32 0 50.5 -18.5zM431 854.5q18 -18.5 18 -51.5
q0 -35 -20 -55.5t-54 -20.5t-51.5 18t-17.5 52q0 35 20 55.5t55 20.5q32 0 50 -18.5z" />
    <glyph glyph-name="alphatonos" unicode="&#x3ac;" horiz-adv-x="539" 
d="M515 101l-14 -83q-41 -21 -90 -25q-56 9 -80 60h-10q-45 -44 -100 -61q-64 0 -109 31.5t-68 85t-23 118.5q0 69 23.5 125t70 88.5t113.5 32.5q48 -12 88 -49l7 1v37l149 10l-9 -340q0 -14 4.5 -20t15.5 -6q7 0 22 4zM189 145q20 -33 56 -33q38 0 73 28l5 100v86
q-22 18 -41 25.5t-40 7.5q-35 0 -54 -28.5t-19 -85.5q0 -67 20 -100zM287 755l100 -39l5 -14q-51 -102 -87 -169l-12 -8l-79 31q31 89 60 192z" />
    <glyph glyph-name="epsilontonos" unicode="&#x3ad;" horiz-adv-x="452" 
d="M408 126l12 -9l-13 -100q-37 -13 -84 -20t-88 -7q-103 0 -158 35t-55 101q0 86 93 118q-38 18 -56 43t-18 60q0 62 55 96t152 34q47 0 94.5 -8t79.5 -21l-23 -108l-11 -5q-65 35 -128 35q-34 0 -53.5 -11t-19.5 -32q0 -27 36 -44l139 1l5 -9l-8 -87h-126q-64 0 -64 -43
q0 -48 91 -48q75 0 148 29zM249 755l100 -39l5 -14q-51 -102 -87 -169l-12 -8l-79 31q31 89 60 192z" />
    <glyph glyph-name="etatonos" unicode="&#x3ae;" horiz-adv-x="538" 
d="M330 -185l9 464q0 69 -57 69q-33 0 -76 -30v-111l7 -207h-158l8 191l-6 267l150 12v-69h7q52 51 119 73q76 0 115.5 -34.5t37.5 -98.5l-3 -134l6 -392h-159zM292 755l100 -39l5 -14q-51 -102 -87 -169l-12 -8l-79 31q31 89 60 192z" />
    <glyph glyph-name="iotatonos" unicode="&#x3af;" horiz-adv-x="272" 
d="M80.5 25.5q-29.5 31.5 -29.5 83.5l3 134l-6 215l157 12l-8 -333q0 -17 4 -24t15 -7q9 0 22 4l11 -9l-14 -83q-39 -19 -78 -24q-47 0 -76.5 31.5zM159 755l100 -39l5 -14q-51 -102 -87 -169l-12 -8l-79 31q31 89 60 192z" />
    <glyph glyph-name="upsilondieresistonos" unicode="&#x3b0;" horiz-adv-x="506" 
d="M95 37.5q-52 46.5 -50 132.5l2 77l-3 212l150 11l-7 -280q-1 -42 14.5 -61t49.5 -19q35 0 51 19t16 61l-3 269l149 11l-7 -300q-1 -86 -55.5 -132.5t-154.5 -46.5t-152 46.5zM189 564q29 91 53 186l10 8l89 -35l6 -12l-88 -164l-18 -6zM65.5 569.5q-15.5 15.5 -15.5 45.5
t17.5 48t48.5 18q29 0 44.5 -16t15.5 -45q0 -30 -17.5 -48t-48.5 -18q-29 0 -44.5 15.5zM331 615q0 30 17.5 48t48.5 18q29 0 44.5 -16t15.5 -45q0 -30 -17.5 -48t-47.5 -18q-61 0 -61 61z" />
    <glyph glyph-name="alpha" unicode="&#x3b1;" horiz-adv-x="539" 
d="M515 101l-14 -83q-41 -21 -90 -25q-56 9 -80 60h-10q-45 -44 -100 -61q-64 0 -109 31.5t-68 85t-23 118.5q0 69 23.5 125t70 88.5t113.5 32.5q48 -12 88 -49l7 1v37l149 10l-9 -340q0 -14 4.5 -20t15.5 -6q7 0 22 4zM189 145q20 -33 56 -33q38 0 73 28l5 100v86
q-22 18 -41 25.5t-40 7.5q-35 0 -54 -28.5t-19 -85.5q0 -67 20 -100z" />
    <glyph glyph-name="beta" unicode="&#x3b2;" horiz-adv-x="534" 
d="M480 319q33 -44 33 -112q0 -64 -30.5 -113t-85.5 -76t-127 -27q-25 0 -58 5l2 -181h-156l7 376v251q0 126 59.5 194t169.5 68q88 0 139 -43t51 -118q0 -52 -25.5 -93t-74.5 -70q63 -17 96 -61zM340.5 125q26.5 28 26.5 78q0 47 -22.5 75.5t-59.5 28.5h-34l-8 10l5 101h36
q57 39 57 100q0 34 -16 51.5t-47 17.5q-36 0 -53 -26t-17 -80l3 -374q35 -10 59 -10q44 0 70.5 28z" />
    <glyph glyph-name="gamma" unicode="&#x3b3;" horiz-adv-x="446" 
d="M433 432q0 -42 -13.5 -91t-49.5 -140l-80 -200l4 -186h-157l3 186l-135 464l147 6l13 -84l56 -232h8l32 87q41 116 41 193q0 18 -1 27l8 9l122 -3q2 -26 2 -36z" />
    <glyph glyph-name="delta" unicode="&#x3b4;" horiz-adv-x="474" 
d="M225 520q20 -20 65 -50q51 -35 84.5 -65t58 -78t24.5 -113q0 -67 -27.5 -118t-78 -79t-117.5 -28q-100 0 -158 60.5t-58 164.5q0 78 35 128t109 77l2 5q-45 34 -68.5 66.5t-23.5 78.5q0 66 51.5 102.5t145.5 36.5q40 0 81 -6.5t67 -16.5l-22 -114l-19 -5q-41 21 -68.5 30
t-49.5 9q-26 0 -39.5 -10.5t-13.5 -29.5q0 -25 20 -45zM297 119q19 26 19 75q0 59 -22.5 100.5t-62.5 76.5q-35 -23 -50.5 -57.5t-15.5 -90.5q0 -130 78 -130q35 0 54 26z" />
    <glyph glyph-name="epsilon" unicode="&#x3b5;" horiz-adv-x="452" 
d="M408 126l12 -9l-13 -100q-37 -13 -84 -20t-88 -7q-103 0 -158 35t-55 101q0 86 93 118q-38 18 -56 43t-18 60q0 62 55 96t152 34q47 0 94.5 -8t79.5 -21l-23 -108l-11 -5q-65 35 -128 35q-34 0 -53.5 -11t-19.5 -32q0 -27 36 -44l139 1l5 -9l-8 -87h-126q-64 0 -64 -43
q0 -48 91 -48q75 0 148 29z" />
    <glyph glyph-name="zeta" unicode="&#x3b6;" horiz-adv-x="410" 
d="M146 -92l8 17q45 19 74.5 33.5t39 21.5t9.5 15q0 11 -24 14l-64 10q-85 11 -130 59.5t-45 126.5q0 76 56 165.5t191 223.5h-120l-88 -7l-6 6l10 109l110 -2h198l60 1v-103q-146 -158 -204.5 -239t-58.5 -129q0 -68 77 -83l66 -12q51 -9 80 -39.5t29 -74.5q0 -66 -49 -114
t-159 -93z" />
    <glyph glyph-name="eta" unicode="&#x3b7;" horiz-adv-x="538" 
d="M330 -185l9 464q0 69 -57 69q-33 0 -76 -30v-111l7 -207h-158l8 191l-6 267l150 12v-69h7q52 51 119 73q76 0 115.5 -34.5t37.5 -98.5l-3 -134l6 -392h-159z" />
    <glyph glyph-name="theta" unicode="&#x3b8;" horiz-adv-x="510" 
d="M421.5 621.5q53.5 -85.5 53.5 -260.5q0 -186 -58 -277t-169 -91q-212 0 -212 344q0 186 58.5 278t169.5 92q104 0 157.5 -85.5zM193 550q-19 -46 -21 -155l166 5q-4 107 -23 151.5t-61 44.5t-61 -46zM317.5 145q18.5 45 21.5 150l-166 -6q5 -104 24 -146.5t62 -42.5
q40 0 58.5 45z" />
    <glyph glyph-name="iota" unicode="&#x3b9;" horiz-adv-x="272" 
d="M80.5 25.5q-29.5 31.5 -29.5 83.5l3 134l-6 215l157 12l-8 -333q0 -17 4 -24t15 -7q9 0 22 4l11 -9l-14 -83q-39 -19 -78 -24q-47 0 -76.5 31.5z" />
    <glyph glyph-name="kappa" unicode="&#x3ba;" horiz-adv-x="512" 
d="M488 53q7 -9 19 -27l-1 -16q-52 -12 -147 -21l-17 8q-92 146 -134 233l-1 -23l6 -207h-158l7 191l-5 267l157 12l-5 -205l102 151l24 52h163l-146 -210q45 -75 136 -205z" />
    <glyph glyph-name="lambda" unicode="&#x3bb;" horiz-adv-x="480" 
d="M483 100l-15 -87q-35 -19 -74 -23q-40 3 -59 21.5t-34 70.5l-59 209h-9l-81 -214l-23 -85l-132 14l193 467q-17 56 -41 77.5t-70 21.5q-23 0 -37 -2l-7 12l23 118q27 3 50 3q78 0 123.5 -41t73.5 -139l116 -391q4 -15 10.5 -21t18.5 -6q9 0 22 3z" />
    <glyph glyph-name="uni03BC" unicode="&#x3bc;" horiz-adv-x="546" 
d="M523 101l-14 -83q-42 -27 -86 -27q-58 12 -80 79h-10q-35 -45 -82 -76q-33 0 -55 7l13 -186h-149l4 376l-5 267l150 12v-280l-1 -6l1 1q0 -65 52 -65q18 0 34.5 7t34.5 22v309l150 12l-9 -338q0 -14 4.5 -20t14.5 -6t23 4z" />
    <glyph glyph-name="nu" unicode="&#x3bd;" horiz-adv-x="448" 
d="M434 435q0 -38 -13 -87t-49 -152l-68 -196h-172l-126 465l147 6l13 -84l55 -240h9l32 91q41 124 41 198q0 18 -1 26l8 9l122 -3q2 -22 2 -33z" />
    <glyph glyph-name="xi" unicode="&#x3be;" horiz-adv-x="433" 
d="M395 92.5q28 -30.5 28 -78.5q0 -62 -51 -111t-160 -93l-59 94l8 18q74 30 99.5 44.5t25.5 25.5q0 6 -4.5 9.5t-16.5 5.5l-59 10q-186 30 -186 182q0 65 36 109t105 64q-59 22 -89 60.5t-30 90.5q0 83 66.5 132t179.5 49q78 0 150 -27l-23 -122l-15 -7q-63 27 -113 27
q-46 0 -70.5 -16.5t-24.5 -47.5q0 -30 18.5 -50.5t63.5 -40.5h107l5 -11l-8 -101h-86q-59 0 -91.5 -22t-32.5 -60q0 -63 91 -81l55 -12q53 -10 81 -40.5z" />
    <glyph glyph-name="omicron" unicode="&#x3bf;" horiz-adv-x="494" 
d="M415.5 418q55.5 -60 55.5 -175q0 -124 -59.5 -189t-172.5 -65q-106 0 -161 60t-55 174q0 125 59 190t172 65q106 0 161.5 -60zM186.5 344q-16.5 -27 -16.5 -94q0 -61 7.5 -94.5t25 -48t47.5 -14.5q40 0 56.5 27t16.5 95q0 60 -7.5 93.5t-25 48t-47.5 14.5
q-40 0 -56.5 -27z" />
    <glyph glyph-name="pi" unicode="&#x3c0;" horiz-adv-x="641" 
d="M523 357l-6 -198q0 -24 8 -35t25 -11q18 0 45 11l11 -11l-15 -86q-41 -27 -76 -33q-67 0 -104 33t-37 91l5 108l-3 131h-109l1 -357h-153l12 191l-3 163q-44 -8 -86 -32l-15 2l-30 62v16q28 34 64 49.5t86 15.5h473l5 -8l-9 -102h-89z" />
    <glyph glyph-name="rho" unicode="&#x3c1;" horiz-adv-x="511" 
d="M434.5 416q54.5 -58 54.5 -168q0 -124 -62 -191.5t-177 -67.5q-26 0 -58 5l2 -179h-157l6 397q0 127 60.5 194.5t176.5 67.5q100 0 154.5 -58zM341 224q0 133 -82 133q-35 0 -53 -25.5t-18 -76.5l2 -147q32 -12 58 -12q93 0 93 128z" />
    <glyph glyph-name="uni03C2" unicode="&#x3c2;" horiz-adv-x="403" 
d="M126 -96l8 18q61 26 87 42.5t26 28.5q0 9 -17 15l-47 15q-84 26 -125 80t-41 139q0 72 28.5 125.5t79.5 82t117 28.5t131 -28l-26 -120l-12 -6q-48 26 -84 26q-40 0 -61 -26.5t-21 -76.5q0 -43 16 -66t52 -33l42 -11q105 -27 105 -117q0 -60 -48 -111t-150 -99z" />
    <glyph glyph-name="sigma" unicode="&#x3c3;" horiz-adv-x="530" 
d="M418 355l-3 -8q26 -34 37.5 -66t11.5 -70q0 -67 -28.5 -117t-81 -77.5t-122.5 -27.5q-102 0 -156 60.5t-54 175.5q0 243 248 243h245l5 -9l-8 -104h-94zM301 355h-39q-36 0 -56 -10t-28 -35t-8 -72q0 -77 18 -111t57 -34q38 0 56.5 29.5t18.5 90.5q0 68 -19 142z" />
    <glyph glyph-name="tau" unicode="&#x3c4;" horiz-adv-x="417" 
d="M281 357l-6 -198q0 -25 8.5 -35.5t29.5 -10.5t51 11l11 -11l-15 -86q-41 -26 -87 -33q-67 0 -104 33t-37 91l5 108l-3 129q-48 -6 -96 -33l-15 2l-30 62v16q28 34 64 49.5t86 15.5h256l4 -8l-8 -102h-114z" />
    <glyph glyph-name="upsilon" unicode="&#x3c5;" horiz-adv-x="506" 
d="M95 37.5q-52 46.5 -50 132.5l2 77l-3 212l150 11l-7 -280q-1 -42 14.5 -61t49.5 -19q35 0 51 19t16 61l-3 269l149 11l-7 -300q-1 -86 -55.5 -132.5t-154.5 -46.5t-152 46.5z" />
    <glyph glyph-name="phi" unicode="&#x3c6;" horiz-adv-x="696" 
d="M415 -12l2 -173h-148l3 172q-128 12 -190.5 72t-62.5 172q0 93 43.5 156t128.5 94l51 -77v-19q-42 -23 -59.5 -54.5t-17.5 -85.5q0 -67 25.5 -102t84.5 -47l4 213q2 77 53 123t137 46q98 0 152.5 -59.5t54.5 -168.5q0 -235 -261 -262zM504 137q27 35 27 106
q0 62 -18 95.5t-51 33.5q-25 0 -38.5 -20t-12.5 -55l3 -204q63 9 90 44z" />
    <glyph glyph-name="chi" unicode="&#x3c7;" horiz-adv-x="493" 
d="M504 -84l-16 -88q-34 -17 -69 -23q-28 2 -45 9.5t-29.5 25.5t-27.5 54l-72 167l-73 -186l-18 -60h-144l148 331l-81 162q-15 28 -25 38.5t-25 10.5q-9 0 -21 -3l-7 13l19 101q24 4 50 4q49 0 77.5 -22t50.5 -74l65 -149l71 181l18 60h144l-146 -328l98 -196
q10 -22 29 -22q8 0 18 3z" />
    <glyph glyph-name="psi" unicode="&#x3c8;" horiz-adv-x="694" 
d="M653 469l-7 -296q-1 -85 -58 -131t-171 -50l2 -177h-147l4 177q-119 1 -176.5 47t-55.5 134l1 73l-2 212l139 11l-7 -277q-1 -46 22.5 -67t80.5 -22l2 88l-6 354l146 10l-6 -349l1 -103q56 2 78 23t22 66l-1 266z" />
    <glyph glyph-name="omega" unicode="&#x3c9;" horiz-adv-x="703" 
d="M615 428q37 -36 49.5 -85.5t12.5 -117.5q0 -116 -48.5 -174.5t-135.5 -58.5q-105 0 -148 92q-44 -92 -147 -92q-83 0 -128 58.5t-45 174.5q0 101 38.5 164.5t129.5 90.5l56 -83v-20q-46 -23 -61 -54t-15 -96q0 -70 12.5 -101t42.5 -31q23 0 37.5 20.5t14.5 65.5v122
l138 9l6 -5v-119q0 -47 13 -70t36 -23q30 0 43 30.5t13 99.5q0 50 -5.5 78t-21.5 45.5t-49 29.5v20l56 82q69 -16 106 -52z" />
    <glyph glyph-name="iotadieresis" unicode="&#x3ca;" horiz-adv-x="272" 
d="M80.5 25.5q-29.5 31.5 -29.5 83.5l3 134l-6 215l157 12l-8 -333q0 -17 4 -24t15 -7q9 0 22 4l11 -9l-14 -83q-39 -19 -78 -24q-47 0 -76.5 31.5zM98.5 677.5q18.5 -18.5 18.5 -51.5q0 -35 -20 -55.5t-55 -20.5q-34 0 -51.5 18t-17.5 52q0 35 20 55.5t55 20.5
q32 0 50.5 -18.5zM280 677.5q18 -18.5 18 -51.5q0 -35 -20 -55.5t-54 -20.5t-51.5 18t-17.5 52q0 35 20 55.5t55 20.5q32 0 50 -18.5z" />
    <glyph glyph-name="upsilondieresis" unicode="&#x3cb;" horiz-adv-x="506" 
d="M95 37.5q-52 46.5 -50 132.5l2 77l-3 212l150 11l-7 -280q-1 -42 14.5 -61t49.5 -19q35 0 51 19t16 61l-3 269l149 11l-7 -300q-1 -86 -55.5 -132.5t-154.5 -46.5t-152 46.5zM215.5 677.5q18.5 -18.5 18.5 -51.5q0 -35 -20 -55.5t-55 -20.5q-34 0 -51.5 18t-17.5 52
q0 35 20 55.5t55 20.5q32 0 50.5 -18.5zM397 677.5q18 -18.5 18 -51.5q0 -35 -20 -55.5t-54 -20.5t-51.5 18t-17.5 52q0 35 20 55.5t55 20.5q32 0 50 -18.5z" />
    <glyph glyph-name="omicrontonos" unicode="&#x3cc;" horiz-adv-x="494" 
d="M415.5 418q55.5 -60 55.5 -175q0 -124 -59.5 -189t-172.5 -65q-106 0 -161 60t-55 174q0 125 59 190t172 65q106 0 161.5 -60zM186.5 344q-16.5 -27 -16.5 -94q0 -61 7.5 -94.5t25 -48t47.5 -14.5q40 0 56.5 27t16.5 95q0 60 -7.5 93.5t-25 48t-47.5 14.5
q-40 0 -56.5 -27zM270 755l100 -39l5 -14q-51 -102 -87 -169l-12 -8l-79 31q31 89 60 192z" />
    <glyph glyph-name="upsilontonos" unicode="&#x3cd;" horiz-adv-x="506" 
d="M95 37.5q-52 46.5 -50 132.5l2 77l-3 212l150 11l-7 -280q-1 -42 14.5 -61t49.5 -19q35 0 51 19t16 61l-3 269l149 11l-7 -300q-1 -86 -55.5 -132.5t-154.5 -46.5t-152 46.5zM276 755l100 -39l5 -14q-51 -102 -87 -169l-12 -8l-79 31q31 89 60 192z" />
    <glyph glyph-name="omegatonos" unicode="&#x3ce;" horiz-adv-x="703" 
d="M615 428q37 -36 49.5 -85.5t12.5 -117.5q0 -116 -48.5 -174.5t-135.5 -58.5q-105 0 -148 92q-44 -92 -147 -92q-83 0 -128 58.5t-45 174.5q0 101 38.5 164.5t129.5 90.5l56 -83v-20q-46 -23 -61 -54t-15 -96q0 -70 12.5 -101t42.5 -31q23 0 37.5 20.5t14.5 65.5v122
l138 9l6 -5v-119q0 -47 13 -70t36 -23q30 0 43 30.5t13 99.5q0 50 -5.5 78t-21.5 45.5t-49 29.5v20l56 82q69 -16 106 -52zM376 730l100 -39l5 -14q-51 -102 -87 -169l-12 -8l-79 31q31 89 60 192z" />
    <glyph glyph-name="uni03CF" unicode="&#x3cf;" horiz-adv-x="631" 
d="M619 34v-15q-41 -126 -104 -186.5t-154 -60.5l-20 1q-53 49 -65 122l13 12q15 -2 41 -2q52 0 85.5 20t56.5 65l-36 17q-118 169 -204 312l-2 -112l7 -207h-163l8 191l-8 454h165l-6 -289l157 224l36 65h174l-213 -304q106 -157 232 -307z" />
    <glyph glyph-name="uni03D1" unicode="&#x3d1;" horiz-adv-x="510" 
d="M421.5 621.5q53.5 -85.5 53.5 -260.5q0 -186 -58 -277t-169 -91q-212 0 -212 344q0 186 58.5 278t169.5 92q104 0 157.5 -85.5zM193 550q-19 -46 -21 -155l166 5q-4 107 -23 151.5t-61 44.5t-61 -46zM317.5 145q18.5 45 21.5 150l-166 -6q5 -104 24 -146.5t62 -42.5
q40 0 58.5 45z" />
    <glyph glyph-name="uni03D5" unicode="&#x3d5;" horiz-adv-x="696" 
d="M415 -12l2 -173h-148l3 172q-128 12 -190.5 72t-62.5 172q0 93 43.5 156t128.5 94l51 -77v-19q-42 -23 -59.5 -54.5t-17.5 -85.5q0 -67 25.5 -102t84.5 -47l4 213q2 77 53 123t137 46q98 0 152.5 -59.5t54.5 -168.5q0 -235 -261 -262zM504 137q27 35 27 106
q0 62 -18 95.5t-51 33.5q-25 0 -38.5 -20t-12.5 -55l3 -204q63 9 90 44z" />
    <glyph glyph-name="uni03D6" unicode="&#x3d6;" horiz-adv-x="641" 
d="M523 357l-6 -198q0 -24 8 -35t25 -11q18 0 45 11l11 -11l-15 -86q-41 -27 -76 -33q-67 0 -104 33t-37 91l5 108l-3 131h-109l1 -357h-153l12 191l-3 163q-44 -8 -86 -32l-15 2l-30 62v16q28 34 64 49.5t86 15.5h473l5 -8l-9 -102h-89z" />
    <glyph glyph-name="uni03D7" unicode="&#x3d7;" horiz-adv-x="516" 
d="M491 48q2 -2 16 -22l-1 -16q-36 -107 -94 -157.5t-141 -48.5q-57 47 -71 117l12 12q9 -1 25 -1q49 0 81 14.5t53 47.5l-35 13q-86 135 -128 223l-1 -23l6 -207h-158l7 191l-5 267l157 12l-5 -205l102 151l24 52h163l-146 -210q39 -64 139 -210z" />
    <glyph glyph-name="uni03F0" unicode="&#x3f0;" horiz-adv-x="512" 
d="M488 53q7 -9 19 -27l-1 -16q-52 -12 -147 -21l-17 8q-92 146 -134 233l-1 -23l6 -207h-158l7 191l-5 267l157 12l-5 -205l102 151l24 52h163l-146 -210q45 -75 136 -205z" />
    <glyph glyph-name="uni0400" unicode="&#x400;" horiz-adv-x="553" 
d="M501 132l9 -12l-10 -120h-426l9 191l-9 454h432l9 -12l-11 -120l-157 6l-110 -1l-2 -129h105l105 3l9 -12l-10 -120l-115 3h-97l-1 -56l2 -80l106 -1zM425 784l-25 -66l-14 -4q-129 41 -225 75l-5 13l40 95l15 3q105 -62 214 -116z" />
    <glyph glyph-name="uni0401" unicode="&#x401;" horiz-adv-x="553" 
d="M501 132l9 -12l-10 -120h-426l9 191l-9 454h432l9 -12l-11 -120l-157 6l-110 -1l-2 -129h105l105 3l9 -12l-10 -120l-115 3h-97l-1 -56l2 -80l106 -1zM252.5 854.5q18.5 -18.5 18.5 -51.5q0 -35 -20 -55.5t-55 -20.5q-34 0 -51.5 18t-17.5 52q0 35 20 55.5t55 20.5
q32 0 50.5 -18.5zM434 854.5q18 -18.5 18 -51.5q0 -35 -20 -55.5t-54 -20.5t-51.5 18t-17.5 52q0 35 20 55.5t55 20.5q32 0 50 -18.5z" />
    <glyph glyph-name="uni0402" unicode="&#x402;" horiz-adv-x="692" 
d="M574.5 407.5q43.5 -23.5 63 -75.5t19.5 -142q0 -134 -43 -224.5t-140 -160.5l-61 63v14q96 93 96 278q0 74 -17 103.5t-60 29.5q-54 0 -110 -45l-1 -41l6 -207h-162l8 191l-6 328h-37l-111 -4l-10 12l9 118h509l9 -12l-10 -118l-127 4h-72l-3 -163h9q51 51 123 75
q75 0 118.5 -23.5z" />
    <glyph glyph-name="uni0403" unicode="&#x403;" horiz-adv-x="468" 
d="M459 633l-11 -118l-142 4h-69l-6 -312l6 -207h-162l8 191l-8 454h375zM383 897l40 -95l-5 -13q-98 -36 -225 -75l-14 4l-25 66q111 55 214 116z" />
    <glyph glyph-name="uni0404" unicode="&#x404;" horiz-adv-x="580" 
d="M521 159l15 -8l-13 -133q-90 -28 -175 -28q-313 0 -313 318q0 168 86.5 257t249.5 89q97 0 178 -33l-29 -133l-12 -6q-32 19 -72 29.5t-79 10.5q-66 0 -102 -32t-46 -101h101l141 3l9 -12l-9 -120l-152 3h-90q9 -72 45.5 -104.5t108.5 -32.5q68 0 158 33z" />
    <glyph glyph-name="uni0405" unicode="&#x405;" horiz-adv-x="521" 
d="M474 621l-26 -136l-24 -9q-38 25 -76 39t-66 14q-33 0 -52.5 -16.5t-19.5 -38.5q0 -25 24.5 -42.5t77.5 -41.5q56 -26 90.5 -47.5t60 -57.5t25.5 -88q0 -58 -31.5 -105t-89.5 -74.5t-134 -27.5q-101 0 -200 40l23 145l17 10q42 -35 91.5 -54.5t85.5 -19.5q38 0 57.5 17
t19.5 40q0 27 -25 45t-78 42q-54 25 -88.5 46.5t-59.5 57.5t-25 88q0 59 31.5 106.5t88 74.5t129.5 27q86 0 174 -34z" />
    <glyph glyph-name="uni0406" unicode="&#x406;" horiz-adv-x="313" 
d="M231 207l6 -207h-163l9 191l-9 454h166z" />
    <glyph glyph-name="uni0407" unicode="&#x407;" horiz-adv-x="308" 
d="M227 207l6 -207h-163l9 191l-9 454h166zM115.5 854.5q18.5 -18.5 18.5 -51.5q0 -35 -20 -55.5t-55 -20.5q-34 0 -51.5 18t-17.5 52q0 35 20 55.5t55 20.5q32 0 50.5 -18.5zM297 854.5q18 -18.5 18 -51.5q0 -35 -20 -55.5t-54 -20.5t-51.5 18t-17.5 52q0 35 20 55.5
t55 20.5q32 0 50 -18.5z" />
    <glyph glyph-name="uni0408" unicode="&#x408;" horiz-adv-x="357" 
d="M279 213l2 -91q0 -59 -19.5 -100.5t-64.5 -72.5t-124 -58l-46 85v14q58 29 81 59t23 77v71l-6 332l-97 -3l-10 11l7 108h263z" />
    <glyph glyph-name="uni0409" unicode="&#x409;" horiz-adv-x="921" 
d="M850.5 361.5q52.5 -45.5 52.5 -132.5q0 -107 -77 -168t-213 -61h-210l8 191l-6 333h-101l-4 -36q-23 -197 -50 -302.5t-67 -150.5t-106 -50l-42 -1l-26 133q48 11 75.5 47.5t45 117t33.5 235.5l14 126l-1 2h392l-5 -238h133q102 0 154.5 -45.5zM711.5 145
q20.5 25 20.5 63q0 41 -23 64t-67 22l-81 -2l-2 -85l3 -91l90 -5q39 9 59.5 34z" />
    <glyph glyph-name="uni040A" unicode="&#x40a;" horiz-adv-x="986" 
d="M915.5 359q52.5 -44 52.5 -130q0 -107 -76.5 -168t-212.5 -61h-209l8 190l-2 87h-129l-116 -3l-1 -67l7 -207h-163l8 191l-8 454h165l-5 -247l123 -2l117 2l-4 248h164l-5 -243h133q101 0 153.5 -44zM798 205q0 40 -23.5 61t-67.5 20l-80 -2l-2 -78l3 -90l89 -5
q81 18 81 94z" />
    <glyph glyph-name="uni040B" unicode="&#x40b;" horiz-adv-x="699" 
d="M502 0l7 191q0 52 -19.5 77t-59.5 25q-54 0 -108 -45l-1 -41l6 -207h-162l8 191l-6 328h-36l-111 -4l-10 12l9 118h509l9 -12l-10 -118l-127 4h-73l-3 -163h9q53 51 123 75q104 0 152.5 -51t48.5 -160l6 -220h-161z" />
    <glyph glyph-name="uni040C" unicode="&#x40c;" horiz-adv-x="628" 
d="M619 34l-2 -18q-79 -19 -160 -27l-19 10q-123 180 -205 319l-2 -111l6 -207h-162l8 191l-8 454h164l-5 -288l157 223l36 65h173l-212 -304q102 -151 231 -307zM417 897l40 -95l-5 -13q-98 -36 -225 -75l-14 4l-25 66q111 55 214 116z" />
    <glyph glyph-name="uni040D" unicode="&#x40d;" horiz-adv-x="713" 
d="M82 191l-8 450l165 8l-11 -405h10l229 401h173l-9 -438l6 -207h-162l8 191v211h-10l-230 -402h-169zM493 784l-25 -66l-14 -4q-129 41 -225 75l-5 13l40 95l15 3q105 -62 214 -116z" />
    <glyph glyph-name="uni040E" unicode="&#x40e;" horiz-adv-x="600" 
d="M593 645l-173 -435q-41 -90 -78 -135.5t-87.5 -64t-136.5 -20.5l-11 2q-19 57 -27 127l6 14q61 5 97 12t59 19l-235 481h173l26 -76l107 -256h13l90 266l19 66h158zM476 795q-25 -49 -75.5 -76.5t-118.5 -27.5q-67 0 -115.5 26.5t-73.5 77.5l79 54h17q13 -37 35 -51.5
t62 -14.5q39 0 59.5 14t35.5 52h15z" />
    <glyph glyph-name="uni040F" unicode="&#x40f;" horiz-adv-x="680" 
d="M598 207l6 -207h-192l-13 -151l-119 -9l-14 160h-192l8 191l-8 454h165l-9 -438l3 -83h214l3 67l-8 454h165z" />
    <glyph glyph-name="uni0410" unicode="&#x410;" horiz-adv-x="614" 
d="M602 0h-165l-17 93l-9 37l-116 2l-100 -3l-8 -26l-18 -103h-159l208 645h195zM380 252l-63 245h-10l-75 -245l74 -2z" />
    <glyph glyph-name="uni0411" unicode="&#x411;" horiz-adv-x="612" 
d="M525.5 352q53.5 -44 53.5 -129q0 -105 -78 -164t-215 -59h-212l9 190l-9 455h470l9 -12l-10 -118l-164 4h-143l-3 -123h136q103 0 156.5 -44zM386.5 141q21.5 24 21.5 61q0 40 -23.5 61.5t-68.5 21.5l-85 -2l-1 -77l3 -92l92 -5q40 8 61.5 32z" />
    <glyph glyph-name="uni0412" unicode="&#x412;" horiz-adv-x="607" 
d="M544 280.5q30 -36.5 30 -96.5q0 -97 -77.5 -143.5t-230.5 -46.5q-100 0 -191 6h-1l9 191l-9 454l254 1q103 0 161 -42t58 -121q0 -51 -25.5 -89.5t-72.5 -60.5q65 -16 95 -52.5zM356.5 518q-25.5 16 -91.5 16h-32l-4 -157l86 -4q34 10 50.5 31t16.5 57q0 41 -25.5 57z
M380 128q30 22 30 63q0 31 -19 49.5t-59 27.5l-105 -2l-1 -59l3 -97q52 -4 67 -4q54 0 84 22z" />
    <glyph glyph-name="uni0413" unicode="&#x413;" horiz-adv-x="468" 
d="M459 633l-11 -118l-142 4h-69l-6 -312l6 -207h-162l8 191l-8 454h375z" />
    <glyph glyph-name="uni0414" unicode="&#x414;" horiz-adv-x="709" 
d="M686 132v-263l-118 -9l-22 140h-392l-20 -131l-120 -9v272h52q44 20 68.5 59t39.5 112.5t30 213.5l14 128h387l-8 -438l2 -75h87zM447 132l2 59l-6 333h-96l-4 -36q-17 -153 -40 -234t-62 -122h206z" />
    <glyph glyph-name="uni0415" unicode="&#x415;" horiz-adv-x="553" 
d="M501 132l9 -12l-10 -120h-426l9 191l-9 454h432l9 -12l-11 -120l-157 6l-110 -1l-2 -129h105l105 3l9 -12l-10 -120l-115 3h-97l-1 -56l2 -80l106 -1z" />
    <glyph glyph-name="uni0416" unicode="&#x416;" horiz-adv-x="903" 
d="M892 33l-2 -17q-80 -20 -158 -27l-18 10q-108 170 -188 318l-2 -110l6 -207h-159l7 191l-2 125q-72 -133 -187 -317l-19 -10q-77 7 -157 27l-2 17q117 155 215 308l-197 304h170l34 -65l142 -222l-4 287h162l-6 -288l143 223l34 65h170l-197 -304q98 -153 215 -308z" />
    <glyph glyph-name="uni0417" unicode="&#x417;" horiz-adv-x="538" 
d="M473 280.5q31 -36.5 31 -95.5q0 -94 -74 -145t-209 -51q-55 0 -105.5 9t-87.5 26l29 132l12 6q32 -18 72 -28.5t79 -10.5q55 0 87.5 20.5t32.5 56.5q0 50 -59 67h-150l-10 12l10 109l138 -2q22 11 33.5 30.5t11.5 42.5q0 32 -22 45.5t-72 13.5q-69 0 -162 -32l-15 8
l13 132q77 28 169 28q121 0 187.5 -44.5t66.5 -124.5q0 -50 -26.5 -89.5t-74.5 -61.5q64 -17 95 -53.5z" />
    <glyph glyph-name="uni0418" unicode="&#x418;" horiz-adv-x="713" 
d="M82 191l-8 450l165 8l-11 -405h10l229 401h173l-9 -438l6 -207h-162l8 191v211h-10l-230 -402h-169z" />
    <glyph glyph-name="uni0419" unicode="&#x419;" horiz-adv-x="713" 
d="M82 191l-8 450l165 8l-11 -405h10l229 401h173l-9 -438l6 -207h-162l8 191v211h-10l-230 -402h-169zM533 795q-25 -49 -75.5 -76.5t-118.5 -27.5q-67 0 -115.5 26.5t-73.5 77.5l79 54h17q13 -37 35 -51.5t62 -14.5q39 0 59.5 14t35.5 52h15z" />
    <glyph glyph-name="uni041A" unicode="&#x41a;" horiz-adv-x="628" 
d="M619 34l-2 -18q-79 -19 -160 -27l-19 10q-123 180 -205 319l-2 -111l6 -207h-162l8 191l-8 454h164l-5 -288l157 223l36 65h173l-212 -304q102 -151 231 -307z" />
    <glyph glyph-name="uni041B" unicode="&#x41b;" horiz-adv-x="640" 
d="M558 207l6 -207h-163l8 191l-6 333h-99l-5 -36q-23 -197 -49.5 -302.5t-66.5 -150.5t-106 -50l-41 -1l-27 133q48 11 75 47.5t44.5 117t33.5 235.5l14 128h390z" />
    <glyph glyph-name="uni041C" unicode="&#x41c;" horiz-adv-x="819" 
d="M769 0h-143l-8 196l-18 212h-10l-128 -343h-124l-112 343h-11l-20 -197l-13 -211h-135l64 645h187l23 -94l83 -276h10l90 273l26 97h184z" />
    <glyph glyph-name="uni041D" unicode="&#x41d;" horiz-adv-x="708" 
d="M626 207l6 -207h-162l8 191l-1 65l-130 1l-115 -3l-1 -47l6 -207h-162l8 191l-8 454h164l-5 -257l123 -2l118 2l-5 257h165z" />
    <glyph glyph-name="uni041E" unicode="&#x41e;" horiz-adv-x="670" 
d="M560 572.5q75 -82.5 75 -234.5q0 -166 -82 -257.5t-231 -91.5q-137 0 -212 84.5t-75 239.5q0 164 81.5 253t230.5 89q138 0 213 -82.5zM258 506.5q-28 -18.5 -41 -60t-13 -112.5q0 -85 13 -133.5t41.5 -69.5t77.5 -21q48 0 76 18.5t40.5 60.5t12.5 115q0 84 -13 132
t-41 68.5t-78 20.5q-47 0 -75 -18.5z" />
    <glyph glyph-name="uni041F" unicode="&#x41f;" horiz-adv-x="678" 
d="M596 207l6 -207h-162l7 191l-5 330h-206l-6 -314l7 -207h-163l8 191l-8 454h530z" />
    <glyph glyph-name="uni0420" unicode="&#x420;" horiz-adv-x="583" 
d="M506.5 594q56.5 -52 56.5 -148q0 -75 -34 -131.5t-96 -87.5t-144 -31h-58l6 -196h-163l9 191l-9 454l272 1q104 0 160.5 -52zM374.5 354.5q18.5 28.5 18.5 75.5q0 50 -24.5 74t-76.5 26l-54 -3l-5 -210l85 -4q38 13 56.5 41.5z" />
    <glyph glyph-name="uni0421" unicode="&#x421;" horiz-adv-x="548" 
d="M520 621l-29 -133l-11 -6q-28 19 -63.5 29.5t-69.5 10.5q-72 0 -106.5 -45t-34.5 -142q0 -210 149 -210q33 0 70 9t67 25l14 -8l-13 -133q-70 -28 -151 -28q-151 0 -229 84t-78 243q0 161 83 249t235 88q92 0 167 -33z" />
    <glyph glyph-name="uni0422" unicode="&#x422;" horiz-adv-x="507" 
d="M497 633l-9 -119l-126 6h-28l-5 -313l6 -207h-162l9 191l-5 329h-30l-127 -6l-10 12l10 119h468z" />
    <glyph glyph-name="uni0423" unicode="&#x423;" horiz-adv-x="600" 
d="M593 645l-173 -435q-41 -90 -78 -135.5t-87.5 -64t-136.5 -20.5l-11 2q-19 57 -27 127l6 14q61 5 97 12t59 19l-235 481h173l26 -76l107 -256h13l90 266l19 66h158z" />
    <glyph glyph-name="uni0424" unicode="&#x424;" horiz-adv-x="806" 
d="M703.5 139q-76.5 -68 -228.5 -82l1 -89h-149l3 88q-305 23 -305 268q0 133 76 200.5t227 81.5l-1 71h152l-1 -70q302 -24 302 -267q0 -133 -76.5 -201zM215.5 220q36.5 -37 117.5 -46l1 18l-4 295q-78 -10 -114.5 -47t-36.5 -109q0 -74 36.5 -111zM588 218.5
q37 36.5 37 108.5q0 74 -35 112t-114 48l-4 -280l1 -34q78 9 115 45.5z" />
    <glyph glyph-name="uni0425" unicode="&#x425;" horiz-adv-x="638" 
d="M423 339l202 -339h-194l-32 70l-86 142l-99 -150l-30 -62h-166l200 315l-202 330h195l32 -71l83 -135l88 142l29 64h170z" />
    <glyph glyph-name="uni0426" unicode="&#x426;" horiz-adv-x="702" 
d="M680 132v-263l-118 -9l-22 140h-466l8 191l-8 454h165l-9 -438l3 -75h205l2 59l-8 454h164l-8 -438l2 -75h90z" />
    <glyph glyph-name="uni0427" unicode="&#x427;" horiz-adv-x="617" 
d="M535 207l6 -207h-162l8 191l-1 71h-11q-51 -51 -123 -75q-104 0 -155.5 48.5t-52.5 148.5l-5 261h165l-2 -219q-1 -48 19.5 -74.5t57.5 -26.5q47 0 105 44l-5 276h165z" />
    <glyph glyph-name="uni0428" unicode="&#x428;" horiz-adv-x="952" 
d="M870 207l6 -207h-802l8 191l-8 454h165l-9 -438l3 -75h167l2 59l-8 454h165l-8 -438l2 -75h167l2 59l-8 454h165z" />
    <glyph glyph-name="uni0429" unicode="&#x429;" horiz-adv-x="981" 
d="M962 132v-263l-118 -9l-22 140h-748l8 191l-8 454h165l-9 -438l3 -75h167l2 59l-8 454h165l-8 -438l2 -75h167l2 59l-8 454h165l-9 -438l2 -75h90z" />
    <glyph glyph-name="uni042A" unicode="&#x42a;" horiz-adv-x="676" 
d="M605 361q52 -46 52 -132q0 -107 -76 -168t-209 -61h-202l8 190l-6 329h-55l-97 -4l-10 12l9 118h315l-5 -238h124q100 0 152 -46zM466.5 145q19.5 25 19.5 63q0 41 -22.5 64t-64.5 22l-72 -2l-2 -86l3 -90l81 -5q38 9 57.5 34z" />
    <glyph glyph-name="uni042B" unicode="&#x42b;" horiz-adv-x="829" 
d="M477 361.5q49 -45.5 49 -132.5q0 -107 -72 -168t-201 -61h-195l9 190l-9 456h164l-4 -239h117q93 0 142 -45.5zM747 207l6 -207h-163l9 191l-9 454h166zM340.5 145.5q17.5 25.5 17.5 62.5q0 41 -20.5 64t-56.5 22l-65 -2l-2 -86l3 -90l74 -5q32 9 49.5 34.5z" />
    <glyph glyph-name="uni042C" unicode="&#x42c;" horiz-adv-x="589" 
d="M518 361.5q52 -45.5 52 -132.5q0 -107 -76 -168t-211 -61h-209l9 190l-9 456h164l-4 -239h131q101 0 153 -45.5zM380 145q20 25 20 63q0 41 -23.5 64t-66.5 22l-78 -2l-2 -86l3 -90l88 -5q39 9 59 34z" />
    <glyph glyph-name="uni042D" unicode="&#x42d;" horiz-adv-x="581" 
d="M546 336q0 -168 -86.5 -257t-249.5 -89q-95 0 -178 34l28 132l13 6q32 -18 72 -28.5t79 -10.5q68 0 103.5 33.5t44.5 105.5l-101 1l-141 -3l-9 12l10 119l151 -3l88 1q-10 69 -46.5 99.5t-105.5 30.5q-67 0 -158 -34l-15 9l13 132q85 28 175 28q313 0 313 -318z" />
    <glyph glyph-name="uni042E" unicode="&#x42e;" horiz-adv-x="910" 
d="M803.5 572q69.5 -83 69.5 -234q0 -167 -76 -258t-215 -91q-115 0 -183 70t-80 198h-48l-40 -2l-1 -48l7 -207h-163l8 191l-8 454h165l-5 -258l44 -1l42 1q17 129 90.5 198.5t196.5 69.5q127 0 196.5 -83zM659.5 128q23.5 18 34 60t10.5 116q0 84 -11 132t-35 68.5
t-66 20.5q-39 0 -62.5 -18t-34 -59.5t-10.5 -113.5q0 -85 11 -133.5t35 -69.5t65 -21q40 0 63.5 18z" />
    <glyph glyph-name="uni042F" unicode="&#x42f;" horiz-adv-x="616" 
d="M534 191l8 -191h-163l7 207h-85q-32 -69 -104 -205l-16 -13q-92 6 -161 31l-2 18q80 97 158 209q-59 31 -90 77.5t-31 106.5q0 63 31.5 112t88.5 76.5t129 27.5l238 -2zM383 330l-4 197l-61 3q-93 -3 -93 -97q0 -42 18.5 -67.5t60.5 -40.5z" />
    <glyph glyph-name="uni0430" unicode="&#x430;" horiz-adv-x="482" 
d="M376 442.5q46 -35.5 46 -101.5q0 -23 -2 -53t-3 -57q-5 -72 -5 -99q0 -14 4.5 -20t15.5 -6q9 0 22 4l11 -9l-14 -83q-33 -23 -81 -27q-30 3 -51 21t-30 51h-7q-50 -53 -102 -73q-74 1 -116.5 40t-42.5 106q0 103 108 121l148 25v29q0 31 -13.5 44.5t-43.5 13.5t-64.5 -13
t-79.5 -41l-10 7l-18 103q45 25 97 39t102 14q83 0 129 -35.5zM191 191q-15 -3 -22.5 -12t-7.5 -27q0 -24 12.5 -37t34.5 -13q32 0 68 34l1 72z" />
    <glyph glyph-name="uni0431" unicode="&#x431;" horiz-adv-x="510" 
d="M440.5 402q46.5 -55 46.5 -164q0 -123 -59 -186t-174 -63q-78 0 -125 31.5t-68.5 99.5t-21.5 182q0 103 18 167t59 103t113 62l93 30q51 16 102 43l14 -9l6 -125q-37 -15 -100 -31l-89 -22q-37 -9 -52.5 -33t-15.5 -70v-35l8 -2q49 58 107 77q92 0 138.5 -55z
M322.5 118.5q16.5 25.5 16.5 86.5q0 68 -18.5 97.5t-61.5 29.5q-38 0 -72 -33q1 -82 8 -126t23.5 -62t47.5 -18q40 0 56.5 25.5z" />
    <glyph glyph-name="uni0432" unicode="&#x432;" horiz-adv-x="499" 
d="M453 202q21 -26 21 -67q0 -73 -59.5 -106.5t-175.5 -33.5q-81 0 -183 5l7 191l-5 277h231q82 0 126 -30.5t44 -88.5q0 -35 -19 -63.5t-54 -44.5q46 -13 67 -39zM205 376l-3 -100l69 -3q23 7 33.5 20t10.5 35q0 26 -19 37t-69 11h-22zM312 100q18 14 18 40q0 18 -10.5 29
t-34.5 18l-84 -1l2 -96q29 -4 58 -4q33 0 51 14z" />
    <glyph glyph-name="uni0433" unicode="&#x433;" horiz-adv-x="378" 
d="M380 458l-9 -103l-106 5h-53l-4 -153l6 -207h-158l7 191l-5 277h315z" />
    <glyph glyph-name="uni0434" unicode="&#x434;" horiz-adv-x="558" 
d="M532 112v-232l-100 -7l-19 127h-287l-18 -120l-101 -7v239h34q30 17 46.5 43.5t27 74t21.5 140.5l12 97h332l-7 -260l3 -95h56zM329 112l3 79l-4 174h-71l-3 -21q-11 -97 -27 -150.5t-41 -81.5h143z" />
    <glyph glyph-name="uni0435" unicode="&#x435;" horiz-adv-x="477" 
d="M427 208l-262 -2q7 -52 36 -77t82 -25t140 31l12 -8l-24 -113q-80 -25 -145 -25q-115 0 -180.5 65t-65.5 179t63 179.5t171 65.5q93 0 144.5 -50t51.5 -139q0 -29 -6 -61zM313 306q0 69 -60 69q-34 0 -56 -22.5t-30 -64.5l144 4z" />
    <glyph glyph-name="uni0436" unicode="&#x436;" horiz-adv-x="744" 
d="M737 26l-1 -16q-53 -12 -147 -21l-17 8q-80 129 -127 236l-1 -26l7 -207h-158l7 191l-1 44q-50 -114 -128 -238l-16 -8q-96 10 -147 21l-1 16q91 137 145 232l-136 210h163l22 -52l97 -155l-4 207h157l-6 -205l98 153l22 52h163l-137 -210q59 -103 146 -232z" />
    <glyph glyph-name="uni0437" unicode="&#x437;" horiz-adv-x="416" 
d="M371 202.5q22 -25.5 22 -67.5q0 -69 -57.5 -106t-164.5 -37q-91 0 -147 21l25 111l10 6q23 -10 53 -16t58 -6q38 0 59 10.5t21 30.5q0 22 -31 34h-116l-8 10l9 95l105 -1q24 14 24 38q0 18 -14 25t-50 7q-47 0 -119 -15l-12 7l11 112q59 14 125 14q97 0 150 -33t53 -93
q0 -36 -19 -64t-55 -45q46 -12 68 -37.5z" />
    <glyph glyph-name="uni0438" unicode="&#x438;" horiz-adv-x="559" 
d="M63 191l-7 273l157 7l-5 -258h8l129 255h157l-7 -257l7 -211h-157l7 181l1 85h-9l-135 -266h-153z" />
    <glyph glyph-name="uni0439" unicode="&#x439;" horiz-adv-x="559" 
d="M63 191l-7 273l157 7l-5 -258h8l129 255h157l-7 -257l7 -211h-157l7 181l1 85h-9l-135 -266h-153zM457 638q-23 -49 -70.5 -76.5t-109.5 -27.5t-106.5 26.5t-68.5 77.5l79 54h16q13 -37 31.5 -51.5t52.5 -14.5q33 0 50.5 13.5t31.5 52.5h14z" />
    <glyph glyph-name="uni043A" unicode="&#x43a;" horiz-adv-x="513" 
d="M507 26v-16q-52 -11 -148 -21l-16 8q-81 126 -135 247v1l-1 -38l6 -207h-157l7 191l-6 267l157 12l-6 -216l105 162l22 52h163l-139 -210q51 -88 148 -232z" />
    <glyph glyph-name="uni043B" unicode="&#x43b;" horiz-adv-x="511" 
d="M447 207l6 -207h-158l7 191l-3 173h-67l-3 -21q-18 -143 -38.5 -217.5t-51 -105t-81.5 -32.5h-35l-22 123q35 10 54.5 34t32 75.5t23.5 149.5l12 96l-1 2h332z" />
    <glyph glyph-name="uni043C" unicode="&#x43c;" horiz-adv-x="638" 
d="M85 467h158l17 -67l54 -179h8l60 174l20 72h156l40 -467h-126l-2 143l-10 127h-9l-89 -226h-103l-77 226h-8l-12 -112l-9 -158h-117z" />
    <glyph glyph-name="uni043D" unicode="&#x43d;" horiz-adv-x="560" 
d="M496 207l6 -207h-158l6 174l-74 1l-67 -2l5 -173h-158l7 191l-5 277h157l-5 -177l74 -2l65 1l-3 178h157z" />
    <glyph glyph-name="uni043E" unicode="&#x43e;" horiz-adv-x="494" 
d="M416.5 418q55.5 -60 55.5 -175q0 -124 -59.5 -189t-172.5 -65q-106 0 -161.5 60t-55.5 174q0 124 59.5 189.5t172.5 65.5q106 0 161.5 -60zM187.5 344.5q-16.5 -26.5 -16.5 -92.5q0 -61 7.5 -95.5t25 -49t47.5 -14.5q39 0 55.5 26.5t16.5 93.5q0 89 -17.5 123.5
t-61.5 34.5q-40 0 -56.5 -26.5z" />
    <glyph glyph-name="uni043F" unicode="&#x43f;" horiz-adv-x="548" 
d="M484 195l6 -195h-158l8 179l-4 179h-124l-4 -163l6 -195h-158l7 179l-5 289h433z" />
    <glyph glyph-name="uni0440" unicode="&#x440;" horiz-adv-x="526" 
d="M455 414.5q48 -59.5 48 -168.5q0 -123 -61.5 -190t-174.5 -67q-24 0 -56 5l3 -179h-157l7 376l-7 267l151 12v-69h7q26 27 50.5 44t54.5 29q87 0 135 -59.5zM355 223q-1 125 -80 125q-33 0 -68 -29v-112l2 -107q32 -10 55 -10q91 0 91 133z" />
    <glyph glyph-name="uni0441" unicode="&#x441;" horiz-adv-x="401" 
d="M377 454l-26 -124l-12 -5q-27 13 -46.5 19t-38.5 6q-40 0 -60.5 -27t-20.5 -80q0 -130 91 -130q36 0 93 21l12 -9l-16 -119q-60 -17 -124 -17q-98 0 -152.5 62.5t-54.5 175.5q0 118 61 184.5t171 66.5q69 0 123 -24z" />
    <glyph glyph-name="uni0442" unicode="&#x442;" horiz-adv-x="406" 
d="M408 458l-8 -102l-96 4h-24l-4 -153l6 -207h-157l7 191l-4 169h-25l-96 -4l-8 10l7 102h394z" />
    <glyph glyph-name="uni0443" unicode="&#x443;" horiz-adv-x="465" 
d="M166 391l70 -235h9l68 221l18 91h134l-146 -429q-23 -69 -54 -112t-77.5 -70.5t-120.5 -49.5l-11 1q-39 38 -69 94l6 15q57 9 98 28t79 55l-170 465l150 6z" />
    <glyph glyph-name="uni0444" unicode="&#x444;" horiz-adv-x="685" 
d="M417 -10l2 -175h-152l2 174q-126 12 -188.5 71.5t-62.5 168.5q0 110 62 171t188 74l-2 166l155 11l-2 -176q125 -13 186.5 -72t61.5 -167q0 -216 -250 -246zM190 140.5q24 -33.5 80 -44.5l1 95l-2 174q-56 -9 -79.5 -39t-23.5 -90q0 -62 24 -95.5zM495 140q24 33 24 94
q0 60 -23 90t-79 40l-2 -153l1 -115q55 11 79 44z" />
    <glyph glyph-name="uni0445" unicode="&#x445;" horiz-adv-x="480" 
d="M202 410l50 -87l52 93l26 51h137l-130 -230l134 -232l-167 -12l-24 64l-50 90l-56 -97l-23 -50h-138l130 234l-131 230l169 7z" />
    <glyph glyph-name="uni0446" unicode="&#x446;" horiz-adv-x="571" 
d="M549 114v-234l-102 -8l-19 128h-372l7 191l-5 277h157l-7 -261l3 -93h124l3 77l-6 277h157l-7 -261l3 -93h64z" />
    <glyph glyph-name="uni0447" unicode="&#x447;" horiz-adv-x="502" 
d="M438 207l7 -207h-158l7 184h-9q-40 -34 -92 -53q-85 0 -124 34.5t-41 110.5l-4 192h157l-4 -160q0 -59 51 -59q32 0 65 23l-4 196h157z" />
    <glyph glyph-name="uni0448" unicode="&#x448;" horiz-adv-x="752" 
d="M689 206l5 -206h-637l6 191l-5 275h145l-7 -260l3 -93h108l3 78l-6 275h146l-7 -260l2 -93h109l2 78l-4 275h143z" />
    <glyph glyph-name="uni0449" unicode="&#x449;" horiz-adv-x="785" 
d="M771 114v-234l-102 -8l-19 128h-593l6 191l-5 275h145l-7 -260l3 -93h108l3 78l-6 275h146l-7 -260l2 -93h109l2 78l-4 275h143l-6 -260l2 -92h80z" />
    <glyph glyph-name="uni044A" unicode="&#x44a;" horiz-adv-x="527" 
d="M479.5 272q41.5 -33 41.5 -96q0 -82 -60.5 -129t-166.5 -47h-179l7 191l-4 169h-30l-81 -5l-8 10l8 103h259l-5 -163h97q80 0 121.5 -33zM359 118q13 17 13 39q0 27 -15.5 42.5t-42.5 14.5l-56 -2v-5l4 -109l60 -3q24 6 37 23z" />
    <glyph glyph-name="uni044B" unicode="&#x44b;" horiz-adv-x="720" 
d="M656 207l6 -207h-158l7 191l-5 267l157 12zM423 272q41 -33 41 -96q0 -82 -59.5 -129t-163.5 -47h-185l7 191l-5 277h157l-4 -163h92q79 0 120 -33zM302 118q12 17 12 39q0 26 -15 42t-40 15l-51 -1v-6l3 -109l59 -3q20 6 32 23z" />
    <glyph glyph-name="uni044C" unicode="&#x44c;" horiz-adv-x="482" 
d="M434 272q43 -33 43 -96q0 -82 -62 -129t-170 -47h-189l7 191l-5 277h157l-4 -163h98q82 0 125 -33zM313 118q14 17 14 39q0 27 -16.5 42.5t-45.5 14.5l-57 -2v-5l3 -109l63 -3q25 6 39 23z" />
    <glyph glyph-name="uni044D" unicode="&#x44d;" horiz-adv-x="444" 
d="M361 417q62 -61 62 -174q0 -120 -67 -187t-186 -67q-76 0 -143 25l27 112l13 6q33 -13 56.5 -19t47.5 -6q45 0 70.5 18.5t34.5 57.5h-75l-99 -2l-7 10l7 95l107 -2h63q-24 75 -115 75q-48 0 -111 -21l-13 9l16 115q56 16 135 16q115 0 177 -61z" />
    <glyph glyph-name="uni044E" unicode="&#x44e;" horiz-adv-x="725" 
d="M647.5 418q53.5 -60 53.5 -175q0 -124 -57 -189t-167 -65q-92 0 -144 47t-63 138l-36 1l-25 -1l5 -174h-158l7 191l-5 277h157l-5 -178l30 -1h32q14 93 69.5 141t149.5 48q103 0 156.5 -60zM538 120q14 27 14 95q0 61 -6.5 94t-22 47.5t-43.5 14.5q-37 0 -51.5 -27
t-14.5 -94q0 -61 7 -94.5t22.5 -48t44.5 -14.5q36 0 50 27z" />
    <glyph glyph-name="uni044F" unicode="&#x44f;" horiz-adv-x="499" 
d="M435 207l6 -207h-149l5 149h-59q-22 -50 -71 -146l-13 -11q-89 3 -141 26l-2 15q54 62 113 142q-44 20 -64 52t-20 82q0 46 24.5 82.5t68 57t98.5 20.5l211 -1zM203.5 356q-15.5 -16 -15.5 -45q0 -59 58 -75l53 4v129l-51 3q-29 0 -44.5 -16z" />
    <glyph glyph-name="uni0450" unicode="&#x450;" horiz-adv-x="477" 
d="M427 208l-262 -2q7 -52 36 -77t82 -25t140 31l12 -8l-24 -113q-80 -25 -145 -25q-115 0 -180.5 65t-65.5 179t63 179.5t171 65.5q93 0 144.5 -50t51.5 -139q0 -29 -6 -61zM313 306q0 69 -60 69q-34 0 -56 -22.5t-30 -64.5l144 4zM375 580l-37 -60l-15 -1
q-107 58 -206 115l-3 14l57 87l14 1q87 -78 190 -156z" />
    <glyph glyph-name="uni0451" unicode="&#x451;" horiz-adv-x="477" 
d="M427 208l-262 -2q7 -52 36 -77t82 -25t140 31l12 -8l-24 -113q-80 -25 -145 -25q-115 0 -180.5 65t-65.5 179t63 179.5t171 65.5q93 0 144.5 -50t51.5 -139q0 -29 -6 -61zM313 306q0 69 -60 69q-34 0 -56 -22.5t-30 -64.5l144 4zM207.5 676.5q18.5 -18.5 18.5 -51.5
q0 -35 -20 -55.5t-55 -20.5q-34 0 -51.5 18t-17.5 52q0 35 20 55.5t55 20.5q32 0 50.5 -18.5zM389 676.5q18 -18.5 18 -51.5q0 -35 -20 -55.5t-54 -20.5t-51.5 18t-17.5 52q0 35 20 55.5t55 20.5q32 0 50 -18.5z" />
    <glyph glyph-name="uni0452" unicode="&#x452;" horiz-adv-x="543" 
d="M436.5 455q33.5 -19 47.5 -63t14 -126q0 -140 -13 -215t-48 -127t-110 -112l-65 55v15q38 35 56.5 74t25.5 101.5t7 177.5q0 47 -5 70.5t-17.5 33t-37.5 9.5q-36 0 -77 -30l-2 -111l8 -207h-159l8 192l-4 329h-62l-10 10l6 73h65l-1 87l158 11l-2 -98h116l10 -11l-5 -72
h-122l-2 -120h5q55 52 120 73q62 0 95.5 -19z" />
    <glyph glyph-name="uni0453" unicode="&#x453;" horiz-adv-x="378" 
d="M380 458l-9 -103l-106 5h-53l-4 -153l6 -207h-158l7 191l-5 277h315zM292 736l57 -87l-3 -14q-99 -57 -206 -115l-14 1l-37 60q105 80 189 156z" />
    <glyph glyph-name="uni0454" unicode="&#x454;" horiz-adv-x="444" 
d="M398 126l13 -9l-16 -111q-27 -8 -63.5 -12.5t-71.5 -4.5q-115 0 -177 61.5t-62 174.5q0 120 67 186.5t187 66.5q78 0 142 -24l-26 -116l-14 -5q-33 13 -56 19t-48 6q-49 0 -75.5 -23t-32.5 -70l42 1l59 22l42 -8l34 -75l-64 -1l-77 -19l-36 69q-1 -5 -1 -16
q0 -64 31.5 -98t91.5 -34q51 0 111 20z" />
    </font>
</defs>
</svg>
