<?xml version="1.0" standalone="no"?>
<!DOCTYPE svg PUBLIC "-//W3C//DTD SVG 1.1//EN" "http://www.w3.org/Graphics/SVG/1.1/DTD/svg11.dtd" >
<svg xmlns="http://www.w3.org/2000/svg" xmlns:xlink="http://www.w3.org/1999/xlink" version="1.1">
<metadata>
Created by FontForge 20170731 at Thu Nov  9 17:49:07 2017
 By Aleksey,,,
Copyright 2013 The Alegreya Sans Project Authors (https://github.com/huertatipografica/Alegreya-Sans)
</metadata>
<defs>
<font id="AlegreyaSans-ExtraBoldItalic" horiz-adv-x="0" >
  <font-face 
    font-family="Alegreya Sans ExtraBold"
    font-weight="800"
    font-style="italic"
    font-stretch="normal"
    units-per-em="1000"
    panose-1="0 0 9 0 0 0 0 0 0 0"
    ascent="800"
    descent="-200"
    x-height="472"
    cap-height="645"
    bbox="-429 -289 1264 1079"
    underline-thickness="42"
    underline-position="-217"
    slope="-7"
    unicode-range="U+000D-FB02"
  />
<missing-glyph horiz-adv-x="146" 
 />
    <glyph glyph-name="Idieresis" unicode="&#xa8;I" horiz-adv-x="304" 
d="M219 206l-18 -206h-159l32 191l48 454h161zM192.5 851q16.5 -17 16.5 -49q0 -33 -18.5 -52.5t-50.5 -19.5t-49 17t-17 49q0 33 19 52.5t52 19.5q31 0 47.5 -17zM347.5 851q16.5 -17 16.5 -49q0 -33 -18.5 -52.5t-50.5 -19.5t-49 17t-17 49q0 33 19 52.5t52 19.5
q31 0 47.5 -17z" />
    <glyph glyph-name="Odieresis" unicode="&#xa8;O" horiz-adv-x="642" 
d="M565 585.5q68 -69.5 68 -205.5q0 -116 -40 -204.5t-117 -137.5t-185 -49q-123 0 -191 71t-68 208q0 116 39.5 203.5t116.5 135.5t185 48q124 0 192 -69.5zM237 468.5q-40 -58.5 -40 -199.5q0 -87 24.5 -123.5t85.5 -36.5q78 0 118 59t40 201q0 86 -24.5 122t-85.5 36
q-78 0 -118 -58.5zM350.5 853q17.5 -18 17.5 -50q0 -34 -19.5 -54t-53.5 -20q-32 0 -49.5 18t-17.5 50q0 34 19.5 54t53.5 20q32 0 49.5 -18zM534 853q18 -18 18 -50q0 -34 -20 -54t-53 -20q-32 0 -49.5 18t-17.5 50q0 34 19.5 54t52.5 20q32 0 50 -18z" />
    <glyph glyph-name="Yacute" unicode="&#xb4;Y" horiz-adv-x="563" 
d="M345 213l-6 -37l-15 -176h-158l30 176l3 39l-148 430h165l8 -48l66 -227h10l133 222l26 53h164zM446 896l40 -92l-5 -14q-87 -32 -223 -75l-15 4l-24 64q124 64 213 117z" />
    <glyph glyph-name="idieresis" unicode="&#xa8;i" horiz-adv-x="246" 
d="M173 114l-4 -108l-145 -10l49 358l4 108l144 10zM140.5 673q16.5 -17 16.5 -49q0 -33 -18.5 -52.5t-50.5 -19.5t-49 17t-17 49q0 33 19 52.5t52 19.5q31 0 47.5 -17zM295.5 673q16.5 -17 16.5 -49q0 -33 -18.5 -52.5t-50.5 -19.5t-49 17t-17 49q0 33 19 52.5t52 19.5
q31 0 47.5 -17z" />
    <glyph glyph-name="odieresis" unicode="&#xa8;o" horiz-adv-x="449" 
d="M293 477q65 -14 100.5 -56.5t35.5 -115.5q0 -141 -69 -224.5t-189 -91.5l-14 2q-137 30 -137 181q0 88 31.5 156t90 107t137.5 43zM177.5 319q-20.5 -47 -20.5 -150q0 -39 9 -55t32 -16q51 0 71.5 47.5t20.5 150.5q0 39 -8.5 54.5t-30.5 15.5q-53 0 -73.5 -47zM238.5 675
q17.5 -18 17.5 -50q0 -34 -19.5 -54t-53.5 -20q-32 0 -49.5 18t-17.5 50q0 34 19.5 54t53.5 20q32 0 49.5 -18zM422 675q18 -18 18 -50q0 -34 -20 -54t-53 -20q-32 0 -49.5 18t-17.5 50q0 34 19.5 54t52.5 20q32 0 50 -18z" />
    <glyph glyph-name="yacute" unicode="&#xb4;y" horiz-adv-x="461" 
d="M460 395q0 -37 -10.5 -72t-32.5 -74l-114 -215q-63 -122 -124.5 -176t-138.5 -54q-42 0 -98 17l5 122l13 13q41 -10 78 -10q63 0 105 38l-103 478l144 10l8 -88l34 -230h15l53 117q28 60 28 109q0 37 -17 62l7 15l131 17q17 -48 17 -79zM353 735l55 -84l-2 -15l-44 -25
q-79 -45 -161 -90l-14 1l-37 58q97 74 189 156z" />
    <glyph glyph-name="Itilde" unicode="&#x7e;I" horiz-adv-x="304" 
d="M219 206l-18 -206h-159l32 191l48 454h161zM380 846v-13l-66 -97l-13 -5q-17 2 -40 9.5t-30 9.5q-45 15 -56 15q-13 0 -23 -10t-20 -23.5t-14 -19.5h-13l-45 45v13l66 96l13 6q26 -5 72 -20q7 -2 27 -8t28 -6q14 0 24.5 11.5t31.5 41.5h13z" />
    <glyph glyph-name="itilde" unicode="&#x7e;i" horiz-adv-x="246" 
d="M173 114l-4 -108l-145 -10l49 358l4 108l144 10zM328 668v-13l-66 -97l-13 -5q-17 2 -40 9.5t-30 9.5q-45 15 -56 15q-13 0 -23 -10t-20 -23.5t-14 -19.5h-13l-45 45v13l66 96l13 6q26 -5 72 -20q7 -2 27 -8t28 -6q14 0 24.5 11.5t31.5 41.5h13z" />
    <glyph glyph-name="Utilde" unicode="&#x7e;U" horiz-adv-x="634" 
d="M585 318l-12 -92q-14 -114 -86 -175t-199 -61q-111 0 -173 48.5t-62 137.5q0 22 3 47l14 97l36 325h158l-56 -401q-2 -24 -2 -33q0 -48 23 -70.5t72 -22.5q58 0 88.5 29.5t37.5 92.5l43 405h160zM570 849v-13l-74 -98l-14 -5q-23 3 -85 20q-54 15 -68 15q-13 0 -24 -9.5
t-23 -23.5l-18 -21h-13l-46 45v13l74 97l14 5q17 -2 45.5 -9t40.5 -10q53 -15 67 -15q13 0 25 10t23.5 24t16.5 20h14z" />
    <glyph glyph-name="utilde" unicode="&#x7e;u" horiz-adv-x="499" 
d="M473 472l-48 -358l-4 -108l-144 -10l21 155h-11q-65 -99 -127 -154l-12 -1q-54 8 -86 35t-32 66l2 18l38 237l5 110l146 9l-45 -286l-1 -16v-3q0 -21 18 -21q19 0 51 38.5t74 115.5l7 55l4 108zM482 671v-13l-75 -98l-14 -5q-23 3 -85 20q-54 15 -68 15q-13 0 -24 -9.5
t-23 -23.5l-18 -21h-13l-46 45v13l75 97l13 6q21 -3 84 -20q56 -15 69 -15t25 10t23.5 24t16.5 20h14z" />
    <glyph glyph-name="uni1EBC" unicode="&#x7e;E" horiz-adv-x="514" 
d="M265 520l-19 -132l104 -1l103 3l8 -11l-25 -117l-112 3l-96 -1l-8 -58l-8 -82l105 -1l159 6l7 -12l-24 -117h-417l31 191l49 454h422l8 -12l-26 -117l-152 5zM529 849v-13l-74 -98l-14 -5q-23 3 -85 20q-54 15 -68 15q-13 0 -24 -9.5t-23 -23.5l-18 -21h-13l-46 45v13
l74 97l14 5q17 -2 45.5 -9t40.5 -10q53 -15 67 -15q13 0 25 10t23.5 24t16.5 20h14z" />
    <glyph glyph-name="uni1EBD" unicode="&#x7e;e" horiz-adv-x="417" 
d="M335 166l43 -55q-68 -92 -176 -121h-15q-86 10 -126.5 54.5t-40.5 129.5q0 87 31.5 154.5t89.5 106.5t135 43l14 -1q53 -10 81.5 -39.5t28.5 -76.5q0 -61 -58.5 -105.5t-185.5 -78.5q4 -39 17 -56.5t39 -17.5q22 0 45 14t61 52zM183.5 353q-21.5 -31 -27.5 -91
q62 16 89 37.5t27 52.5q0 17 -7.5 24.5t-24.5 7.5q-35 0 -56.5 -31zM441 672v-13l-74 -98l-14 -5q-23 3 -85 20q-54 15 -68 15q-13 0 -24 -9.5t-23 -23.5l-18 -21h-13l-46 45v13l74 97l14 5q17 -2 45.5 -9t40.5 -10q53 -15 67 -15q13 0 25 10t23.5 24t16.5 20h14z" />
    <glyph glyph-name="uni1EF8" unicode="&#x7e;Y" horiz-adv-x="563" 
d="M345 213l-6 -37l-15 -176h-158l30 176l3 39l-148 430h165l8 -48l66 -227h10l133 222l26 53h164zM534 849v-13l-74 -98l-14 -5q-23 3 -85 20q-54 15 -68 15q-13 0 -24 -9.5t-23 -23.5l-18 -21h-13l-46 45v13l74 97l14 5q17 -2 45.5 -9t40.5 -10q53 -15 67 -15q13 0 25 10
t23.5 24t16.5 20h14z" />
    <glyph glyph-name="uni1EF9" unicode="&#x7e;y" horiz-adv-x="461" 
d="M460 395q0 -37 -10.5 -72t-32.5 -74l-114 -215q-63 -122 -124.5 -176t-138.5 -54q-42 0 -98 17l5 122l13 13q41 -10 78 -10q63 0 105 38l-103 478l144 10l8 -88l34 -230h15l53 117q28 60 28 109q0 37 -17 62l7 15l131 17q17 -48 17 -79zM461 672v-13l-74 -98l-14 -5
q-23 3 -85 20q-54 15 -68 15q-13 0 -24 -9.5t-23 -23.5l-18 -21h-13l-46 45v13l74 97l14 5q17 -2 45.5 -9t40.5 -10q53 -15 67 -15q13 0 25 10t23.5 24t16.5 20h14z" />
    <glyph glyph-name="fi" unicode="fi" horiz-adv-x="558" 
d="M537 467l-47 -353l-5 -108l-144 -10l49 358l1 20h-148l-24 -168l-27 -203l-4 -108l-145 -10l42 305l21 184h-64l-7 9l10 75h71l3 25q30 220 240 220l128 -23l5 -9l-36 -104l-19 -6q-64 38 -101 38q-60 0 -73 -82l-8 -59h171l104 16z" />
    <glyph glyph-name="fl" unicode="fl" horiz-adv-x="579" 
d="M504 682l-35 -101l-19 -6q-69 30 -110 30q-63 0 -76 -81l-9 -66h98l10 -12l-11 -72h-109l-24 -168l-27 -203l-4 -108l-144 -10l41 305l22 184h-65l-7 9l10 75h72l4 31q14 109 75.5 164.5t169.5 55.5l131 -16zM497 114l-3 -108l-145 -10l82 591l2 107l145 10z" />
    <glyph glyph-name="f_j" unicode="fj" horiz-adv-x="565" 
d="M536 467l-47 -353l-8 -86q-11 -80 -53.5 -132.5t-127.5 -91.5l-45 65l1 14q40 23 61.5 55.5t27.5 82.5l45 333l1 20h-148l-24 -168l-27 -203l-4 -108l-145 -10l42 305l21 184h-64l-7 9l10 75h71l3 25q30 220 240 220l128 -23l5 -9l-36 -104l-19 -6q-35 20 -58.5 29
t-43.5 9q-59 0 -72 -82l-8 -59h171l104 16z" />
    <glyph glyph-name="Gtilde" unicode="&#x7e;G" horiz-adv-x="590" 
d="M511 645q50 -9 89 -26l-52 -143h-14q-46 27 -81 38.5t-78 11.5q-90 0 -134 -60t-44 -208q0 -79 30.5 -112.5t99.5 -33.5q15 0 31 3t34 8l7 47l10 107l147 10l-13 -91l-20 -164q-59 -22 -110 -32t-105 -10q-135 0 -206 69t-71 195q0 192 98 296t281 104q51 0 101 -9z
M569 849v-13l-74 -98l-14 -5q-23 3 -85 20q-54 15 -68 15q-13 0 -24 -9.5t-23 -23.5l-18 -21h-13l-46 45v13l74 97l14 5q17 -2 45.5 -9t40.5 -10q53 -15 67 -15q13 0 25 10t23.5 24t16.5 20h14z" />
    <glyph glyph-name="gtilde" unicode="&#x7e;g" horiz-adv-x="468" 
d="M443 471l-48 -347l-4 -78q-10 -77 -47 -132t-92 -83t-119 -28q-81 0 -128 43t-58 115l4 11l134 64l1 11q-28 22 -40 53.5t-12 74.5q0 66 26 127t77.5 106.5t124.5 65.5h5l82 -19l83 23zM178.5 333q-21.5 -40 -21.5 -109q0 -42 7 -61t17 -19q15 0 47.5 48t70.5 135l4 27
l-63 19q-40 0 -61.5 -40zM224 -69.5q26 25.5 31 74.5l21 151h-13q-45 -80 -106 -137l-48 -38q-8 -6 -11 -12t-3 -13q0 -20 16.5 -35.5t47.5 -15.5q39 0 65 25.5zM471 671v-13l-74 -98l-14 -5q-23 3 -85 20q-54 15 -68 15q-13 0 -24 -9.5t-23 -23.5l-18 -21h-13l-46 45v13
l74 97l14 5q17 -2 45.5 -9t40.5 -10q53 -15 67 -15q13 0 25 10t23.5 24t16.5 20h14z" />
    <glyph glyph-name=".notdef" horiz-adv-x="146" 
 />
    <glyph glyph-name=".null" 
 />
    <glyph glyph-name="nonmarkingreturn" unicode="&#xd;" horiz-adv-x="127" 
 />
    <glyph glyph-name="space" unicode=" " horiz-adv-x="127" 
 />
    <glyph glyph-name="exclam" unicode="!" horiz-adv-x="277" 
d="M285 649l-91 -404l-89 -13l-14 16l37 394l16 18l125 8zM183 134.5q20 -20.5 20 -57.5q0 -39 -22 -62t-60 -23q-37 0 -57 20.5t-20 57.5q0 39 22.5 62t60.5 23q36 0 56 -20.5z" />
    <glyph glyph-name="quotedbl" unicode="&#x22;" horiz-adv-x="383" 
d="M232 633l-69 -234l-73 -12l-11 10l24 239l121 7zM394 633l-69 -234l-72 -12l-11 10l24 239l121 7z" />
    <glyph glyph-name="numbersign" unicode="#" horiz-adv-x="563" 
d="M436 353l-18 -100h83l9 -9l-6 -79h-103l-24 -134h-89l-7 11l22 123h-97l-24 -134h-89l-8 11l22 123h-78l-9 10l7 78h97l18 100h-81l-9 9l6 79h100l24 132h86l10 -11l-22 -121h97l24 132h87l10 -11l-22 -121h81l9 -10l-7 -78h-99zM337 353h-97l-18 -100h97z" />
    <glyph glyph-name="dollar" unicode="$" horiz-adv-x="455" 
d="M222 341.5q16 -10.5 52 -26.5q39 -17 64.5 -32.5t44.5 -42.5t19 -68q0 -58 -38 -107t-113 -67l-15 -134h-77l-10 11l13 115q-85 4 -153 30l35 133l15 10q32 -30 72.5 -48.5t71.5 -18.5q22 0 36.5 11.5t14.5 28.5q0 16 -16.5 27.5t-51.5 26.5q-39 16 -65 32t-45 43.5
t-19 68.5q0 65 44.5 113.5t122.5 63.5l15 133h75l13 -13l-14 -116q62 -5 112 -25l-35 -127l-22 -5q-30 23 -60.5 35.5t-54.5 12.5q-22 0 -34.5 -10.5t-12.5 -26.5q0 -17 16 -27.5z" />
    <glyph glyph-name="percent" unicode="%" horiz-adv-x="874" 
d="M729 651l7 -21l-555 -723l-61 40l-4 15l556 727zM347 615q34 -37 34 -106q0 -105 -51 -164.5t-143 -59.5q-65 0 -99.5 37t-34.5 106q0 105 51.5 164.5t144.5 59.5q64 0 98 -37zM168.5 527.5q-19.5 -26.5 -19.5 -84.5q0 -35 13.5 -51.5t41.5 -16.5q45 0 63 28t18 83
q0 35 -14 51.5t-44 16.5q-39 0 -58.5 -26.5zM807 324q34 -37 34 -106q0 -105 -51 -164.5t-144 -59.5q-64 0 -98.5 37t-34.5 106q0 105 51.5 164.5t144.5 59.5q64 0 98 -37zM628.5 236.5q-19.5 -26.5 -19.5 -84.5q0 -68 55 -68q45 0 63 28.5t18 82.5q0 35 -14 51.5t-44 16.5
q-39 0 -58.5 -26.5z" />
    <glyph glyph-name="ampersand" unicode="&#x26;" horiz-adv-x="646" 
d="M420.5 649q37.5 -7 85.5 -23l-36 -114l-18 -5q-79 45 -134 45q-43 0 -66.5 -21t-23.5 -62q0 -90 83 -92l224 13l122 16l14 -15l-24 -98l-134 -4l-4 -6q20 -33 20 -84q0 -54 -28.5 -102t-88 -78t-146.5 -30q-105 0 -165 45t-60 123q0 52 34.5 94t101.5 71v4
q-74 52 -74 142q0 85 64.5 136.5t176.5 51.5q39 0 76.5 -7zM257 279q-78 -41 -78 -108q0 -41 27 -63.5t77 -22.5q63 0 96.5 31t33.5 87q0 53 -34 81z" />
    <glyph glyph-name="quotesingle" unicode="'" horiz-adv-x="221" 
d="M232 633l-69 -234l-73 -12l-11 10l24 239l121 7z" />
    <glyph glyph-name="parenleft" unicode="(" horiz-adv-x="300" 
d="M338 614l-2 -13q-85 -73 -120 -203t-35 -253q0 -77 17 -130.5t55 -94.5l-2 -12l-61 -46h-14q-62 50 -90.5 119t-28.5 169q0 150 49 289.5t168 220.5h14z" />
    <glyph glyph-name="parenright" unicode=")" horiz-adv-x="299" 
d="M-40 -92l2 13q85 73 120 203t35 253q0 77 -17 130.5t-55 94.5l2 12l61 46h14q62 -50 90.5 -119t28.5 -169q0 -150 -49 -289.5t-168 -220.5h-14z" />
    <glyph glyph-name="asterisk" unicode="*" horiz-adv-x="387" 
d="M293 736l-32 -124l-45 -5l-8 7l-4 117q39 14 84 14zM196 602l-8 -45l-10 -5l-109 31q-2 41 11 85l11 3zM422 567l-6 -7l-124 -8l-21 41l5 10l107 40q24 -33 39 -76zM287 534l70 -92q-17 -27 -59 -61l-10 3l-44 121l32 30zM224 513l2 -10l-62 -98q-34 11 -78 38l1 10
l97 81z" />
    <glyph glyph-name="plus" unicode="+" horiz-adv-x="477" 
d="M320 469l-20 -158h157l9 -11l-19 -94h-160l-19 -160l-95 -8l-10 10l20 158h-158l-8 11l19 94h160l19 160l95 8z" />
    <glyph glyph-name="comma" unicode="," horiz-adv-x="229" 
d="M176 57q0 -49 -32 -95.5t-100 -93.5l-49 43l-2 11q56 47 56 102q0 37 -32 66v13q57 32 113 47q46 -39 46 -93z" />
    <glyph glyph-name="hyphen" unicode="-" horiz-adv-x="302" 
d="M285 315l-11 -96l-242 -37l-10 12l11 96l242 36z" />
    <glyph glyph-name="period" unicode="." horiz-adv-x="230" 
d="M154.5 134.5q19.5 -20.5 19.5 -57.5q0 -39 -22 -62t-60 -23q-37 0 -57 20.5t-20 57.5q0 39 22.5 62t60.5 23q37 0 56.5 -20.5z" />
    <glyph glyph-name="slash" unicode="/" horiz-adv-x="283" 
d="M340 668l-262 -784h-107l-9 12l262 785h105z" />
    <glyph glyph-name="zero" unicode="0" horiz-adv-x="522" 
d="M442 461.5q50 -55.5 50 -167.5q0 -89 -31.5 -158t-91 -107.5t-139.5 -38.5q-95 0 -145 56t-50 167q0 88 31.5 157t90.5 108t140 39q95 0 145 -55.5zM157 233q0 -56 21 -81.5t71 -25.5q60 0 90 36t30 104q0 57 -21.5 82t-71.5 25q-119 0 -119 -140z" />
    <glyph glyph-name="one" unicode="1" horiz-adv-x="367" 
d="M309 499l-44 -290l-19 -209h-157l30 193l18 145l-109 -26l-10 8l15 125l255 70z" />
    <glyph glyph-name="two" unicode="2" horiz-adv-x="478" 
d="M385 482.5q46 -32.5 46 -90.5q0 -40 -31 -84t-109 -120l-66 -65l3 -5h113l93 9l8 -10l-34 -124l-128 7h-228l-37 -3l-7 6l12 95l145 125q56 49 81 77.5t25 50.5q0 15 -11.5 24t-33.5 9q-30 0 -66.5 -15.5t-70.5 -41.5h-17l-11 121q110 67 207 67q71 0 117 -32.5z" />
    <glyph glyph-name="three" unicode="3" horiz-adv-x="439" 
d="M361.5 481q49.5 -36 49.5 -93q0 -42 -29.5 -86t-82.5 -70v-5q45 -20 67 -47.5t22 -72.5q0 -58 -35 -103.5t-98.5 -71.5t-144.5 -26q-66 0 -118 11l6 119l12 10q61 -22 112 -22q55 0 85 20t30 56q0 50 -68 51h-75l-6 10l17 107l55 2q31 1 59.5 24t28.5 54q0 21 -14 32
t-40 11q-48 0 -121 -42h-16l-9 110q95 58 185 58q79 0 128.5 -36z" />
    <glyph glyph-name="four" unicode="4" horiz-adv-x="512" 
d="M457 44l-78 3l-9 -124l-10 -11l-122 -8l-7 10l21 134h-150l-97 -4l-8 13l12 99l284 353h144l-45 -343h77l8 -13zM145 166h125l21 169h-9z" />
    <glyph glyph-name="five" unicode="5" horiz-adv-x="437" 
d="M438 505l-29 -119l-12 -11l-97 12h-102l-13 -94l60 -13q73 -16 109 -52t36 -95q0 -66 -37 -118t-102 -81.5t-146 -29.5q-56 0 -118 12l6 117l11 11q62 -22 120 -22q54 0 85 23t31 62q0 26 -18 41t-55 21l-103 18l-9 12l37 296l19 17l59 -3h152l109 6z" />
    <glyph glyph-name="six" unicode="6" horiz-adv-x="489" 
d="M208 354l6 -9q46 22 82 22q49 0 85.5 -23t56 -61.5t19.5 -82.5q0 -50 -25 -98.5t-76.5 -80.5t-127.5 -32q-97 0 -150.5 54.5t-53.5 148.5q0 120 86.5 228t251.5 177h8l96 -69l-2 -16q-187 -56 -256 -158zM166 232q-2 -26 -2 -39q0 -51 15.5 -76t54.5 -25q42 0 61.5 26.5
t19.5 67.5q0 72 -65 72q-40 0 -84 -26z" />
    <glyph glyph-name="seven" unicode="7" horiz-adv-x="439" 
d="M178 509h217l52 2l-13 -114l-194 -333l-82 -163l-120 36l-7 24l250 419h-143l-100 -10l-7 13l26 130z" />
    <glyph glyph-name="eight" unicode="8" horiz-adv-x="502" 
d="M421 558q48 -38 48 -103q0 -88 -102 -143l-1 -7q43 -25 65.5 -55.5t22.5 -79.5q0 -53 -27.5 -93.5t-77.5 -63.5t-116 -23q-95 0 -149.5 39.5t-54.5 106.5q0 54 31 88t92 58l1 7q-36 22 -56 52.5t-20 77.5q0 52 26.5 92t74.5 62.5t111 22.5q84 0 132 -38zM224.5 472.5
q-20.5 -17.5 -20.5 -45.5t18.5 -45t56.5 -32q32 18 49 38t17 47q0 26 -17 40.5t-48 14.5q-35 0 -55.5 -17.5zM179 208q-20 -18 -20 -49q0 -32 19.5 -49t57.5 -17q42 0 66.5 20t24.5 48t-21.5 45t-65.5 35q-41 -15 -61 -33z" />
    <glyph glyph-name="nine" unicode="9" horiz-adv-x="489" 
d="M286 154l-6 9q-46 -22 -82 -22q-49 0 -85.5 23t-56 61.5t-19.5 82.5q0 50 25 98.5t76.5 80.5t127.5 32q97 0 150.5 -54.5t53.5 -148.5q0 -120 -86.5 -228t-251.5 -177h-8l-96 69l2 16q187 56 256 158zM328 276q2 26 2 39q0 51 -15.5 76t-54.5 25q-42 0 -61.5 -26.5
t-19.5 -67.5q0 -72 65 -72q40 0 84 26z" />
    <glyph glyph-name="colon" unicode=":" horiz-adv-x="230" 
d="M154.5 134.5q19.5 -20.5 19.5 -57.5q0 -39 -22 -62t-60 -23q-37 0 -57 20.5t-20 57.5q0 39 22.5 62t60.5 23q37 0 56.5 -20.5zM187.5 394.5q19.5 -20.5 19.5 -57.5q0 -39 -22 -62t-60 -23q-37 0 -57 20.5t-20 57.5q0 39 22.5 62t60.5 23q37 0 56.5 -20.5z" />
    <glyph glyph-name="semicolon" unicode=";" horiz-adv-x="229" 
d="M172 57q0 -49 -32 -95.5t-100 -93.5l-49 43l-2 11q56 47 56 102q0 37 -32 66v13q57 32 113 47q46 -39 46 -93zM182.5 394.5q19.5 -20.5 19.5 -57.5q0 -39 -22 -62t-60 -23q-37 0 -57 20.5t-20 57.5q0 39 22.5 62t60.5 23q37 0 56.5 -20.5z" />
    <glyph glyph-name="less" unicode="&#x3c;" horiz-adv-x="494" 
d="M468 386l-8 -11l-311 -109l-1 -8l285 -105l-31 -87l-16 -10l-354 140l15 125l12 14l387 139z" />
    <glyph glyph-name="equal" unicode="=" horiz-adv-x="478" 
d="M476 398l-8 -94h-422l-10 11l8 94h422zM452 201l-8 -94h-422l-10 11l8 94h422z" />
    <glyph glyph-name="greater" unicode="&#x3e;" horiz-adv-x="503" 
d="M464 335l9 -14l-15 -125l-390 -140l-12 10l-10 87l311 105l1 8l-286 109l-4 11l43 88z" />
    <glyph glyph-name="question" unicode="?" horiz-adv-x="345" 
d="M335.5 626.5q68.5 -38.5 68.5 -105.5q0 -45 -29.5 -85.5t-83.5 -67.5l-71 -38l-3 -6l-4 -79l-110 -16l-9 11l5 131l7 10l93 43q62 29 62 74q0 32 -38 49.5t-127 23.5l-9 14l37 79l15 8q128 -7 196.5 -45.5zM205 134.5q20 -20.5 20 -57.5q0 -39 -22 -62t-60 -23
q-37 0 -57 20.5t-20 57.5q0 39 22.5 62t60.5 23q36 0 56 -20.5z" />
    <glyph glyph-name="at" unicode="@" horiz-adv-x="852" 
d="M733 84q-102 -82 -290 -84l19 138h-14q-47 -86 -101 -144h-20q-60 19 -85.5 58t-25.5 101q0 64 25.5 126.5t78 111t127.5 69.5h6l83 -18l82 21l11 -6l-47 -344v-8q70 13 111 68.5t41 138.5q0 71 -31.5 124t-90 82t-136.5 29q-104 0 -183 -44.5t-122.5 -123t-43.5 -177.5
q0 -104 47 -179t133 -114t200 -39l5 -14l-41 -72q-134 1 -235 48t-156 137t-55 215q0 131 56.5 235.5t160 164t237.5 59.5q107 0 187.5 -39.5t124.5 -113t44 -173.5q0 -151 -102 -233zM413.5 174.5q32.5 49.5 71.5 140.5l3 24l-63 19q-40 0 -62 -41.5t-22 -111.5
q0 -80 24 -80q16 0 48.5 49.5z" />
    <glyph glyph-name="A" unicode="A" horiz-adv-x="600" 
d="M558 0h-160l-5 92l-5 40l-113 2l-98 -3l-13 -30l-31 -101h-156l285 645h190zM373 251l-32 248h-10l-104 -247l72 -2z" />
    <glyph glyph-name="B" unicode="B" horiz-adv-x="591" 
d="M533 280.5q25 -31.5 25 -82.5q0 -101 -79 -152.5t-245 -51.5q-75 0 -191 6l32 191l48 454l240 1q95 0 149.5 -37t54.5 -108q0 -56 -29.5 -99.5t-86.5 -68.5q57 -21 82 -52.5zM403 472q0 36 -22 50t-81 14q-23 0 -37 -1l-23 -159l84 -3q79 21 79 99zM364 129q33 25 33 70
q0 29 -16.5 45.5t-51.5 24.5l-104 -2l-9 -61l-9 -98q50 -4 65 -4q59 0 92 25z" />
    <glyph glyph-name="C" unicode="C" horiz-adv-x="511" 
d="M472.5 645q43.5 -9 77.5 -25l-43 -130l-13 -6q-26 19 -59 29.5t-67 10.5q-85 0 -125.5 -59t-40.5 -179q0 -163 124 -163q33 0 71 9.5t70 25.5l12 -8l-29 -131q-38 -16 -72.5 -22.5t-72.5 -6.5q-132 0 -202.5 70.5t-70.5 199.5q0 123 41 211.5t120.5 135.5t190.5 47
q45 0 88.5 -9z" />
    <glyph glyph-name="D" unicode="D" horiz-adv-x="651" 
d="M574 583q69 -66 69 -187q0 -190 -94.5 -297t-270.5 -107q-99 0 -235 8h-1l32 191l48 454l259 4q124 0 193 -66zM433 176q42 63 42 196q0 79 -28 115.5t-86 36.5q-41 0 -96 -5l-46 -313l-7 -85q25 -4 54 -6t48 -2q77 0 119 63z" />
    <glyph glyph-name="E" unicode="E" horiz-adv-x="514" 
d="M265 520l-19 -132l104 -1l103 3l8 -11l-25 -117l-112 3l-96 -1l-8 -58l-8 -82l105 -1l159 6l7 -12l-24 -117h-417l31 191l49 454h422l8 -12l-26 -117l-152 5z" />
    <glyph glyph-name="F" unicode="F" horiz-adv-x="458" 
d="M265 520l-22 -152l79 -1l111 3l8 -12l-25 -117l-120 3h-71l-5 -38l-19 -206h-159l31 191l49 454h395l8 -12l-26 -118l-152 6z" />
    <glyph glyph-name="G" unicode="G" horiz-adv-x="590" 
d="M511 645q50 -9 89 -26l-52 -143h-14q-46 27 -81 38.5t-78 11.5q-90 0 -134 -60t-44 -208q0 -79 30.5 -112.5t99.5 -33.5q15 0 31 3t34 8l7 47l10 107l147 10l-13 -91l-20 -164q-59 -22 -110 -32t-105 -10q-135 0 -206 69t-71 195q0 192 98 296t281 104q51 0 101 -9z" />
    <glyph glyph-name="H" unicode="H" horiz-adv-x="692" 
d="M672 645l-64 -439l-19 -206h-159l33 191l7 66l-129 2l-115 -3l-7 -50l-18 -206h-159l32 191l48 454h161l-38 -257l121 -3l117 2l27 258h162z" />
    <glyph glyph-name="I" unicode="I" horiz-adv-x="304" 
d="M219 206l-18 -206h-159l32 191l48 454h161z" />
    <glyph glyph-name="J" unicode="J" horiz-adv-x="342" 
d="M254 213l-8 -91q-8 -59 -32.5 -100t-72.5 -72t-128 -58l-35 83l1 13q61 30 87.5 60t32.5 78l9 71l36 333l-95 -2l-9 11l20 106h257z" />
    <glyph glyph-name="K" unicode="K" horiz-adv-x="593" 
d="M390 333q76 -138 190 -300l-5 -17q-82 -20 -160 -27l-16 10q-99 181 -164 320l-16 -113l-19 -206h-159l33 191l48 454h161l-42 -290l182 225l44 65h170z" />
    <glyph glyph-name="L" unicode="L" horiz-adv-x="435" 
d="M419 119l-24 -119h-357l32 191l48 454h161l-62 -439l-7 -75h202z" />
    <glyph glyph-name="M" unicode="M" horiz-adv-x="788" 
d="M719 0h-141l17 196l9 217h-10l-170 -348h-121l-69 348h-10l-45 -203l-38 -210h-133l143 645h183l12 -94l47 -280h10l123 277l38 97h180z" />
    <glyph glyph-name="N" unicode="N" horiz-adv-x="691" 
d="M608 203l-18 -203h-172l-176 404h-10l-23 -178l-22 -226h-145l32 190l48 455h171l177 -404h10l45 398l148 9z" />
    <glyph glyph-name="O" unicode="O" horiz-adv-x="642" 
d="M565 585.5q68 -69.5 68 -205.5q0 -116 -40 -204.5t-117 -137.5t-185 -49q-123 0 -191 71t-68 208q0 116 39.5 203.5t116.5 135.5t185 48q124 0 192 -69.5zM237 468.5q-40 -58.5 -40 -199.5q0 -87 24.5 -123.5t85.5 -36.5q78 0 118 59t40 201q0 86 -24.5 122t-85.5 36
q-78 0 -118 -58.5z" />
    <glyph glyph-name="P" unicode="P" horiz-adv-x="561" 
d="M525 601q53 -45 53 -129q0 -80 -36.5 -142t-103.5 -97t-155 -35h-64l-18 -198h-159l32 191l48 454l256 1q94 0 147 -45zM410 447q0 42 -21 62.5t-68 22.5l-55 -3l-30 -213l86 -4q88 30 88 135z" />
    <glyph glyph-name="Q" unicode="Q" horiz-adv-x="644" 
d="M694 -99q-36 -61 -84 -101l-12 -5q-171 73 -300 194h-9q-123 0 -190 71t-67 208q0 116 40 203.5t117 135.5t186 48q124 0 191 -69t67 -206q0 -127 -48 -220t-137 -137q113 -71 242 -106zM221.5 145.5q24.5 -36.5 85.5 -36.5q78 0 118 59t40 201q0 86 -24.5 122t-85.5 36
q-78 0 -118 -58.5t-40 -199.5q0 -87 24.5 -123.5z" />
    <glyph glyph-name="R" unicode="R" horiz-adv-x="596" 
d="M542.5 349.5q-36.5 -58.5 -102.5 -96.5q55 -109 120 -216l-3 -17q-79 -25 -161 -31l-14 13q-49 120 -78 207h-85v-3l-18 -206h-159l32 191l48 454l257 1q94 0 147 -43.5t53 -123.5q0 -71 -36.5 -129.5zM237 328l87 -4q45 16 65.5 48t20.5 81q0 39 -22 58t-67 21l-55 -3z
" />
    <glyph glyph-name="S" unicode="S" horiz-adv-x="502" 
d="M504 621l-41 -133l-24 -10q-34 25 -70 39t-64 14q-35 0 -56 -17t-21 -41t21.5 -41.5t69.5 -42.5q48 -26 78 -47t52 -54.5t22 -80.5q0 -59 -34.5 -109t-96 -79t-139.5 -29q-99 0 -197 40l39 143l17 9q38 -35 85 -54t83 -19q39 0 60 17.5t21 42.5q0 26 -22.5 44.5
t-69.5 43.5q-46 24 -76 44.5t-51.5 54t-21.5 80.5q0 61 34.5 111t95 79t135.5 29q87 0 171 -34z" />
    <glyph glyph-name="T" unicode="T" horiz-adv-x="501" 
d="M539 633l-24 -117l-122 6h-28l-44 -316l-19 -206h-159l33 191l36 331h-29l-126 -6l-8 12l24 117h459z" />
    <glyph glyph-name="U" unicode="U" horiz-adv-x="634" 
d="M585 318l-12 -92q-14 -114 -86 -175t-199 -61q-111 0 -173 48.5t-62 137.5q0 22 3 47l14 97l36 325h158l-56 -401q-2 -24 -2 -33q0 -48 23 -70.5t72 -22.5q58 0 88.5 29.5t37.5 92.5l43 405h160z" />
    <glyph glyph-name="V" unicode="V" horiz-adv-x="588" 
d="M355 0h-190l-107 645h161l5 -93l53 -407h9l167 398l31 102h155z" />
    <glyph glyph-name="W" unicode="W" horiz-adv-x="892" 
d="M660 0h-167l-46 281h-9l-114 -281h-169l-86 645h155l-1 -87l43 -396h10l134 329l-22 154h162l1 -103l49 -380h9l155 387l29 96h147z" />
    <glyph glyph-name="X" unicode="X" horiz-adv-x="610" 
d="M419 331l154 -331h-186l-22 70l-69 144l-116 -153l-37 -61h-162l235 324l-154 321h187l23 -71l65 -137l105 145l36 63h166z" />
    <glyph glyph-name="Y" unicode="Y" horiz-adv-x="563" 
d="M345 213l-6 -37l-15 -176h-158l30 176l3 39l-148 430h165l8 -48l66 -227h10l133 222l26 53h164z" />
    <glyph glyph-name="Z" unicode="Z" horiz-adv-x="547" 
d="M550 531l-348 -412h191l113 9l4 -8l-27 -124l-156 4h-241l-86 -5l14 114l352 416h-182l-112 -9l-5 7l27 124l135 -2h269l67 1z" />
    <glyph glyph-name="bracketleft" unicode="[" horiz-adv-x="298" 
d="M348 640l-9 -69l-105 -14l-72 -591l101 -14l-9 -70l-7 -7l-221 10l55 377l38 376l223 10z" />
    <glyph glyph-name="backslash" unicode="\" horiz-adv-x="392" 
d="M44 668l12 13h105l207 -785l-10 -12h-107z" />
    <glyph glyph-name="bracketright" unicode="]" horiz-adv-x="298" 
d="M-43 -117l9 69l105 14l72 591l-101 14l9 70l7 7l221 -10l-55 -377l-38 -376l-223 -10z" />
    <glyph glyph-name="asciicircum" unicode="^" horiz-adv-x="448" 
d="M423 152l-12 -14l-89 -20l-71 273h-8l-142 -273l-13 -7l-84 33l182 346l15 8h125z" />
    <glyph glyph-name="underscore" unicode="_" horiz-adv-x="442" 
d="M416 -100l-18 -87h-455l-8 11l18 86h455z" />
    <glyph glyph-name="grave" unicode="`" horiz-adv-x="397" 
d="M357 579l-36 -58l-14 -1q-77 42 -205 115l-3 15l56 84l14 1q89 -79 188 -156z" />
    <glyph glyph-name="a" unicode="a" horiz-adv-x="471" 
d="M445 471l-48 -357l-4 -108l-144 -10l19 139h-14q-46 -85 -101 -145h-20q-64 20 -90.5 60.5t-26.5 104.5q0 66 26.5 131t80.5 115.5t132 72.5h6l86 -19l88 23zM222 179q32 51 72 147l3 20l-66 20q-39 0 -60.5 -42t-21.5 -113q0 -83 24 -83q17 0 49 51z" />
    <glyph glyph-name="b" unicode="b" horiz-adv-x="473" 
d="M429 414q27 -40 27 -105q0 -67 -26.5 -132.5t-79.5 -115.5t-129 -71h-6l-89 17l-97 17l77 563l3 107l144 10l-51 -377h14q50 89 103 147h21q62 -20 89 -60zM303 141.5q21 43.5 21 113.5q0 44 -6.5 64.5t-16.5 20.5q-17 0 -50 -50.5t-73 -142.5l-3 -31l70 -18
q37 0 58 43.5z" />
    <glyph glyph-name="c" unicode="c" horiz-adv-x="365" 
d="M367 451l4 -15l-41 -108l-31 -1q-19 23 -31 30.5t-27 7.5q-41 0 -62 -41t-21 -120q0 -51 9 -70.5t32 -19.5q19 0 36.5 15t41.5 51l19 -1l44 -54q-33 -55 -68.5 -85.5t-87.5 -48.5h-20q-76 12 -110 54.5t-34 129.5t31.5 155.5t91.5 107t143 38.5z" />
    <glyph glyph-name="d" unicode="d" horiz-adv-x="471" 
d="M477 704l-80 -590l-4 -108l-145 -10l19 140h-11q-47 -83 -104 -146h-20q-64 20 -90.5 60.5t-26.5 103.5q0 66 27 131.5t81.5 116.5t133.5 72h6l49 -11l17 124l3 107zM220.5 175.5q32.5 48.5 71.5 139.5l4 32l-64 19q-41 0 -63 -42.5t-22 -114.5q0 -42 7 -62t17 -20
q17 0 49.5 48.5z" />
    <glyph glyph-name="e" unicode="e" horiz-adv-x="417" 
d="M335 166l43 -55q-68 -92 -176 -121h-15q-86 10 -126.5 54.5t-40.5 129.5q0 87 31.5 154.5t89.5 106.5t135 43l14 -1q53 -10 81.5 -39.5t28.5 -76.5q0 -61 -58.5 -105.5t-185.5 -78.5q4 -39 17 -56.5t39 -17.5q22 0 45 14t61 52zM183.5 353q-21.5 -31 -27.5 -91
q62 16 89 37.5t27 52.5q0 17 -7.5 24.5t-24.5 7.5q-35 0 -56.5 -31z" />
    <glyph glyph-name="f" unicode="f" horiz-adv-x="318" 
d="M471 677l-39 -99l-19 -6q-48 27 -82 27q-56 0 -68 -82l-8 -59h98l10 -12l-11 -72h-109l-24 -168l-27 -203l-4 -108l-144 -10l41 305l22 184h-65l-7 9l10 75h72l3 25q13 109 73 164.5t164 55.5l107 -15z" />
    <glyph glyph-name="g" unicode="g" horiz-adv-x="468" 
d="M443 471l-48 -347l-4 -78q-10 -77 -47 -132t-92 -83t-119 -28q-81 0 -128 43t-58 115l4 11l134 64l1 11q-28 22 -40 53.5t-12 74.5q0 66 26 127t77.5 106.5t124.5 65.5h5l82 -19l83 23zM178.5 333q-21.5 -40 -21.5 -109q0 -42 7 -61t17 -19q15 0 47.5 48t70.5 135l4 27
l-63 19q-40 0 -61.5 -40zM224 -69.5q26 25.5 31 74.5l21 151h-13q-45 -80 -106 -137l-48 -38q-8 -6 -11 -12t-3 -13q0 -20 16.5 -35.5t47.5 -15.5q39 0 65 25.5z" />
    <glyph glyph-name="h" unicode="h" horiz-adv-x="508" 
d="M444.5 434q31.5 -27 30.5 -66l-1 -13l-39 -240l-5 -109l-147 -10l46 290l2 11q0 23 -17 23q-21 0 -56.5 -42.5t-79.5 -124.5l-5 -39l-3 -108l-145 -10l81 591l3 107l145 10l-54 -394h14q66 100 133 160l12 1q54 -10 85.5 -37z" />
    <glyph glyph-name="i" unicode="i" horiz-adv-x="246" 
d="M173 114l-4 -108l-145 -10l49 358l4 108l144 10zM227.5 680.5q19.5 -20.5 19.5 -57.5q0 -39 -22 -62t-60 -23q-37 0 -57 20.5t-20 57.5q0 39 22.5 62t60.5 23q37 0 56.5 -20.5z" />
    <glyph glyph-name="j" unicode="j" horiz-adv-x="268" 
d="M240 467l-49 -352l-9 -86q-10 -79 -53.5 -131.5t-132.5 -92.5l-46 65l2 14q43 23 65.5 55t29.5 83l44 329v23h-67l-6 9l10 75h72l136 13zM234.5 680.5q19.5 -20.5 19.5 -57.5q0 -39 -22 -62t-60 -23q-37 0 -57 20.5t-20 57.5q0 39 22.5 62t60.5 23q37 0 56.5 -20.5z" />
    <glyph glyph-name="k" unicode="k" horiz-adv-x="515" 
d="M371 181q42 -83 91 -165l-7 -11l-121 -17l-14 7q-46 96 -75 178l5 19q43 27 68.5 56t25.5 53q0 11 -5 16t-12 5q-25 0 -63.5 -42.5t-85.5 -128.5l-5 -37l-3 -108l-145 -10l81 591l3 107l145 10l-54 -391h15q77 103 145 157l13 1q55 -10 86 -39t31 -78q0 -93 -119 -173z
" />
    <glyph glyph-name="l" unicode="l" horiz-adv-x="260" 
d="M178 114l-3 -108l-145 -10l82 591l2 107l145 10z" />
    <glyph glyph-name="m" unicode="m" horiz-adv-x="771" 
d="M706.5 434q31.5 -27 30.5 -66l-1 -13l-39 -240l-4 -109l-148 -10l47 290l1 11q0 23 -17 23q-21 0 -56.5 -43t-80.5 -127l-6 -35l-4 -109l-148 -10l47 290l1 11q0 23 -17 23q-20 0 -54.5 -41t-78.5 -122l-6 -43l-4 -108l-145 -10l50 358l4 108l143 10l-22 -162h14
q67 102 132 160l13 1q54 -10 85 -37t30 -66l-1 -13l-7 -45h12q64 99 132 160l12 1q54 -10 85.5 -37z" />
    <glyph glyph-name="n" unicode="n" horiz-adv-x="506" 
d="M440.5 433.5q33.5 -27.5 32.5 -65.5l-1 -13l-39 -240l-5 -109l-148 -10l48 290l1 11q0 23 -17 23q-21 0 -55.5 -41t-77.5 -122l-6 -43l-4 -108l-145 -10l50 358l4 108l143 10l-22 -162h13q66 100 133 160l12 1q50 -10 83.5 -37.5z" />
    <glyph glyph-name="o" unicode="o" horiz-adv-x="449" 
d="M293 477q65 -14 100.5 -56.5t35.5 -115.5q0 -141 -69 -224.5t-189 -91.5l-14 2q-137 30 -137 181q0 88 31.5 156t90 107t137.5 43zM177.5 319q-20.5 -47 -20.5 -150q0 -39 9 -55t32 -16q51 0 71.5 47.5t20.5 150.5q0 39 -8.5 54.5t-30.5 15.5q-53 0 -73.5 -47z" />
    <glyph glyph-name="p" unicode="p" horiz-adv-x="472" 
d="M430 414q27 -40 27 -105q0 -67 -27 -132t-80 -115.5t-129 -71.5h-6l-57 11l-10 -77l-4 -109l-145 -10l75 549l4 108l143 10l-19 -145h15q51 90 104 147h20q62 -20 89 -60zM304 141.5q21 43.5 21 113.5q0 44 -6.5 64.5t-16.5 20.5q-18 0 -51 -52t-74 -148l-3 -23l72 -19
q37 0 58 43.5z" />
    <glyph glyph-name="q" unicode="q" horiz-adv-x="472" 
d="M446 471l-73 -548l-4 -108l-145 -10l45 331h-14q-49 -86 -103 -146h-20q-64 20 -90.5 60.5t-26.5 103.5q0 66 27 131.5t81 116.5t133 72h6l86 -19l88 23zM222 178.5q33 51.5 73 147.5l3 21l-66 19q-41 0 -63 -42.5t-22 -114.5q0 -42 7 -62t17 -20q18 0 51 51.5z" />
    <glyph glyph-name="r" unicode="r" horiz-adv-x="365" 
d="M381 467l-24 -180l-13 -6l-26 5q-39 -4 -69.5 -28.5t-67.5 -85.5l-8 -58l-4 -108l-145 -10l49 358l4 108l144 10l-21 -155h14q30 50 62.5 87t76.5 67z" />
    <glyph glyph-name="s" unicode="s" horiz-adv-x="362" 
d="M359 450l-35 -116l-20 -7q-24 25 -50.5 39t-46.5 14q-17 0 -28 -10.5t-11 -25.5t13.5 -26.5t42.5 -28.5q31 -19 51.5 -35t35.5 -41t15 -59q0 -47 -27.5 -84.5t-75.5 -58.5t-107 -21q-68 8 -126 29l34 122l16 8q25 -31 57 -49t58 -18q20 0 31 11t11 25q0 15 -13.5 27
t-45.5 32q-48 30 -74.5 57.5t-26.5 71.5q0 51 29 89.5t78 59.5t106 20q56 -7 109 -25z" />
    <glyph glyph-name="t" unicode="t" horiz-adv-x="354" 
d="M203 148l-1 -11q0 -16 14 -16q10 0 21.5 11t34.5 43l12 1l41 -51q-31 -57 -65 -88.5t-78 -45.5q-56 0 -87.5 28.5t-30.5 77.5l3 28l35 231l2 18h-63l-8 9l9 75h72l11 101l136 37l10 -8l-20 -130h105l11 -12l-10 -72h-119z" />
    <glyph glyph-name="u" unicode="u" horiz-adv-x="499" 
d="M473 472l-48 -358l-4 -108l-144 -10l21 155h-11q-65 -99 -127 -154l-12 -1q-54 8 -86 35t-32 66l2 18l38 237l5 110l146 9l-45 -286l-1 -16v-3q0 -21 18 -21q19 0 51 38.5t74 115.5l7 55l4 108z" />
    <glyph glyph-name="v" unicode="v" horiz-adv-x="450" 
d="M450 395q0 -61 -45 -145l-140 -250h-164l-56 463l144 9l1 -88l14 -235h12l68 137q28 56 28 94q0 29 -17 60l6 15l133 19q16 -38 16 -79z" />
    <glyph glyph-name="w" unicode="w" horiz-adv-x="725" 
d="M550 0h-158l-20 274h-12l-104 -274h-158l-53 463l142 9v-79l12 -231h12l86 222l26 84h153l1 -75l13 -231h12l57 124q14 31 21 52.5t7 41.5q0 29 -17 60l6 15l133 19q16 -38 16 -79q0 -32 -11.5 -67t-33.5 -78z" />
    <glyph glyph-name="x" unicode="x" horiz-adv-x="482" 
d="M434 4l-161 -12l-14 63l-36 93l-61 -90l-26 -58h-157l165 241l-94 222l156 13l13 -51l38 -91l58 87l23 46h152l-163 -234z" />
    <glyph glyph-name="y" unicode="y" horiz-adv-x="461" 
d="M460 395q0 -37 -10.5 -72t-32.5 -74l-114 -215q-63 -122 -124.5 -176t-138.5 -54q-42 0 -98 17l5 122l13 13q41 -10 78 -10q63 0 105 38l-103 478l144 10l8 -88l34 -230h15l53 117q28 60 28 109q0 37 -17 62l7 15l131 17q17 -48 17 -79z" />
    <glyph glyph-name="z" unicode="z" horiz-adv-x="433" 
d="M426 445l-252 -321l27 7q5 0 27 -4q24 -4 30 -4q33 0 47.5 16t19.5 65l18 7l59 -19q-2 -107 -39.5 -154.5t-103.5 -47.5q-20 0 -38 3.5t-33.5 8t-21.5 6.5q-45 15 -67 15q-17 0 -30.5 -6.5t-31.5 -23.5h-17l-43 40l244 315l-90 -2l-76 -13l-11 10l25 126l14 9l91 -7
l175 -5l35 20z" />
    <glyph glyph-name="braceleft" unicode="{" horiz-adv-x="298" 
d="M337 647l4 -10l-21 -78q-20 5 -34 5q-60 0 -60 -72q0 -21 5 -49l3 -24t2 -27q0 -39 -21 -69.5t-61 -47.5l-1 -6q28 -14 42.5 -37.5t14.5 -52.5q0 -17 -5.5 -35.5t-16.5 -43.5q-10 -25 -15 -41.5t-5 -31.5q0 -47 46 -47q13 0 35 5l3 -78l-7 -11q-34 -10 -72 -10
q-63 0 -96.5 27t-33.5 77q0 24 6 46.5t18 59.5q7 20 12.5 39.5t5.5 33.5q0 49 -55 67l8 71q38 11 56.5 34t18.5 60q0 22 -3 47q-1 10 -2 25t-1 35q0 74 41.5 112t119.5 38q34 0 69 -11z" />
    <glyph glyph-name="bar" unicode="|" horiz-adv-x="305" 
d="M282 795l-66 -503l-65 -542l-107 -8l-10 13l129 1042l109 9z" />
    <glyph glyph-name="braceright" unicode="}" horiz-adv-x="298" 
d="M-29 -103l-4 10l21 78q20 -5 34 -5q60 0 60 72q0 21 -5 49l-3 24t-2 27q0 39 21 69.5t61 47.5l1 6q-28 14 -42.5 38t-14.5 52q0 17 5.5 35.5t16.5 43.5q10 25 15 41.5t5 31.5q0 47 -46 47q-13 0 -35 -5l-3 78l7 11q34 10 72 10q63 0 96.5 -27t33.5 -77q0 -24 -6 -46.5
t-18 -59.5q-7 -20 -12.5 -39.5t-5.5 -33.5q0 -49 55 -67l-8 -71q-38 -11 -56.5 -34t-18.5 -60q0 -21 3 -47q1 -10 2 -25t1 -35q0 -74 -41.5 -112t-119.5 -38q-34 0 -69 11z" />
    <glyph glyph-name="asciitilde" unicode="~" horiz-adv-x="480" 
d="M121 217q-15 -11 -31 -26t-22 -21h-13l-35 51l1 13l99 100l14 7q36 -7 100 -28q83 -27 104 -27q14 0 28.5 11t30.5 26t22 21h14l33 -51l-1 -13l-97 -101l-15 -5q-25 4 -107 29q-79 25 -97 25q-13 0 -28 -11z" />
    <glyph glyph-name="uni00A0" unicode="&#xa0;" horiz-adv-x="127" 
 />
    <glyph glyph-name="exclamdown" unicode="&#xa1;" horiz-adv-x="278" 
d="M1 -178l91 404l89 13l14 -16l-37 -394l-16 -18l-125 -8zM103 336.5q-20 20.5 -20 57.5q0 39 22 62t60 23q37 0 57 -20.5t20 -57.5q0 -39 -22.5 -62t-60.5 -23q-36 0 -56 20.5z" />
    <glyph glyph-name="cent" unicode="&#xa2;" horiz-adv-x="387" 
d="M308 215l43 -53q-27 -44 -56 -71t-66 -44l-26 -171h-77l-9 11l22 151q-60 16 -88 58.5t-28 120.5q0 105 47.5 183t140.5 103l23 154h75l12 -12l-20 -134l75 -22l6 -14l-35 -96l-29 -1q-18 19 -32.5 27t-32.5 8q-52 0 -79 -44t-27 -127q0 -53 13.5 -76.5t41.5 -23.5
q21 0 42.5 16.5t46.5 57.5z" />
    <glyph glyph-name="sterling" unicode="&#xa3;" horiz-adv-x="460" 
d="M472 581l-20 -109l-11 -7q-61 32 -108 32q-69 0 -78 -68l-11 -82h126l4 -8l-16 -75h-125l-9 -66q-4 -34 -15.5 -54t-34.5 -37v-4h136l104 8l4 -8l-23 -107l-135 4h-265l-5 8l16 85q40 9 60.5 32t24.5 64l9 75h-73l-3 7l15 76h71l7 58q10 92 72.5 141.5t167.5 49.5
q55 0 115 -15z" />
    <glyph glyph-name="currency" unicode="&#xa4;" horiz-adv-x="435" 
d="M461 497l-2 -14l-77 -61q12 -27 12 -61q0 -41 -27 -85l63 -57l1 -14l-76 -71h-13l-52 70q-39 -22 -80 -22q-37 0 -69 19l-65 -70l-15 -1l-62 66l3 14l76 60q-12 26 -12 60q0 47 28 87l-63 58v14l76 70h13l53 -70q36 19 77 19q37 0 66 -17l68 71l15 2zM174 401
q-26 -25 -26 -65q0 -32 19.5 -51.5t52.5 -19.5q40 0 66 25.5t26 65.5q0 32 -19.5 51t-52.5 19q-40 0 -66 -25z" />
    <glyph glyph-name="yen" unicode="&#xa5;" horiz-adv-x="565" 
d="M533 315l5 -6l-13 -64h-137l-47 -68h174l6 -7l-12 -63h-188l-9 -107h-134l19 107h-170l-4 7l11 63h163l-27 68h-126l-4 8l12 62h91l-76 191h141l9 -39l65 -170h8l118 166l23 43h137l-132 -191h97z" />
    <glyph glyph-name="brokenbar" unicode="&#xa6;" horiz-adv-x="305" 
d="M282 795l-54 -416l-108 -14l-9 10l52 422l109 9zM199 147l-48 -397l-106 -8l-11 13l49 394l105 12z" />
    <glyph glyph-name="section" unicode="&#xa7;" horiz-adv-x="435" 
d="M232 488.5q17 -12.5 54 -31.5q42 -22 67.5 -39.5t45 -45.5t19.5 -65q0 -47 -31 -88t-83 -64q47 -40 47 -92q0 -44 -28 -81t-77 -58.5t-108 -21.5q-35 0 -78.5 8.5t-76.5 21.5l30 113l14 9q30 -27 67.5 -43.5t67.5 -16.5q28 0 44.5 13t16.5 29t-17 29t-54 32
q-42 22 -68 39.5t-45.5 45.5t-19.5 65q0 47 30.5 88.5t82.5 65.5q-46 39 -46 91q0 44 28.5 81t77.5 59t108 22q31 0 66.5 -6.5t62.5 -17.5l-29 -109l-19 -5q-29 20 -58 31t-52 11q-24 0 -40 -13t-16 -28q0 -16 17 -28.5zM168 243.5q20 -17.5 63 -41.5q58 27 58 67
q0 25 -20 42.5t-63 41.5q-58 -29 -58 -68q0 -24 20 -41.5z" />
    <glyph glyph-name="dieresis" unicode="&#xa8;" horiz-adv-x="391" 
d="M204.5 675q17.5 -18 17.5 -50q0 -34 -19.5 -54t-53.5 -20q-32 0 -49.5 18t-17.5 50q0 34 19.5 54t53.5 20q32 0 49.5 -18zM388 675q18 -18 18 -50q0 -34 -20 -54t-53 -20q-32 0 -49.5 18t-17.5 50q0 34 19.5 54t52.5 20q32 0 50 -18z" />
    <glyph glyph-name="copyright" unicode="&#xa9;" horiz-adv-x="694" 
d="M512 560q68 -38 105.5 -107t37.5 -160t-37.5 -160t-105.5 -107t-158 -38t-158 38t-105.5 107t-37.5 160t37.5 160t105.5 107t158 38t158 -38zM223.5 514.5q-56.5 -31.5 -87.5 -89t-31 -132.5t31 -132.5t87.5 -89t130.5 -31.5t130.5 31.5t87.5 89t31 132.5t-31 132.5
t-87.5 89t-130.5 31.5t-130.5 -31.5zM466 451l-19 -81l-6 -4q-14 7 -32.5 11t-33.5 4q-35 0 -50.5 -17.5t-15.5 -59.5q0 -47 17 -69.5t54 -22.5q35 0 68 10l8 -4l-8 -81q-32 -9 -75 -9q-85 0 -128 42t-43 123t46 126t131 45q43 0 87 -13z" />
    <glyph glyph-name="ordfeminine" unicode="&#xaa;" horiz-adv-x="329" 
d="M339 645l-32 -243l-4 -74l-94 -6l14 107h-10q-37 -71 -75 -110h-13q-45 14 -62.5 40t-17.5 70q0 73 42 135t121 83h5l61 -10l58 13zM184.5 440q23.5 36 52.5 100l3 25v4l-45 10q-29 -1 -45.5 -31.5t-16.5 -81.5q0 -31 5 -46.5t13 -15.5q10 0 33.5 36z" />
    <glyph glyph-name="guillemotleft" unicode="&#xab;" horiz-adv-x="443" 
d="M244 221l3 23l154 174l68 -38l1 -14l-112 -137l78 -137l-4 -14l-78 -39zM52 221l3 23l154 174l68 -38l1 -14l-112 -137l78 -137l-4 -14l-78 -39z" />
    <glyph glyph-name="logicalnot" unicode="&#xac;" horiz-adv-x="480" 
d="M443 302l-31 -256l-95 -8l-10 10l20 158h-300l-9 11l19 94h401z" />
    <glyph glyph-name="uni00AD" unicode="&#xad;" horiz-adv-x="302" 
d="M285 315l-11 -96l-242 -37l-10 12l11 96l242 36z" />
    <glyph glyph-name="registered" unicode="&#xae;" horiz-adv-x="449" 
d="M361 651q52 -52 52 -136q0 -85 -51.5 -137t-137.5 -52q-84 0 -136 52t-52 137q0 84 52 136t136 52q85 0 137 -52zM335 404q42 42 42 111q0 68 -42 109.5t-110 41.5t-110 -41.5t-42 -109.5q0 -69 42 -111t110 -42t110 42zM300.5 525q-9.5 -16 -27.5 -26q39 -51 50 -64
l-1 -6q-16 -6 -53 -10l-7 5q-18 30 -33 60h-29l3 -61h-54l2 57l-2 138l90 1q34 0 52.5 -16t18.5 -45q0 -17 -9.5 -33zM246 572q-8 6 -26 7l-17 -1l-2 -54l30 -2q12 6 17.5 13t5.5 18q0 13 -8 19z" />
    <glyph glyph-name="macron" unicode="&#xaf;" horiz-adv-x="385" 
d="M389 661l-8 -86h-278l-10 10l8 86h278z" />
    <glyph glyph-name="degree" unicode="&#xb0;" horiz-adv-x="293" 
d="M282 621q33 -34 33 -84q0 -39 -20.5 -72.5t-55 -53t-73.5 -19.5q-51 0 -84 34t-33 84q0 39 20.5 72.5t55 53t73.5 19.5q51 0 84 -34zM136.5 568.5q-21.5 -21.5 -21.5 -52.5q0 -26 16.5 -42.5t42.5 -16.5q31 0 53 21.5t22 52.5q0 26 -16.5 42.5t-42.5 16.5
q-32 0 -53.5 -21.5z" />
    <glyph glyph-name="plusminus" unicode="&#xb1;" horiz-adv-x="478" 
d="M321 469l-20 -158h157l9 -11l-19 -94h-160l-19 -160l-95 -8l-10 10l20 158h-158l-8 11l19 94h160l19 160l95 8zM422 -33l-8 -94h-422l-10 11l8 94h422z" />
    <glyph glyph-name="uni00B2" unicode="&#xb2;" horiz-adv-x="366" 
d="M325.5 681.5q33.5 -23.5 33.5 -64.5q0 -31 -22.5 -66t-76.5 -91l-54 -56l2 -2h80l70 5l5 -8l-24 -92l-98 5h-169l-26 -2l-6 5l9 69l105 97q44 42 62 63.5t18 39.5q0 12 -8.5 18.5t-23.5 6.5q-21 0 -48 -11.5t-51 -31.5h-13l-10 88q88 51 161 51q51 0 84.5 -23.5z" />
    <glyph glyph-name="uni00B3" unicode="&#xb3;" horiz-adv-x="327" 
d="M299 682q35 -24 35 -64q0 -27 -16.5 -53.5t-56.5 -44.5l-1 -4q61 -19 61 -79q0 -59 -56 -95.5t-146 -36.5q-42 0 -79 8l3 84l9 7q44 -12 79 -12q75 0 75 41q0 28 -41 28h-55l-5 7l11 78l32 1q25 1 43 13t18 30q0 25 -36 25q-31 0 -81 -24h-12l-10 78q69 37 137 37
q57 0 92 -24z" />
    <glyph glyph-name="acute" unicode="&#xb4;" horiz-adv-x="380" 
d="M311 734l55 -84l-2 -15l-44 -25q-79 -45 -161 -90l-14 1l-37 58q97 74 189 156z" />
    <glyph glyph-name="uni00B5" unicode="&#xb5;" horiz-adv-x="504" 
d="M481 472l-49 -358l-4 -108l-144 -10l21 155h-11q-52 -96 -103 -154l-12 -1q-15 5 -30 19l-5 -200l-144 -10l74 549l4 108l144 10l-41 -303v-5q0 -19 18 -19q41 0 127 156l7 53l4 108z" />
    <glyph glyph-name="paragraph" unicode="&#xb6;" horiz-adv-x="538" 
d="M573 634l-24 -108h-64l-46 -324l-6 -63q-10 -81 -62 -133.5t-172 -94.5l-32 71l2 14q57 29 84 60t33 77l6 52l37 342h-41q-37 -9 -58 -41.5t-21 -80.5q0 -37 15.5 -68.5t45.5 -53.5l-64 -79q-79 20 -121.5 71t-42.5 125q0 115 76.5 180t211.5 65h234z" />
    <glyph glyph-name="periodcentered" unicode="&#xb7;" horiz-adv-x="230" 
d="M176.5 316.5q19.5 -20.5 19.5 -57.5q0 -39 -22 -62t-60 -23q-37 0 -57 20.5t-20 57.5q0 39 22.5 62t60.5 23q37 0 56.5 -20.5z" />
    <glyph glyph-name="cedilla" unicode="&#xb8;" horiz-adv-x="382" 
d="M164 -46l34 -19q23 -13 32.5 -27.5t9.5 -33.5q0 -34 -27 -56t-73 -22q-47 0 -86 27l10 63l7 2q32 -29 59 -29q22 0 22 19q0 10 -16 18l-49 28l23 104h70z" />
    <glyph glyph-name="uni00B9" unicode="&#xb9;" horiz-adv-x="283" 
d="M270 694l-35 -244l-12 -138h-122l20 127l17 136l-83 -15l-7 5l11 92l196 49z" />
    <glyph glyph-name="ordmasculine" unicode="&#xba;" horiz-adv-x="314" 
d="M232 649q44 -9 68.5 -37.5t24.5 -77.5q0 -97 -47 -154t-130 -62l-8 2q-94 16 -94 121q0 92 47.5 148.5t128.5 60.5zM152.5 545.5q-15.5 -34.5 -15.5 -105.5q0 -30 6.5 -42t23.5 -12q36 0 51 34.5t15 106.5q0 30 -5.5 41.5t-21.5 11.5q-38 0 -53.5 -34.5z" />
    <glyph glyph-name="guillemotright" unicode="&#xbb;" horiz-adv-x="443" 
d="M389 239l-3 -23l-154 -174l-68 38l-1 14l112 137l-78 137l4 14l78 39zM197 239l-3 -23l-154 -174l-68 38l-1 14l112 137l-78 137l4 14l78 39z" />
    <glyph glyph-name="onequarter" unicode="&#xbc;" horiz-adv-x="765" 
d="M264 639l-35 -244l-12 -138h-122l20 127l17 136l-83 -15l-7 5l11 92l196 49zM650 651l6 -21l-554 -723l-61 40l-4 15l556 727zM717 80l-50 1l-4 -73l-8 -8l-95 -5l-5 7l12 80h-97l-72 -2l-6 9l8 72l194 227h111l-30 -219h52l5 -10zM504 169h76l11 94h-7z" />
    <glyph glyph-name="onehalf" unicode="&#xbd;" horiz-adv-x="792" 
d="M264 639l-35 -244l-12 -138h-122l20 127l17 136l-83 -15l-7 5l11 92l196 49zM650 651l6 -21l-554 -723l-61 40l-4 15l556 727zM713.5 369.5q33.5 -23.5 33.5 -64.5q0 -31 -22.5 -66t-76.5 -91l-54 -56l2 -2h80l70 5l5 -8l-24 -92l-98 5h-169l-26 -2l-6 5l9 69l105 97
q44 42 62 63.5t18 39.5q0 12 -8.5 18.5t-23.5 6.5q-21 0 -48 -11.5t-51 -31.5h-13l-10 88q88 51 161 51q51 0 84.5 -23.5z" />
    <glyph glyph-name="threequarters" unicode="&#xbe;" horiz-adv-x="805" 
d="M293 627q35 -24 35 -64q0 -27 -16.5 -53.5t-56.5 -44.5l-1 -4q61 -19 61 -79q0 -59 -56 -95.5t-146 -36.5q-42 0 -79 8l3 84l9 7q43 -12 79 -12q75 0 75 41q0 28 -41 28h-55l-5 7l11 78l32 1q25 1 43 13t18 30q0 25 -36 25q-31 0 -81 -24h-12l-10 78q69 37 137 37
q57 0 92 -24zM690 651l6 -21l-554 -723l-61 40l-4 15l556 727zM757 80l-50 1l-4 -73l-8 -8l-95 -5l-5 7l12 80h-97l-72 -2l-6 9l8 72l194 227h111l-30 -219h52l5 -10zM544 169h76l11 94h-7z" />
    <glyph glyph-name="questiondown" unicode="&#xbf;" horiz-adv-x="344" 
d="M14.5 -155.5q-68.5 38.5 -68.5 105.5q0 45 29.5 85.5t83.5 67.5l71 38l3 6l4 79l110 16l9 -11l-5 -131l-7 -10l-93 -43q-62 -29 -62 -74q0 -32 38 -49.5t127 -23.5l9 -14l-37 -79l-15 -8q-128 7 -196.5 45.5zM145 336.5q-20 20.5 -20 57.5q0 39 22 62t60 23
q37 0 57 -20.5t20 -57.5q0 -39 -22.5 -62t-60.5 -23q-36 0 -56 20.5z" />
    <glyph glyph-name="Agrave" unicode="&#xc0;" horiz-adv-x="600" 
d="M558 0h-160l-5 92l-5 40l-113 2l-98 -3l-13 -30l-31 -101h-156l285 645h190zM373 251l-32 248h-10l-104 -247l72 -2zM479 783l-25 -64l-14 -4q-123 39 -223 75l-5 14l39 92l14 4q83 -50 214 -117z" />
    <glyph glyph-name="Aacute" unicode="&#xc1;" horiz-adv-x="600" 
d="M558 0h-160l-5 92l-5 40l-113 2l-98 -3l-13 -30l-31 -101h-156l285 645h190zM373 251l-32 248h-10l-104 -247l72 -2zM467 896l40 -92l-5 -14q-87 -32 -223 -75l-15 4l-24 64q124 64 213 117z" />
    <glyph glyph-name="Acircumflex" unicode="&#xc2;" horiz-adv-x="600" 
d="M558 0h-160l-5 92l-5 40l-113 2l-98 -3l-13 -30l-31 -101h-156l285 645h190zM373 251l-32 248h-10l-104 -247l72 -2zM217 778q82 54 146 110h30q56 -53 135 -110l-35 -61h-15l-103 62l-66 -34q-38 -18 -56 -28h-15z" />
    <glyph glyph-name="Atilde" unicode="&#xc3;" horiz-adv-x="600" 
d="M558 0h-160l-5 92l-5 40l-113 2l-98 -3l-13 -30l-31 -101h-156l285 645h190zM373 251l-32 248h-10l-104 -247l72 -2zM555 849v-13l-74 -98l-14 -5q-23 3 -85 20q-54 15 -68 15q-13 0 -24 -9.5t-23 -23.5l-18 -21h-13l-46 45v13l74 97l14 5q17 -2 45.5 -9t40.5 -10
q53 -15 67 -15q13 0 25 10t23.5 24t16.5 20h14z" />
    <glyph glyph-name="Adieresis" unicode="&#xc4;" horiz-adv-x="600" 
d="M558 0h-160l-5 92l-5 40l-113 2l-98 -3l-13 -30l-31 -101h-156l285 645h190zM373 251l-32 248h-10l-104 -247l72 -2zM332.5 853q17.5 -18 17.5 -50q0 -34 -19.5 -54t-53.5 -20q-32 0 -49.5 18t-17.5 50q0 34 19.5 54t53.5 20q32 0 49.5 -18zM516 853q18 -18 18 -50
q0 -34 -20 -54t-53 -20q-32 0 -49.5 18t-17.5 50q0 34 19.5 54t52.5 20q32 0 50 -18z" />
    <glyph glyph-name="Aring" unicode="&#xc5;" horiz-adv-x="600" 
d="M558 0h-160l-5 92l-5 40l-113 2l-98 -3l-13 -30l-31 -101h-156l285 645h190zM373 251l-32 248h-10l-104 -247l72 -2zM449.5 889q24.5 -25 24.5 -71q0 -50 -27 -77t-77 -27q-47 0 -72 25t-25 73q0 49 26.5 75.5t76.5 26.5q49 0 73.5 -25zM344 840.5q-9 -8.5 -9 -25.5
q0 -20 9.5 -29t29.5 -9t29 8t9 27q0 37 -39 37q-20 0 -29 -8.5z" />
    <glyph glyph-name="AE" unicode="&#xc6;" horiz-adv-x="814" 
d="M795 117l-25 -117h-400l7 92l2 112l-200 -55l-27 -48l-42 -101h-157l370 645h463l8 -12l-25 -117l-150 5h-81l-4 -156l188 51l10 -9v-111l-201 -51l-3 -122h97l162 6zM381 323l3 176h-10l-117 -210z" />
    <glyph glyph-name="Ccedilla" unicode="&#xc7;" horiz-adv-x="511" 
d="M472.5 645q43.5 -9 77.5 -25l-43 -130l-13 -6q-26 19 -59 29.5t-67 10.5q-85 0 -125.5 -59t-40.5 -179q0 -163 124 -163q33 0 71 9.5t70 25.5l12 -8l-29 -131q-38 -16 -72.5 -22.5t-72.5 -6.5q-132 0 -202.5 70.5t-70.5 199.5q0 123 41 211.5t120.5 135.5t190.5 47
q45 0 88.5 -9zM342 -45l34 -19q23 -13 32.5 -27.5t9.5 -33.5q0 -34 -27 -56t-73 -22q-47 0 -86 27l10 63l7 2q32 -29 59 -29q22 0 22 19q0 10 -16 18l-49 28l23 104h70z" />
    <glyph glyph-name="Egrave" unicode="&#xc8;" horiz-adv-x="514" 
d="M265 520l-19 -132l104 -1l103 3l8 -11l-25 -117l-112 3l-96 -1l-8 -58l-8 -82l105 -1l159 6l7 -12l-24 -117h-417l31 191l49 454h422l8 -12l-26 -117l-152 5zM453 783l-25 -64l-14 -4q-123 39 -223 75l-5 14l39 92l14 4q83 -50 214 -117z" />
    <glyph glyph-name="Eacute" unicode="&#xc9;" horiz-adv-x="514" 
d="M265 520l-19 -132l104 -1l103 3l8 -11l-25 -117l-112 3l-96 -1l-8 -58l-8 -82l105 -1l159 6l7 -12l-24 -117h-417l31 191l49 454h422l8 -12l-26 -117l-152 5zM441 896l40 -92l-5 -14q-87 -32 -223 -75l-15 4l-24 64q124 64 213 117z" />
    <glyph glyph-name="Ecircumflex" unicode="&#xca;" horiz-adv-x="514" 
d="M265 520l-19 -132l104 -1l103 3l8 -11l-25 -117l-112 3l-96 -1l-8 -58l-8 -82l105 -1l159 6l7 -12l-24 -117h-417l31 191l49 454h422l8 -12l-26 -117l-152 5zM191 778q82 54 146 110h30q56 -53 135 -110l-35 -61h-15l-103 62l-66 -34q-38 -18 -56 -28h-15z" />
    <glyph glyph-name="Edieresis" unicode="&#xcb;" horiz-adv-x="514" 
d="M265 520l-19 -132l104 -1l103 3l8 -11l-25 -117l-112 3l-96 -1l-8 -58l-8 -82l105 -1l159 6l7 -12l-24 -117h-417l31 191l49 454h422l8 -12l-26 -117l-152 5zM306.5 853q17.5 -18 17.5 -50q0 -34 -19.5 -54t-53.5 -20q-32 0 -49.5 18t-17.5 50q0 34 19.5 54t53.5 20
q32 0 49.5 -18zM490 853q18 -18 18 -50q0 -34 -20 -54t-53 -20q-32 0 -49.5 18t-17.5 50q0 34 19.5 54t52.5 20q32 0 50 -18z" />
    <glyph glyph-name="Igrave" unicode="&#xcc;" horiz-adv-x="304" 
d="M219 206l-18 -206h-159l32 191l48 454h161zM327 783l-25 -64l-14 -4q-123 39 -223 75l-5 14l39 92l14 4q83 -50 214 -117z" />
    <glyph glyph-name="Iacute" unicode="&#xcd;" horiz-adv-x="304" 
d="M219 206l-18 -206h-159l32 191l48 454h161zM315 896l40 -92l-5 -14q-87 -32 -223 -75l-15 4l-24 64q124 64 213 117z" />
    <glyph glyph-name="Icircumflex" unicode="&#xce;" horiz-adv-x="304" 
d="M219 206l-18 -206h-159l32 191l48 454h161zM65 778q82 54 146 110h30q56 -53 135 -110l-35 -61h-15l-103 62l-66 -34q-38 -18 -56 -28h-15z" />
    <glyph glyph-name="Eth" unicode="&#xd0;" horiz-adv-x="680" 
d="M602 583q69 -66 69 -187q0 -190 -94.5 -297t-270.5 -107q-99 0 -235 8h-1l32 191l48 454l259 4q124 0 193 -66zM461 176q42 63 42 196q0 79 -28 115.5t-86 36.5q-41 0 -96 -5l-46 -313l-7 -85q25 -4 54 -6t48 -2q77 0 119 63zM378.242 359l-12.8711 -94h-338.237
l-6.43555 11l13.5869 94h338.236z" />
    <glyph glyph-name="Ntilde" unicode="&#xd1;" horiz-adv-x="691" 
d="M608 203l-18 -203h-172l-176 404h-10l-23 -178l-22 -226h-145l32 190l48 455h171l177 -404h10l45 398l148 9zM599 849v-13l-74 -98l-14 -5q-23 3 -85 20q-54 15 -68 15q-13 0 -24 -9.5t-23 -23.5l-18 -21h-13l-46 45v13l74 97l14 5q17 -2 45.5 -9t40.5 -10q53 -15 67 -15
q13 0 25 10t23.5 24t16.5 20h14z" />
    <glyph glyph-name="Ograve" unicode="&#xd2;" horiz-adv-x="642" 
d="M565 585.5q68 -69.5 68 -205.5q0 -116 -40 -204.5t-117 -137.5t-185 -49q-123 0 -191 71t-68 208q0 116 39.5 203.5t116.5 135.5t185 48q124 0 192 -69.5zM237 468.5q-40 -58.5 -40 -199.5q0 -87 24.5 -123.5t85.5 -36.5q78 0 118 59t40 201q0 86 -24.5 122t-85.5 36
q-78 0 -118 -58.5zM497 783l-25 -64l-14 -4q-123 39 -223 75l-5 14l39 92l14 4q83 -50 214 -117z" />
    <glyph glyph-name="Oacute" unicode="&#xd3;" horiz-adv-x="642" 
d="M565 585.5q68 -69.5 68 -205.5q0 -116 -40 -204.5t-117 -137.5t-185 -49q-123 0 -191 71t-68 208q0 116 39.5 203.5t116.5 135.5t185 48q124 0 192 -69.5zM237 468.5q-40 -58.5 -40 -199.5q0 -87 24.5 -123.5t85.5 -36.5q78 0 118 59t40 201q0 86 -24.5 122t-85.5 36
q-78 0 -118 -58.5zM485 896l40 -92l-5 -14q-87 -32 -223 -75l-15 4l-24 64q124 64 213 117z" />
    <glyph glyph-name="Ocircumflex" unicode="&#xd4;" horiz-adv-x="642" 
d="M565 585.5q68 -69.5 68 -205.5q0 -116 -40 -204.5t-117 -137.5t-185 -49q-123 0 -191 71t-68 208q0 116 39.5 203.5t116.5 135.5t185 48q124 0 192 -69.5zM237 468.5q-40 -58.5 -40 -199.5q0 -87 24.5 -123.5t85.5 -36.5q78 0 118 59t40 201q0 86 -24.5 122t-85.5 36
q-78 0 -118 -58.5zM235 778q82 54 146 110h30q56 -53 135 -110l-35 -61h-15l-103 62l-66 -34q-38 -18 -56 -28h-15z" />
    <glyph glyph-name="Otilde" unicode="&#xd5;" horiz-adv-x="642" 
d="M565 585.5q68 -69.5 68 -205.5q0 -116 -40 -204.5t-117 -137.5t-185 -49q-123 0 -191 71t-68 208q0 116 39.5 203.5t116.5 135.5t185 48q124 0 192 -69.5zM237 468.5q-40 -58.5 -40 -199.5q0 -87 24.5 -123.5t85.5 -36.5q78 0 118 59t40 201q0 86 -24.5 122t-85.5 36
q-78 0 -118 -58.5zM573 849v-13l-74 -98l-14 -5q-23 3 -85 20q-54 15 -68 15q-13 0 -24 -9.5t-23 -23.5l-18 -21h-13l-46 45v13l74 97l14 5q17 -2 45.5 -9t40.5 -10q53 -15 67 -15q13 0 25 10t23.5 24t16.5 20h14z" />
    <glyph glyph-name="multiply" unicode="&#xd7;" horiz-adv-x="481" 
d="M444 385l-1 -15l-125 -111l97 -112l-2 -15l-79 -61l-99 113l-128 -113l-64 61l2 14l126 113l-98 111l1 15l79 61l100 -114l127 114z" />
    <glyph glyph-name="Oslash" unicode="&#xd8;" horiz-adv-x="642" 
d="M633 380q0 -116 -40 -204.5t-117 -137.5t-185 -49q-47 0 -89 11l-74 -124l-80 37l-5 14l71 119q-82 73 -82 222q0 116 39.5 203.5t116.5 135.5t185 48q52 0 95 -12l59 99l78 -36l7 -16l-57 -95q78 -72 78 -215zM425 168q40 59 40 201q0 86 -24.5 122t-85.5 36
q-78 0 -118 -58.5t-40 -199.5q0 -87 24.5 -123.5t85.5 -36.5q78 0 118 59z" />
    <glyph glyph-name="Ugrave" unicode="&#xd9;" horiz-adv-x="634" 
d="M585 318l-12 -92q-14 -114 -86 -175t-199 -61q-111 0 -173 48.5t-62 137.5q0 22 3 47l14 97l36 325h158l-56 -401q-2 -24 -2 -33q0 -48 23 -70.5t72 -22.5q58 0 88.5 29.5t37.5 92.5l43 405h160zM494 783l-25 -64l-14 -4q-123 39 -223 75l-5 14l39 92l14 4
q83 -50 214 -117z" />
    <glyph glyph-name="Uacute" unicode="&#xda;" horiz-adv-x="634" 
d="M585 318l-12 -92q-14 -114 -86 -175t-199 -61q-111 0 -173 48.5t-62 137.5q0 22 3 47l14 97l36 325h158l-56 -401q-2 -24 -2 -33q0 -48 23 -70.5t72 -22.5q58 0 88.5 29.5t37.5 92.5l43 405h160zM482 896l40 -92l-5 -14q-87 -32 -223 -75l-15 4l-24 64q124 64 213 117z
" />
    <glyph glyph-name="Ucircumflex" unicode="&#xdb;" horiz-adv-x="634" 
d="M585 318l-12 -92q-14 -114 -86 -175t-199 -61q-111 0 -173 48.5t-62 137.5q0 22 3 47l14 97l36 325h158l-56 -401q-2 -24 -2 -33q0 -48 23 -70.5t72 -22.5q58 0 88.5 29.5t37.5 92.5l43 405h160zM232 778q82 54 146 110h30q56 -53 135 -110l-35 -61h-15l-103 62l-66 -34
q-38 -18 -56 -28h-15z" />
    <glyph glyph-name="Udieresis" unicode="&#xdc;" horiz-adv-x="634" 
d="M585 318l-12 -92q-14 -114 -86 -175t-199 -61q-111 0 -173 48.5t-62 137.5q0 22 3 47l14 97l36 325h158l-56 -401q-2 -24 -2 -33q0 -48 23 -70.5t72 -22.5q58 0 88.5 29.5t37.5 92.5l43 405h160zM348.5 853q17.5 -18 17.5 -50q0 -34 -19.5 -54t-53.5 -20q-32 0 -49.5 18
t-17.5 50q0 34 19.5 54t53.5 20q32 0 49.5 -18zM532 853q18 -18 18 -50q0 -34 -20 -54t-53 -20q-32 0 -49.5 18t-17.5 50q0 34 19.5 54t52.5 20q32 0 50 -18z" />
    <glyph glyph-name="Thorn" unicode="&#xde;" horiz-adv-x="569" 
d="M519.5 503q52.5 -44 52.5 -127q0 -79 -36 -140.5t-102 -96t-153 -34.5h-69l-10 -105h-160l32 191l48 454h162l-14 -98h105q92 0 144.5 -44zM384.5 266q22.5 34 22.5 85q0 41 -21 61.5t-67 22.5l-66 -4l-30 -209l96 -4q43 14 65.5 48z" />
    <glyph glyph-name="germandbls" unicode="&#xdf;" horiz-adv-x="607" 
d="M454.5 321q14.5 -15 44.5 -35q45 -31 68.5 -59.5t23.5 -74.5t-27 -83t-74.5 -58t-105.5 -21q-67 7 -126 29l32 120l15 7q27 -31 57.5 -48.5t57.5 -17.5q21 0 33 11.5t12 27.5q0 15 -13 27.5t-40 31.5q-31 22 -50.5 39.5t-34 44.5t-14.5 63q0 42 15.5 69t46.5 61
q24 25 35.5 43.5t11.5 42.5q0 53 -65 53q-82 0 -95 -80l-43 -308l-27 -203l-4 -108l-144 -10l41 305l22 184h-65l-7 9l11 75h71l4 29q13 103 79 160t173 57q88 0 135.5 -37.5t47.5 -98.5q0 -40 -17.5 -68.5t-49.5 -61.5q-26 -27 -37.5 -44t-11.5 -38q0 -20 14.5 -35z" />
    <glyph glyph-name="agrave" unicode="&#xe0;" horiz-adv-x="471" 
d="M445 471l-48 -357l-4 -108l-144 -10l19 139h-14q-46 -85 -101 -145h-20q-64 20 -90.5 60.5t-26.5 104.5q0 66 26.5 131t80.5 115.5t132 72.5h6l86 -19l88 23zM222 179q32 51 72 147l3 20l-66 20q-39 0 -60.5 -42t-21.5 -113q0 -83 24 -83q17 0 49 51zM368 580l-36 -58
l-14 -1q-77 42 -205 115l-3 15l56 84l14 1q89 -79 188 -156z" />
    <glyph glyph-name="aacute" unicode="&#xe1;" horiz-adv-x="471" 
d="M445 471l-48 -357l-4 -108l-144 -10l19 139h-14q-46 -85 -101 -145h-20q-64 20 -90.5 60.5t-26.5 104.5q0 66 26.5 131t80.5 115.5t132 72.5h6l86 -19l88 23zM222 179q32 51 72 147l3 20l-66 20q-39 0 -60.5 -42t-21.5 -113q0 -83 24 -83q17 0 49 51zM353 735l55 -84
l-2 -15l-44 -25q-79 -45 -161 -90l-14 1l-37 58q97 74 189 156z" />
    <glyph glyph-name="acircumflex" unicode="&#xe2;" horiz-adv-x="471" 
d="M445 471l-48 -357l-4 -108l-144 -10l19 139h-14q-46 -85 -101 -145h-20q-64 20 -90.5 60.5t-26.5 104.5q0 66 26.5 131t80.5 115.5t132 72.5h6l86 -19l88 23zM222 179q32 51 72 147l3 20l-66 20q-39 0 -60.5 -42t-21.5 -113q0 -83 24 -83q17 0 49 51zM114 584
q46 37 145 128l18 16h30q49 -59 134 -144l-45 -58h-15q-66 54 -98 87q-29 -24 -72.5 -53t-50.5 -34h-15z" />
    <glyph glyph-name="atilde" unicode="&#xe3;" horiz-adv-x="471" 
d="M445 471l-48 -357l-4 -108l-144 -10l19 139h-14q-46 -85 -101 -145h-20q-64 20 -90.5 60.5t-26.5 104.5q0 66 26.5 131t80.5 115.5t132 72.5h6l86 -19l88 23zM222 179q32 51 72 147l3 20l-66 20q-39 0 -60.5 -42t-21.5 -113q0 -83 24 -83q17 0 49 51zM461 672v-13
l-74 -98l-14 -5q-23 3 -85 20q-54 15 -68 15q-13 0 -24 -9.5t-23 -23.5l-18 -21h-13l-46 45v13l74 97l14 5q17 -2 45.5 -9t40.5 -10q53 -15 67 -15q13 0 25 10t23.5 24t16.5 20h14z" />
    <glyph glyph-name="adieresis" unicode="&#xe4;" horiz-adv-x="471" 
d="M445 471l-48 -357l-4 -108l-144 -10l19 139h-14q-46 -85 -101 -145h-20q-64 20 -90.5 60.5t-26.5 104.5q0 66 26.5 131t80.5 115.5t132 72.5h6l86 -19l88 23zM222 179q32 51 72 147l3 20l-66 20q-39 0 -60.5 -42t-21.5 -113q0 -83 24 -83q17 0 49 51zM238.5 676
q17.5 -18 17.5 -50q0 -34 -19.5 -54t-53.5 -20q-32 0 -49.5 18t-17.5 50q0 34 19.5 54t53.5 20q32 0 49.5 -18zM422 676q18 -18 18 -50q0 -34 -20 -54t-53 -20q-32 0 -49.5 18t-17.5 50q0 34 19.5 54t52.5 20q32 0 50 -18z" />
    <glyph glyph-name="aring" unicode="&#xe5;" horiz-adv-x="471" 
d="M445 471l-48 -357l-4 -108l-144 -10l19 139h-14q-46 -85 -101 -145h-20q-64 20 -90.5 60.5t-26.5 104.5q0 66 26.5 131t80.5 115.5t132 72.5h6l86 -19l88 23zM222 179q32 51 72 147l3 20l-66 20q-39 0 -60.5 -42t-21.5 -113q0 -83 24 -83q17 0 49 51zM355.5 712
q24.5 -25 24.5 -71q0 -50 -27 -77t-77 -27q-47 0 -72 25t-25 73q0 49 26.5 75.5t76.5 26.5q49 0 73.5 -25zM250 663.5q-9 -8.5 -9 -25.5q0 -20 9.5 -29t29.5 -9t29 8t9 27q0 37 -39 37q-20 0 -29 -8.5z" />
    <glyph glyph-name="ae" unicode="&#xe6;" horiz-adv-x="666" 
d="M526 478l14 -1q51 -10 80.5 -38.5t29.5 -76.5q0 -60 -57.5 -104.5t-188.5 -80.5q0 -3 2 -15q4 -31 17 -45.5t36 -14.5q30 0 57 19t47 54l19 -2l46 -60q-75 -94 -177 -123h-15q-77 9 -114 45t-49 104l-3 13q-57 -96 -118 -162h-20q-64 20 -90 61.5t-26 102.5
q0 67 26.5 132.5t81 116t132.5 71.5h6l138 -32q57 33 126 36zM431.5 353q-21.5 -32 -27.5 -93q62 16 91 38.5t29 54.5t-35 32q-36 0 -57.5 -32zM169.5 324.5q-22.5 -42.5 -22.5 -115.5q0 -82 24 -82q17 0 50 50t71 139q5 13 8.5 18.5t6.5 9.5l-74 23q-41 0 -63.5 -42.5z" />
    <glyph glyph-name="ccedilla" unicode="&#xe7;" horiz-adv-x="365" 
d="M367 451l4 -15l-41 -108l-31 -1q-19 23 -31 30.5t-27 7.5q-41 0 -62 -41t-21 -120q0 -51 9 -70.5t32 -19.5q19 0 36.5 15t41.5 51l19 -1l44 -54q-33 -55 -68.5 -85.5t-87.5 -48.5h-20q-76 12 -110 54.5t-34 129.5t31.5 155.5t91.5 107t143 38.5zM215 -45l34 -19
q23 -13 32.5 -27.5t9.5 -33.5q0 -34 -27 -56t-73 -22q-47 0 -86 27l10 63l7 2q32 -29 59 -29q22 0 22 19q0 10 -16 18l-49 28l23 104h70z" />
    <glyph glyph-name="egrave" unicode="&#xe8;" horiz-adv-x="417" 
d="M335 166l43 -55q-68 -92 -176 -121h-15q-86 10 -126.5 54.5t-40.5 129.5q0 87 31.5 154.5t89.5 106.5t135 43l14 -1q53 -10 81.5 -39.5t28.5 -76.5q0 -61 -58.5 -105.5t-185.5 -78.5q4 -39 17 -56.5t39 -17.5q22 0 45 14t61 52zM183.5 353q-21.5 -31 -27.5 -91
q62 16 89 37.5t27 52.5q0 17 -7.5 24.5t-24.5 7.5q-35 0 -56.5 -31zM348 580l-36 -58l-14 -1q-77 42 -205 115l-3 15l56 84l14 1q89 -79 188 -156z" />
    <glyph glyph-name="eacute" unicode="&#xe9;" horiz-adv-x="417" 
d="M335 166l43 -55q-68 -92 -176 -121h-15q-86 10 -126.5 54.5t-40.5 129.5q0 87 31.5 154.5t89.5 106.5t135 43l14 -1q53 -10 81.5 -39.5t28.5 -76.5q0 -61 -58.5 -105.5t-185.5 -78.5q4 -39 17 -56.5t39 -17.5q22 0 45 14t61 52zM183.5 353q-21.5 -31 -27.5 -91
q62 16 89 37.5t27 52.5q0 17 -7.5 24.5t-24.5 7.5q-35 0 -56.5 -31zM333 735l55 -84l-2 -15l-44 -25q-79 -45 -161 -90l-14 1l-37 58q97 74 189 156z" />
    <glyph glyph-name="ecircumflex" unicode="&#xea;" horiz-adv-x="417" 
d="M335 166l43 -55q-68 -92 -176 -121h-15q-86 10 -126.5 54.5t-40.5 129.5q0 87 31.5 154.5t89.5 106.5t135 43l14 -1q53 -10 81.5 -39.5t28.5 -76.5q0 -61 -58.5 -105.5t-185.5 -78.5q4 -39 17 -56.5t39 -17.5q22 0 45 14t61 52zM183.5 353q-21.5 -31 -27.5 -91
q62 16 89 37.5t27 52.5q0 17 -7.5 24.5t-24.5 7.5q-35 0 -56.5 -31zM94 584q46 37 145 128l18 16h30q49 -59 134 -144l-45 -58h-15q-66 54 -98 87q-29 -24 -72.5 -53t-50.5 -34h-15z" />
    <glyph glyph-name="edieresis" unicode="&#xeb;" horiz-adv-x="417" 
d="M335 166l43 -55q-68 -92 -176 -121h-15q-86 10 -126.5 54.5t-40.5 129.5q0 87 31.5 154.5t89.5 106.5t135 43l14 -1q53 -10 81.5 -39.5t28.5 -76.5q0 -61 -58.5 -105.5t-185.5 -78.5q4 -39 17 -56.5t39 -17.5q22 0 45 14t61 52zM183.5 353q-21.5 -31 -27.5 -91
q62 16 89 37.5t27 52.5q0 17 -7.5 24.5t-24.5 7.5q-35 0 -56.5 -31zM218.5 676q17.5 -18 17.5 -50q0 -34 -19.5 -54t-53.5 -20q-32 0 -49.5 18t-17.5 50q0 34 19.5 54t53.5 20q32 0 49.5 -18zM402 676q18 -18 18 -50q0 -34 -20 -54t-53 -20q-32 0 -49.5 18t-17.5 50
q0 34 19.5 54t52.5 20q32 0 50 -18z" />
    <glyph glyph-name="igrave" unicode="&#xec;" horiz-adv-x="246" 
d="M173 114l-4 -108l-145 -10l49 358l4 108l144 10zM258 579l-36 -58l-14 -1q-77 42 -205 115l-3 15l56 84l14 1q89 -79 188 -156z" />
    <glyph glyph-name="iacute" unicode="&#xed;" horiz-adv-x="246" 
d="M173 114l-4 -108l-145 -10l49 358l4 108l144 10zM243 734l55 -84l-2 -15l-44 -25q-79 -45 -161 -90l-14 1l-37 58q97 74 189 156z" />
    <glyph glyph-name="icircumflex" unicode="&#xee;" horiz-adv-x="246" 
d="M173 114l-4 -108l-145 -10l49 358l4 108l144 10zM4 583q46 37 145 128l18 16h30q49 -59 134 -144l-45 -58h-15q-66 54 -98 87q-29 -24 -72.5 -53t-50.5 -34h-15z" />
    <glyph glyph-name="eth" unicode="&#xf0;" horiz-adv-x="474" 
d="M442 305q0 -141 -68 -224.5t-188 -91.5l-14 2q-136 30 -136 179q0 126 62.5 205.5t170.5 90.5q-20 33 -54 64l-124 -69l-11 4l-23 58l96 54q-43 26 -86 46l3 17l102 70h8q54 -30 97 -64l114 63l12 -4l23 -58l-95 -52q116 -126 111 -290zM286.5 142.5
q21.5 49.5 22.5 154.5q0 19 -2 49q-13 23 -41 23q-53 0 -75.5 -49t-22.5 -153q0 -40 10 -57t34 -17q53 0 74.5 49.5z" />
    <glyph glyph-name="ntilde" unicode="&#xf1;" horiz-adv-x="506" 
d="M440.5 433.5q33.5 -27.5 32.5 -65.5l-1 -13l-39 -240l-5 -109l-148 -10l48 290l1 11q0 23 -17 23q-21 0 -55.5 -41t-77.5 -122l-6 -43l-4 -108l-145 -10l50 358l4 108l143 10l-22 -162h13q66 100 133 160l12 1q50 -10 83.5 -37.5zM485 671v-13l-74 -98l-14 -5
q-23 3 -85 20q-54 15 -68 15q-13 0 -24 -9.5t-23 -23.5l-18 -21h-13l-46 45v13l74 97l14 5q17 -2 45.5 -9t40.5 -10q53 -15 67 -15q13 0 25 10t23.5 24t16.5 20h14z" />
    <glyph glyph-name="ograve" unicode="&#xf2;" horiz-adv-x="449" 
d="M293 477q65 -14 100.5 -56.5t35.5 -115.5q0 -141 -69 -224.5t-189 -91.5l-14 2q-137 30 -137 181q0 88 31.5 156t90 107t137.5 43zM177.5 319q-20.5 -47 -20.5 -150q0 -39 9 -55t32 -16q51 0 71.5 47.5t20.5 150.5q0 39 -8.5 54.5t-30.5 15.5q-53 0 -73.5 -47zM368 579
l-36 -58l-14 -1q-77 42 -205 115l-3 15l56 84l14 1q89 -79 188 -156z" />
    <glyph glyph-name="oacute" unicode="&#xf3;" horiz-adv-x="449" 
d="M293 477q65 -14 100.5 -56.5t35.5 -115.5q0 -141 -69 -224.5t-189 -91.5l-14 2q-137 30 -137 181q0 88 31.5 156t90 107t137.5 43zM177.5 319q-20.5 -47 -20.5 -150q0 -39 9 -55t32 -16q51 0 71.5 47.5t20.5 150.5q0 39 -8.5 54.5t-30.5 15.5q-53 0 -73.5 -47zM353 734
l55 -84l-2 -15l-44 -25q-79 -45 -161 -90l-14 1l-37 58q97 74 189 156z" />
    <glyph glyph-name="ocircumflex" unicode="&#xf4;" horiz-adv-x="449" 
d="M293 477q65 -14 100.5 -56.5t35.5 -115.5q0 -141 -69 -224.5t-189 -91.5l-14 2q-137 30 -137 181q0 88 31.5 156t90 107t137.5 43zM177.5 319q-20.5 -47 -20.5 -150q0 -39 9 -55t32 -16q51 0 71.5 47.5t20.5 150.5q0 39 -8.5 54.5t-30.5 15.5q-53 0 -73.5 -47zM114 583
q46 37 145 128l18 16h30q49 -59 134 -144l-45 -58h-15q-66 54 -98 87q-29 -24 -72.5 -53t-50.5 -34h-15z" />
    <glyph glyph-name="otilde" unicode="&#xf5;" horiz-adv-x="449" 
d="M293 477q65 -14 100.5 -56.5t35.5 -115.5q0 -141 -69 -224.5t-189 -91.5l-14 2q-137 30 -137 181q0 88 31.5 156t90 107t137.5 43zM177.5 319q-20.5 -47 -20.5 -150q0 -39 9 -55t32 -16q51 0 71.5 47.5t20.5 150.5q0 39 -8.5 54.5t-30.5 15.5q-53 0 -73.5 -47zM461 671
v-13l-74 -98l-14 -5q-23 3 -85 20q-54 15 -68 15q-13 0 -24 -9.5t-23 -23.5l-18 -21h-13l-46 45v13l74 97l14 5q17 -2 45.5 -9t40.5 -10q53 -15 67 -15q13 0 25 10t23.5 24t16.5 20h14z" />
    <glyph glyph-name="divide" unicode="&#xf7;" horiz-adv-x="478" 
d="M463 300l-8 -94h-422l-10 11l8 94h422zM271.896 144.692q16.7725 -17.6328 16.7725 -49.459q0 -33.5469 -18.9229 -53.3311q-18.9238 -19.7832 -51.6104 -19.7832q-31.8262 0 -49.0303 17.6328q-17.2031 17.6338 -17.2031 49.46q0 33.5469 19.3535 53.3301
q19.3545 19.7842 52.041 19.7842q31.8262 0 48.5996 -17.6338zM312.896 478.692q16.7725 -17.6328 16.7725 -49.459q0 -33.5469 -18.9229 -53.3311q-18.9238 -19.7832 -51.6104 -19.7832q-31.8262 0 -49.0303 17.6328q-17.2031 17.6338 -17.2031 49.46
q0 33.5469 19.3535 53.3301q19.3545 19.7842 52.041 19.7842q31.8262 0 48.5996 -17.6338z" />
    <glyph glyph-name="oslash" unicode="&#xf8;" horiz-adv-x="449" 
d="M391 423q38 -44 38 -118q0 -141 -69 -224.5t-189 -91.5l-14 2l-9 2l-69 -120l-75 42l-3 13l64 111q-45 47 -45 133q0 88 31.5 156t90 107t137.5 43l14 -1l17 -4l62 106l70 -41l7 -14zM269.5 145.5q20.5 47.5 20.5 150.5q0 39 -8.5 54.5t-30.5 15.5q-53 0 -73.5 -47
t-20.5 -150q0 -39 9 -55t32 -16q51 0 71.5 47.5z" />
    <glyph glyph-name="ugrave" unicode="&#xf9;" horiz-adv-x="499" 
d="M473 472l-48 -358l-4 -108l-144 -10l21 155h-11q-65 -99 -127 -154l-12 -1q-54 8 -86 35t-32 66l2 18l38 237l5 110l146 9l-45 -286l-1 -16v-3q0 -21 18 -21q19 0 51 38.5t74 115.5l7 55l4 108zM388 579l-36 -58l-14 -1q-77 42 -205 115l-3 15l56 84l14 1
q89 -79 188 -156z" />
    <glyph glyph-name="uacute" unicode="&#xfa;" horiz-adv-x="499" 
d="M473 472l-48 -358l-4 -108l-144 -10l21 155h-11q-65 -99 -127 -154l-12 -1q-54 8 -86 35t-32 66l2 18l38 237l5 110l146 9l-45 -286l-1 -16v-3q0 -21 18 -21q19 0 51 38.5t74 115.5l7 55l4 108zM373 734l55 -84l-2 -15l-44 -25q-79 -45 -161 -90l-14 1l-37 58
q97 74 189 156z" />
    <glyph glyph-name="ucircumflex" unicode="&#xfb;" horiz-adv-x="499" 
d="M473 472l-48 -358l-4 -108l-144 -10l21 155h-11q-65 -99 -127 -154l-12 -1q-54 8 -86 35t-32 66l2 18l38 237l5 110l146 9l-45 -286l-1 -16v-3q0 -21 18 -21q19 0 51 38.5t74 115.5l7 55l4 108zM134 583q46 37 145 128l18 16h30q49 -59 134 -144l-45 -58h-15
q-66 54 -98 87q-29 -24 -72.5 -53t-50.5 -34h-15z" />
    <glyph glyph-name="udieresis" unicode="&#xfc;" horiz-adv-x="499" 
d="M473 472l-48 -358l-4 -108l-144 -10l21 155h-11q-65 -99 -127 -154l-12 -1q-54 8 -86 35t-32 66l2 18l38 237l5 110l146 9l-45 -286l-1 -16v-3q0 -21 18 -21q19 0 51 38.5t74 115.5l7 55l4 108zM258.5 675q17.5 -18 17.5 -50q0 -34 -19.5 -54t-53.5 -20q-32 0 -49.5 18
t-17.5 50q0 34 19.5 54t53.5 20q32 0 49.5 -18zM442 675q18 -18 18 -50q0 -34 -20 -54t-53 -20q-32 0 -49.5 18t-17.5 50q0 34 19.5 54t52.5 20q32 0 50 -18z" />
    <glyph glyph-name="thorn" unicode="&#xfe;" horiz-adv-x="474" 
d="M431 414q27 -40 27 -105q0 -67 -26.5 -132.5t-79.5 -115.5t-129 -71h-7l-57 11l-10 -76l-4 -110l-144 -10l106 781l4 108l143 10l-51 -378h15q52 92 104 148h20q62 -20 89 -60zM305 141.5q21 43.5 21 113.5q0 44 -6.5 64.5t-16.5 20.5q-18 0 -51 -51.5t-74 -147.5l-3 -24
l72 -19q37 0 58 43.5z" />
    <glyph glyph-name="ydieresis" unicode="&#xff;" horiz-adv-x="461" 
d="M460 395q0 -37 -10.5 -72t-32.5 -74l-114 -215q-63 -122 -124.5 -176t-138.5 -54q-42 0 -98 17l5 122l13 13q41 -10 78 -10q63 0 105 38l-103 478l144 10l8 -88l34 -230h15l53 117q28 60 28 109q0 37 -17 62l7 15l131 17q17 -48 17 -79zM238.5 676q17.5 -18 17.5 -50
q0 -34 -19.5 -54t-53.5 -20q-32 0 -49.5 18t-17.5 50q0 34 19.5 54t53.5 20q32 0 49.5 -18zM422 676q18 -18 18 -50q0 -34 -20 -54t-53 -20q-32 0 -49.5 18t-17.5 50q0 34 19.5 54t52.5 20q32 0 50 -18z" />
    <glyph glyph-name="Amacron" unicode="&#x100;" horiz-adv-x="600" 
d="M558 0h-160l-5 92l-5 40l-113 2l-98 -3l-13 -30l-31 -101h-156l285 645h190zM373 251l-32 248h-10l-104 -247l72 -2zM518 839l-8 -86h-278l-10 10l8 86h278z" />
    <glyph glyph-name="amacron" unicode="&#x101;" horiz-adv-x="471" 
d="M445 471l-48 -357l-4 -108l-144 -10l19 139h-14q-46 -85 -101 -145h-20q-64 20 -90.5 60.5t-26.5 104.5q0 66 26.5 131t80.5 115.5t132 72.5h6l86 -19l88 23zM222 179q32 51 72 147l3 20l-66 20q-39 0 -60.5 -42t-21.5 -113q0 -83 24 -83q17 0 49 51zM426 662l-8 -86
h-278l-10 10l8 86h278z" />
    <glyph glyph-name="Abreve" unicode="&#x102;" horiz-adv-x="600" 
d="M558 0h-160l-5 92l-5 40l-113 2l-98 -3l-13 -30l-31 -101h-156l285 645h190zM373 251l-32 248h-10l-104 -247l72 -2zM531 832q-53 -113 -166 -113q-60 0 -100 29t-54 84l40 48h22q12 -26 38 -39.5t61 -13.5q36 0 64 13.5t45 39.5h22z" />
    <glyph glyph-name="abreve" unicode="&#x103;" horiz-adv-x="471" 
d="M445 471l-48 -357l-4 -108l-144 -10l19 139h-14q-46 -85 -101 -145h-20q-64 20 -90.5 60.5t-26.5 104.5q0 66 26.5 131t80.5 115.5t132 72.5h6l86 -19l88 23zM222 179q32 51 72 147l3 20l-66 20q-39 0 -60.5 -42t-21.5 -113q0 -83 24 -83q17 0 49 51zM437 662
q-21 -56 -65 -92.5t-105 -36.5q-69 0 -105 36.5t-45 92.5l40 51h22q9 -35 34.5 -53.5t61.5 -18.5q37 0 66.5 18.5t46.5 53.5h22z" />
    <glyph glyph-name="Aogonek" unicode="&#x104;" horiz-adv-x="600" 
d="M558 0h-160l-5 92l-5 40l-113 2l-98 -3l-13 -30l-31 -101h-156l285 645h190zM373 251l-32 248h-10l-104 -247l72 -2zM468.5 -61q-21.5 -18 -21.5 -33q0 -18 24 -18q25 0 66 24l7 -2l14 -68q-51 -39 -106 -39q-44 0 -71 22t-27 57q0 72 106 118h98q-68 -43 -89.5 -61z" />
    <glyph glyph-name="aogonek" unicode="&#x105;" horiz-adv-x="471" 
d="M445 471l-48 -357l-4 -108l-144 -10l19 139h-14q-46 -85 -101 -145h-20q-64 20 -90.5 60.5t-26.5 104.5q0 66 26.5 131t80.5 115.5t132 72.5h6l86 -19l88 23zM222 179q32 51 72 147l3 20l-66 20q-39 0 -60.5 -42t-21.5 -113q0 -83 24 -83q17 0 49 51zM303.5 -55
q-21.5 -18 -21.5 -33q0 -18 24 -18q25 0 66 24l7 -2l14 -68q-51 -39 -106 -39q-44 0 -71 22t-27 57q0 72 106 118h98q-68 -43 -89.5 -61z" />
    <glyph glyph-name="Cacute" unicode="&#x106;" horiz-adv-x="511" 
d="M472.5 645q43.5 -9 77.5 -25l-43 -130l-13 -6q-26 19 -59 29.5t-67 10.5q-85 0 -125.5 -59t-40.5 -179q0 -163 124 -163q33 0 71 9.5t70 25.5l12 -8l-29 -131q-38 -16 -72.5 -22.5t-72.5 -6.5q-132 0 -202.5 70.5t-70.5 199.5q0 123 41 211.5t120.5 135.5t190.5 47
q45 0 88.5 -9zM455 896l40 -92l-5 -14q-87 -32 -223 -75l-15 4l-24 64q124 64 213 117z" />
    <glyph glyph-name="cacute" unicode="&#x107;" horiz-adv-x="365" 
d="M367 451l4 -15l-41 -108l-31 -1q-19 23 -31 30.5t-27 7.5q-41 0 -62 -41t-21 -120q0 -51 9 -70.5t32 -19.5q19 0 36.5 15t41.5 51l19 -1l44 -54q-33 -55 -68.5 -85.5t-87.5 -48.5h-20q-76 12 -110 54.5t-34 129.5t31.5 155.5t91.5 107t143 38.5zM337 735l55 -84l-2 -15
l-44 -25q-79 -45 -161 -90l-14 1l-37 58q97 74 189 156z" />
    <glyph glyph-name="Ccircumflex" unicode="&#x108;" horiz-adv-x="511" 
d="M472.5 645q43.5 -9 77.5 -25l-43 -130l-13 -6q-26 19 -59 29.5t-67 10.5q-85 0 -125.5 -59t-40.5 -179q0 -163 124 -163q33 0 71 9.5t70 25.5l12 -8l-29 -131q-38 -16 -72.5 -22.5t-72.5 -6.5q-132 0 -202.5 70.5t-70.5 199.5q0 123 41 211.5t120.5 135.5t190.5 47
q45 0 88.5 -9zM205 778q82 54 146 110h30q56 -53 135 -110l-35 -61h-15l-103 62l-66 -34q-38 -18 -56 -28h-15z" />
    <glyph glyph-name="ccircumflex" unicode="&#x109;" horiz-adv-x="365" 
d="M367 451l4 -15l-41 -108l-31 -1q-19 23 -31 30.5t-27 7.5q-41 0 -62 -41t-21 -120q0 -51 9 -70.5t32 -19.5q19 0 36.5 15t41.5 51l19 -1l44 -54q-33 -55 -68.5 -85.5t-87.5 -48.5h-20q-76 12 -110 54.5t-34 129.5t31.5 155.5t91.5 107t143 38.5zM98 584q46 37 145 128
l18 16h30q49 -59 134 -144l-45 -58h-15q-66 54 -98 87q-29 -24 -72.5 -53t-50.5 -34h-15z" />
    <glyph glyph-name="Cdotaccent" unicode="&#x10a;" horiz-adv-x="511" 
d="M472.5 645q43.5 -9 77.5 -25l-43 -130l-13 -6q-26 19 -59 29.5t-67 10.5q-85 0 -125.5 -59t-40.5 -179q0 -163 124 -163q33 0 71 9.5t70 25.5l12 -8l-29 -131q-38 -16 -72.5 -22.5t-72.5 -6.5q-132 0 -202.5 70.5t-70.5 199.5q0 123 41 211.5t120.5 135.5t190.5 47
q45 0 88.5 -9zM419.5 858.5q19.5 -20.5 19.5 -57.5q0 -39 -22 -62t-60 -23q-37 0 -57 20.5t-20 57.5q0 39 22.5 62t60.5 23q37 0 56.5 -20.5z" />
    <glyph glyph-name="cdotaccent" unicode="&#x10b;" horiz-adv-x="365" 
d="M367 451l4 -15l-41 -108l-31 -1q-19 23 -31 30.5t-27 7.5q-41 0 -62 -41t-21 -120q0 -51 9 -70.5t32 -19.5q19 0 36.5 15t41.5 51l19 -1l44 -54q-33 -55 -68.5 -85.5t-87.5 -48.5h-20q-76 12 -110 54.5t-34 129.5t31.5 155.5t91.5 107t143 38.5zM321.5 681.5
q19.5 -20.5 19.5 -57.5q0 -39 -22 -62t-60 -23q-37 0 -57 20.5t-20 57.5q0 39 22.5 62t60.5 23q37 0 56.5 -20.5z" />
    <glyph glyph-name="Ccaron" unicode="&#x10c;" horiz-adv-x="511" 
d="M472.5 645q43.5 -9 77.5 -25l-43 -130l-13 -6q-26 19 -59 29.5t-67 10.5q-85 0 -125.5 -59t-40.5 -179q0 -163 124 -163q33 0 71 9.5t70 25.5l12 -8l-29 -131q-38 -16 -72.5 -22.5t-72.5 -6.5q-132 0 -202.5 70.5t-70.5 199.5q0 123 41 211.5t120.5 135.5t190.5 47
q45 0 88.5 -9zM514 826q-82 -54 -146 -110h-30q-56 53 -135 110l35 61h15l103 -62l66 34q38 18 56 28h15z" />
    <glyph glyph-name="ccaron" unicode="&#x10d;" horiz-adv-x="365" 
d="M367 451l4 -15l-41 -108l-31 -1q-19 23 -31 30.5t-27 7.5q-41 0 -62 -41t-21 -120q0 -51 9 -70.5t32 -19.5q19 0 36.5 15t41.5 51l19 -1l44 -54q-33 -55 -68.5 -85.5t-87.5 -48.5h-20q-76 12 -110 54.5t-34 129.5t31.5 155.5t91.5 107t143 38.5zM426 670
q-46 -37 -145 -128l-18 -16h-30q-49 59 -134 144l45 58h15q66 -54 98 -87q29 24 72.5 53t50.5 34h15z" />
    <glyph glyph-name="Dcaron" unicode="&#x10e;" horiz-adv-x="651" 
d="M574 583q69 -66 69 -187q0 -190 -94.5 -297t-270.5 -107q-99 0 -235 8h-1l32 191l48 454l259 4q124 0 193 -66zM433 176q42 63 42 196q0 79 -28 115.5t-86 36.5q-41 0 -96 -5l-46 -313l-7 -85q25 -4 54 -6t48 -2q77 0 119 63zM517 826q-82 -54 -146 -110h-30
q-56 53 -135 110l35 61h15l103 -62l66 34q38 18 56 28h15z" />
    <glyph glyph-name="dcaron" unicode="&#x10f;" horiz-adv-x="583" 
d="M477 704l-80 -590l-4 -108l-145 -10l19 140h-11q-47 -83 -104 -146h-20q-64 20 -90.5 60.5t-26.5 103.5q0 66 27 131.5t81.5 116.5t133.5 72h6l49 -11l17 124l3 107zM220.5 175.5q32.5 48.5 71.5 139.5l4 32l-64 19q-41 0 -63 -42.5t-22 -114.5q0 -42 7 -62t17 -20
q17 0 49.5 48.5zM655 632l-63 -211l-68 -11l-9 9l21 216l112 6z" />
    <glyph glyph-name="Dcroat" unicode="&#x110;" horiz-adv-x="680" 
d="M602 583q69 -66 69 -187q0 -190 -94.5 -297t-270.5 -107q-99 0 -235 8h-1l32 191l48 454l259 4q124 0 193 -66zM461 176q42 63 42 196q0 79 -28 115.5t-86 36.5q-41 0 -96 -5l-46 -313l-7 -85q25 -4 54 -6t48 -2q77 0 119 63zM378.242 359l-12.8711 -94h-338.237
l-6.43555 11l13.5869 94h338.236z" />
    <glyph glyph-name="dcroat" unicode="&#x111;" horiz-adv-x="482" 
d="M532 536h-78l-57 -422l-4 -108l-145 -10l19 140h-11q-47 -83 -104 -146h-20q-64 20 -90.5 60.5t-26.5 103.5q0 66 27 131.5t81.5 116.5t133.5 72h6l49 -11l10 73h-112l-9 10l6 72h123l2 76l145 10l-12 -86h63l10 -10zM220.5 175.5q32.5 48.5 71.5 139.5l4 32l-64 19
q-41 0 -63 -42.5t-22 -114.5q0 -42 7 -62t17 -20q17 0 49.5 48.5z" />
    <glyph glyph-name="Emacron" unicode="&#x112;" horiz-adv-x="514" 
d="M265 520l-19 -132l104 -1l103 3l8 -11l-25 -117l-112 3l-96 -1l-8 -58l-8 -82l105 -1l159 6l7 -12l-24 -117h-417l31 191l49 454h422l8 -12l-26 -117l-152 5zM492 839l-8 -86h-278l-10 10l8 86h278z" />
    <glyph glyph-name="emacron" unicode="&#x113;" horiz-adv-x="417" 
d="M335 166l43 -55q-68 -92 -176 -121h-15q-86 10 -126.5 54.5t-40.5 129.5q0 87 31.5 154.5t89.5 106.5t135 43l14 -1q53 -10 81.5 -39.5t28.5 -76.5q0 -61 -58.5 -105.5t-185.5 -78.5q4 -39 17 -56.5t39 -17.5q22 0 45 14t61 52zM183.5 353q-21.5 -31 -27.5 -91
q62 16 89 37.5t27 52.5q0 17 -7.5 24.5t-24.5 7.5q-35 0 -56.5 -31zM406 662l-8 -86h-278l-10 10l8 86h278z" />
    <glyph glyph-name="Ebreve" unicode="&#x114;" horiz-adv-x="514" 
d="M265 520l-19 -132l104 -1l103 3l8 -11l-25 -117l-112 3l-96 -1l-8 -58l-8 -82l105 -1l159 6l7 -12l-24 -117h-417l31 191l49 454h422l8 -12l-26 -117l-152 5zM505 832q-53 -113 -166 -113q-60 0 -100 29t-54 84l40 48h22q12 -26 38 -39.5t61 -13.5q36 0 64 13.5t45 39.5
h22z" />
    <glyph glyph-name="ebreve" unicode="&#x115;" horiz-adv-x="417" 
d="M335 166l43 -55q-68 -92 -176 -121h-15q-86 10 -126.5 54.5t-40.5 129.5q0 87 31.5 154.5t89.5 106.5t135 43l14 -1q53 -10 81.5 -39.5t28.5 -76.5q0 -61 -58.5 -105.5t-185.5 -78.5q4 -39 17 -56.5t39 -17.5q22 0 45 14t61 52zM183.5 353q-21.5 -31 -27.5 -91
q62 16 89 37.5t27 52.5q0 17 -7.5 24.5t-24.5 7.5q-35 0 -56.5 -31zM417 662q-21 -56 -65 -92.5t-105 -36.5q-69 0 -105 36.5t-45 92.5l40 51h22q9 -35 34.5 -53.5t61.5 -18.5q37 0 66.5 18.5t46.5 53.5h22z" />
    <glyph glyph-name="Edotaccent" unicode="&#x116;" horiz-adv-x="514" 
d="M265 520l-19 -132l104 -1l103 3l8 -11l-25 -117l-112 3l-96 -1l-8 -58l-8 -82l105 -1l159 6l7 -12l-24 -117h-417l31 191l49 454h422l8 -12l-26 -117l-152 5zM405.5 858.5q19.5 -20.5 19.5 -57.5q0 -39 -22 -62t-60 -23q-37 0 -57 20.5t-20 57.5q0 39 22.5 62t60.5 23
q37 0 56.5 -20.5z" />
    <glyph glyph-name="edotaccent" unicode="&#x117;" horiz-adv-x="417" 
d="M335 166l43 -55q-68 -92 -176 -121h-15q-86 10 -126.5 54.5t-40.5 129.5q0 87 31.5 154.5t89.5 106.5t135 43l14 -1q53 -10 81.5 -39.5t28.5 -76.5q0 -61 -58.5 -105.5t-185.5 -78.5q4 -39 17 -56.5t39 -17.5q22 0 45 14t61 52zM183.5 353q-21.5 -31 -27.5 -91
q62 16 89 37.5t27 52.5q0 17 -7.5 24.5t-24.5 7.5q-35 0 -56.5 -31zM317.5 681.5q19.5 -20.5 19.5 -57.5q0 -39 -22 -62t-60 -23q-37 0 -57 20.5t-20 57.5q0 39 22.5 62t60.5 23q37 0 56.5 -20.5z" />
    <glyph glyph-name="Eogonek" unicode="&#x118;" horiz-adv-x="514" 
d="M265 520l-19 -132l104 -1l103 3l8 -11l-25 -117l-112 3l-96 -1l-8 -58l-8 -82l105 -1l159 6l7 -12l-24 -117h-417l31 191l49 454h422l8 -12l-26 -117l-152 5zM254.5 -201.5q-28.5 23.5 -28.5 61.5q0 23 9.5 40.5t35.5 41.5t83 68h80q-45 -43 -72 -70.5t-33.5 -37
t-6.5 -18.5q0 -23 27 -23t73 26l7 -1l14 -71q-61 -40 -113 -40q-47 0 -75.5 23.5z" />
    <glyph glyph-name="eogonek" unicode="&#x119;" horiz-adv-x="417" 
d="M335 166l43 -55q-68 -92 -176 -121h-15q-86 10 -126.5 54.5t-40.5 129.5q0 87 31.5 154.5t89.5 106.5t135 43l14 -1q53 -10 81.5 -39.5t28.5 -76.5q0 -61 -58.5 -105.5t-185.5 -78.5q4 -39 17 -56.5t39 -17.5q22 0 45 14t61 52zM183.5 353q-21.5 -31 -27.5 -91
q62 16 89 37.5t27 52.5q0 17 -7.5 24.5t-24.5 7.5q-35 0 -56.5 -31zM119.5 -175.5q-28.5 23.5 -28.5 61.5q0 23 9.5 40.5t35.5 41.5t83 68h80q-45 -43 -72 -70.5t-33.5 -37t-6.5 -18.5q0 -23 27 -23t73 26l7 -1l14 -71q-61 -40 -113 -40q-47 0 -75.5 23.5z" />
    <glyph glyph-name="Ecaron" unicode="&#x11a;" horiz-adv-x="514" 
d="M265 520l-19 -132l104 -1l103 3l8 -11l-25 -117l-112 3l-96 -1l-8 -58l-8 -82l105 -1l159 6l7 -12l-24 -117h-417l31 191l49 454h422l8 -12l-26 -117l-152 5zM500 826q-82 -54 -146 -110h-30q-56 53 -135 110l35 61h15l103 -62l66 34q38 18 56 28h15z" />
    <glyph glyph-name="ecaron" unicode="&#x11b;" horiz-adv-x="417" 
d="M335 166l43 -55q-68 -92 -176 -121h-15q-86 10 -126.5 54.5t-40.5 129.5q0 87 31.5 154.5t89.5 106.5t135 43l14 -1q53 -10 81.5 -39.5t28.5 -76.5q0 -61 -58.5 -105.5t-185.5 -78.5q4 -39 17 -56.5t39 -17.5q22 0 45 14t61 52zM183.5 353q-21.5 -31 -27.5 -91
q62 16 89 37.5t27 52.5q0 17 -7.5 24.5t-24.5 7.5q-35 0 -56.5 -31zM422 670q-46 -37 -145 -128l-18 -16h-30q-49 59 -134 144l45 58h15q66 -54 98 -87q29 24 72.5 53t50.5 34h15z" />
    <glyph glyph-name="Gcircumflex" unicode="&#x11c;" horiz-adv-x="590" 
d="M511 645q50 -9 89 -26l-52 -143h-14q-46 27 -81 38.5t-78 11.5q-90 0 -134 -60t-44 -208q0 -79 30.5 -112.5t99.5 -33.5q15 0 31 3t34 8l7 47l10 107l147 10l-13 -91l-20 -164q-59 -22 -110 -32t-105 -10q-135 0 -206 69t-71 195q0 192 98 296t281 104q51 0 101 -9z
M231 778q82 54 146 110h30q56 -53 135 -110l-35 -61h-15l-103 62l-66 -34q-38 -18 -56 -28h-15z" />
    <glyph glyph-name="gcircumflex" unicode="&#x11d;" horiz-adv-x="468" 
d="M443 471l-48 -347l-4 -78q-10 -77 -47 -132t-92 -83t-119 -28q-81 0 -128 43t-58 115l4 11l134 64l1 11q-28 22 -40 53.5t-12 74.5q0 66 26 127t77.5 106.5t124.5 65.5h5l82 -19l83 23zM178.5 333q-21.5 -40 -21.5 -109q0 -42 7 -61t17 -19q15 0 47.5 48t70.5 135l4 27
l-63 19q-40 0 -61.5 -40zM224 -69.5q26 25.5 31 74.5l21 151h-13q-45 -80 -106 -137l-48 -38q-8 -6 -11 -12t-3 -13q0 -20 16.5 -35.5t47.5 -15.5q39 0 65 25.5zM124 583q46 37 145 128l18 16h30q49 -59 134 -144l-45 -58h-15q-66 54 -98 87q-29 -24 -72.5 -53t-50.5 -34
h-15z" />
    <glyph glyph-name="Gbreve" unicode="&#x11e;" horiz-adv-x="590" 
d="M511 645q50 -9 89 -26l-52 -143h-14q-46 27 -81 38.5t-78 11.5q-90 0 -134 -60t-44 -208q0 -79 30.5 -112.5t99.5 -33.5q15 0 31 3t34 8l7 47l10 107l147 10l-13 -91l-20 -164q-59 -22 -110 -32t-105 -10q-135 0 -206 69t-71 195q0 192 98 296t281 104q51 0 101 -9z
M545 832q-53 -113 -166 -113q-60 0 -100 29t-54 84l40 48h22q12 -26 38 -39.5t61 -13.5q36 0 64 13.5t45 39.5h22z" />
    <glyph glyph-name="gbreve" unicode="&#x11f;" horiz-adv-x="468" 
d="M443 471l-48 -347l-4 -78q-10 -77 -47 -132t-92 -83t-119 -28q-81 0 -128 43t-58 115l4 11l134 64l1 11q-28 22 -40 53.5t-12 74.5q0 66 26 127t77.5 106.5t124.5 65.5h5l82 -19l83 23zM178.5 333q-21.5 -40 -21.5 -109q0 -42 7 -61t17 -19q15 0 47.5 48t70.5 135l4 27
l-63 19q-40 0 -61.5 -40zM224 -69.5q26 25.5 31 74.5l21 151h-13q-45 -80 -106 -137l-48 -38q-8 -6 -11 -12t-3 -13q0 -20 16.5 -35.5t47.5 -15.5q39 0 65 25.5zM447 661q-21 -56 -65 -92.5t-105 -36.5q-69 0 -105 36.5t-45 92.5l40 51h22q9 -35 34.5 -53.5t61.5 -18.5
q37 0 66.5 18.5t46.5 53.5h22z" />
    <glyph glyph-name="Gdotaccent" unicode="&#x120;" horiz-adv-x="590" 
d="M511 645q50 -9 89 -26l-52 -143h-14q-46 27 -81 38.5t-78 11.5q-90 0 -134 -60t-44 -208q0 -79 30.5 -112.5t99.5 -33.5q15 0 31 3t34 8l7 47l10 107l147 10l-13 -91l-20 -164q-59 -22 -110 -32t-105 -10q-135 0 -206 69t-71 195q0 192 98 296t281 104q51 0 101 -9z
M445.5 858.5q19.5 -20.5 19.5 -57.5q0 -39 -22 -62t-60 -23q-37 0 -57 20.5t-20 57.5q0 39 22.5 62t60.5 23q37 0 56.5 -20.5z" />
    <glyph glyph-name="gdotaccent" unicode="&#x121;" horiz-adv-x="468" 
d="M443 471l-48 -347l-4 -78q-10 -77 -47 -132t-92 -83t-119 -28q-81 0 -128 43t-58 115l4 11l134 64l1 11q-28 22 -40 53.5t-12 74.5q0 66 26 127t77.5 106.5t124.5 65.5h5l82 -19l83 23zM178.5 333q-21.5 -40 -21.5 -109q0 -42 7 -61t17 -19q15 0 47.5 48t70.5 135l4 27
l-63 19q-40 0 -61.5 -40zM224 -69.5q26 25.5 31 74.5l21 151h-13q-45 -80 -106 -137l-48 -38q-8 -6 -11 -12t-3 -13q0 -20 16.5 -35.5t47.5 -15.5q39 0 65 25.5zM347.5 680.5q19.5 -20.5 19.5 -57.5q0 -39 -22 -62t-60 -23q-37 0 -57 20.5t-20 57.5q0 39 22.5 62t60.5 23
q37 0 56.5 -20.5z" />
    <glyph glyph-name="Gcommaaccent" unicode="&#x122;" horiz-adv-x="590" 
d="M511 645q50 -9 89 -26l-52 -143h-14q-46 27 -81 38.5t-78 11.5q-90 0 -134 -60t-44 -208q0 -79 30.5 -112.5t99.5 -33.5q15 0 31 3t34 8l7 47l10 107l147 10l-13 -91l-20 -164q-59 -22 -110 -32t-105 -10q-135 0 -206 69t-71 195q0 192 98 296t281 104q51 0 101 -9z
M404 -113q0 -46 -30 -89t-93 -87l-46 40l-2 10q53 44 53 95q0 18 -7.5 32.5t-22.5 29.5v12q52 28 105 44q43 -37 43 -87z" />
    <glyph glyph-name="gcommaaccent" unicode="&#x123;" horiz-adv-x="468" 
d="M253 556.5q-13 22.5 -13 55.5q0 39 23 78.5t70 85.5l49 -33l2 -9q-37 -41 -37 -81q0 -23 9 -40t29 -30v-12q-49 -36 -91 -54q-28 17 -41 39.5zM443 471l-48 -347l-4 -78q-10 -77 -47 -132t-92 -83t-119 -28q-81 0 -128 43t-58 115l4 11l134 64l1 11q-28 22 -40 53.5
t-12 74.5q0 66 26 127t77.5 106.5t124.5 65.5h5l82 -19l83 23zM178.5 333q-21.5 -40 -21.5 -109q0 -42 7 -61t17 -19q15 0 47.5 48t70.5 135l4 27l-63 19q-40 0 -61.5 -40zM224 -69.5q26 25.5 31 74.5l21 151h-13q-45 -80 -106 -137l-48 -38q-8 -6 -11 -12t-3 -13
q0 -20 16.5 -35.5t47.5 -15.5q39 0 65 25.5z" />
    <glyph glyph-name="Hcircumflex" unicode="&#x124;" horiz-adv-x="692" 
d="M672 645l-64 -439l-19 -206h-159l33 191l7 66l-129 2l-115 -3l-7 -50l-18 -206h-159l32 191l48 454h161l-38 -257l121 -3l117 2l27 258h162zM261 778q82 54 146 110h30q56 -53 135 -110l-35 -61h-15l-103 62l-66 -34q-38 -18 -56 -28h-15z" />
    <glyph glyph-name="hcircumflex" unicode="&#x125;" horiz-adv-x="508" 
d="M444.5 434q31.5 -27 30.5 -66l-1 -13l-39 -240l-5 -109l-147 -10l46 290l2 11q0 23 -17 23q-21 0 -56.5 -42.5t-79.5 -124.5l-5 -39l-3 -108l-145 -10l81 591l3 107l145 10l-54 -394h14q66 100 133 160l12 1q54 -10 85.5 -37zM39 833q82 54 146 110h30q56 -53 135 -110
l-35 -61h-15l-103 62l-66 -34q-38 -18 -56 -28h-15z" />
    <glyph glyph-name="Hbar" unicode="&#x126;" horiz-adv-x="723" 
d="M733 474h-71l-38 -268l-20 -206h-158l32 191l7 66l-129 2l-114 -3l-7 -50l-19 -206h-159l32 191l30 283h-57l-6 8l5 78h67l9 85h161l-12 -85h230l9 85h162l-12 -85h56l7 -9zM507 474h-234l-12 -86l120 -3l117 2z" />
    <glyph glyph-name="hbar" unicode="&#x127;" horiz-adv-x="551" 
d="M484.5 434q31.5 -27 30.5 -66l-1 -13l-39 -240l-4 -109l-148 -10l47 290l1 11q0 23 -17 23q-21 0 -56.5 -42.5t-79.5 -124.5l-5 -39l-3 -108l-145 -10l75 540h-68l-10 10l6 72h80l1 76l145 10l-12 -86h107l11 -10l-6 -72h-123l-31 -226h15q67 102 132 160l12 1
q54 -10 85.5 -37z" />
    <glyph glyph-name="Imacron" unicode="&#x12a;" horiz-adv-x="304" 
d="M219 206l-18 -206h-159l32 191l48 454h161zM344 839l-8 -86h-229l-10 10l7 86h230z" />
    <glyph glyph-name="imacron" unicode="&#x12b;" horiz-adv-x="246" 
d="M173 114l-4 -108l-145 -10l49 358l4 108l144 10zM292 661l-8 -86h-229l-10 10l7 86h230z" />
    <glyph glyph-name="Ibreve" unicode="&#x12c;" horiz-adv-x="304" 
d="M219 206l-18 -206h-159l32 191l48 454h161zM379 832q-53 -113 -166 -113q-60 0 -100 29t-54 84l40 48h22q12 -26 38 -39.5t61 -13.5q36 0 64 13.5t45 39.5h22z" />
    <glyph glyph-name="ibreve" unicode="&#x12d;" horiz-adv-x="246" 
d="M173 114l-4 -108l-145 -10l49 358l4 108l144 10zM327 661q-21 -56 -65 -92.5t-105 -36.5q-69 0 -105 36.5t-45 92.5l40 51h22q9 -35 34.5 -53.5t61.5 -18.5q37 0 66.5 18.5t46.5 53.5h22z" />
    <glyph glyph-name="Iogonek" unicode="&#x12e;" horiz-adv-x="304" 
d="M219 206l-18 -206h-159l32 191l48 454h161zM111.5 -61q-21.5 -18 -21.5 -33q0 -18 24 -18q25 0 66 24l7 -2l14 -68q-51 -39 -106 -39q-44 0 -71 22t-27 57q0 72 106 118h98q-68 -43 -89.5 -61z" />
    <glyph glyph-name="iogonek" unicode="&#x12f;" horiz-adv-x="246" 
d="M173 114l-4 -108l-145 -10l49 358l4 108l144 10zM227.5 680.5q19.5 -20.5 19.5 -57.5q0 -39 -22 -62t-60 -23q-37 0 -57 20.5t-20 57.5q0 39 22.5 62t60.5 23q37 0 56.5 -20.5zM79.5 -55q-21.5 -18 -21.5 -33q0 -18 24 -18q25 0 66 24l7 -2l14 -68q-51 -39 -106 -39
q-44 0 -71 22t-27 57q0 72 106 118h98q-68 -43 -89.5 -61z" />
    <glyph glyph-name="Idotaccent" unicode="&#x130;" horiz-adv-x="304" 
d="M219 206l-18 -206h-159l32 191l48 454h161zM279.5 858.5q19.5 -20.5 19.5 -57.5q0 -39 -22 -62t-60 -23q-37 0 -57 20.5t-20 57.5q0 39 22.5 62t60.5 23q37 0 56.5 -20.5z" />
    <glyph glyph-name="dotlessi" unicode="&#x131;" horiz-adv-x="246" 
d="M173 114l-4 -108l-145 -10l49 358l4 108l144 10z" />
    <glyph glyph-name="IJ" unicode="&#x132;" horiz-adv-x="646" 
d="M219 206l-18 -206h-159l32 191l48 454h161zM558 213l-8 -91q-8 -59 -32.5 -100t-72.5 -72t-128 -58l-35 83l1 13q61 30 87.5 60t32.5 78l9 71l36 333l-95 -2l-9 11l20 106h257z" />
    <glyph glyph-name="ij" unicode="&#x133;" horiz-adv-x="514" 
d="M173 114l-4 -108l-145 -10l49 358l4 108l144 10zM227.5 680.5q19.5 -20.5 19.5 -57.5q0 -39 -22 -62t-60 -23q-37 0 -57 20.5t-20 57.5q0 39 22.5 62t60.5 23q37 0 56.5 -20.5zM486 467l-49 -352l-9 -86q-10 -79 -53.5 -131.5t-132.5 -92.5l-46 65l2 14q43 23 65.5 55
t29.5 83l44 329v23h-67l-6 9l10 75h72l136 13zM480.5 680.5q19.5 -20.5 19.5 -57.5q0 -39 -22 -62t-60 -23q-37 0 -57 20.5t-20 57.5q0 39 22.5 62t60.5 23q37 0 56.5 -20.5z" />
    <glyph glyph-name="Jcircumflex" unicode="&#x134;" horiz-adv-x="342" 
d="M254 213l-8 -91q-8 -59 -32.5 -100t-72.5 -72t-128 -58l-35 83l1 13q61 30 87.5 60t32.5 78l9 71l36 333l-95 -2l-9 11l20 106h257zM62 778q82 54 146 110h30q56 -53 135 -110l-35 -61h-15l-103 62l-66 -34q-38 -18 -56 -28h-15z" />
    <glyph glyph-name="jcircumflex" unicode="&#x135;" horiz-adv-x="268" 
d="M240 467l-49 -352l-9 -86q-10 -79 -53.5 -131.5t-132.5 -92.5l-46 65l2 14q43 23 65.5 55t29.5 83l44 329v23h-67l-6 9l10 75h72l136 13zM11 583q46 37 145 128l18 16h30q49 -59 134 -144l-45 -58h-15q-66 54 -98 87q-29 -24 -72.5 -53t-50.5 -34h-15z" />
    <glyph glyph-name="Kcommaaccent" unicode="&#x136;" horiz-adv-x="593" 
d="M390 333q76 -138 190 -300l-5 -17q-82 -20 -160 -27l-16 10q-99 181 -164 320l-16 -113l-19 -206h-159l33 191l48 454h161l-42 -290l182 225l44 65h170zM386 -113q0 -46 -30 -89t-93 -87l-46 40l-2 10q53 44 53 95q0 18 -7.5 32.5t-22.5 29.5v12q52 28 105 44
q43 -37 43 -87z" />
    <glyph glyph-name="kcommaaccent" unicode="&#x137;" horiz-adv-x="515" 
d="M371 181q42 -83 91 -165l-7 -11l-121 -17l-14 7q-46 96 -75 178l5 19q43 27 68.5 56t25.5 53q0 11 -5 16t-12 5q-25 0 -63.5 -42.5t-85.5 -128.5l-5 -37l-3 -108l-145 -10l81 591l3 107l145 10l-54 -391h15q77 103 145 157l13 1q55 -10 86 -39t31 -78q0 -93 -119 -173z
M314 -113q0 -46 -30 -89t-93 -87l-46 40l-2 10q53 44 53 95q0 18 -7.5 32.5t-22.5 29.5v12q52 28 105 44q43 -37 43 -87z" />
    <glyph glyph-name="kgreenlandic" unicode="&#x138;" horiz-adv-x="515" 
d="M370 181q40 -79 93 -165l-7 -11l-121 -17l-14 7q-42 84 -78 178l5 19q45 28 71 57t26 52q0 11 -5.5 16t-13.5 5q-24 0 -62.5 -41t-84.5 -124l-6 -43l-4 -108l-145 -10l49 358l4 108l144 10l-22 -161h13q81 107 147 159l13 1q55 -10 86.5 -39t31.5 -78q0 -92 -120 -173z
" />
    <glyph glyph-name="Lacute" unicode="&#x139;" horiz-adv-x="435" 
d="M419 119l-24 -119h-357l32 191l48 454h161l-62 -439l-7 -75h202zM310 896l40 -92l-5 -14q-87 -32 -223 -75l-15 4l-24 64q124 64 213 117z" />
    <glyph glyph-name="lacute" unicode="&#x13a;" horiz-adv-x="260" 
d="M178 114l-3 -108l-145 -10l82 591l2 107l145 10zM297 951l40 -92l-5 -14q-87 -32 -223 -75l-15 4l-24 64q124 64 213 117z" />
    <glyph glyph-name="Lcommaaccent" unicode="&#x13b;" horiz-adv-x="435" 
d="M419 119l-24 -119h-357l32 191l48 454h161l-62 -439l-7 -75h202zM294 -113q0 -46 -30 -89t-93 -87l-46 40l-2 10q53 44 53 95q0 18 -7.5 32.5t-22.5 29.5v12q52 28 105 44q43 -37 43 -87z" />
    <glyph glyph-name="lcommaaccent" unicode="&#x13c;" horiz-adv-x="260" 
d="M178 114l-3 -108l-145 -10l82 591l2 107l145 10zM187 -113q0 -46 -30 -89t-93 -87l-46 40l-2 10q53 44 53 95q0 18 -7.5 32.5t-22.5 29.5v12q52 28 105 44q43 -37 43 -87z" />
    <glyph glyph-name="Lcaron" unicode="&#x13d;" horiz-adv-x="483" 
d="M419 119l-24 -119h-357l32 191l48 454h161l-62 -439l-7 -75h202zM497 594l-63 -211l-68 -11l-9 9l21 216l112 6z" />
    <glyph glyph-name="lcaron" unicode="&#x13e;" horiz-adv-x="362" 
d="M178 114l-3 -108l-145 -10l82 591l2 107l145 10zM434 632l-63 -211l-68 -11l-9 9l21 216l112 6z" />
    <glyph glyph-name="Ldot" unicode="&#x13f;" horiz-adv-x="467" 
d="M419 119l-24 -119h-357l32 191l48 454h161l-62 -439l-7 -75h202zM445.5 454.5q19.5 -20.5 19.5 -57.5q0 -39 -22 -62t-60 -23q-37 0 -57 20.5t-20 57.5q0 39 22.5 62t60.5 23q37 0 56.5 -20.5z" />
    <glyph glyph-name="ldot" unicode="&#x140;" horiz-adv-x="338" 
d="M178 114l-4 -108l-144 -10l80 591l4 107l143 10zM366.5 367.5q20.5 -20.5 20.5 -57.5q0 -39 -22.5 -62t-60.5 -23q-37 0 -56.5 20t-19.5 58q0 39 22 62t60 23q36 0 56.5 -20.5z" />
    <glyph glyph-name="Lslash" unicode="&#x141;" horiz-adv-x="442" 
d="M426 119l-24 -119h-356l32 191l4 39l-58 -28l-13 8l-16 92l100 48l30 295h161l-31 -216l93 45l13 -7l18 -91l-141 -69l-14 -101l-7 -75h202z" />
    <glyph glyph-name="lslash" unicode="&#x142;" horiz-adv-x="306" 
d="M228 331l-30 -217l-3 -108l-145 -10l39 283l-61 -29l-7 2l-20 88l104 50l27 197l2 107l146 10l-36 -261l64 31l7 -4l20 -87z" />
    <glyph glyph-name="Nacute" unicode="&#x143;" horiz-adv-x="691" 
d="M608 203l-18 -203h-172l-176 404h-10l-23 -178l-22 -226h-145l32 190l48 455h171l177 -404h10l45 398l148 9zM511 896l40 -92l-5 -14q-87 -32 -223 -75l-15 4l-24 64q124 64 213 117z" />
    <glyph glyph-name="nacute" unicode="&#x144;" horiz-adv-x="506" 
d="M440.5 433.5q33.5 -27.5 32.5 -65.5l-1 -13l-39 -240l-5 -109l-148 -10l48 290l1 11q0 23 -17 23q-21 0 -55.5 -41t-77.5 -122l-6 -43l-4 -108l-145 -10l50 358l4 108l143 10l-22 -162h13q66 100 133 160l12 1q50 -10 83.5 -37.5zM377 734l55 -84l-2 -15l-44 -25
q-79 -45 -161 -90l-14 1l-37 58q97 74 189 156z" />
    <glyph glyph-name="Ncommaaccent" unicode="&#x145;" horiz-adv-x="691" 
d="M608 203l-18 -203h-172l-176 404h-10l-23 -178l-22 -226h-145l32 190l48 455h171l177 -404h10l45 398l148 9zM403 -113q0 -46 -30 -89t-93 -87l-46 40l-2 10q53 44 53 95q0 18 -7.5 32.5t-22.5 29.5v12q52 28 105 44q43 -37 43 -87z" />
    <glyph glyph-name="ncommaaccent" unicode="&#x146;" horiz-adv-x="506" 
d="M440.5 433.5q33.5 -27.5 32.5 -65.5l-1 -13l-39 -240l-5 -109l-148 -10l48 290l1 11q0 23 -17 23q-21 0 -55.5 -41t-77.5 -122l-6 -43l-4 -108l-145 -10l50 358l4 108l143 10l-22 -162h13q66 100 133 160l12 1q50 -10 83.5 -37.5zM310 -113q0 -46 -30 -89t-93 -87l-46 40
l-2 10q53 44 53 95q0 18 -7.5 32.5t-22.5 29.5v12q52 28 105 44q43 -37 43 -87z" />
    <glyph glyph-name="Ncaron" unicode="&#x147;" horiz-adv-x="691" 
d="M608 203l-18 -203h-172l-176 404h-10l-23 -178l-22 -226h-145l32 190l48 455h171l177 -404h10l45 398l148 9zM570 826q-82 -54 -146 -110h-30q-56 53 -135 110l35 61h15l103 -62l66 34q38 18 56 28h15z" />
    <glyph glyph-name="ncaron" unicode="&#x148;" horiz-adv-x="506" 
d="M440.5 433.5q33.5 -27.5 32.5 -65.5l-1 -13l-39 -240l-5 -109l-148 -10l48 290l1 11q0 23 -17 23q-21 0 -55.5 -41t-77.5 -122l-6 -43l-4 -108l-145 -10l50 358l4 108l143 10l-22 -162h13q66 100 133 160l12 1q50 -10 83.5 -37.5zM466 669q-46 -37 -145 -128l-18 -16h-30
q-49 59 -134 144l45 58h15q66 -54 98 -87q29 24 72.5 53t50.5 34h15z" />
    <glyph glyph-name="Eng" unicode="&#x14a;" horiz-adv-x="697" 
d="M609 203l-13 -148q-7 -59 -31.5 -100t-72.5 -72t-129 -58l-35 83l1 14q39 19 63.5 37.5t38.5 40.5l-189 404h-11l-22 -178l-22 -226h-145l33 190l48 455h171l179 -391h10l43 385l147 9z" />
    <glyph glyph-name="eng" unicode="&#x14b;" horiz-adv-x="512" 
d="M440 433.5q33 -27.5 32 -65.5l-1 -13l-40 -241l-10 -86q-12 -79 -56 -132t-130 -92l-43 65l1 14q41 23 63 55t29 83l42 262l1 11v4q0 22 -16 22q-21 0 -55.5 -42t-78.5 -125l-5 -39l-4 -108l-145 -10l50 358l4 108l143 10l-22 -162h13q68 103 133 160l12 1
q50 -10 83 -37.5z" />
    <glyph glyph-name="Omacron" unicode="&#x14c;" horiz-adv-x="642" 
d="M565 585.5q68 -69.5 68 -205.5q0 -116 -40 -204.5t-117 -137.5t-185 -49q-123 0 -191 71t-68 208q0 116 39.5 203.5t116.5 135.5t185 48q124 0 192 -69.5zM237 468.5q-40 -58.5 -40 -199.5q0 -87 24.5 -123.5t85.5 -36.5q78 0 118 59t40 201q0 86 -24.5 122t-85.5 36
q-78 0 -118 -58.5zM536 839l-8 -86h-278l-10 10l8 86h278z" />
    <glyph glyph-name="omacron" unicode="&#x14d;" horiz-adv-x="449" 
d="M293 477q65 -14 100.5 -56.5t35.5 -115.5q0 -141 -69 -224.5t-189 -91.5l-14 2q-137 30 -137 181q0 88 31.5 156t90 107t137.5 43zM177.5 319q-20.5 -47 -20.5 -150q0 -39 9 -55t32 -16q51 0 71.5 47.5t20.5 150.5q0 39 -8.5 54.5t-30.5 15.5q-53 0 -73.5 -47zM426 661
l-8 -86h-278l-10 10l8 86h278z" />
    <glyph glyph-name="Obreve" unicode="&#x14e;" horiz-adv-x="642" 
d="M565 585.5q68 -69.5 68 -205.5q0 -116 -40 -204.5t-117 -137.5t-185 -49q-123 0 -191 71t-68 208q0 116 39.5 203.5t116.5 135.5t185 48q124 0 192 -69.5zM237 468.5q-40 -58.5 -40 -199.5q0 -87 24.5 -123.5t85.5 -36.5q78 0 118 59t40 201q0 86 -24.5 122t-85.5 36
q-78 0 -118 -58.5zM549 832q-53 -113 -166 -113q-60 0 -100 29t-54 84l40 48h22q12 -26 38 -39.5t61 -13.5q36 0 64 13.5t45 39.5h22z" />
    <glyph glyph-name="obreve" unicode="&#x14f;" horiz-adv-x="449" 
d="M293 477q65 -14 100.5 -56.5t35.5 -115.5q0 -141 -69 -224.5t-189 -91.5l-14 2q-137 30 -137 181q0 88 31.5 156t90 107t137.5 43zM177.5 319q-20.5 -47 -20.5 -150q0 -39 9 -55t32 -16q51 0 71.5 47.5t20.5 150.5q0 39 -8.5 54.5t-30.5 15.5q-53 0 -73.5 -47zM437 661
q-21 -56 -65 -92.5t-105 -36.5q-69 0 -105 36.5t-45 92.5l40 51h22q9 -35 34.5 -53.5t61.5 -18.5q37 0 66.5 18.5t46.5 53.5h22z" />
    <glyph glyph-name="Ohungarumlaut" unicode="&#x150;" horiz-adv-x="642" 
d="M565 585.5q68 -69.5 68 -205.5q0 -116 -40 -204.5t-117 -137.5t-185 -49q-123 0 -191 71t-68 208q0 116 39.5 203.5t116.5 135.5t185 48q124 0 192 -69.5zM237 468.5q-40 -58.5 -40 -199.5q0 -87 24.5 -123.5t85.5 -36.5q78 0 118 59t40 201q0 86 -24.5 122t-85.5 36
q-78 0 -118 -58.5zM343 892l12 2l71 -46l2 -12q-57 -57 -126 -118l-14 -4l-48 38q65 83 103 140zM503 892l11 2l72 -46l2 -12q-50 -50 -127 -118l-13 -4l-48 38q70 92 103 140z" />
    <glyph glyph-name="ohungarumlaut" unicode="&#x151;" horiz-adv-x="449" 
d="M293 477q65 -14 100.5 -56.5t35.5 -115.5q0 -141 -69 -224.5t-189 -91.5l-14 2q-137 30 -137 181q0 88 31.5 156t90 107t137.5 43zM177.5 319q-20.5 -47 -20.5 -150q0 -39 9 -55t32 -16q51 0 71.5 47.5t20.5 150.5q0 39 -8.5 54.5t-30.5 15.5q-53 0 -73.5 -47zM257 738
l11 2l71 -50l2 -12q-56 -64 -145 -154l-12 -3l-47 38q69 100 120 179zM414 738l10 2l72 -50l2 -12q-56 -64 -145 -154l-12 -3l-47 38q69 100 120 179z" />
    <glyph glyph-name="OE" unicode="&#x152;" horiz-adv-x="864" 
d="M503 650q11 -1 36.5 -3t45.5 -2h308l9 -12l-26 -117l-151 5h-111l-18 -133l102 -1l106 3l7 -11l-25 -117l-114 3l-96 -1l-6 -59l-8 -81l102 -1l162 6l7 -12l-24 -117h-303q-31 1 -104 -5q-61 -7 -109 -7q-126 0 -194 72t-68 202q0 121 45 210.5t128 137t195 47.5
q48 0 104 -7zM240 468.5q-42 -60.5 -42 -203.5q0 -81 29.5 -119t94.5 -38q55 0 75 13q20 12 23 47l33 301q1 7 1 19q0 21 -8 26q-17 15 -77 15q-87 0 -129 -60.5z" />
    <glyph glyph-name="oe" unicode="&#x153;" horiz-adv-x="692" 
d="M607 173l46 -60q-76 -95 -177 -123h-14q-88 10 -126 73q-65 -68 -163 -74l-14 2q-139 30 -139 181q0 88 31.5 156t90.5 107t139 43l14 -1q68 -14 98 -65q65 62 159 66l14 -1q51 -10 80 -39t29 -77q0 -60 -57.5 -104.5t-187.5 -79.5q4 -40 17 -57t39 -17q28 0 54.5 19
t47.5 54zM457.5 353q-21.5 -31 -27.5 -91q61 16 89.5 37t28.5 53q0 17 -8 24.5t-26 7.5q-35 0 -56.5 -31zM273 145q21 48 21 152q0 39 -9 54.5t-32 15.5q-53 0 -74 -47t-21 -151q0 -40 9.5 -56t32.5 -16q52 0 73 48z" />
    <glyph glyph-name="Racute" unicode="&#x154;" horiz-adv-x="596" 
d="M542.5 349.5q-36.5 -58.5 -102.5 -96.5q55 -109 120 -216l-3 -17q-79 -25 -161 -31l-14 13q-49 120 -78 207h-85v-3l-18 -206h-159l32 191l48 454l257 1q94 0 147 -43.5t53 -123.5q0 -71 -36.5 -129.5zM237 328l87 -4q45 16 65.5 48t20.5 81q0 39 -22 58t-67 21l-55 -3z
M443 912l55 -84l-2 -15l-44 -25q-79 -45 -161 -90l-14 1l-37 58q97 74 189 156z" />
    <glyph glyph-name="racute" unicode="&#x155;" horiz-adv-x="365" 
d="M381 467l-24 -180l-13 -6l-26 5q-39 -4 -69.5 -28.5t-67.5 -85.5l-8 -58l-4 -108l-145 -10l49 358l4 108l144 10l-21 -155h14q30 50 62.5 87t76.5 67zM329 734l55 -84l-2 -15l-44 -25q-79 -45 -161 -90l-14 1l-37 58q97 74 189 156z" />
    <glyph glyph-name="Rcommaaccent" unicode="&#x156;" horiz-adv-x="596" 
d="M542.5 349.5q-36.5 -58.5 -102.5 -96.5q55 -109 120 -216l-3 -17q-79 -25 -161 -31l-14 13q-49 120 -78 207h-85v-3l-18 -206h-159l32 191l48 454l257 1q94 0 147 -43.5t53 -123.5q0 -71 -36.5 -129.5zM237 328l87 -4q45 16 65.5 48t20.5 81q0 39 -22 58t-67 21l-55 -3z
M355 -113q0 -46 -30 -89t-93 -87l-46 40l-2 10q53 44 53 95q0 18 -7.5 32.5t-22.5 29.5v12q52 28 105 44q43 -37 43 -87z" />
    <glyph glyph-name="rcommaaccent" unicode="&#x157;" horiz-adv-x="365" 
d="M381 467l-24 -180l-13 -6l-26 5q-39 -4 -69.5 -28.5t-67.5 -85.5l-8 -58l-4 -108l-145 -10l49 358l4 108l144 10l-21 -155h14q30 50 62.5 87t76.5 67zM183 -113q0 -46 -30 -89t-93 -87l-46 40l-2 10q53 44 53 95q0 18 -7.5 32.5t-22.5 29.5v12q52 28 105 44
q43 -37 43 -87z" />
    <glyph glyph-name="Rcaron" unicode="&#x158;" horiz-adv-x="596" 
d="M542.5 349.5q-36.5 -58.5 -102.5 -96.5q55 -109 120 -216l-3 -17q-79 -25 -161 -31l-14 13q-49 120 -78 207h-85v-3l-18 -206h-159l32 191l48 454l257 1q94 0 147 -43.5t53 -123.5q0 -71 -36.5 -129.5zM237 328l87 -4q45 16 65.5 48t20.5 81q0 39 -22 58t-67 21l-55 -3z
M532 847q-46 -37 -145 -128l-18 -16h-30q-49 59 -134 144l45 58h15q66 -54 98 -87q29 24 72.5 53t50.5 34h15z" />
    <glyph glyph-name="rcaron" unicode="&#x159;" horiz-adv-x="365" 
d="M381 467l-24 -180l-13 -6l-26 5q-39 -4 -69.5 -28.5t-67.5 -85.5l-8 -58l-4 -108l-145 -10l49 358l4 108l144 10l-21 -155h14q30 50 62.5 87t76.5 67zM418 669q-46 -37 -145 -128l-18 -16h-30q-49 59 -134 144l45 58h15q66 -54 98 -87q29 24 72.5 53t50.5 34h15z" />
    <glyph glyph-name="Sacute" unicode="&#x15a;" horiz-adv-x="502" 
d="M504 621l-41 -133l-24 -10q-34 25 -70 39t-64 14q-35 0 -56 -17t-21 -41t21.5 -41.5t69.5 -42.5q48 -26 78 -47t52 -54.5t22 -80.5q0 -59 -34.5 -109t-96 -79t-139.5 -29q-99 0 -197 40l39 143l17 9q38 -35 85 -54t83 -19q39 0 60 17.5t21 42.5q0 26 -22.5 44.5
t-69.5 43.5q-46 24 -76 44.5t-51.5 54t-21.5 80.5q0 61 34.5 111t95 79t135.5 29q87 0 171 -34zM399 912l55 -84l-2 -15l-44 -25q-79 -45 -161 -90l-14 1l-37 58q97 74 189 156z" />
    <glyph glyph-name="sacute" unicode="&#x15b;" horiz-adv-x="362" 
d="M359 450l-35 -116l-20 -7q-24 25 -50.5 39t-46.5 14q-17 0 -28 -10.5t-11 -25.5t13.5 -26.5t42.5 -28.5q31 -19 51.5 -35t35.5 -41t15 -59q0 -47 -27.5 -84.5t-75.5 -58.5t-107 -21q-68 8 -126 29l34 122l16 8q25 -31 57 -49t58 -18q20 0 31 11t11 25q0 15 -13.5 27
t-45.5 32q-48 30 -74.5 57.5t-26.5 71.5q0 51 29 89.5t78 59.5t106 20q56 -7 109 -25zM314 734l55 -84l-2 -15l-44 -25q-79 -45 -161 -90l-14 1l-37 58q97 74 189 156z" />
    <glyph glyph-name="Scircumflex" unicode="&#x15c;" horiz-adv-x="502" 
d="M504 621l-41 -133l-24 -10q-34 25 -70 39t-64 14q-35 0 -56 -17t-21 -41t21.5 -41.5t69.5 -42.5q48 -26 78 -47t52 -54.5t22 -80.5q0 -59 -34.5 -109t-96 -79t-139.5 -29q-99 0 -197 40l39 143l17 9q38 -35 85 -54t83 -19q39 0 60 17.5t21 42.5q0 26 -22.5 44.5
t-69.5 43.5q-46 24 -76 44.5t-51.5 54t-21.5 80.5q0 61 34.5 111t95 79t135.5 29q87 0 171 -34zM160 761q46 37 145 128l18 16h30q49 -59 134 -144l-45 -58h-15q-66 54 -98 87q-29 -24 -72.5 -53t-50.5 -34h-15z" />
    <glyph glyph-name="scircumflex" unicode="&#x15d;" horiz-adv-x="362" 
d="M359 450l-35 -116l-20 -7q-24 25 -50.5 39t-46.5 14q-17 0 -28 -10.5t-11 -25.5t13.5 -26.5t42.5 -28.5q31 -19 51.5 -35t35.5 -41t15 -59q0 -47 -27.5 -84.5t-75.5 -58.5t-107 -21q-68 8 -126 29l34 122l16 8q25 -31 57 -49t58 -18q20 0 31 11t11 25q0 15 -13.5 27
t-45.5 32q-48 30 -74.5 57.5t-26.5 71.5q0 51 29 89.5t78 59.5t106 20q56 -7 109 -25zM75 583q46 37 145 128l18 16h30q49 -59 134 -144l-45 -58h-15q-66 54 -98 87q-29 -24 -72.5 -53t-50.5 -34h-15z" />
    <glyph glyph-name="Scedilla" unicode="&#x15e;" horiz-adv-x="502" 
d="M504 621l-41 -133l-24 -10q-34 25 -70 39t-64 14q-35 0 -56 -17t-21 -41t21.5 -41.5t69.5 -42.5q48 -26 78 -47t52 -54.5t22 -80.5q0 -59 -34.5 -109t-96 -79t-139.5 -29q-99 0 -197 40l39 143l17 9q38 -35 85 -54t83 -19q39 0 60 17.5t21 42.5q0 26 -22.5 44.5
t-69.5 43.5q-46 24 -76 44.5t-51.5 54t-21.5 80.5q0 61 34.5 111t95 79t135.5 29q87 0 171 -34zM247 -45l34 -19q23 -13 32.5 -27.5t9.5 -33.5q0 -34 -27 -56t-73 -22q-47 0 -86 27l10 63l7 2q32 -29 59 -29q22 0 22 19q0 10 -16 18l-49 28l23 104h70z" />
    <glyph glyph-name="scedilla" unicode="&#x15f;" horiz-adv-x="362" 
d="M359 450l-35 -116l-20 -7q-24 25 -50.5 39t-46.5 14q-17 0 -28 -10.5t-11 -25.5t13.5 -26.5t42.5 -28.5q31 -19 51.5 -35t35.5 -41t15 -59q0 -47 -27.5 -84.5t-75.5 -58.5t-107 -21q-68 8 -126 29l34 122l16 8q25 -31 57 -49t58 -18q20 0 31 11t11 25q0 15 -13.5 27
t-45.5 32q-48 30 -74.5 57.5t-26.5 71.5q0 51 29 89.5t78 59.5t106 20q56 -7 109 -25zM184 -45l34 -19q23 -13 32.5 -27.5t9.5 -33.5q0 -34 -27 -56t-73 -22q-47 0 -86 27l10 63l7 2q32 -29 59 -29q22 0 22 19q0 10 -16 18l-49 28l23 104h70z" />
    <glyph glyph-name="Scaron" unicode="&#x160;" horiz-adv-x="502" 
d="M504 621l-41 -133l-24 -10q-34 25 -70 39t-64 14q-35 0 -56 -17t-21 -41t21.5 -41.5t69.5 -42.5q48 -26 78 -47t52 -54.5t22 -80.5q0 -59 -34.5 -109t-96 -79t-139.5 -29q-99 0 -197 40l39 143l17 9q38 -35 85 -54t83 -19q39 0 60 17.5t21 42.5q0 26 -22.5 44.5
t-69.5 43.5q-46 24 -76 44.5t-51.5 54t-21.5 80.5q0 61 34.5 111t95 79t135.5 29q87 0 171 -34zM478 826q-82 -54 -146 -110h-30q-56 53 -135 110l35 61h15l103 -62l66 34q38 18 56 28h15z" />
    <glyph glyph-name="scaron" unicode="&#x161;" horiz-adv-x="362" 
d="M359 450l-35 -116l-20 -7q-24 25 -50.5 39t-46.5 14q-17 0 -28 -10.5t-11 -25.5t13.5 -26.5t42.5 -28.5q31 -19 51.5 -35t35.5 -41t15 -59q0 -47 -27.5 -84.5t-75.5 -58.5t-107 -21q-68 8 -126 29l34 122l16 8q25 -31 57 -49t58 -18q20 0 31 11t11 25q0 15 -13.5 27
t-45.5 32q-48 30 -74.5 57.5t-26.5 71.5q0 51 29 89.5t78 59.5t106 20q56 -7 109 -25zM403 669q-46 -37 -145 -128l-18 -16h-30q-49 59 -134 144l45 58h15q66 -54 98 -87q29 24 72.5 53t50.5 34h15z" />
    <glyph glyph-name="uni0162" unicode="&#x162;" horiz-adv-x="501" 
d="M539 633l-24 -117l-122 6h-28l-44 -316l-19 -206h-45l-11 -45l34 -20q42 -22 42 -60q0 -34 -27.5 -56t-72.5 -22q-46 0 -86 26l10 63l7 3q14 -14 30 -21.5t29 -7.5q21 0 21 18q0 11 -15 18l-49 28l17 76h-43l33 191l36 331h-29l-126 -6l-8 12l24 117h459z" />
    <glyph glyph-name="uni0163" unicode="&#x163;" horiz-adv-x="354" 
d="M203 148l-1 -11q0 -16 14 -16q10 0 21.5 11t34.5 43l12 1l41 -51q-31 -57 -65 -88.5t-78 -45.5q-56 0 -87.5 28.5t-30.5 77.5l3 28l35 231l2 18h-63l-8 9l9 75h72l11 101l136 37l10 -8l-20 -130h105l11 -12l-10 -72h-119zM211 -45l34 -19q23 -13 32.5 -27.5t9.5 -33.5
q0 -34 -27 -56t-73 -22q-47 0 -86 27l10 63l7 2q32 -29 59 -29q22 0 22 19q0 10 -16 18l-49 28l23 104h70z" />
    <glyph glyph-name="Tcaron" unicode="&#x164;" horiz-adv-x="501" 
d="M539 633l-24 -117l-122 6h-28l-44 -316l-19 -206h-159l33 191l36 331h-29l-126 -6l-8 12l24 117h459zM484 847q-46 -37 -145 -128l-18 -16h-30q-49 59 -134 144l45 58h15q66 -54 98 -87q29 24 72.5 53t50.5 34h15z" />
    <glyph glyph-name="tcaron" unicode="&#x165;" horiz-adv-x="379" 
d="M203 148l-1 -11q0 -16 14 -16q10 0 21.5 11t34.5 43l12 1l41 -51q-31 -57 -65 -88.5t-78 -45.5q-56 0 -87.5 28.5t-30.5 77.5l3 28l35 231l2 18h-63l-8 9l9 75h72l11 101l136 37l10 -8l-20 -130h105l11 -12l-10 -72h-119zM447 724l-63 -211l-68 -11l-9 9l21 216l112 6z
" />
    <glyph glyph-name="Tbar" unicode="&#x166;" horiz-adv-x="501" 
d="M365 522l-25 -183h85l10 -11l-6 -73h-101l-7 -49l-19 -206h-159l33 191l7 64h-82l-10 11l6 73h95l20 183h-29l-126 -6l-8 12l24 117h459l7 -12l-24 -117l-122 6h-28z" />
    <glyph glyph-name="tbar" unicode="&#x167;" horiz-adv-x="357" 
d="M241 374l-11 -72h100l9 -10l-8 -72h-114l-11 -72l-1 -11q0 -16 14 -16q10 0 21.5 10t34.5 38l12 1l41 -51q-31 -55 -65 -85t-78 -43q-56 0 -87.5 28.5t-30.5 77.5l3 28l14 95h-57l-9 10l8 72h71l8 54l2 18h-63l-8 9l9 75h72l11 101l136 37l10 -8l-20 -130h105l11 -12
l-10 -72h-119z" />
    <glyph glyph-name="Umacron" unicode="&#x16a;" horiz-adv-x="634" 
d="M585 318l-12 -92q-14 -114 -86 -175t-199 -61q-111 0 -173 48.5t-62 137.5q0 22 3 47l14 97l36 325h158l-56 -401q-2 -24 -2 -33q0 -48 23 -70.5t72 -22.5q58 0 88.5 29.5t37.5 92.5l43 405h160zM533 839l-8 -86h-278l-10 10l8 86h278z" />
    <glyph glyph-name="umacron" unicode="&#x16b;" horiz-adv-x="499" 
d="M473 472l-48 -358l-4 -108l-144 -10l21 155h-11q-65 -99 -127 -154l-12 -1q-54 8 -86 35t-32 66l2 18l38 237l5 110l146 9l-45 -286l-1 -16v-3q0 -21 18 -21q19 0 51 38.5t74 115.5l7 55l4 108zM446 661l-8 -86h-278l-10 10l8 86h278z" />
    <glyph glyph-name="Ubreve" unicode="&#x16c;" horiz-adv-x="634" 
d="M585 318l-12 -92q-14 -114 -86 -175t-199 -61q-111 0 -173 48.5t-62 137.5q0 22 3 47l14 97l36 325h158l-56 -401q-2 -24 -2 -33q0 -48 23 -70.5t72 -22.5q58 0 88.5 29.5t37.5 92.5l43 405h160zM546 839q-21 -56 -65 -92.5t-105 -36.5q-69 0 -105 36.5t-45 92.5l40 51
h22q9 -35 34.5 -53.5t61.5 -18.5q37 0 66.5 18.5t46.5 53.5h22z" />
    <glyph glyph-name="ubreve" unicode="&#x16d;" horiz-adv-x="499" 
d="M473 472l-48 -358l-4 -108l-144 -10l21 155h-11q-65 -99 -127 -154l-12 -1q-54 8 -86 35t-32 66l2 18l38 237l5 110l146 9l-45 -286l-1 -16v-3q0 -21 18 -21q19 0 51 38.5t74 115.5l7 55l4 108zM457 661q-21 -56 -65 -92.5t-105 -36.5q-69 0 -105 36.5t-45 92.5l40 51h22
q9 -35 34.5 -53.5t61.5 -18.5q37 0 66.5 18.5t46.5 53.5h22z" />
    <glyph glyph-name="Uring" unicode="&#x16e;" horiz-adv-x="634" 
d="M585 318l-12 -92q-14 -114 -86 -175t-199 -61q-111 0 -173 48.5t-62 137.5q0 22 3 47l14 97l36 325h158l-56 -401q-2 -24 -2 -33q0 -48 23 -70.5t72 -22.5q58 0 88.5 29.5t37.5 92.5l43 405h160zM464.5 889q24.5 -25 24.5 -71q0 -50 -27 -77t-77 -27q-47 0 -72 25t-25 73
q0 49 26.5 75.5t76.5 26.5q49 0 73.5 -25zM359 840.5q-9 -8.5 -9 -25.5q0 -20 9.5 -29t29.5 -9t29 8t9 27q0 37 -39 37q-20 0 -29 -8.5z" />
    <glyph glyph-name="uring" unicode="&#x16f;" horiz-adv-x="499" 
d="M473 472l-48 -358l-4 -108l-144 -10l21 155h-11q-65 -99 -127 -154l-12 -1q-54 8 -86 35t-32 66l2 18l38 237l5 110l146 9l-45 -286l-1 -16v-3q0 -21 18 -21q19 0 51 38.5t74 115.5l7 55l4 108zM375.5 711q24.5 -25 24.5 -71q0 -50 -27 -77t-77 -27q-47 0 -72 25t-25 73
q0 49 26.5 75.5t76.5 26.5q49 0 73.5 -25zM270 662.5q-9 -8.5 -9 -25.5q0 -20 9.5 -29t29.5 -9t29 8t9 27q0 37 -39 37q-20 0 -29 -8.5z" />
    <glyph glyph-name="Uhungarumlaut" unicode="&#x170;" horiz-adv-x="634" 
d="M585 318l-12 -92q-14 -114 -86 -175t-199 -61q-111 0 -173 48.5t-62 137.5q0 22 3 47l14 97l36 325h158l-56 -401q-2 -24 -2 -33q0 -48 23 -70.5t72 -22.5q58 0 88.5 29.5t37.5 92.5l43 405h160zM340 892l12 2l71 -46l2 -12q-57 -57 -126 -118l-14 -4l-48 38
q65 83 103 140zM500 892l11 2l72 -46l2 -12q-50 -50 -127 -118l-13 -4l-48 38q70 92 103 140z" />
    <glyph glyph-name="uhungarumlaut" unicode="&#x171;" horiz-adv-x="499" 
d="M473 472l-48 -358l-4 -108l-144 -10l21 155h-11q-65 -99 -127 -154l-12 -1q-54 8 -86 35t-32 66l2 18l38 237l5 110l146 9l-45 -286l-1 -16v-3q0 -21 18 -21q19 0 51 38.5t74 115.5l7 55l4 108zM277 738l11 2l71 -50l2 -12q-56 -64 -145 -154l-12 -3l-47 38
q69 100 120 179zM434 738l10 2l72 -50l2 -12q-56 -64 -145 -154l-12 -3l-47 38q69 100 120 179z" />
    <glyph glyph-name="Uogonek" unicode="&#x172;" horiz-adv-x="634" 
d="M585 318l-12 -92q-14 -114 -86 -175t-199 -61q-111 0 -173 48.5t-62 137.5q0 22 3 47l14 97l36 325h158l-56 -401q-2 -24 -2 -33q0 -48 23 -70.5t72 -22.5q58 0 88.5 29.5t37.5 92.5l43 405h160zM229.5 -201.5q-28.5 23.5 -28.5 61.5q0 23 9.5 40.5t35.5 41.5t83 68h80
q-45 -43 -72 -70.5t-33.5 -37t-6.5 -18.5q0 -23 27 -23t73 26l7 -1l14 -71q-61 -40 -113 -40q-47 0 -75.5 23.5z" />
    <glyph glyph-name="uogonek" unicode="&#x173;" horiz-adv-x="499" 
d="M473 472l-48 -358l-4 -108l-144 -10l21 155h-11q-65 -99 -127 -154l-12 -1q-54 8 -86 35t-32 66l2 18l38 237l5 110l146 9l-45 -286l-1 -16v-3q0 -21 18 -21q19 0 51 38.5t74 115.5l7 55l4 108zM331.5 -55q-21.5 -18 -21.5 -33q0 -18 24 -18q25 0 66 24l7 -2l14 -68
q-51 -39 -106 -39q-44 0 -71 22t-27 57q0 72 106 118h98q-68 -43 -89.5 -61z" />
    <glyph glyph-name="Wcircumflex" unicode="&#x174;" horiz-adv-x="892" 
d="M660 0h-167l-46 281h-9l-114 -281h-169l-86 645h155l-1 -87l43 -396h10l134 329l-22 154h162l1 -103l49 -380h9l155 387l29 96h147zM340 778q82 54 146 110h30q56 -53 135 -110l-35 -61h-15l-103 62l-66 -34q-38 -18 -56 -28h-15z" />
    <glyph glyph-name="wcircumflex" unicode="&#x175;" horiz-adv-x="725" 
d="M550 0h-158l-20 274h-12l-104 -274h-158l-53 463l142 9v-79l12 -231h12l86 222l26 84h153l1 -75l13 -231h12l57 124q14 31 21 52.5t7 41.5q0 29 -17 60l6 15l133 19q16 -38 16 -79q0 -32 -11.5 -67t-33.5 -78zM246 583q46 37 145 128l18 16h30q49 -59 134 -144l-45 -58
h-15q-66 54 -98 87q-29 -24 -72.5 -53t-50.5 -34h-15z" />
    <glyph glyph-name="Ycircumflex" unicode="&#x176;" horiz-adv-x="563" 
d="M345 213l-6 -37l-15 -176h-158l30 176l3 39l-148 430h165l8 -48l66 -227h10l133 222l26 53h164zM196 778q82 54 146 110h30q56 -53 135 -110l-35 -61h-15l-103 62l-66 -34q-38 -18 -56 -28h-15z" />
    <glyph glyph-name="ycircumflex" unicode="&#x177;" horiz-adv-x="461" 
d="M460 395q0 -37 -10.5 -72t-32.5 -74l-114 -215q-63 -122 -124.5 -176t-138.5 -54q-42 0 -98 17l5 122l13 13q41 -10 78 -10q63 0 105 38l-103 478l144 10l8 -88l34 -230h15l53 117q28 60 28 109q0 37 -17 62l7 15l131 17q17 -48 17 -79zM114 584q46 37 145 128l18 16h30
q49 -59 134 -144l-45 -58h-15q-66 54 -98 87q-29 -24 -72.5 -53t-50.5 -34h-15z" />
    <glyph glyph-name="Ydieresis" unicode="&#x178;" horiz-adv-x="563" 
d="M345 213l-6 -37l-15 -176h-158l30 176l3 39l-148 430h165l8 -48l66 -227h10l133 222l26 53h164zM312.5 853q17.5 -18 17.5 -50q0 -34 -19.5 -54t-53.5 -20q-32 0 -49.5 18t-17.5 50q0 34 19.5 54t53.5 20q32 0 49.5 -18zM496 853q18 -18 18 -50q0 -34 -20 -54t-53 -20
q-32 0 -49.5 18t-17.5 50q0 34 19.5 54t52.5 20q32 0 50 -18z" />
    <glyph glyph-name="Zacute" unicode="&#x179;" horiz-adv-x="547" 
d="M550 531l-348 -412h191l113 9l4 -8l-27 -124l-156 4h-241l-86 -5l14 114l352 416h-182l-112 -9l-5 7l27 124l135 -2h269l67 1zM396 896l40 -92l-5 -14q-87 -32 -223 -75l-15 4l-24 64q124 64 213 117z" />
    <glyph glyph-name="zacute" unicode="&#x17a;" horiz-adv-x="433" 
d="M426 445l-252 -321l27 7q5 0 27 -4q24 -4 30 -4q33 0 47.5 16t19.5 65l18 7l59 -19q-2 -107 -39.5 -154.5t-103.5 -47.5q-20 0 -38 3.5t-33.5 8t-21.5 6.5q-45 15 -67 15q-17 0 -30.5 -6.5t-31.5 -23.5h-17l-43 40l244 315l-90 -2l-76 -13l-11 10l25 126l14 9l91 -7
l175 -5l35 20zM340 734l55 -84l-2 -15l-44 -25q-79 -45 -161 -90l-14 1l-37 58q97 74 189 156z" />
    <glyph glyph-name="Zdotaccent" unicode="&#x17b;" horiz-adv-x="547" 
d="M550 531l-348 -412h191l113 9l4 -8l-27 -124l-156 4h-241l-86 -5l14 114l352 416h-182l-112 -9l-5 7l27 124l135 -2h269l67 1zM360.5 858.5q19.5 -20.5 19.5 -57.5q0 -39 -22 -62t-60 -23q-37 0 -57 20.5t-20 57.5q0 39 22.5 62t60.5 23q37 0 56.5 -20.5z" />
    <glyph glyph-name="zdotaccent" unicode="&#x17c;" horiz-adv-x="433" 
d="M426 445l-252 -321l27 7q5 0 27 -4q24 -4 30 -4q33 0 47.5 16t19.5 65l18 7l59 -19q-2 -107 -39.5 -154.5t-103.5 -47.5q-20 0 -38 3.5t-33.5 8t-21.5 6.5q-45 15 -67 15q-17 0 -30.5 -6.5t-31.5 -23.5h-17l-43 40l244 315l-90 -2l-76 -13l-11 10l25 126l14 9l91 -7
l175 -5l35 20zM324.5 680.5q19.5 -20.5 19.5 -57.5q0 -39 -22 -62t-60 -23q-37 0 -57 20.5t-20 57.5q0 39 22.5 62t60.5 23q37 0 56.5 -20.5z" />
    <glyph glyph-name="Zcaron" unicode="&#x17d;" horiz-adv-x="547" 
d="M550 531l-348 -412h191l113 9l4 -8l-27 -124l-156 4h-241l-86 -5l14 114l352 416h-182l-112 -9l-5 7l27 124l135 -2h269l67 1zM456 826q-82 -54 -146 -110h-30q-56 53 -135 110l35 61h15l103 -62l66 34q38 18 56 28h15z" />
    <glyph glyph-name="zcaron" unicode="&#x17e;" horiz-adv-x="433" 
d="M426 445l-252 -321l27 7q5 0 27 -4q24 -4 30 -4q33 0 47.5 16t19.5 65l18 7l59 -19q-2 -107 -39.5 -154.5t-103.5 -47.5q-20 0 -38 3.5t-33.5 8t-21.5 6.5q-45 15 -67 15q-17 0 -30.5 -6.5t-31.5 -23.5h-17l-43 40l244 315l-90 -2l-76 -13l-11 10l25 126l14 9l91 -7
l175 -5l35 20zM429 669q-46 -37 -145 -128l-18 -16h-30q-49 59 -134 144l45 58h15q66 -54 98 -87q29 24 72.5 53t50.5 34h15z" />
    <glyph glyph-name="uni018F" unicode="&#x18f;" horiz-adv-x="626" 
d="M542.5 578.5q73.5 -74.5 73.5 -207.5q0 -114 -44 -200t-123.5 -133.5t-183.5 -47.5q-73 0 -127.5 27.5t-83.5 77.5t-29 115q0 26 4.5 49.5t14.5 57.5l23 25l389 2v14q0 166 -150 166q-90 0 -202 -49l-14 11l44 127q99 40 201 40q134 0 207.5 -74.5zM384 143.5
q41 36.5 59 103.5l-261 -5l-4 -20q-1 -6 -1 -19q0 -44 28 -70t77 -26q61 0 102 36.5z" />
    <glyph glyph-name="florin" unicode="&#x192;" horiz-adv-x="333" 
d="M421 613l-21 -103l-11 -6q-45 19 -76 19q-58 0 -65 -58l-10 -76h98l4 -9l-8 -76h-106l-15 -118l-14 -128q-8 -73 -41 -120t-107 -89l-63 63l1 11q37 26 54.5 55.5t24.5 76.5l13 116l14 133h-66l-4 8l8 77h71l7 52q10 87 70 134t159 47q40 0 83 -9z" />
    <glyph glyph-name="Ohorn" unicode="&#x1a0;" horiz-adv-x="672" 
d="M680.5 603q-32.5 -36 -86.5 -52q21 -34 30.5 -75t9.5 -95q0 -118 -42 -206.5t-120 -137t-182 -48.5q-125 0 -191.5 73t-66.5 212q0 113 42.5 199.5t119 134t176.5 47.5q35 0 61 -5t55 -14q39 -11 57 -11q24 0 37 12t13 34q0 35 -28 61l3 12q41 29 76 29q29 0 49 -25
t20 -62q0 -47 -32.5 -83zM428 169.5q40 61.5 40 191.5q0 91 -24.5 129t-85.5 38q-80 0 -120 -62t-40 -191q0 -91 24.5 -129t85.5 -38q80 0 120 61.5z" />
    <glyph glyph-name="ohorn" unicode="&#x1a1;" horiz-adv-x="493" 
d="M515.5 472q-18.5 -28 -48 -46t-61.5 -19q26 -41 26 -101q0 -141 -68.5 -225.5t-191.5 -91.5l-13 2q-139 29 -139 181q0 88 31.5 156t90 107t138.5 43l14 -1q12 -1 27 -5q32 -6 44 -6q23 0 36 12.5t13 34.5q0 29 -30 56l3 12q40 35 75 35q30 0 51 -25t21 -60
q0 -31 -18.5 -59zM271.5 143.5q21.5 46.5 21.5 153.5q0 39 -9 54.5t-32 15.5q-51 0 -73 -46t-22 -152q0 -40 9.5 -56t32.5 -16q51 0 72.5 46.5z" />
    <glyph glyph-name="Uhorn" unicode="&#x1af;" horiz-adv-x="650" 
d="M685.5 640q-22.5 -31 -63.5 -50l-37 -272l-12 -92q-14 -114 -86 -175t-199 -61q-111 0 -173 48.5t-62 137.5q0 22 3 47l14 97l36 325h158l-56 -401q-2 -24 -2 -33q0 -48 23 -70.5t72 -22.5q58 0 88.5 29.5t37.5 92.5l43 405h59q31 0 44.5 11.5t13.5 37.5q0 33 -29 59
l3 12q43 30 74 30q30 0 51.5 -25t21.5 -62t-22.5 -68z" />
    <glyph glyph-name="uhorn" unicode="&#x1b0;" horiz-adv-x="522" 
d="M538 466q-28 -34 -73 -55l-40 -297l-4 -108l-144 -10l21 156h-11q-34 -53 -63.5 -89.5t-63.5 -65.5l-12 -1q-54 8 -86 35t-32 66l2 18l38 237l5 110l146 9l-45 -286l-1 -13q0 -27 17 -27q19 0 51 39t76 120l7 50l4 108l51 7q64 7 64 49q0 31 -30 58l3 13q42 35 77 35
q29 0 50 -24t21 -60q0 -40 -28 -74z" />
    <glyph glyph-name="uni01C4" unicode="&#x1c4;" horiz-adv-x="1198" 
d="M574 583q69 -66 69 -187q0 -190 -94.5 -297t-270.5 -107q-99 0 -235 8h-1l32 191l48 454l259 4q124 0 193 -66zM433 176q42 63 42 196q0 79 -28 115.5t-86 36.5q-41 0 -96 -5l-46 -313l-7 -85q25 -4 54 -6t48 -2q77 0 119 63zM1201 531l-348 -412h191l113 9l4 -8
l-27 -124l-156 4h-241l-86 -5l14 114l352 416h-182l-112 -9l-5 7l27 124l135 -2h269l67 1zM1107 826q-82 -54 -146 -110h-30q-56 53 -135 110l35 61h15l103 -62l66 34q38 18 56 28h15z" />
    <glyph glyph-name="uni01C5" unicode="&#x1c5;" horiz-adv-x="1084" 
d="M574 583q69 -66 69 -187q0 -190 -94.5 -297t-270.5 -107q-99 0 -235 8h-1l32 191l48 454l259 4q124 0 193 -66zM433 176q42 63 42 196q0 79 -28 115.5t-86 36.5q-41 0 -96 -5l-46 -313l-7 -85q25 -4 54 -6t48 -2q77 0 119 63zM1077 445l-252 -321l27 7q5 0 27 -4
q24 -4 30 -4q33 0 47.5 16t19.5 65l18 7l59 -19q-2 -107 -39.5 -154.5t-103.5 -47.5q-20 0 -38 3.5t-33.5 8t-21.5 6.5q-45 15 -67 15q-17 0 -30.5 -6.5t-31.5 -23.5h-17l-43 40l244 315l-90 -2l-76 -13l-11 10l25 126l14 9l91 -7l175 -5l35 20zM1080 669q-46 -37 -145 -128
l-18 -16h-30q-49 59 -134 144l45 58h15q66 -54 98 -87q29 24 72.5 53t50.5 34h15z" />
    <glyph glyph-name="uni01C6" unicode="&#x1c6;" horiz-adv-x="904" 
d="M477 704l-80 -590l-4 -108l-145 -10l19 140h-11q-47 -83 -104 -146h-20q-64 20 -90.5 60.5t-26.5 103.5q0 66 27 131.5t81.5 116.5t133.5 72h6l49 -11l17 124l3 107zM220.5 175.5q32.5 48.5 71.5 139.5l4 32l-64 19q-41 0 -63 -42.5t-22 -114.5q0 -42 7 -62t17 -20
q17 0 49.5 48.5zM897 445l-252 -321l27 7q5 0 27 -4q24 -4 30 -4q33 0 47.5 16t19.5 65l18 7l59 -19q-2 -107 -39.5 -154.5t-103.5 -47.5q-20 0 -38 3.5t-33.5 8t-21.5 6.5q-45 15 -67 15q-17 0 -30.5 -6.5t-31.5 -23.5h-17l-43 40l244 315l-90 -2l-76 -13l-11 10l25 126
l14 9l91 -7l175 -5l35 20zM900 669q-46 -37 -145 -128l-18 -16h-30q-49 59 -134 144l45 58h15q66 -54 98 -87q29 24 72.5 53t50.5 34h15z" />
    <glyph glyph-name="uni01C7" unicode="&#x1c7;" horiz-adv-x="765" 
d="M419 119l-24 -119h-357l32 191l48 454h161l-62 -439l-7 -75h202zM677 213l-8 -91q-8 -59 -32.5 -100t-72.5 -72t-128 -58l-35 83l1 13q61 30 87.5 60t32.5 78l9 71l36 333l-95 -2l-9 11l20 106h257z" />
    <glyph glyph-name="uni01C8" unicode="&#x1c8;" horiz-adv-x="703" 
d="M419 119l-24 -119h-357l32 191l48 454h161l-62 -439l-7 -75h202zM675 467l-49 -352l-9 -86q-10 -79 -53.5 -131.5t-132.5 -92.5l-46 65l2 14q43 23 65.5 55t29.5 83l44 329v23h-67l-6 9l10 75h72l136 13zM669.5 680.5q19.5 -20.5 19.5 -57.5q0 -39 -22 -62t-60 -23
q-37 0 -57 20.5t-20 57.5q0 39 22.5 62t60.5 23q37 0 56.5 -20.5z" />
    <glyph glyph-name="uni01C9" unicode="&#x1c9;" horiz-adv-x="528" 
d="M178 114l-3 -108l-145 -10l82 591l2 107l145 10zM500 467l-49 -352l-9 -86q-10 -79 -53.5 -131.5t-132.5 -92.5l-46 65l2 14q43 23 65.5 55t29.5 83l44 329v23h-67l-6 9l10 75h72l136 13zM494.5 680.5q19.5 -20.5 19.5 -57.5q0 -39 -22 -62t-60 -23q-37 0 -57 20.5
t-20 57.5q0 39 22.5 62t60.5 23q37 0 56.5 -20.5z" />
    <glyph glyph-name="uni01CA" unicode="&#x1ca;" horiz-adv-x="1033" 
d="M608 203l-18 -203h-172l-176 404h-10l-23 -178l-22 -226h-145l32 190l48 455h171l177 -404h10l45 398l148 9zM945 213l-8 -91q-8 -59 -32.5 -100t-72.5 -72t-128 -58l-35 83l1 13q61 30 87.5 60t32.5 78l9 71l36 333l-95 -2l-9 11l20 106h257z" />
    <glyph glyph-name="uni01CB" unicode="&#x1cb;" horiz-adv-x="959" 
d="M608 203l-18 -203h-172l-176 404h-10l-23 -178l-22 -226h-145l32 190l48 455h171l177 -404h10l45 398l148 9zM931 467l-49 -352l-9 -86q-10 -79 -53.5 -131.5t-132.5 -92.5l-46 65l2 14q43 23 65.5 55t29.5 83l44 329v23h-67l-6 9l10 75h72l136 13zM925.5 680.5
q19.5 -20.5 19.5 -57.5q0 -39 -22 -62t-60 -23q-37 0 -57 20.5t-20 57.5q0 39 22.5 62t60.5 23q37 0 56.5 -20.5z" />
    <glyph glyph-name="uni01CC" unicode="&#x1cc;" horiz-adv-x="774" 
d="M440.5 433.5q33.5 -27.5 32.5 -65.5l-1 -13l-39 -240l-5 -109l-148 -10l48 290l1 11q0 23 -17 23q-21 0 -55.5 -41t-77.5 -122l-6 -43l-4 -108l-145 -10l50 358l4 108l143 10l-22 -162h13q66 100 133 160l12 1q50 -10 83.5 -37.5zM746 467l-49 -352l-9 -86
q-10 -79 -53.5 -131.5t-132.5 -92.5l-46 65l2 14q43 23 65.5 55t29.5 83l44 329v23h-67l-6 9l10 75h72l136 13zM740.5 680.5q19.5 -20.5 19.5 -57.5q0 -39 -22 -62t-60 -23q-37 0 -57 20.5t-20 57.5q0 39 22.5 62t60.5 23q37 0 56.5 -20.5z" />
    <glyph glyph-name="uni01CD" unicode="&#x1cd;" horiz-adv-x="600" 
d="M558 0h-160l-5 92l-5 40l-113 2l-98 -3l-13 -30l-31 -101h-156l285 645h190zM373 251l-32 248h-10l-104 -247l72 -2zM526 826q-82 -54 -146 -110h-30q-56 53 -135 110l35 61h15l103 -62l66 34q38 18 56 28h15z" />
    <glyph glyph-name="uni01CE" unicode="&#x1ce;" horiz-adv-x="471" 
d="M445 471l-48 -357l-4 -108l-144 -10l19 139h-14q-46 -85 -101 -145h-20q-64 20 -90.5 60.5t-26.5 104.5q0 66 26.5 131t80.5 115.5t132 72.5h6l86 -19l88 23zM222 179q32 51 72 147l3 20l-66 20q-39 0 -60.5 -42t-21.5 -113q0 -83 24 -83q17 0 49 51zM442 670
q-46 -37 -145 -128l-18 -16h-30q-49 59 -134 144l45 58h15q66 -54 98 -87q29 24 72.5 53t50.5 34h15z" />
    <glyph glyph-name="uni01CF" unicode="&#x1cf;" horiz-adv-x="304" 
d="M219 206l-18 -206h-159l32 191l48 454h161zM374 826q-82 -54 -146 -110h-30q-56 53 -135 110l35 61h15l103 -62l66 34q38 18 56 28h15z" />
    <glyph glyph-name="uni01D0" unicode="&#x1d0;" horiz-adv-x="246" 
d="M173 114l-4 -108l-145 -10l49 358l4 108l144 10zM332 669q-46 -37 -145 -128l-18 -16h-30q-49 59 -134 144l45 58h15q66 -54 98 -87q29 24 72.5 53t50.5 34h15z" />
    <glyph glyph-name="uni01D1" unicode="&#x1d1;" horiz-adv-x="642" 
d="M565 585.5q68 -69.5 68 -205.5q0 -116 -40 -204.5t-117 -137.5t-185 -49q-123 0 -191 71t-68 208q0 116 39.5 203.5t116.5 135.5t185 48q124 0 192 -69.5zM237 468.5q-40 -58.5 -40 -199.5q0 -87 24.5 -123.5t85.5 -36.5q78 0 118 59t40 201q0 86 -24.5 122t-85.5 36
q-78 0 -118 -58.5zM544 826q-82 -54 -146 -110h-30q-56 53 -135 110l35 61h15l103 -62l66 34q38 18 56 28h15z" />
    <glyph glyph-name="uni01D2" unicode="&#x1d2;" horiz-adv-x="449" 
d="M293 477q65 -14 100.5 -56.5t35.5 -115.5q0 -141 -69 -224.5t-189 -91.5l-14 2q-137 30 -137 181q0 88 31.5 156t90 107t137.5 43zM177.5 319q-20.5 -47 -20.5 -150q0 -39 9 -55t32 -16q51 0 71.5 47.5t20.5 150.5q0 39 -8.5 54.5t-30.5 15.5q-53 0 -73.5 -47zM442 669
q-46 -37 -145 -128l-18 -16h-30q-49 59 -134 144l45 58h15q66 -54 98 -87q29 24 72.5 53t50.5 34h15z" />
    <glyph glyph-name="uni01D3" unicode="&#x1d3;" horiz-adv-x="634" 
d="M585 318l-12 -92q-14 -114 -86 -175t-199 -61q-111 0 -173 48.5t-62 137.5q0 22 3 47l14 97l36 325h158l-56 -401q-2 -24 -2 -33q0 -48 23 -70.5t72 -22.5q58 0 88.5 29.5t37.5 92.5l43 405h160zM551 847q-46 -37 -145 -128l-18 -16h-30q-49 59 -134 144l45 58h15
q66 -54 98 -87q29 24 72.5 53t50.5 34h15z" />
    <glyph glyph-name="uni01D4" unicode="&#x1d4;" horiz-adv-x="499" 
d="M473 472l-48 -358l-4 -108l-144 -10l21 155h-11q-65 -99 -127 -154l-12 -1q-54 8 -86 35t-32 66l2 18l38 237l5 110l146 9l-45 -286l-1 -16v-3q0 -21 18 -21q19 0 51 38.5t74 115.5l7 55l4 108zM462 669q-46 -37 -145 -128l-18 -16h-30q-49 59 -134 144l45 58h15
q66 -54 98 -87q29 24 72.5 53t50.5 34h15z" />
    <glyph glyph-name="uni01D5" unicode="&#x1d5;" horiz-adv-x="634" 
d="M585 318l-12 -92q-14 -114 -86 -175t-199 -61q-111 0 -173 48.5t-62 137.5q0 22 3 47l14 97l36 325h158l-56 -401q-2 -24 -2 -33q0 -48 23 -70.5t72 -22.5q58 0 88.5 29.5t37.5 92.5l43 405h160zM554 991l-9 -86h-287l-11 11l8 86h288zM351.5 833.5
q17.5 -17.5 17.5 -49.5q0 -35 -19 -55t-53 -20q-32 0 -49.5 18t-17.5 51q0 34 19.5 53.5t53.5 19.5q31 0 48.5 -17.5zM532.5 833q17.5 -18 17.5 -49q0 -35 -19 -55t-53 -20q-32 0 -49.5 18t-17.5 51q0 34 19.5 53.5t53.5 19.5q31 0 48.5 -18z" />
    <glyph glyph-name="uni01D6" unicode="&#x1d6;" horiz-adv-x="499" 
d="M473 472l-48 -358l-4 -108l-144 -10l21 155h-11q-65 -99 -127 -154l-12 -1q-54 8 -86 35t-32 66l2 18l38 237l5 110l146 9l-45 -286l-1 -16v-3q0 -21 18 -21q19 0 51 38.5t74 115.5l7 55l4 108zM465 813l-9 -86h-287l-11 11l8 86h288zM262.5 655.5q17.5 -17.5 17.5 -49.5
q0 -35 -19 -55t-53 -20q-32 0 -49.5 18t-17.5 51q0 34 19.5 53.5t53.5 19.5q31 0 48.5 -17.5zM443.5 655q17.5 -18 17.5 -49q0 -35 -19 -55t-53 -20q-32 0 -49.5 18t-17.5 51q0 34 19.5 53.5t53.5 19.5q31 0 48.5 -18z" />
    <glyph glyph-name="uni01D7" unicode="&#x1d7;" horiz-adv-x="634" 
d="M585 318l-12 -92q-14 -114 -86 -175t-199 -61q-111 0 -173 48.5t-62 137.5q0 22 3 47l14 97l36 325h158l-56 -401q-2 -24 -2 -33q0 -48 23 -70.5t72 -22.5q58 0 88.5 29.5t37.5 92.5l43 405h160zM492 1038l23 -99l-7 -12q-128 -22 -233 -34l-13 6l-13 68q126 37 230 77z
M329.5 833.5q17.5 -17.5 17.5 -49.5q0 -35 -19 -55t-52 -20t-50.5 18t-17.5 51q0 34 19.5 53.5t53.5 19.5q31 0 48.5 -17.5zM510.5 833.5q17.5 -17.5 17.5 -49.5q0 -35 -19 -55t-53 -20q-32 0 -49.5 18t-17.5 51q0 34 19.5 53.5t53.5 19.5q31 0 48.5 -17.5z" />
    <glyph glyph-name="uni01D8" unicode="&#x1d8;" horiz-adv-x="499" 
d="M473 472l-48 -358l-4 -108l-144 -10l21 155h-11q-65 -99 -127 -154l-12 -1q-54 8 -86 35t-32 66l2 18l38 237l5 110l146 9l-45 -286l-1 -16v-3q0 -21 18 -21q19 0 51 38.5t74 115.5l7 55l4 108zM414 860l22 -99l-7 -12q-133 -22 -233 -34l-13 6l-13 68q127 37 230 77z
M268.5 655.5q17.5 -17.5 17.5 -49.5q0 -35 -19 -55t-53 -20q-32 0 -49.5 18t-17.5 51q0 34 19.5 53.5t53.5 19.5q31 0 48.5 -17.5zM449 655.5q17 -17.5 17 -49.5q0 -35 -19 -55t-52 -20t-50 18t-17 51q0 34 19.5 53.5t53.5 19.5q31 0 48 -17.5z" />
    <glyph glyph-name="uni01D9" unicode="&#x1d9;" horiz-adv-x="634" 
d="M585 318l-12 -92q-14 -114 -86 -175t-199 -61q-111 0 -173 48.5t-62 137.5q0 22 3 47l14 97l36 325h158l-56 -401q-2 -24 -2 -33q0 -48 23 -70.5t72 -22.5q58 0 88.5 29.5t37.5 92.5l43 405h160zM346.5 839q17.5 -18 17.5 -50q0 -34 -19.5 -54t-53.5 -20q-32 0 -49.5 18
t-17.5 50q0 34 19.5 54t53.5 20q32 0 49.5 -18zM530 839q18 -18 18 -50q0 -34 -20 -54t-53 -20q-32 0 -49.5 18t-17.5 50q0 34 19.5 54t52.5 20q32 0 50 -18zM550 963q-82 -54 -146 -110h-30q-56 53 -135 110l35 61h15l103 -62l66 34q38 18 56 28h15z" />
    <glyph glyph-name="uni01DA" unicode="&#x1da;" horiz-adv-x="499" 
d="M473 472l-48 -358l-4 -108l-144 -10l21 155h-11q-65 -99 -127 -154l-12 -1q-54 8 -86 35t-32 66l2 18l38 237l5 110l146 9l-45 -286l-1 -16v-3q0 -21 18 -21q19 0 51 38.5t74 115.5l7 55l4 108zM465 792q-79 -51 -146 -109h-29q-59 55 -135 109l34 62h15q10 -6 17.5 -11
t13.5 -8q33 -20 73 -43l72 37l50 25h15zM266.5 655.5q17.5 -17.5 17.5 -49.5q0 -34 -19.5 -54.5t-52.5 -20.5q-32 0 -49.5 18t-17.5 51q0 34 19.5 53.5t53.5 19.5q31 0 48.5 -17.5zM446.5 655.5q17.5 -17.5 17.5 -49.5q0 -35 -19 -55t-52 -20t-50.5 18t-17.5 51
q0 34 19.5 53.5t53.5 19.5q31 0 48.5 -17.5z" />
    <glyph glyph-name="uni01DB" unicode="&#x1db;" horiz-adv-x="634" 
d="M585 318l-12 -92q-14 -114 -86 -175t-199 -61q-111 0 -173 48.5t-62 137.5q0 22 3 47l14 97l36 325h158l-56 -401q-2 -24 -2 -33q0 -48 23 -70.5t72 -22.5q58 0 88.5 29.5t37.5 92.5l43 405h160zM238 927l-7 12l22 99l14 6q105 -40 231 -77l-14 -68l-13 -6
q-104 12 -233 34zM225.5 727q-17.5 18 -17.5 51q0 34 19.5 53.5t53.5 19.5q31 0 48.5 -17.5t17.5 -49.5q0 -35 -19 -55t-53 -20q-32 0 -49.5 18zM406.5 727q-17.5 18 -17.5 51q0 34 19.5 53.5t53.5 19.5q31 0 48.5 -17.5t17.5 -49.5q0 -35 -19 -55t-53 -20q-32 0 -49.5 18z
" />
    <glyph glyph-name="uni01DC" unicode="&#x1dc;" horiz-adv-x="499" 
d="M473 472l-48 -358l-4 -108l-144 -10l21 155h-11q-65 -99 -127 -154l-12 -1q-54 8 -86 35t-32 66l2 18l38 237l5 110l146 9l-45 -286l-1 -16v-3q0 -21 18 -21q19 0 51 38.5t74 115.5l7 55l4 108zM178 749l-7 12l22 99l14 6q105 -40 231 -77l-14 -68l-13 -6
q-104 12 -233 34zM165.5 549q-17.5 18 -17.5 51q0 34 19.5 53.5t53.5 19.5q31 0 48.5 -17.5t17.5 -49.5q0 -35 -19 -55t-53 -20q-32 0 -49.5 18zM346.5 549q-17.5 18 -17.5 51q0 34 19.5 53.5t53.5 19.5q31 0 48.5 -17.5t17.5 -49.5q0 -35 -19 -55t-53 -20q-32 0 -49.5 18z
" />
    <glyph glyph-name="Gcaron" unicode="&#x1e6;" horiz-adv-x="590" 
d="M511 645q50 -9 89 -26l-52 -143h-14q-46 27 -81 38.5t-78 11.5q-90 0 -134 -60t-44 -208q0 -79 30.5 -112.5t99.5 -33.5q15 0 31 3t34 8l7 47l10 107l147 10l-13 -91l-20 -164q-59 -22 -110 -32t-105 -10q-135 0 -206 69t-71 195q0 192 98 296t281 104q51 0 101 -9z
M540 826q-82 -54 -146 -110h-30q-56 53 -135 110l35 61h15l103 -62l66 34q38 18 56 28h15z" />
    <glyph glyph-name="gcaron" unicode="&#x1e7;" horiz-adv-x="468" 
d="M443 471l-48 -347l-4 -78q-10 -77 -47 -132t-92 -83t-119 -28q-81 0 -128 43t-58 115l4 11l134 64l1 11q-28 22 -40 53.5t-12 74.5q0 66 26 127t77.5 106.5t124.5 65.5h5l82 -19l83 23zM178.5 333q-21.5 -40 -21.5 -109q0 -42 7 -61t17 -19q15 0 47.5 48t70.5 135l4 27
l-63 19q-40 0 -61.5 -40zM224 -69.5q26 25.5 31 74.5l21 151h-13q-45 -80 -106 -137l-48 -38q-8 -6 -11 -12t-3 -13q0 -20 16.5 -35.5t47.5 -15.5q39 0 65 25.5zM452 669q-46 -37 -145 -128l-18 -16h-30q-49 59 -134 144l45 58h15q66 -54 98 -87q29 24 72.5 53t50.5 34h15z
" />
    <glyph glyph-name="uni01EA" unicode="&#x1ea;" horiz-adv-x="642" 
d="M565 585.5q68 -69.5 68 -205.5q0 -116 -40 -204.5t-117 -137.5t-185 -49q-123 0 -191 71t-68 208q0 116 39.5 203.5t116.5 135.5t185 48q124 0 192 -69.5zM237 468.5q-40 -58.5 -40 -199.5q0 -87 24.5 -123.5t85.5 -36.5q78 0 118 59t40 201q0 86 -24.5 122t-85.5 36
q-78 0 -118 -58.5zM232.5 -201.5q-28.5 23.5 -28.5 61.5q0 23 9.5 40.5t35.5 41.5t83 68h80q-45 -43 -72 -70.5t-33.5 -37t-6.5 -18.5q0 -23 27 -23t73 26l7 -1l14 -71q-61 -40 -113 -40q-47 0 -75.5 23.5z" />
    <glyph glyph-name="uni01EB" unicode="&#x1eb;" horiz-adv-x="449" 
d="M293 477q65 -14 100.5 -56.5t35.5 -115.5q0 -141 -69 -224.5t-189 -91.5l-14 2q-137 30 -137 181q0 88 31.5 156t90 107t137.5 43zM177.5 319q-20.5 -47 -20.5 -150q0 -39 9 -55t32 -16q51 0 71.5 47.5t20.5 150.5q0 39 -8.5 54.5t-30.5 15.5q-53 0 -73.5 -47z
M133.5 -171.5q-28.5 23.5 -28.5 61.5q0 23 9.5 40.5t35.5 41.5t83 68h80q-45 -43 -72 -70.5t-33.5 -37t-6.5 -18.5q0 -23 27 -23t73 26l7 -1l14 -71q-61 -40 -113 -40q-47 0 -75.5 23.5z" />
    <glyph glyph-name="Aringacute" unicode="&#x1fa;" horiz-adv-x="621" 
d="M292 817l-16 66q129 47 226 90l14 -5l27 -97l-6 -13q-92 -21 -231 -47zM579 0h-161l-6 89l-5 40l-113 2l-98 -3l-13 -30l-30 -98h-155l296 635q-15 23 -15 59q0 49 26.5 75t77.5 26q48 0 73 -25t25 -71q0 -42 -21 -68zM350 722.5q-9 -8.5 -9 -25.5q0 -20 9.5 -29t29.5 -9
t29 8t9 27t-9 28t-30 9q-20 0 -29 -8.5zM392 245l-32 241h-10l-104 -241l72 -2z" />
    <glyph glyph-name="aringacute" unicode="&#x1fb;" horiz-adv-x="471" 
d="M445 471l-48 -357l-4 -108l-144 -10l19 139h-14q-46 -85 -101 -145h-20q-64 20 -90.5 60.5t-26.5 104.5q0 66 26.5 131t80.5 115.5t132 72.5h6l86 -19l88 23zM222 179q32 51 72 147l3 20l-66 20q-39 0 -60.5 -42t-21.5 -113q0 -83 24 -83q17 0 49 51zM359.5 712
q24.5 -25 24.5 -71q0 -50 -27 -77t-77 -27q-47 0 -72 25t-25 73q0 49 26.5 75.5t76.5 26.5q49 0 73.5 -25zM254 663.5q-9 -8.5 -9 -25.5q0 -20 9.5 -29t29.5 -9t29 8t9 27q0 37 -39 37q-20 0 -29 -8.5zM418.972 908.316l28.4805 -96.1865l-6.66992 -13.2852
q-90.249 -21.1504 -230.472 -47.2432l-14.3994 5.7998l-16.0156 66.4463q130.874 48.3975 225.669 90.1465z" />
    <glyph glyph-name="AEacute" unicode="&#x1fc;" horiz-adv-x="814" 
d="M795 117l-25 -117h-400l7 92l2 112l-200 -55l-27 -48l-42 -101h-157l370 645h463l8 -12l-25 -117l-150 5h-81l-4 -156l188 51l10 -9v-111l-201 -51l-3 -122h97l162 6zM381 323l3 176h-10l-117 -210zM658 896l40 -92l-5 -14q-87 -32 -223 -75l-15 4l-24 64q124 64 213 117
z" />
    <glyph glyph-name="aeacute" unicode="&#x1fd;" horiz-adv-x="666" 
d="M526 478l14 -1q51 -10 80.5 -38.5t29.5 -76.5q0 -60 -57.5 -104.5t-188.5 -80.5q0 -3 2 -15q4 -31 17 -45.5t36 -14.5q30 0 57 19t47 54l19 -2l46 -60q-75 -94 -177 -123h-15q-77 9 -114 45t-49 104l-3 13q-57 -96 -118 -162h-20q-64 20 -90 61.5t-26 102.5
q0 67 26.5 132.5t81 116t132.5 71.5h6l138 -32q57 33 126 36zM431.5 353q-21.5 -32 -27.5 -93q62 16 91 38.5t29 54.5t-35 32q-36 0 -57.5 -32zM169.5 324.5q-22.5 -42.5 -22.5 -115.5q0 -82 24 -82q17 0 50 50t71 139q5 13 8.5 18.5t6.5 9.5l-74 23q-41 0 -63.5 -42.5z
M463 735l55 -84l-2 -15l-44 -25q-79 -45 -161 -90l-14 1l-37 58q97 74 189 156z" />
    <glyph glyph-name="Oslashacute" unicode="&#x1fe;" horiz-adv-x="642" 
d="M633 380q0 -116 -40 -204.5t-117 -137.5t-185 -49q-47 0 -89 11l-74 -124l-80 37l-5 14l71 119q-82 73 -82 222q0 116 39.5 203.5t116.5 135.5t185 48q52 0 95 -12l59 99l78 -36l7 -16l-57 -95q78 -72 78 -215zM425 168q40 59 40 201q0 86 -24.5 122t-85.5 36
q-78 0 -118 -58.5t-40 -199.5q0 -87 24.5 -123.5t85.5 -36.5q78 0 118 59zM472 898l40 -92l-5 -14q-87 -32 -223 -75l-15 4l-24 64q124 64 213 117z" />
    <glyph glyph-name="oslashacute" unicode="&#x1ff;" horiz-adv-x="449" 
d="M391 423q38 -44 38 -118q0 -141 -69 -224.5t-189 -91.5l-14 2l-9 2l-69 -120l-75 42l-3 13l64 111q-45 47 -45 133q0 88 31.5 156t90 107t137.5 43l14 -1l17 -4l62 106l70 -41l7 -14zM269.5 145.5q20.5 47.5 20.5 150.5q0 39 -8.5 54.5t-30.5 15.5q-53 0 -73.5 -47
t-20.5 -150q0 -39 9 -55t32 -16q51 0 71.5 47.5zM335 734l55 -84l-2 -15l-44 -25q-79 -45 -161 -90l-14 1l-37 58q97 74 189 156z" />
    <glyph glyph-name="uni0200" unicode="&#x200;" horiz-adv-x="600" 
d="M558 0h-160l-5 92l-5 40l-113 2l-98 -3l-13 -30l-31 -101h-156l285 645h190zM373 251l-32 248h-10l-104 -247l72 -2zM319 719q-78 70 -135 125l1 11l62 51l10 -2q46 -64 115 -148l-41 -40zM467 719q-64 56 -135 125l1 11l61 51l11 -1q49 -69 114 -149l-41 -40z" />
    <glyph glyph-name="uni0201" unicode="&#x201;" horiz-adv-x="471" 
d="M445 471l-48 -357l-4 -108l-144 -10l19 139h-14q-46 -85 -101 -145h-20q-64 20 -90.5 60.5t-26.5 104.5q0 66 26.5 131t80.5 115.5t132 72.5h6l86 -19l88 23zM222 179q32 51 72 147l3 20l-66 20q-39 0 -60.5 -42t-21.5 -113q0 -83 24 -83q17 0 49 51zM213 525
q-89 90 -145 154l2 12l72 50l11 -2q52 -83 120 -179l-47 -38zM370 525q-89 90 -145 154l2 12l72 50l11 -2q52 -83 120 -179l-48 -38z" />
    <glyph glyph-name="uni0202" unicode="&#x202;" horiz-adv-x="600" 
d="M558 0h-160l-5 92l-5 40l-113 2l-98 -3l-13 -30l-31 -101h-156l285 645h190zM373 251l-32 248h-10l-104 -247l72 -2zM212 760q21 56 65 92.5t105 36.5q69 0 105 -36.5t45 -92.5l-40 -51h-22q-9 35 -34.5 53.5t-61.5 18.5q-37 0 -66.5 -18.5t-46.5 -53.5h-22z" />
    <glyph glyph-name="uni0203" unicode="&#x203;" horiz-adv-x="471" 
d="M445 471l-48 -357l-4 -108l-144 -10l19 139h-14q-46 -85 -101 -145h-20q-64 20 -90.5 60.5t-26.5 104.5q0 66 26.5 131t80.5 115.5t132 72.5h6l86 -19l88 23zM222 179q32 51 72 147l3 20l-66 20q-39 0 -60.5 -42t-21.5 -113q0 -83 24 -83q17 0 49 51zM118 583
q21 56 65 92.5t105 36.5q69 0 105 -36.5t45 -92.5l-40 -51h-22q-9 35 -34.5 53.5t-61.5 18.5q-37 0 -66.5 -18.5t-46.5 -53.5h-22z" />
    <glyph glyph-name="uni0204" unicode="&#x204;" horiz-adv-x="514" 
d="M265 520l-19 -132l104 -1l103 3l8 -11l-25 -117l-112 3l-96 -1l-8 -58l-8 -82l105 -1l159 6l7 -12l-24 -117h-417l31 191l49 454h422l8 -12l-26 -117l-152 5zM293 719q-78 70 -135 125l1 11l62 51l10 -2q46 -64 115 -148l-41 -40zM441 719q-64 56 -135 125l1 11l61 51
l11 -1q49 -69 114 -149l-41 -40z" />
    <glyph glyph-name="uni0205" unicode="&#x205;" horiz-adv-x="417" 
d="M335 166l43 -55q-68 -92 -176 -121h-15q-86 10 -126.5 54.5t-40.5 129.5q0 87 31.5 154.5t89.5 106.5t135 43l14 -1q53 -10 81.5 -39.5t28.5 -76.5q0 -61 -58.5 -105.5t-185.5 -78.5q4 -39 17 -56.5t39 -17.5q22 0 45 14t61 52zM183.5 353q-21.5 -31 -27.5 -91
q62 16 89 37.5t27 52.5q0 17 -7.5 24.5t-24.5 7.5q-35 0 -56.5 -31zM193 525q-89 90 -145 154l2 12l72 50l11 -2q52 -83 120 -179l-47 -38zM350 525q-89 90 -145 154l2 12l72 50l11 -2q52 -83 120 -179l-48 -38z" />
    <glyph glyph-name="uni0206" unicode="&#x206;" horiz-adv-x="514" 
d="M265 520l-19 -132l104 -1l103 3l8 -11l-25 -117l-112 3l-96 -1l-8 -58l-8 -82l105 -1l159 6l7 -12l-24 -117h-417l31 191l49 454h422l8 -12l-26 -117l-152 5zM186 760q21 56 65 92.5t105 36.5q69 0 105 -36.5t45 -92.5l-40 -51h-22q-9 35 -34.5 53.5t-61.5 18.5
q-37 0 -66.5 -18.5t-46.5 -53.5h-22z" />
    <glyph glyph-name="uni0207" unicode="&#x207;" horiz-adv-x="417" 
d="M335 166l43 -55q-68 -92 -176 -121h-15q-86 10 -126.5 54.5t-40.5 129.5q0 87 31.5 154.5t89.5 106.5t135 43l14 -1q53 -10 81.5 -39.5t28.5 -76.5q0 -61 -58.5 -105.5t-185.5 -78.5q4 -39 17 -56.5t39 -17.5q22 0 45 14t61 52zM183.5 353q-21.5 -31 -27.5 -91
q62 16 89 37.5t27 52.5q0 17 -7.5 24.5t-24.5 7.5q-35 0 -56.5 -31zM98 583q21 56 65 92.5t105 36.5q69 0 105 -36.5t45 -92.5l-40 -51h-22q-9 35 -34.5 53.5t-61.5 18.5q-37 0 -66.5 -18.5t-46.5 -53.5h-22z" />
    <glyph glyph-name="uni0208" unicode="&#x208;" horiz-adv-x="304" 
d="M219 206l-18 -206h-159l32 191l48 454h161zM167 719q-78 70 -135 125l1 11l62 51l10 -2q46 -64 115 -148l-41 -40zM315 719q-64 56 -135 125l1 11l61 51l11 -1q49 -69 114 -149l-41 -40z" />
    <glyph glyph-name="uni0209" unicode="&#x209;" horiz-adv-x="246" 
d="M173 114l-4 -108l-145 -10l49 358l4 108l144 10zM103 524q-89 90 -145 154l2 12l72 50l11 -2q52 -83 120 -179l-47 -38zM260 524q-89 90 -145 154l2 12l72 50l11 -2q52 -83 120 -179l-48 -38z" />
    <glyph glyph-name="uni020A" unicode="&#x20a;" horiz-adv-x="304" 
d="M219 206l-18 -206h-159l32 191l48 454h161zM60 760q21 56 65 92.5t105 36.5q69 0 105 -36.5t45 -92.5l-40 -51h-22q-9 35 -34.5 53.5t-61.5 18.5q-37 0 -66.5 -18.5t-46.5 -53.5h-22z" />
    <glyph glyph-name="uni020B" unicode="&#x20b;" horiz-adv-x="246" 
d="M173 114l-4 -108l-145 -10l49 358l4 108l144 10zM8 582q21 56 65 92.5t105 36.5q69 0 105 -36.5t45 -92.5l-40 -51h-22q-9 35 -34.5 53.5t-61.5 18.5q-37 0 -66.5 -18.5t-46.5 -53.5h-22z" />
    <glyph glyph-name="uni020C" unicode="&#x20c;" horiz-adv-x="642" 
d="M565 585.5q68 -69.5 68 -205.5q0 -116 -40 -204.5t-117 -137.5t-185 -49q-123 0 -191 71t-68 208q0 116 39.5 203.5t116.5 135.5t185 48q124 0 192 -69.5zM237 468.5q-40 -58.5 -40 -199.5q0 -87 24.5 -123.5t85.5 -36.5q78 0 118 59t40 201q0 86 -24.5 122t-85.5 36
q-78 0 -118 -58.5zM337 719q-78 70 -135 125l1 11l62 51l10 -2q46 -64 115 -148l-41 -40zM485 719q-64 56 -135 125l1 11l61 51l11 -1q49 -69 114 -149l-41 -40z" />
    <glyph glyph-name="uni020D" unicode="&#x20d;" horiz-adv-x="449" 
d="M293 477q65 -14 100.5 -56.5t35.5 -115.5q0 -141 -69 -224.5t-189 -91.5l-14 2q-137 30 -137 181q0 88 31.5 156t90 107t137.5 43zM177.5 319q-20.5 -47 -20.5 -150q0 -39 9 -55t32 -16q51 0 71.5 47.5t20.5 150.5q0 39 -8.5 54.5t-30.5 15.5q-53 0 -73.5 -47zM213 524
q-89 90 -145 154l2 12l72 50l11 -2q52 -83 120 -179l-47 -38zM370 524q-89 90 -145 154l2 12l72 50l11 -2q52 -83 120 -179l-48 -38z" />
    <glyph glyph-name="uni020E" unicode="&#x20e;" horiz-adv-x="642" 
d="M565 585.5q68 -69.5 68 -205.5q0 -116 -40 -204.5t-117 -137.5t-185 -49q-123 0 -191 71t-68 208q0 116 39.5 203.5t116.5 135.5t185 48q124 0 192 -69.5zM237 468.5q-40 -58.5 -40 -199.5q0 -87 24.5 -123.5t85.5 -36.5q78 0 118 59t40 201q0 86 -24.5 122t-85.5 36
q-78 0 -118 -58.5zM230 760q21 56 65 92.5t105 36.5q69 0 105 -36.5t45 -92.5l-40 -51h-22q-9 35 -34.5 53.5t-61.5 18.5q-37 0 -66.5 -18.5t-46.5 -53.5h-22z" />
    <glyph glyph-name="uni020F" unicode="&#x20f;" horiz-adv-x="449" 
d="M293 477q65 -14 100.5 -56.5t35.5 -115.5q0 -141 -69 -224.5t-189 -91.5l-14 2q-137 30 -137 181q0 88 31.5 156t90 107t137.5 43zM177.5 319q-20.5 -47 -20.5 -150q0 -39 9 -55t32 -16q51 0 71.5 47.5t20.5 150.5q0 39 -8.5 54.5t-30.5 15.5q-53 0 -73.5 -47zM118 582
q21 56 65 92.5t105 36.5q69 0 105 -36.5t45 -92.5l-40 -51h-22q-9 35 -34.5 53.5t-61.5 18.5q-37 0 -66.5 -18.5t-46.5 -53.5h-22z" />
    <glyph glyph-name="uni0210" unicode="&#x210;" horiz-adv-x="596" 
d="M542.5 349.5q-36.5 -58.5 -102.5 -96.5q55 -109 120 -216l-3 -17q-79 -25 -161 -31l-14 13q-49 120 -78 207h-85v-3l-18 -206h-159l32 191l48 454l257 1q94 0 147 -43.5t53 -123.5q0 -71 -36.5 -129.5zM237 328l87 -4q45 16 65.5 48t20.5 81q0 39 -22 58t-67 21l-55 -3z
M315 719q-78 70 -135 125l1 11l62 51l10 -2q46 -64 115 -148l-41 -40zM463 719q-64 56 -135 125l1 11l61 51l11 -1q49 -69 114 -149l-41 -40z" />
    <glyph glyph-name="uni0211" unicode="&#x211;" horiz-adv-x="365" 
d="M381 467l-24 -180l-13 -6l-26 5q-39 -4 -69.5 -28.5t-67.5 -85.5l-8 -58l-4 -108l-145 -10l49 358l4 108l144 10l-21 -155h14q30 50 62.5 87t76.5 67zM189 524q-89 90 -145 154l2 12l72 50l11 -2q52 -83 120 -179l-47 -38zM346 524q-89 90 -145 154l2 12l72 50l11 -2
q52 -83 120 -179l-48 -38z" />
    <glyph glyph-name="uni0212" unicode="&#x212;" horiz-adv-x="596" 
d="M542.5 349.5q-36.5 -58.5 -102.5 -96.5q55 -109 120 -216l-3 -17q-79 -25 -161 -31l-14 13q-49 120 -78 207h-85v-3l-18 -206h-159l32 191l48 454l257 1q94 0 147 -43.5t53 -123.5q0 -71 -36.5 -129.5zM237 328l87 -4q45 16 65.5 48t20.5 81q0 39 -22 58t-67 21l-55 -3z
M208 760q21 56 65 92.5t105 36.5q69 0 105 -36.5t45 -92.5l-40 -51h-22q-9 35 -34.5 53.5t-61.5 18.5q-37 0 -66.5 -18.5t-46.5 -53.5h-22z" />
    <glyph glyph-name="uni0213" unicode="&#x213;" horiz-adv-x="365" 
d="M381 467l-24 -180l-13 -6l-26 5q-39 -4 -69.5 -28.5t-67.5 -85.5l-8 -58l-4 -108l-145 -10l49 358l4 108l144 10l-21 -155h14q30 50 62.5 87t76.5 67zM94 582q21 56 65 92.5t105 36.5q69 0 105 -36.5t45 -92.5l-40 -51h-22q-9 35 -34.5 53.5t-61.5 18.5
q-37 0 -66.5 -18.5t-46.5 -53.5h-22z" />
    <glyph glyph-name="uni0214" unicode="&#x214;" horiz-adv-x="634" 
d="M585 318l-12 -92q-14 -114 -86 -175t-199 -61q-111 0 -173 48.5t-62 137.5q0 22 3 47l14 97l36 325h158l-56 -401q-2 -24 -2 -33q0 -48 23 -70.5t72 -22.5q58 0 88.5 29.5t37.5 92.5l43 405h160zM334 719q-78 70 -135 125l1 11l62 51l10 -2q46 -64 115 -148l-41 -40z
M482 719q-64 56 -135 125l1 11l61 51l11 -1q49 -69 114 -149l-41 -40z" />
    <glyph glyph-name="uni0215" unicode="&#x215;" horiz-adv-x="499" 
d="M473 472l-48 -358l-4 -108l-144 -10l21 155h-11q-65 -99 -127 -154l-12 -1q-54 8 -86 35t-32 66l2 18l38 237l5 110l146 9l-45 -286l-1 -16v-3q0 -21 18 -21q19 0 51 38.5t74 115.5l7 55l4 108zM233 524q-89 90 -145 154l2 12l72 50l11 -2q52 -83 120 -179l-47 -38z
M390 524q-89 90 -145 154l2 12l72 50l11 -2q52 -83 120 -179l-48 -38z" />
    <glyph glyph-name="uni0216" unicode="&#x216;" horiz-adv-x="634" 
d="M585 318l-12 -92q-14 -114 -86 -175t-199 -61q-111 0 -173 48.5t-62 137.5q0 22 3 47l14 97l36 325h158l-56 -401q-2 -24 -2 -33q0 -48 23 -70.5t72 -22.5q58 0 88.5 29.5t37.5 92.5l43 405h160zM227 760q21 56 65 92.5t105 36.5q69 0 105 -36.5t45 -92.5l-40 -51h-22
q-9 35 -34.5 53.5t-61.5 18.5q-37 0 -66.5 -18.5t-46.5 -53.5h-22z" />
    <glyph glyph-name="uni0217" unicode="&#x217;" horiz-adv-x="499" 
d="M473 472l-48 -358l-4 -108l-144 -10l21 155h-11q-65 -99 -127 -154l-12 -1q-54 8 -86 35t-32 66l2 18l38 237l5 110l146 9l-45 -286l-1 -16v-3q0 -21 18 -21q19 0 51 38.5t74 115.5l7 55l4 108zM138 582q21 56 65 92.5t105 36.5q69 0 105 -36.5t45 -92.5l-40 -51h-22
q-9 35 -34.5 53.5t-61.5 18.5q-37 0 -66.5 -18.5t-46.5 -53.5h-22z" />
    <glyph glyph-name="Scommaaccent" unicode="&#x218;" horiz-adv-x="502" 
d="M504 621l-41 -133l-24 -10q-34 25 -70 39t-64 14q-35 0 -56 -17t-21 -41t21.5 -41.5t69.5 -42.5q48 -26 78 -47t52 -54.5t22 -80.5q0 -59 -34.5 -109t-96 -79t-139.5 -29q-99 0 -197 40l39 143l17 9q38 -35 85 -54t83 -19q39 0 60 17.5t21 42.5q0 26 -22.5 44.5
t-69.5 43.5q-46 24 -76 44.5t-51.5 54t-21.5 80.5q0 61 34.5 111t95 79t135.5 29q87 0 171 -34zM308 -113q0 -46 -30 -89t-93 -87l-46 40l-2 10q53 44 53 95q0 18 -7.5 32.5t-22.5 29.5v12q52 28 105 44q43 -37 43 -87z" />
    <glyph glyph-name="scommaaccent" unicode="&#x219;" horiz-adv-x="362" 
d="M359 450l-35 -116l-20 -7q-24 25 -50.5 39t-46.5 14q-17 0 -28 -10.5t-11 -25.5t13.5 -26.5t42.5 -28.5q31 -19 51.5 -35t35.5 -41t15 -59q0 -47 -27.5 -84.5t-75.5 -58.5t-107 -21q-68 8 -126 29l34 122l16 8q25 -31 57 -49t58 -18q20 0 31 11t11 25q0 15 -13.5 27
t-45.5 32q-48 30 -74.5 57.5t-26.5 71.5q0 51 29 89.5t78 59.5t106 20q56 -7 109 -25zM245 -113q0 -46 -30 -89t-93 -87l-46 40l-2 10q53 44 53 95q0 18 -7.5 32.5t-22.5 29.5v12q52 28 105 44q43 -37 43 -87z" />
    <glyph glyph-name="uni021A" unicode="&#x21a;" horiz-adv-x="501" 
d="M539 633l-24 -117l-122 6h-28l-44 -316l-19 -206h-159l33 191l36 331h-29l-126 -6l-8 12l24 117h459zM307 -113q0 -46 -30 -89t-93 -87l-46 40l-2 10q53 44 53 95q0 18 -7.5 32.5t-22.5 29.5v12q52 28 105 44q43 -37 43 -87z" />
    <glyph glyph-name="uni021B" unicode="&#x21b;" horiz-adv-x="354" 
d="M203 148l-1 -11q0 -16 14 -16q10 0 21.5 11t34.5 43l12 1l41 -51q-31 -57 -65 -88.5t-78 -45.5q-56 0 -87.5 28.5t-30.5 77.5l3 28l35 231l2 18h-63l-8 9l9 75h72l11 101l136 37l10 -8l-20 -130h105l11 -12l-10 -72h-119zM272 -113q0 -46 -30 -89t-93 -87l-46 40l-2 10
q53 44 53 95q0 18 -7.5 32.5t-22.5 29.5v12q52 28 105 44q43 -37 43 -87z" />
    <glyph glyph-name="uni022A" unicode="&#x22a;" horiz-adv-x="642" 
d="M565 585.5q68 -69.5 68 -205.5q0 -116 -40 -204.5t-117 -137.5t-185 -49q-123 0 -191 71t-68 208q0 116 39.5 203.5t116.5 135.5t185 48q124 0 192 -69.5zM237 468.5q-40 -58.5 -40 -199.5q0 -87 24.5 -123.5t85.5 -36.5q78 0 118 59t40 201q0 86 -24.5 122t-85.5 36
q-78 0 -118 -58.5zM557 991l-9 -86h-287l-11 11l8 86h288zM354.5 833.5q17.5 -17.5 17.5 -49.5q0 -35 -19 -55t-53 -20q-32 0 -49.5 18t-17.5 51q0 34 19.5 53.5t53.5 19.5q31 0 48.5 -17.5zM535.5 833q17.5 -18 17.5 -49q0 -35 -19 -55t-53 -20q-32 0 -49.5 18t-17.5 51
q0 34 19.5 53.5t53.5 19.5q31 0 48.5 -18z" />
    <glyph glyph-name="uni022B" unicode="&#x22b;" horiz-adv-x="449" 
d="M293 477q65 -14 100.5 -56.5t35.5 -115.5q0 -141 -69 -224.5t-189 -91.5l-14 2q-137 30 -137 181q0 88 31.5 156t90 107t137.5 43zM177.5 319q-20.5 -47 -20.5 -150q0 -39 9 -55t32 -16q51 0 71.5 47.5t20.5 150.5q0 39 -8.5 54.5t-30.5 15.5q-53 0 -73.5 -47zM445 813
l-9 -86h-287l-11 11l8 86h288zM242.5 655.5q17.5 -17.5 17.5 -49.5q0 -35 -19 -55t-53 -20q-32 0 -49.5 18t-17.5 51q0 34 19.5 53.5t53.5 19.5q31 0 48.5 -17.5zM423.5 655q17.5 -18 17.5 -49q0 -35 -19 -55t-53 -20q-32 0 -49.5 18t-17.5 51q0 34 19.5 53.5t53.5 19.5
q31 0 48.5 -18z" />
    <glyph glyph-name="uni022C" unicode="&#x22c;" horiz-adv-x="642" 
d="M565 585.5q68 -69.5 68 -205.5q0 -116 -40 -204.5t-117 -137.5t-185 -49q-123 0 -191 71t-68 208q0 116 39.5 203.5t116.5 135.5t185 48q124 0 192 -69.5zM237 468.5q-40 -58.5 -40 -199.5q0 -87 24.5 -123.5t85.5 -36.5q78 0 118 59t40 201q0 86 -24.5 122t-85.5 36
q-78 0 -118 -58.5zM553 846v-13l-66 -97l-13 -5q-17 2 -40 9.5t-30 9.5q-45 15 -56 15q-13 0 -23 -10t-20 -23.5t-14 -19.5h-13l-45 45v13l66 96l13 6q26 -5 72 -20q7 -2 27 -8t28 -6q14 0 24.5 11.5t31.5 41.5h13zM547 1018l-8 -86h-229l-10 10l7 86h230z" />
    <glyph glyph-name="uni022D" unicode="&#x22d;" horiz-adv-x="449" 
d="M293 477q65 -14 100.5 -56.5t35.5 -115.5q0 -141 -69 -224.5t-189 -91.5l-14 2q-137 30 -137 181q0 88 31.5 156t90 107t137.5 43zM177.5 319q-20.5 -47 -20.5 -150q0 -39 9 -55t32 -16q51 0 71.5 47.5t20.5 150.5q0 39 -8.5 54.5t-30.5 15.5q-53 0 -73.5 -47zM441 668
v-13l-66 -97l-13 -5q-17 2 -40 9.5t-30 9.5q-45 15 -56 15q-13 0 -23 -10t-20 -23.5t-14 -19.5h-13l-45 45v13l66 96l13 6q26 -5 72 -20q7 -2 27 -8t28 -6q14 0 24.5 11.5t31.5 41.5h13zM435 840l-8 -86h-229l-10 10l7 86h230z" />
    <glyph glyph-name="uni0230" unicode="&#x230;" horiz-adv-x="642" 
d="M565 585.5q68 -69.5 68 -205.5q0 -116 -40 -204.5t-117 -137.5t-185 -49q-123 0 -191 71t-68 208q0 116 39.5 203.5t116.5 135.5t185 48q124 0 192 -69.5zM237 468.5q-40 -58.5 -40 -199.5q0 -87 24.5 -123.5t85.5 -36.5q78 0 118 59t40 201q0 86 -24.5 122t-85.5 36
q-78 0 -118 -58.5zM416.5 847.5q19.5 -20.5 19.5 -57.5q0 -39 -22 -62t-60 -23q-37 0 -57 20.5t-20 57.5q0 39 22.5 62t60.5 23q37 0 56.5 -20.5zM497 984l-8 -86h-229l-10 10l7 86h230z" />
    <glyph glyph-name="uni0231" unicode="&#x231;" horiz-adv-x="449" 
d="M293 477q65 -14 100.5 -56.5t35.5 -115.5q0 -141 -69 -224.5t-189 -91.5l-14 2q-137 30 -137 181q0 88 31.5 156t90 107t137.5 43zM177.5 319q-20.5 -47 -20.5 -150q0 -39 9 -55t32 -16q51 0 71.5 47.5t20.5 150.5q0 39 -8.5 54.5t-30.5 15.5q-53 0 -73.5 -47z
M304.5 669.5q19.5 -20.5 19.5 -57.5q0 -39 -22 -62t-60 -23q-37 0 -57 20.5t-20 57.5q0 39 22.5 62t60.5 23q37 0 56.5 -20.5zM385 806l-8 -86h-229l-10 10l7 86h230z" />
    <glyph glyph-name="uni0232" unicode="&#x232;" horiz-adv-x="563" 
d="M345 213l-6 -37l-15 -176h-158l30 176l3 39l-148 430h165l8 -48l66 -227h10l133 222l26 53h164zM497 839l-8 -86h-278l-10 10l8 86h278z" />
    <glyph glyph-name="uni0233" unicode="&#x233;" horiz-adv-x="461" 
d="M460 395q0 -37 -10.5 -72t-32.5 -74l-114 -215q-63 -122 -124.5 -176t-138.5 -54q-42 0 -98 17l5 122l13 13q41 -10 78 -10q63 0 105 38l-103 478l144 10l8 -88l34 -230h15l53 117q28 60 28 109q0 37 -17 62l7 15l131 17q17 -48 17 -79zM426 662l-8 -86h-278l-10 10l8 86
h278z" />
    <glyph glyph-name="uni0237" unicode="&#x237;" horiz-adv-x="268" 
d="M240 467l-49 -352l-9 -86q-10 -79 -53.5 -131.5t-132.5 -92.5l-46 65l2 14q43 23 65.5 55t29.5 83l44 329v23h-67l-6 9l10 75h72l136 13z" />
    <glyph glyph-name="uni0259" unicode="&#x259;" horiz-adv-x="417" 
d="M356.5 422.5q40.5 -44.5 40.5 -129.5q0 -87 -31.5 -154.5t-89.5 -106.5t-135 -43l-14 1q-53 10 -81.5 39.5t-28.5 76.5q0 61 58.5 105.5t185.5 78.5q-4 39 -17 56.5t-39 17.5q-22 0 -45 -14t-61 -52l-17 3l-43 55q68 92 176 121h15q86 -10 126.5 -54.5zM233.5 114
q21.5 31 27.5 91q-62 -16 -89 -37.5t-27 -52.5q0 -17 7.5 -24.5t24.5 -7.5q35 0 56.5 31z" />
    <glyph glyph-name="uni02B0" unicode="&#x2b0;" horiz-adv-x="352" 
d="M333 620.5q21 -19.5 20 -45.5v-9l-27 -163l-4 -75l-97 -6l32 199l1 8q0 10 -4 16t-10 6q-13 0 -37 -28t-54 -81l-5 -40l-4 -74l-95 -6l55 411l3 73l95 6l-37 -282h9q48 77 94 115l9 1q35 -6 56 -25.5z" />
    <glyph glyph-name="uni02B2" unicode="&#x2b2;" horiz-adv-x="191" 
d="M191.5 796.5q13.5 -13.5 13.5 -36.5q0 -25 -14.5 -40t-40.5 -15q-25 0 -38.5 13t-13.5 37q0 26 15 40.5t41 14.5q24 0 37.5 -13.5zM194 642l-32 -242l-6 -54q-7 -55 -35.5 -91t-86.5 -63l-31 41l2 9q27 17 41.5 39t18.5 57l30 227v20h-42l-5 6l8 47h48l88 7z" />
    <glyph glyph-name="uni02B7" unicode="&#x2b7;" horiz-adv-x="501" 
d="M527 590q0 -39 -29 -94l-90 -171h-105l-15 195h-8l-75 -195h-104l-37 315l94 5v-50l9 -167h9l62 160l18 54h101l1 -47l10 -167h8l42 91q17 40 17 67q0 22 -11 44l89 17q14 -31 14 -57z" />
    <glyph glyph-name="uni02B8" unicode="&#x2b8;" horiz-adv-x="316" 
d="M342 594q0 -48 -44 -126l-57 -108q-52 -94 -95.5 -131.5t-97.5 -37.5q-33 0 -66 12l-5 78l9 9q30 -9 58 -9q48 0 84 32l-72 327l95 5l6 -58l25 -162h11l38 85q20 49 20 79q0 22 -10 41l89 17q12 -25 12 -53z" />
    <glyph glyph-name="uni02B9" unicode="&#x2b9;" horiz-adv-x="221" 
d="M232 633l-69 -234l-73 -12l-11 10l25 239l121 7z" />
    <glyph glyph-name="uni02BB" unicode="&#x2bb;" horiz-adv-x="229" 
d="M79 416q-14 25 -14 60q0 83 100 177l53 -35l3 -10q-41 -44 -41 -87q0 -25 9.5 -43.5t31.5 -32.5v-13q-50 -38 -98 -58q-30 17 -44 42z" />
    <glyph glyph-name="uni02BC" unicode="&#x2bc;" horiz-adv-x="229" 
d="M220 611q14 -25 14 -60q0 -42 -24.5 -85t-75.5 -92l-53 35l-2 10q40 44 40 87q0 25 -9.5 43.5t-31.5 32.5v13q50 38 98 58q30 -17 44 -42z" />
    <glyph glyph-name="uni02BE" unicode="&#x2be;" horiz-adv-x="246" 
d="M96 490q5 -1 13 -1q44 0 44 46q0 18 -11 25.5t-36 7.5l9 74q57 0 84 -22t27 -68q0 -65 -36 -100t-103 -35z" />
    <glyph glyph-name="uni02BF" unicode="&#x2bf;" horiz-adv-x="218" 
d="M208 569q-5 1 -13 1q-45 0 -45 -46q0 -18 11.5 -26t36.5 -8l-9 -73q-58 0 -84.5 21.5t-26.5 67.5q0 65 36 100.5t103 35.5z" />
    <glyph glyph-name="circumflex" unicode="&#x2c6;" horiz-adv-x="387" 
d="M72 583q46 37 145 128l18 16h30q49 -59 134 -144l-45 -58h-15q-66 54 -98 87q-29 -24 -72.5 -53t-50.5 -34h-15z" />
    <glyph glyph-name="caron" unicode="&#x2c7;" horiz-adv-x="387" 
d="M410 669q-46 -37 -145 -128l-18 -16h-30q-49 59 -134 144l45 58h15q66 -54 98 -87q29 24 72.5 53t50.5 34h15z" />
    <glyph glyph-name="uni02C8" unicode="&#x2c8;" horiz-adv-x="243" 
d="M111 651h113l-22 -181h-112z" />
    <glyph glyph-name="uni02C9" unicode="&#x2c9;" horiz-adv-x="385" 
d="M389 661l-8 -86h-278l-10 10l8 86h278z" />
    <glyph glyph-name="uni02CA" unicode="&#x2ca;" horiz-adv-x="380" 
d="M311 734l55 -84l-2 -15l-44 -25q-79 -45 -161 -90l-14 1l-37 58q97 74 189 156z" />
    <glyph glyph-name="uni02CB" unicode="&#x2cb;" horiz-adv-x="397" 
d="M357 579l-36 -58l-14 -1q-77 42 -205 115l-3 15l56 84l14 1q89 -79 188 -156z" />
    <glyph glyph-name="uni02CC" unicode="&#x2cc;" horiz-adv-x="232" 
d="M25 -50h112l-22 -180h-112z" />
    <glyph glyph-name="breve" unicode="&#x2d8;" horiz-adv-x="387" 
d="M406 661q-21 -56 -65 -92.5t-105 -36.5q-69 0 -105 36.5t-45 92.5l40 51h22q9 -35 34.5 -53.5t61.5 -18.5q37 0 66.5 18.5t46.5 53.5h22z" />
    <glyph glyph-name="dotaccent" unicode="&#x2d9;" horiz-adv-x="261" 
d="M237.5 680.5q19.5 -20.5 19.5 -57.5q0 -39 -22 -62t-60 -23q-37 0 -57 20.5t-20 57.5q0 39 22.5 62t60.5 23q37 0 56.5 -20.5z" />
    <glyph glyph-name="ring" unicode="&#x2da;" horiz-adv-x="390" 
d="M320.5 711q24.5 -25 24.5 -71q0 -50 -27 -77t-77 -27q-47 0 -72 25t-25 73q0 49 26.5 75.5t76.5 26.5q49 0 73.5 -25zM215 662.5q-9 -8.5 -9 -25.5q0 -20 9.5 -29t29.5 -9t29 8t9 27q0 37 -39 37q-20 0 -29 -8.5z" />
    <glyph glyph-name="ogonek" unicode="&#x2db;" horiz-adv-x="331" 
d="M43.5 -173.5q-28.5 23.5 -28.5 61.5q0 23 9.5 40.5t35.5 41.5t83 68h80q-45 -43 -72 -70.5t-33.5 -37t-6.5 -18.5q0 -23 27 -23t73 26l7 -1l14 -71q-61 -40 -113 -40q-47 0 -75.5 23.5z" />
    <glyph glyph-name="tilde" unicode="&#x2dc;" horiz-adv-x="380" 
d="M420 671v-13l-74 -98l-14 -5q-23 3 -85 20q-54 15 -68 15q-13 0 -24 -9.5t-23 -23.5l-18 -21h-13l-46 45v13l74 97l14 5q17 -2 45.5 -9t40.5 -10q53 -15 67 -15q13 0 25 10t23.5 24t16.5 20h14z" />
    <glyph glyph-name="hungarumlaut" unicode="&#x2dd;" horiz-adv-x="374" 
d="M205 738l11 2l71 -50l2 -12q-56 -64 -145 -154l-12 -3l-47 38q69 100 120 179zM362 738l10 2l72 -50l2 -12q-56 -64 -145 -154l-12 -3l-47 38q69 100 120 179z" />
    <glyph glyph-name="uni02E1" unicode="&#x2e1;" horiz-adv-x="167" 
d="M145 402l-4 -74l-95 -6l55 411l3 73l95 6z" />
    <glyph glyph-name="uni02E2" unicode="&#x2e2;" horiz-adv-x="255" 
d="M276 631l-21 -70l-13 -5q-17 15 -35 23.5t-31 8.5q-14 0 -22.5 -8.5t-8.5 -20.5q0 -11 9.5 -19.5t30.5 -20.5q34 -20 53 -40t19 -54q0 -46 -39.5 -76t-100.5 -30q-51 5 -86 18l21 75l9 6q19 -19 40.5 -30.5t39.5 -11.5q16 0 25.5 9.5t8.5 21.5q-1 11 -11.5 20t-32.5 22
q-34 21 -52 39.5t-19 47.5q1 51 42 81.5t99 29.5q35 -3 75 -16z" />
    <glyph glyph-name="uni02E3" unicode="&#x2e3;" horiz-adv-x="333" 
d="M327 328l-107 -8l-8 42l-28 70l-44 -70l-19 -37h-103l114 165l-65 150l102 9l10 -34l28 -65l43 62l14 30h100l-111 -157z" />
    <glyph glyph-name="gravecomb" unicode="&#x300;" 
d="M-23 579l-36 -58l-14 -1q-77 42 -205 115l-3 15l56 84l14 1q89 -79 188 -156z" />
    <glyph glyph-name="acutecomb" unicode="&#x301;" 
d="M-69 734l55 -84l-2 -15l-44 -25q-79 -45 -161 -90l-14 1l-37 58q97 74 189 156z" />
    <glyph glyph-name="uni0302" unicode="&#x302;" 
d="M-313 583q46 37 145 128l18 16h30q49 -59 134 -144l-45 -58h-15q-66 54 -98 87q-29 -24 -72.5 -53t-50.5 -34h-15z" />
    <glyph glyph-name="tildecomb" unicode="&#x303;" 
d="M40 671v-13l-75 -98l-14 -5q-23 3 -85 20q-54 15 -68 15q-13 0 -24 -9.5t-23 -23.5l-18 -21h-13l-46 45v13l75 97l13 6q21 -3 84 -20q56 -15 69 -15t25 10t23.5 24t16.5 20h14z" />
    <glyph glyph-name="uni0304" unicode="&#x304;" 
d="M4 661l-8 -86h-278l-10 10l8 86h278z" />
    <glyph glyph-name="uni0306" unicode="&#x306;" 
d="M19 661q-21 -56 -65 -92.5t-105 -36.5q-69 0 -105 36.5t-45 92.5l40 51h22q9 -35 34.5 -53.5t61.5 -18.5q37 0 66.5 18.5t46.5 53.5h22z" />
    <glyph glyph-name="uni0307" unicode="&#x307;" 
d="M-23.5 680.5q19.5 -20.5 19.5 -57.5q0 -39 -22 -62t-60 -23q-37 0 -57 20.5t-20 57.5q0 39 22.5 62t60.5 23q37 0 56.5 -20.5z" />
    <glyph glyph-name="uni0308" unicode="&#x308;" 
d="M-186.5 675q17.5 -18 17.5 -50q0 -34 -19.5 -54t-53.5 -20q-32 0 -49.5 18t-17.5 50q0 34 19.5 54t53.5 20q32 0 49.5 -18zM-3 675q18 -18 18 -50q0 -34 -20 -54t-53 -20q-32 0 -49.5 18t-17.5 50q0 34 19.5 54t52.5 20q32 0 50 -18z" />
    <glyph glyph-name="hookabovecomb" unicode="&#x309;" 
d="M-147 576q25 17 39 37t14 36q0 23 -29 23q-15 0 -33.5 -6.5t-33.5 -18.5l-25 40q25 25 55 40t60 15q38 0 63 -22t25 -56q0 -21 -12.5 -39.5t-45.5 -47.5l25 -40l-55 -33z" />
    <glyph glyph-name="uni030A" unicode="&#x30a;" 
d="M-69.5 711q24.5 -25 24.5 -71q0 -50 -27 -77t-77 -27q-47 0 -72 25t-25 73q0 49 26.5 75.5t76.5 26.5q49 0 73.5 -25zM-175 662.5q-9 -8.5 -9 -25.5q0 -20 9.5 -29t29.5 -9t29 8t9 27q0 37 -39 37q-20 0 -29 -8.5z" />
    <glyph glyph-name="uni030B" unicode="&#x30b;" 
d="M-229 738l11 2l71 -50l2 -12q-56 -64 -145 -154l-12 -3l-47 38q69 100 120 179zM-72 738l10 2l72 -50l2 -12q-56 -64 -145 -154l-12 -3l-47 38q69 100 120 179z" />
    <glyph glyph-name="uni030C" unicode="&#x30c;" 
d="M23 669q-46 -37 -145 -128l-18 -16h-30q-49 59 -134 144l45 58h15q66 -54 98 -87q29 24 72.5 53t50.5 34h15z" />
    <glyph glyph-name="uni030F" unicode="&#x30f;" 
d="M-216 524q-89 90 -145 154l2 12l72 50l11 -2q52 -83 120 -179l-47 -38zM-59 524q-89 90 -145 154l2 12l72 50l11 -2q52 -83 120 -179l-48 -38z" />
    <glyph glyph-name="uni0311" unicode="&#x311;" 
d="M-311 582q21 56 65 92.5t105 36.5q69 0 105 -36.5t45 -92.5l-40 -51h-22q-9 35 -34.5 53.5t-61.5 18.5q-37 0 -66.5 -18.5t-46.5 -53.5h-22z" />
    <glyph glyph-name="uni0312" unicode="&#x312;" 
d="M-150 416q-14 25 -14 60q0 42 24.5 85t75.5 92l53 -35l2 -10q-40 -44 -40 -87q0 -25 9.5 -43.5t31.5 -32.5v-13q-50 -38 -98 -58q-30 17 -44 42z" />
    <glyph glyph-name="uni031B" unicode="&#x31b;" 
d="M-178 467q25 0 40 13.5t15 36.5q0 17 -8 34.5t-23 30.5l3 11q42 30 75 30q30 0 51.5 -27.5t21.5 -69.5q0 -61 -48.5 -98.5t-126.5 -38.5v78z" />
    <glyph glyph-name="dotbelowcomb" unicode="&#x323;" 
d="M-102.5 -64.5q19.5 -20.5 19.5 -57.5q0 -39 -22 -62t-60 -23q-37 0 -57 20.5t-20 57.5q0 39 22.5 62t60.5 23q37 0 56.5 -20.5z" />
    <glyph glyph-name="uni0324" unicode="&#x324;" 
d="M-278.5 -72q17.5 -18 17.5 -50q0 -34 -19.5 -54t-53.5 -20q-32 0 -49.5 18t-17.5 50q0 34 19.5 54t53.5 20q32 0 49.5 -18zM-95 -72q18 -18 18 -50q0 -34 -20 -54t-53 -20q-32 0 -49.5 18t-17.5 50q0 34 19.5 54t52.5 20q32 0 50 -18z" />
    <glyph glyph-name="uni0326" unicode="&#x326;" 
d="M-81 -113q0 -46 -30 -89t-93 -87l-46 40l-2 10q53 44 53 95q0 18 -7.5 32.5t-22.5 29.5v12q52 28 105 44q43 -37 43 -87z" />
    <glyph glyph-name="uni0327" unicode="&#x327;" 
d="M-218 -46l34 -19q23 -13 32.5 -27.5t9.5 -33.5q0 -34 -27 -56t-73 -22q-47 0 -86 27l10 63l7 2q32 -29 59 -29q22 0 22 19q0 10 -16 18l-49 28l23 104h70z" />
    <glyph glyph-name="uni0328" unicode="&#x328;" 
d="M-287.5 -173.5q-28.5 23.5 -28.5 61.5q0 23 9.5 40.5t35.5 41.5t83 68h80q-45 -43 -72 -70.5t-33.5 -37t-6.5 -18.5q0 -23 27 -23t73 26l7 -1l14 -71q-61 -40 -113 -40q-47 0 -75.5 23.5z" />
    <glyph glyph-name="uni032E" unicode="&#x32e;" 
d="M-70 -105q-21 -56 -65 -92.5t-105 -36.5q-69 0 -105 36.5t-45 92.5l40 51h22q9 -35 34.5 -53.5t61.5 -18.5q37 0 66.5 18.5t46.5 53.5h22z" />
    <glyph glyph-name="uni0331" unicode="&#x331;" 
d="M-89 -90l-7 -86h-235l-10 11l7 85h236z" />
    <glyph glyph-name="uni0335" unicode="&#x335;" 
d="M-33 290l-16 -81h-373l-7 9l16 81h373z" />
    <glyph glyph-name="uni0342" unicode="&#x342;" 
d="M40 671v-13l-67 -98l-13 -5q-28 4 -76 21q-7 2 -26 8t-27 6q-13 0 -23.5 -10.5t-20.5 -24.5t-14 -19h-12l-46 45v13l67 97l13 5q23 -3 73 -20q45 -15 56 -15q14 0 25 11.5t33 42.5h13z" />
    <glyph glyph-name="uni0343" unicode="&#x343;" 
d="M33 692q0 -40 -25 -79t-79 -86l-46 30v8q42 47 42 87q0 36 -26 53l1 10q52 34 93 49q40 -24 40 -72z" />
    <glyph glyph-name="uni0344" unicode="&#x344;" 
d="M-233 564q32 101 53 183l9 7l86 -34l6 -11l-85 -163l-18 -5zM-355 569.5q-15 15.5 -15 44.5q0 30 17.5 47.5t46.5 17.5t44 -15.5t15 -44.5t-17.5 -47t-46.5 -18t-44 15.5zM-77.5 569.5q-15.5 15.5 -15.5 44.5q0 30 17.5 47.5t47.5 17.5q28 0 43.5 -15.5t15.5 -44.5
q0 -30 -17 -47.5t-47 -17.5q-29 0 -44.5 15.5z" />
    <glyph glyph-name="uni0345" unicode="&#x345;" 
d="M-219 -223l39 183l78 7l9 -11l-2 -182l-115 -6z" />
    <glyph glyph-name="uni0374" unicode="&#x374;" horiz-adv-x="221" 
d="M232 633l-69 -234l-73 -12l-11 10l24 239l121 7z" />
    <glyph glyph-name="uni0375" unicode="&#x375;" horiz-adv-x="221" 
d="M-9 -153l68 234l73 11l11 -9l-24 -239l-121 -7z" />
    <glyph glyph-name="uni037A" unicode="&#x37a;" horiz-adv-x="215" 
d="M-16 -223l39 183l78 7l9 -11l-2 -182l-115 -6z" />
    <glyph glyph-name="uni037E" unicode="&#x37e;" horiz-adv-x="229" 
d="M172 57q0 -49 -32 -95.5t-100 -93.5l-49 43l-2 11q56 47 56 102q0 37 -32 66v13q57 32 113 47q46 -39 46 -93zM182.5 394.5q19.5 -20.5 19.5 -57.5q0 -39 -22 -62t-60 -23q-37 0 -57 20.5t-20 57.5q0 39 22.5 62t60.5 23q37 0 56.5 -20.5z" />
    <glyph glyph-name="tonos" unicode="&#x384;" horiz-adv-x="207" 
d="M155 753l93 -38l4 -14l-65 -103l-42 -66l-14 -7l-73 30q38 81 84 191z" />
    <glyph glyph-name="dieresistonos" unicode="&#x385;" horiz-adv-x="433" 
d="M200 564q32 101 53 183l9 7l86 -34l6 -11l-85 -163l-18 -5zM78 569.5q-15 15.5 -15 44.5q0 30 17.5 47.5t46.5 17.5t44 -15.5t15 -44.5t-17.5 -47t-46.5 -18t-44 15.5zM355.5 569.5q-15.5 15.5 -15.5 44.5q0 30 17.5 47.5t47.5 17.5q28 0 43.5 -15.5t15.5 -44.5
q0 -30 -17 -47.5t-47 -17.5q-29 0 -44.5 15.5z" />
    <glyph glyph-name="Alphatonos" unicode="&#x386;" horiz-adv-x="653" 
d="M611 0h-160l-5 92l-5 40l-113 2l-98 -3l-13 -30l-31 -101h-156l285 645h190zM426 251l-32 248h-10l-104 -247l72 -2zM127 682l93 -38l4 -14l-65 -103l-42 -66l-14 -7l-73 30q38 81 84 191z" />
    <glyph glyph-name="anoteleia" unicode="&#x387;" horiz-adv-x="230" 
d="M183.5 376.5q19.5 -20.5 19.5 -57.5q0 -39 -22 -62t-60 -23q-37 0 -57 20.5t-20 57.5q0 39 22.5 62t60.5 23q37 0 56.5 -20.5z" />
    <glyph glyph-name="Epsilontonos" unicode="&#x388;" horiz-adv-x="682" 
d="M433 520l-19 -132l104 -1l103 3l8 -11l-25 -117l-112 3l-96 -1l-8 -58l-8 -82l105 -1l159 6l7 -12l-24 -117h-417l31 191l49 454h422l8 -12l-26 -117l-152 5zM140 682l93 -38l4 -14l-65 -103l-42 -66l-14 -7l-73 30q38 81 84 191z" />
    <glyph glyph-name="Etatonos" unicode="&#x389;" horiz-adv-x="859" 
d="M840 645l-64 -439l-19 -206h-159l33 191l7 66l-129 2l-115 -3l-7 -50l-18 -206h-159l32 191l48 454h161l-38 -257l121 -3l117 2l27 258h162zM140 682l93 -38l4 -14l-65 -103l-42 -66l-14 -7l-73 30q38 81 84 191z" />
    <glyph glyph-name="Iotatonos" unicode="&#x38a;" horiz-adv-x="472" 
d="M387 206l-18 -206h-159l32 191l48 454h161zM140 682l93 -38l4 -14l-65 -103l-42 -66l-14 -7l-73 30q38 81 84 191z" />
    <glyph glyph-name="Omicrontonos" unicode="&#x38c;" horiz-adv-x="747" 
d="M670 585.5q68 -69.5 68 -205.5q0 -116 -40 -204.5t-117 -137.5t-185 -49q-123 0 -191 71t-68 208q0 116 39.5 203.5t116.5 135.5t185 48q124 0 192 -69.5zM342 468.5q-40 -58.5 -40 -199.5q0 -87 24.5 -123.5t85.5 -36.5q78 0 118 59t40 201q0 86 -24.5 122t-85.5 36
q-78 0 -118 -58.5zM100 682l93 -38l4 -14l-65 -103l-42 -66l-14 -7l-73 30q38 81 84 191z" />
    <glyph glyph-name="Upsilontonos" unicode="&#x38e;" horiz-adv-x="766" 
d="M548 213l-6 -37l-15 -176h-158l30 176l3 39l-148 430h165l8 -48l66 -227h10l133 222l26 53h164zM133 682l93 -38l4 -14l-65 -103l-42 -66l-14 -7l-73 30q38 81 84 191z" />
    <glyph glyph-name="Omegatonos" unicode="&#x38f;" horiz-adv-x="778" 
d="M105 5l29 120l80 -7h59l1 8q-57 31 -86 82t-29 120q0 95 42.5 169.5t118.5 116t174 41.5q119 0 187 -66.5t68 -182.5q0 -94 -47.5 -168t-131.5 -112l-2 -8h58l90 8l7 -10l-29 -119l-80 3h-130l-40 -3l-5 6l19 148q69 42 97.5 96t28.5 143q0 72 -27.5 105t-87.5 33
q-71 0 -111 -56.5t-40 -157.5q0 -57 17 -94t58 -69l-16 -148l-8 -6l-39 3h-129l-88 -5zM99 682l93 -38l4 -14l-65 -103l-42 -66l-14 -7l-73 30q38 81 84 191z" />
    <glyph glyph-name="iotadieresistonos" unicode="&#x390;" horiz-adv-x="244" 
d="M172 114l-4 -108l-145 -10l49 358l4 108l144 10zM106 564q32 101 53 183l9 7l86 -34l6 -11l-85 -163l-18 -5zM-16 569.5q-15 15.5 -15 44.5q0 30 17.5 47.5t46.5 17.5t44 -15.5t15 -44.5t-17.5 -47t-46.5 -18t-44 15.5zM261.5 569.5q-15.5 15.5 -15.5 44.5
q0 30 17.5 47.5t47.5 17.5q28 0 43.5 -15.5t15.5 -44.5q0 -30 -17 -47.5t-47 -17.5q-29 0 -44.5 15.5z" />
    <glyph glyph-name="Alpha" unicode="&#x391;" horiz-adv-x="600" 
d="M558 0h-160l-5 92l-5 40l-113 2l-98 -3l-13 -30l-31 -101h-156l285 645h190zM373 251l-32 248h-10l-104 -247l72 -2z" />
    <glyph glyph-name="Beta" unicode="&#x392;" horiz-adv-x="591" 
d="M533 280.5q25 -31.5 25 -82.5q0 -101 -79 -152.5t-245 -51.5q-75 0 -191 6l32 191l48 454l240 1q95 0 149.5 -37t54.5 -108q0 -56 -29.5 -99.5t-86.5 -68.5q57 -21 82 -52.5zM403 472q0 36 -22 50t-81 14q-23 0 -37 -1l-23 -159l84 -3q79 21 79 99zM364 129q33 25 33 70
q0 29 -16.5 45.5t-51.5 24.5l-104 -2l-9 -61l-9 -98q50 -4 65 -4q59 0 92 25z" />
    <glyph glyph-name="Gamma" unicode="&#x393;" horiz-adv-x="459" 
d="M515 643l-25 -121l-145 5h-79l-46 -324l-20 -213h-165l31 197l50 468h391z" />
    <glyph glyph-name="uni0394" unicode="&#x394;" horiz-adv-x="569" 
d="M7 102l237 543h192l93 -543l-13 -102h-522zM376 123l-52 376h-11l-155 -376h218z" />
    <glyph glyph-name="Epsilon" unicode="&#x395;" horiz-adv-x="514" 
d="M265 520l-19 -132l104 -1l103 3l8 -11l-25 -117l-112 3l-96 -1l-8 -58l-8 -82l105 -1l159 6l7 -12l-24 -117h-417l31 191l49 454h422l8 -12l-26 -117l-152 5z" />
    <glyph glyph-name="Zeta" unicode="&#x396;" horiz-adv-x="547" 
d="M550 531l-348 -412h191l113 9l4 -8l-27 -124l-156 4h-241l-86 -5l14 114l352 416h-182l-112 -9l-5 7l27 124l135 -2h269l67 1z" />
    <glyph glyph-name="Eta" unicode="&#x397;" horiz-adv-x="692" 
d="M672 645l-64 -439l-19 -206h-159l33 191l7 66l-129 2l-115 -3l-7 -50l-18 -206h-159l32 191l48 454h161l-38 -257l121 -3l117 2l27 258h162z" />
    <glyph glyph-name="Theta" unicode="&#x398;" horiz-adv-x="672" 
d="M594 584q69 -71 69 -198q0 -120 -45 -210t-128.5 -138.5t-195.5 -48.5q-126 0 -194.5 72.5t-68.5 201.5q0 120 45 208.5t128 136t196 47.5q125 0 194 -71zM237 468.5q-45 -59.5 -45 -199.5q0 -85 31 -123t99 -38q97 0 137.5 63.5t40.5 196.5q0 84 -31 122t-98 38
q-89 0 -134 -59.5zM242 272l17 99l183 7l9 -10l-17 -100l-184 -7z" />
    <glyph glyph-name="Iota" unicode="&#x399;" horiz-adv-x="304" 
d="M219 206l-18 -206h-159l32 191l48 454h161z" />
    <glyph glyph-name="Kappa" unicode="&#x39a;" horiz-adv-x="593" 
d="M390 333q76 -138 190 -300l-5 -17q-82 -20 -160 -27l-16 10q-99 181 -164 320l-16 -113l-19 -206h-159l33 191l48 454h161l-42 -290l182 225l44 65h170z" />
    <glyph glyph-name="Lambda" unicode="&#x39b;" horiz-adv-x="603" 
d="M262 645h191l108 -645h-160l-5 92l-52 407h-10l-169 -398l-31 -101h-157z" />
    <glyph glyph-name="Mu" unicode="&#x39c;" horiz-adv-x="788" 
d="M719 0h-141l17 196l9 217h-10l-170 -348h-121l-69 348h-10l-45 -203l-38 -210h-133l143 645h183l12 -94l47 -280h10l123 277l38 97h180z" />
    <glyph glyph-name="Nu" unicode="&#x39d;" horiz-adv-x="691" 
d="M608 203l-18 -203h-172l-176 404h-10l-23 -178l-22 -226h-145l32 190l48 455h171l177 -404h10l45 398l148 9z" />
    <glyph glyph-name="Xi" unicode="&#x39e;" horiz-adv-x="553" 
d="M83 518l29 127h435l8 -13l-29 -128l-207 6l-228 -6zM99 268l29 128l178 -4l159 4l8 -13l-30 -127l-158 3l-177 -3zM38 128l12 12l212 -5l223 5l9 -12l-30 -128h-433z" />
    <glyph glyph-name="Omicron" unicode="&#x39f;" horiz-adv-x="642" 
d="M565 585.5q68 -69.5 68 -205.5q0 -116 -40 -204.5t-117 -137.5t-185 -49q-123 0 -191 71t-68 208q0 116 39.5 203.5t116.5 135.5t185 48q124 0 192 -69.5zM237 468.5q-40 -58.5 -40 -199.5q0 -87 24.5 -123.5t85.5 -36.5q78 0 118 59t40 201q0 86 -24.5 122t-85.5 36
q-78 0 -118 -58.5z" />
    <glyph glyph-name="Pi" unicode="&#x3a0;" horiz-adv-x="676" 
d="M592 206l-19 -206h-160l31 191l34 325l-114 3l-100 -5l-44 -308l-19 -206h-159l31 191l48 454h533z" />
    <glyph glyph-name="Rho" unicode="&#x3a1;" horiz-adv-x="561" 
d="M525 601q53 -45 53 -129q0 -80 -36.5 -142t-103.5 -97t-155 -35h-64l-18 -198h-159l32 191l48 454l256 1q94 0 147 -45zM410 447q0 42 -21 62.5t-68 22.5l-55 -3l-30 -213l86 -4q88 30 88 135z" />
    <glyph glyph-name="Sigma" unicode="&#x3a3;" horiz-adv-x="514" 
d="M20 107l179 220l-119 204l16 115l84 -1l345 1l9 -11l-25 -117l-96 5h-142l97 -174l-2 -20l-167 -205h144l113 8l9 -13l-27 -121l-136 2h-204l-92 -2z" />
    <glyph glyph-name="Tau" unicode="&#x3a4;" horiz-adv-x="501" 
d="M539 633l-24 -117l-122 6h-28l-44 -316l-19 -206h-159l33 191l36 331h-29l-126 -6l-8 12l24 117h459z" />
    <glyph glyph-name="Upsilon" unicode="&#x3a5;" horiz-adv-x="563" 
d="M345 213l-6 -37l-15 -176h-158l30 176l3 39l-148 430h165l8 -48l66 -227h10l133 222l26 53h164z" />
    <glyph glyph-name="Phi" unicode="&#x3a6;" horiz-adv-x="807" 
d="M719 143.5q-90 -80.5 -264 -95.5l-10 -91h-152l14 90q-140 11 -211.5 71.5t-71.5 169.5q0 154 88.5 233t262.5 94l8 73h155l-10 -73q139 -11 210 -70.5t71 -167.5q0 -153 -90 -233.5zM218 210q35 -33 108 -42l3 19l33 307q-93 -11 -136 -56t-43 -133q0 -62 35 -95z
M605.5 221q43.5 44 43.5 134q0 62 -33 95t-105 43l-40 -290l-4 -36q95 10 138.5 54z" />
    <glyph glyph-name="Chi" unicode="&#x3a7;" horiz-adv-x="610" 
d="M419 331l154 -331h-186l-22 70l-69 144l-116 -153l-37 -61h-162l235 324l-154 321h187l23 -71l65 -137l105 145l36 63h166z" />
    <glyph glyph-name="Psi" unicode="&#x3a8;" horiz-adv-x="759" 
d="M770 645l-27 -184l-12 -94q-13 -103 -89 -167t-203 -79l-11 -121h-152l19 119q-116 13 -175.5 69.5t-59.5 149.5q0 19 1 29l10 98l19 180h149l-32 -255q-2 -20 -2 -27q0 -51 26.5 -80.5t80.5 -39.5l43 402h152l-55 -402q65 11 100 47t42 100l30 255h146z" />
    <glyph glyph-name="uni03A9" unicode="&#x3a9;" horiz-adv-x="684" 
d="M11 5l29 120l80 -7h59l1 8q-57 31 -86 82t-29 120q0 95 42.5 169.5t118.5 116t174 41.5q119 0 187 -66.5t68 -182.5q0 -94 -47.5 -168t-131.5 -112l-2 -8h58l90 8l7 -10l-29 -119l-80 3h-130l-40 -3l-5 6l19 148q69 42 97.5 96t28.5 143q0 72 -27.5 105t-87.5 33
q-71 0 -111 -56.5t-40 -157.5q0 -57 17 -94t58 -69l-16 -148l-8 -6l-39 3h-129l-88 -5z" />
    <glyph glyph-name="Iotadieresis" unicode="&#x3aa;" horiz-adv-x="304" 
d="M219 206l-18 -206h-159l32 191l48 454h161zM184.5 853q17.5 -18 17.5 -50q0 -34 -19.5 -54t-53.5 -20q-32 0 -49.5 18t-17.5 50q0 34 19.5 54t53.5 20q32 0 49.5 -18zM368 853q18 -18 18 -50q0 -34 -20 -54t-53 -20q-32 0 -49.5 18t-17.5 50q0 34 19.5 54t52.5 20
q32 0 50 -18z" />
    <glyph glyph-name="Upsilondieresis" unicode="&#x3ab;" horiz-adv-x="563" 
d="M345 213l-6 -37l-15 -176h-158l30 176l3 39l-148 430h165l8 -48l66 -227h10l133 222l26 53h164zM313.5 853q17.5 -18 17.5 -50q0 -34 -19.5 -54t-53.5 -20q-32 0 -49.5 18t-17.5 50q0 34 19.5 54t53.5 20q32 0 49.5 -18zM497 853q18 -18 18 -50q0 -34 -20 -54t-53 -20
q-32 0 -49.5 18t-17.5 50q0 34 19.5 54t52.5 20q32 0 50 -18z" />
    <glyph glyph-name="alphatonos" unicode="&#x3ac;" horiz-adv-x="464" 
d="M440 472l-47 -358l-5 -108l-144 -10l19 139h-14q-46 -85 -101 -145h-20q-64 20 -90.5 60.5t-26.5 104.5q0 103 58.5 190t160.5 125h6l67 -43l5 36zM216 176.5q33 52.5 73 148.5l2 17l-65 24q-39 0 -61 -44t-22 -116q0 -82 23 -82q17 0 50 52.5zM340 753l93 -38l4 -14
l-65 -103l-42 -66l-14 -7l-73 30q38 81 84 191z" />
    <glyph glyph-name="epsilontonos" unicode="&#x3ad;" horiz-adv-x="396" 
d="M331 149l34 -74q-70 -70 -177 -85q-93 0 -136.5 28t-43.5 88q0 48 27 83.5t76 53.5q-31 14 -47.5 37.5t-16.5 53.5q0 67 59.5 105.5t162.5 38.5q74 -15 127 -32l-35 -108l-22 -1q-52 35 -100 35q-54 0 -54 -43q0 -19 12 -31t34 -17h73l4 -8l-17 -84h-77q-26 0 -42.5 -15
t-16.5 -38q0 -20 13 -30.5t36 -10.5q24 0 53.5 14t56.5 40h17zM286 753l93 -38l4 -14l-65 -103l-42 -66l-14 -7l-73 30q38 81 84 191z" />
    <glyph glyph-name="etatonos" unicode="&#x3ae;" horiz-adv-x="497" 
d="M439 433.5q33 -27.5 32 -65.5l-1 -13l-68 -425l-5 -109l-148 -10l78 475l1 11q0 23 -18 23q-20 0 -54.5 -40.5t-77.5 -120.5l-6 -45l-4 -108l-145 -10l49 358l4 108l144 10l-22 -162h13q67 102 132 160l13 1q50 -10 83 -37.5zM337 753l93 -38l4 -14l-65 -103l-42 -66
l-14 -7l-73 30q38 81 84 191z" />
    <glyph glyph-name="iotatonos" unicode="&#x3af;" horiz-adv-x="244" 
d="M172 114l-4 -108l-145 -10l49 358l4 108l144 10zM210 753l93 -38l4 -14l-65 -103l-42 -66l-14 -7l-73 30q38 81 84 191z" />
    <glyph glyph-name="upsilondieresistonos" unicode="&#x3b0;" horiz-adv-x="468" 
d="M76.5 30q-43.5 39 -43.5 106q0 8 2 28l24 190l5 108l144 9l-40 -285q-2 -11 -2 -30q0 -30 12.5 -43t39.5 -13q34 0 48.5 17t21.5 67l22 170l5 108l143 9l-39 -292q-7 -55 -37.5 -98t-79 -66.5t-106.5 -23.5q-76 0 -119.5 39zM217 564q32 101 53 183l9 7l86 -34l6 -11
l-85 -163l-18 -5zM95 569.5q-15 15.5 -15 44.5q0 30 17.5 47.5t46.5 17.5t44 -15.5t15 -44.5t-17.5 -47t-46.5 -18t-44 15.5zM372.5 569.5q-15.5 15.5 -15.5 44.5q0 30 17.5 47.5t47.5 17.5q28 0 43.5 -15.5t15.5 -44.5q0 -30 -17 -47.5t-47 -17.5q-29 0 -44.5 15.5z" />
    <glyph glyph-name="alpha" unicode="&#x3b1;" horiz-adv-x="464" 
d="M440 472l-47 -358l-5 -108l-144 -10l19 139h-14q-46 -85 -101 -145h-20q-64 20 -90.5 60.5t-26.5 104.5q0 103 58.5 190t160.5 125h6l67 -43l5 36zM216 176.5q33 52.5 73 148.5l2 17l-65 24q-39 0 -61 -44t-22 -116q0 -82 23 -82q17 0 50 52.5z" />
    <glyph glyph-name="beta" unicode="&#x3b2;" horiz-adv-x="490" 
d="M441 326q27 -40 27 -98q0 -67 -31.5 -121t-86 -85t-122.5 -31q-33 0 -68 8l-9 -76l-5 -108l-143 -10l83 638q16 124 79.5 192.5t161.5 68.5q73 0 115 -37.5t42 -103.5q0 -55 -32 -101.5t-90 -75.5q52 -20 79 -60zM305 129q27 35 27 91q0 46 -23 67.5t-72 21.5l-5 10
l13 98q52 16 77 45.5t25 74.5q0 53 -50 53q-64 0 -75 -90l-48 -391q31 -15 61 -15q43 0 70 35z" />
    <glyph glyph-name="gamma" unicode="&#x3b3;" horiz-adv-x="436" 
d="M395 250l-160 -277l-7 -49l-4 -109l-144 -10l23 171l-68 487l144 9l1 -88l15 -235h11l69 137q27 57 27 94q0 32 -17 60l7 15l132 19q17 -40 17 -79q0 -66 -46 -145z" />
    <glyph glyph-name="delta" unicode="&#x3b4;" horiz-adv-x="440" 
d="M252 526.5q16 -19.5 49 -49.5q38 -34 62 -61t42 -67.5t18 -93.5q0 -73 -32 -133.5t-87.5 -95.5t-121.5 -35q-79 0 -123 50t-44 139q0 96 42.5 159.5t121.5 85.5l2 5q-34 31 -51.5 59t-17.5 69q0 70 54 110t148 40q69 -11 126 -31l-33 -111l-18 -3q-33 26 -56.5 37
t-45.5 11q-25 0 -38 -11.5t-13 -31.5q0 -22 16 -41.5zM267 130q22 34 22 96q0 83 -45 140q-53 -17 -73.5 -53t-20.5 -112q0 -59 12.5 -82t42.5 -23q40 0 62 34z" />
    <glyph glyph-name="epsilon" unicode="&#x3b5;" horiz-adv-x="396" 
d="M331 149l34 -74q-70 -70 -177 -85q-93 0 -136.5 28t-43.5 88q0 48 27 83.5t76 53.5q-31 14 -47.5 37.5t-16.5 53.5q0 67 59.5 105.5t162.5 38.5q74 -15 127 -32l-35 -108l-22 -1q-52 35 -100 35q-54 0 -54 -43q0 -19 12 -31t34 -17h73l4 -8l-17 -84h-77q-26 0 -42.5 -15
t-16.5 -38q0 -20 13 -30.5t36 -10.5q24 0 53.5 14t56.5 40h17z" />
    <glyph glyph-name="zeta" unicode="&#x3b6;" horiz-adv-x="382" 
d="M187 120q12 0 60 4q44 4 53 4q27 0 41 -18t14 -53q0 -50 -33 -104.5t-113 -138.5l-82 54v9q36 32 68.5 70.5t32.5 49.5q0 6 -2.5 8t-7.5 2q-8 0 -17.5 -1t-19.5 -2q-50 -5 -59 -5q-55 0 -84 35.5t-29 102.5q0 93 68.5 209.5t210.5 250.5h-109l-85 -7l-3 5l23 106l277 -1
l55 1l-11 -101q-147 -154 -215 -264t-68 -174q0 -42 35 -42z" />
    <glyph glyph-name="eta" unicode="&#x3b7;" horiz-adv-x="497" 
d="M439 433.5q33 -27.5 32 -65.5l-1 -13l-68 -425l-5 -109l-148 -10l78 475l1 11q0 23 -18 23q-20 0 -54.5 -40.5t-77.5 -120.5l-6 -45l-4 -108l-145 -10l49 358l4 108l144 10l-22 -162h13q67 102 132 160l13 1q50 -10 83 -37.5z" />
    <glyph glyph-name="theta" unicode="&#x3b8;" horiz-adv-x="475" 
d="M461 471q0 -225 -69 -351.5t-198 -126.5q-151 0 -151 234q0 149 31 257t91 165.5t146 57.5q150 0 150 -236zM222 549q-27 -49 -40 -155l147 5q2 52 2 83q0 60 -11 88t-35 28q-36 0 -63 -49zM281 146q27 48 40 150l-147 -6q-1 -23 -1 -76q0 -60 11.5 -88t35.5 -28
q34 0 61 48z" />
    <glyph glyph-name="iota" unicode="&#x3b9;" horiz-adv-x="244" 
d="M172 114l-4 -108l-145 -10l49 358l4 108l144 10z" />
    <glyph glyph-name="kappa" unicode="&#x3ba;" horiz-adv-x="470" 
d="M319 247q29 -61 104 -198l13 -23l-2 -17q-54 -12 -130 -20l-16 8l-102 226l-14 -109l-5 -108l-143 -10l48 358l4 108l142 9l-26 -204l115 149l27 51h154z" />
    <glyph glyph-name="lambda" unicode="&#x3bb;" horiz-adv-x="452" 
d="M435 98l-23 -84q-13 -7 -33 -14t-39 -10q-40 2 -59.5 22t-26.5 71l-26 179h-8l-80 -185l-28 -85l-138 14l224 466q-10 59 -28 81.5t-59 22.5q-15 0 -35 -3l-4 14l32 113q25 4 53 4q73 0 110.5 -40.5t51.5 -134.5l61 -399q4 -28 24 -28q8 0 23 5z" />
    <glyph glyph-name="uni03BC" unicode="&#x3bc;" horiz-adv-x="504" 
d="M481 472l-49 -358l-4 -108l-144 -10l21 155h-11q-52 -96 -103 -154l-12 -1q-15 5 -30 19l-5 -200l-144 -10l74 549l4 108l144 10l-41 -303v-5q0 -19 18 -19q41 0 127 156l7 53l4 108z" />
    <glyph glyph-name="nu" unicode="&#x3bd;" horiz-adv-x="438" 
d="M442 395q0 -61 -45 -145l-140 -250h-164l-56 463l144 9l1 -88l14 -235h12l68 137q28 56 28 94q0 29 -17 60l6 15l133 19q16 -38 16 -79z" />
    <glyph glyph-name="xi" unicode="&#x3be;" horiz-adv-x="393" 
d="M440 667l-37 -112h-27q-47 37 -86 37q-35 0 -57 -27t-22 -72q0 -40 21 -61.5t60 -21.5h65l7 -11l-19 -87h-41h-9q-67 -25 -106.5 -65.5t-39.5 -83.5q0 -21 10 -33.5t27 -12.5q12 0 27 2t28 3q50 6 63 6q53 0 53 -72q0 -49 -33 -103.5t-113 -138.5l-85 54v9q42 37 73 73.5
t31 48.5q0 8 -10 8l-33 -3q-56 -7 -73 -7q-47 0 -74.5 35t-27.5 93q0 68 38.5 124.5t107.5 92.5q-40 21 -61 54.5t-21 77.5q0 61 35 114.5t94 86t126 32.5q62 -10 105 -31z" />
    <glyph glyph-name="omicron" unicode="&#x3bf;" horiz-adv-x="442" 
d="M290 477q65 -14 100.5 -56.5t35.5 -115.5q0 -141 -69 -224.5t-189 -91.5l-14 2q-137 30 -137 181q0 88 31.5 156t90 107t137.5 43zM174.5 319q-20.5 -47 -20.5 -150q0 -39 9 -55t32 -16q51 0 71.5 47.5t20.5 150.5q0 39 -8.5 54.5t-30.5 15.5q-53 0 -73.5 -47z" />
    <glyph glyph-name="pi" unicode="&#x3c0;" horiz-adv-x="558" 
d="M571 369h-89l-35 -257l-6 -106l-143 -10l53 373h-109l-34 -255l-6 -108l-142 -10l51 373h-80l-8 9l11 89h538l10 -9z" />
    <glyph glyph-name="rho" unicode="&#x3c1;" horiz-adv-x="450" 
d="M394 431q42 -45 42 -130q0 -80 -34 -150.5t-91 -114t-123 -46.5l-48 11l-10 -78l-4 -108l-143 -10l56 420q16 116 79 183.5t158 67.5q76 0 118 -45zM278.5 146.5q21.5 47.5 21.5 133.5q0 53 -9.5 71t-37.5 18q-33 0 -51.5 -22t-24.5 -68l-22 -166l63 -18q39 4 60.5 51.5z
" />
    <glyph glyph-name="uni03C2" unicode="&#x3c2;" horiz-adv-x="370" 
d="M95 -132v10q37 32 69 70.5t32 49.5q0 9 -11 9l-31 -3q-27 -5 -44 -5q-43 0 -68.5 43t-25.5 117q0 90 35 162t96.5 113t137.5 41l83 -24l5 -15l-41 -104l-31 -1q-18 21 -29.5 28t-25.5 7q-27 0 -48.5 -23.5t-33.5 -65t-12 -92.5q0 -35 7.5 -50t25.5 -15q8 0 40 4
q27 5 42 5q27 0 41 -18.5t14 -53.5q0 -50 -33 -104.5t-113 -137.5z" />
    <glyph glyph-name="sigma" unicode="&#x3c3;" horiz-adv-x="477" 
d="M395 364l-4 -8q24 -48 24 -111q0 -68 -32 -127t-86.5 -94t-118.5 -35q-76 0 -118 50.5t-42 143.5q0 134 68 209t190 75h215l3 -8l-20 -95h-79zM282 364h-27q-38 0 -60 -17t-32 -56.5t-10 -108.5q0 -51 9.5 -68t37.5 -17q44 0 65 45t21 138q0 48 -4 84z" />
    <glyph glyph-name="tau" unicode="&#x3c4;" horiz-adv-x="391" 
d="M232 148l-2 -11q0 -16 15 -16q10 0 21 10t33 40l11 1l41 -51q-31 -55 -64.5 -86t-75.5 -44q-56 0 -88 28.5t-30 77.5l3 28l37 244h-104l-8 9l11 89h363l9 -9l-10 -89h-128z" />
    <glyph glyph-name="upsilon" unicode="&#x3c5;" horiz-adv-x="468" 
d="M76.5 30q-43.5 39 -43.5 106q0 8 2 28l24 190l5 108l144 9l-40 -285q-2 -11 -2 -30q0 -30 12.5 -43t39.5 -13q34 0 48.5 17t21.5 67l22 170l5 108l143 9l-39 -292q-7 -55 -37.5 -98t-79 -66.5t-106.5 -23.5q-76 0 -119.5 39z" />
    <glyph glyph-name="phi" unicode="&#x3c6;" horiz-adv-x="609" 
d="M336 -3l-10 -74l-6 -108l-142 -10l26 191q-96 10 -141.5 59t-45.5 139q0 101 48 177.5t129 105.5l48 -52l-1 -16q-49 -48 -71 -96t-22 -106q0 -47 16.5 -74.5t52.5 -37.5l26 195q11 85 65 135.5t133 50.5q73 0 112.5 -47.5t39.5 -136.5q0 -262 -257 -295zM434.5 154.5
q26.5 45.5 26.5 130.5q0 92 -42 92q-34 0 -40 -51l-30 -232q59 15 85.5 60.5z" />
    <glyph glyph-name="chi" unicode="&#x3c7;" horiz-adv-x="473" 
d="M397 -76.5q5 -5.5 14 -5.5q3 0 17 4l8 -9l-26 -85q-36 -17 -74 -23q-25 2 -39 9.5t-24 26t-19 54.5l-43 160l-88 -180l-22 -60h-145l181 331l-54 164q-9 28 -17.5 38.5t-21.5 10.5q-8 0 -20 -3l-5 12l31 100q36 4 47 4q48 0 72.5 -21.5t39.5 -74.5l40 -144l85 176l22 59
h145l-179 -327l65 -199q5 -12 10 -17.5z" />
    <glyph glyph-name="psi" unicode="&#x3c8;" horiz-adv-x="632" 
d="M624 471l-37 -282q-8 -55 -41.5 -99.5t-84 -70.5t-109.5 -28l-9 -68l-6 -108l-142 -10l24 186h-8q-80 0 -129.5 43t-49.5 114q0 9 2 27l23 179l5 108l144 9l-39 -275q-2 -18 -2 -24q0 -72 68 -72h1l44 337l5 108l142 9l-59 -454q39 1 60.5 22.5t28.5 71.5l21 160l5 108z
" />
    <glyph glyph-name="omega" unicode="&#x3c9;" horiz-adv-x="615" 
d="M562.5 391.5q28.5 -51.5 28.5 -137.5q0 -124 -51 -193t-144 -69q-90 0 -118 74q-21 -39 -52.5 -56.5t-78.5 -17.5q-67 0 -98 41t-31 128q0 115 46 197.5t128 113.5l49 -51l-1 -17q-42 -39 -66 -102t-24 -133q0 -36 8 -52t26 -16q20 0 31.5 17t16.5 53l19 148l121 6
l10 -11l-20 -148q-1 -7 -1 -20q0 -45 31 -45q29 0 45.5 36.5t16.5 103.5q0 98 -42 163v17l59 51q63 -29 91.5 -80.5z" />
    <glyph glyph-name="iotadieresis" unicode="&#x3ca;" horiz-adv-x="244" 
d="M172 114l-4 -108l-145 -10l49 358l4 108l144 10zM130.5 675q17.5 -18 17.5 -50q0 -34 -19.5 -54t-53.5 -20q-32 0 -49.5 18t-17.5 50q0 34 19.5 54t53.5 20q32 0 49.5 -18zM314 675q18 -18 18 -50q0 -34 -20 -54t-53 -20q-32 0 -49.5 18t-17.5 50q0 34 19.5 54t52.5 20
q32 0 50 -18z" />
    <glyph glyph-name="upsilondieresis" unicode="&#x3cb;" horiz-adv-x="468" 
d="M76.5 30q-43.5 39 -43.5 106q0 8 2 28l24 190l5 108l144 9l-40 -285q-2 -11 -2 -30q0 -30 12.5 -43t39.5 -13q34 0 48.5 17t21.5 67l22 170l5 108l143 9l-39 -292q-7 -55 -37.5 -98t-79 -66.5t-106.5 -23.5q-76 0 -119.5 39zM241.5 675q17.5 -18 17.5 -50
q0 -34 -19.5 -54t-53.5 -20q-32 0 -49.5 18t-17.5 50q0 34 19.5 54t53.5 20q32 0 49.5 -18zM425 675q18 -18 18 -50q0 -34 -20 -54t-53 -20q-32 0 -49.5 18t-17.5 50q0 34 19.5 54t52.5 20q32 0 50 -18z" />
    <glyph glyph-name="omicrontonos" unicode="&#x3cc;" horiz-adv-x="442" 
d="M290 477q65 -14 100.5 -56.5t35.5 -115.5q0 -141 -69 -224.5t-189 -91.5l-14 2q-137 30 -137 181q0 88 31.5 156t90 107t137.5 43zM174.5 319q-20.5 -47 -20.5 -150q0 -39 9 -55t32 -16q51 0 71.5 47.5t20.5 150.5q0 39 -8.5 54.5t-30.5 15.5q-53 0 -73.5 -47zM326 753
l93 -38l4 -14l-65 -103l-42 -66l-14 -7l-73 30q38 81 84 191z" />
    <glyph glyph-name="upsilontonos" unicode="&#x3cd;" horiz-adv-x="468" 
d="M76.5 30q-43.5 39 -43.5 106q0 8 2 28l24 190l5 108l144 9l-40 -285q-2 -11 -2 -30q0 -30 12.5 -43t39.5 -13q34 0 48.5 17t21.5 67l22 170l5 108l143 9l-39 -292q-7 -55 -37.5 -98t-79 -66.5t-106.5 -23.5q-76 0 -119.5 39zM321 753l93 -38l4 -14l-65 -103l-42 -66
l-14 -7l-73 30q38 81 84 191z" />
    <glyph glyph-name="omegatonos" unicode="&#x3ce;" horiz-adv-x="615" 
d="M562.5 391.5q28.5 -51.5 28.5 -137.5q0 -124 -51 -193t-144 -69q-90 0 -118 74q-21 -39 -52.5 -56.5t-78.5 -17.5q-67 0 -98 41t-31 128q0 115 46 197.5t128 113.5l49 -51l-1 -17q-42 -39 -66 -102t-24 -133q0 -36 8 -52t26 -16q20 0 31.5 17t16.5 53l19 148l121 6
l10 -11l-20 -148q-1 -7 -1 -20q0 -45 31 -45q29 0 45.5 36.5t16.5 103.5q0 98 -42 163v17l59 51q63 -29 91.5 -80.5zM392 730l93 -38l4 -14l-65 -103l-42 -66l-14 -7l-73 30q38 81 84 191z" />
    <glyph glyph-name="uni03CF" unicode="&#x3cf;" horiz-adv-x="629" 
d="M458 3l82 12q-55 -123 -121.5 -181t-152.5 -58q-19 0 -28 1q-50 46 -55 120l12 8q14 -2 39 -2q53 0 89.5 21.5t66.5 67.5l-29 18q-110 189 -170 318l-17 -122l-19 -206h-159l32 191l47 454h162l-42 -289l186 224l45 65h172l-255 -308q89 -157 196 -307v-11z" />
    <glyph glyph-name="uni03D1" unicode="&#x3d1;" horiz-adv-x="475" 
d="M461 471q0 -225 -69 -351.5t-198 -126.5q-151 0 -151 234q0 149 31 257t91 165.5t146 57.5q150 0 150 -236zM222 549q-27 -49 -40 -155l147 5q2 52 2 83q0 60 -11 88t-35 28q-36 0 -63 -49zM281 146q27 48 40 150l-147 -6q-1 -23 -1 -76q0 -60 11.5 -88t35.5 -28
q34 0 61 48z" />
    <glyph glyph-name="uni03D5" unicode="&#x3d5;" horiz-adv-x="609" 
d="M336 -3l-10 -74l-6 -108l-142 -10l26 191q-96 10 -141.5 59t-45.5 139q0 101 48 177.5t129 105.5l48 -52l-1 -16q-49 -48 -71 -96t-22 -106q0 -47 16.5 -74.5t52.5 -37.5l26 195q11 85 65 135.5t133 50.5q73 0 112.5 -47.5t39.5 -136.5q0 -262 -257 -295zM434.5 154.5
q26.5 45.5 26.5 130.5q0 92 -42 92q-34 0 -40 -51l-30 -232q59 15 85.5 60.5z" />
    <glyph glyph-name="uni03D6" unicode="&#x3d6;" horiz-adv-x="558" 
d="M571 369h-89l-35 -257l-6 -106l-143 -10l53 373h-109l-34 -255l-6 -108l-142 -10l51 373h-80l-8 9l11 89h538l10 -9z" />
    <glyph glyph-name="uni03D7" unicode="&#x3d7;" horiz-adv-x="514" 
d="M298 255q34 -70 99 -180l30 -52l-2 -14l-65 -7l65 4q-49 -106 -111.5 -154.5t-142.5 -43.5q-54 45 -60 115l10 8l23 -1q49 0 84 16t61 50l-28 14q-72 134 -106 225l-4 -28l-20 -207h-154l31 191l27 267l155 11l-30 -203l121 150l32 51h162z" />
    <glyph glyph-name="uni03F0" unicode="&#x3f0;" horiz-adv-x="470" 
d="M319 247q29 -61 104 -198l13 -23l-2 -17q-54 -12 -130 -20l-16 8l-102 226l-14 -109l-5 -108l-143 -10l48 358l4 108l142 9l-26 -204l115 149l27 51h154z" />
    <glyph glyph-name="uni0400" unicode="&#x400;" horiz-adv-x="532" 
d="M262 520l-19 -132l104 -1l103 3l8 -11l-25 -117l-112 3l-96 -1l-8 -58l-8 -82l105 -1l159 6l7 -12l-24 -117h-417l31 191l49 454h422l8 -12l-26 -117l-152 5zM450 783l-25 -64l-14 -4q-123 39 -223 75l-5 14l39 92l14 4q83 -50 214 -117z" />
    <glyph glyph-name="uni0401" unicode="&#x401;" horiz-adv-x="532" 
d="M262 520l-19 -132l104 -1l103 3l8 -11l-25 -117l-112 3l-96 -1l-8 -58l-8 -82l105 -1l159 6l7 -12l-24 -117h-417l31 191l49 454h422l8 -12l-26 -117l-152 5zM304.5 853q17.5 -18 17.5 -50q0 -34 -19.5 -54t-53.5 -20q-32 0 -49.5 18t-17.5 50q0 34 19.5 54t53.5 20
q32 0 49.5 -18zM488 853q18 -18 18 -50q0 -34 -20 -54t-53 -20q-32 0 -49.5 18t-17.5 50q0 34 19.5 54t52.5 20q32 0 50 -18z" />
    <glyph glyph-name="uni0402" unicode="&#x402;" horiz-adv-x="672" 
d="M596 391.5q41 -39.5 41 -131.5q0 -30 -5 -77q-17 -132 -68 -221.5t-152 -158.5l-52 64l-1 16q106 95 131 285q4 40 4 53q0 41 -14 58t-46 17q-57 0 -120 -51l-6 -39l-19 -206h-155l32 191l35 331h-36l-108 -5l-8 12l23 116h489l8 -12l-23 -116l-122 5h-71l-24 -165l8 1
q57 51 126 75q92 -2 133 -41.5z" />
    <glyph glyph-name="uni0403" unicode="&#x403;" horiz-adv-x="469" 
d="M512 643l-25 -121l-145 5h-79l-46 -324l-20 -213h-165l31 197l50 468h391zM423 896l40 -92l-5 -14q-87 -32 -223 -75l-15 4l-24 64q124 64 213 117z" />
    <glyph glyph-name="uni0404" unicode="&#x404;" horiz-adv-x="555" 
d="M573 619l-41 -129l-11 -4q-29 18 -66.5 28t-73.5 10q-66 0 -106 -33t-60 -103l97 -1l139 3l8 -11l-23 -117l-150 3l-88 -1q-2 -75 28 -108t101 -33q68 0 162 36l16 -9l-26 -132q-88 -28 -173 -28q-137 0 -207 64.5t-70 191.5q0 28 5 70q21 165 114.5 251.5t251.5 86.5
q95 0 173 -35z" />
    <glyph glyph-name="uni0405" unicode="&#x405;" horiz-adv-x="506" 
d="M506 621l-41 -133l-24 -10q-34 25 -70 39t-64 14q-35 0 -56 -17t-21 -41t21.5 -41.5t69.5 -42.5q48 -26 78 -47t52 -54.5t22 -80.5q0 -59 -34.5 -109t-96 -79t-139.5 -29q-99 0 -197 40l39 143l17 9q38 -35 85 -54t83 -19q39 0 60 17.5t21 42.5q0 26 -22.5 44.5
t-69.5 43.5q-46 24 -76 44.5t-51.5 54t-21.5 80.5q0 61 34.5 111t95 79t135.5 29q87 0 171 -34z" />
    <glyph glyph-name="uni0406" unicode="&#x406;" horiz-adv-x="296" 
d="M216 206l-18 -206h-159l32 191l48 454h161z" />
    <glyph glyph-name="uni0407" unicode="&#x407;" horiz-adv-x="304" 
d="M219 206l-18 -206h-159l32 191l48 454h161zM181.5 853q17.5 -18 17.5 -50q0 -34 -19.5 -54t-53.5 -20q-32 0 -49.5 18t-17.5 50q0 34 19.5 54t53.5 20q32 0 49.5 -18zM365 853q18 -18 18 -50q0 -34 -20 -54t-53 -20q-32 0 -49.5 18t-17.5 50q0 34 19.5 54t52.5 20
q32 0 50 -18z" />
    <glyph glyph-name="uni0408" unicode="&#x408;" horiz-adv-x="345" 
d="M271 213l-8 -91q-8 -59 -32.5 -100t-72.5 -72t-128 -58l-35 83l1 13q61 30 87.5 60t32.5 78l9 71l36 333l-95 -2l-9 11l20 106h257z" />
    <glyph glyph-name="uni0409" unicode="&#x409;" horiz-adv-x="912" 
d="M845.5 366.5q46.5 -39.5 46.5 -114.5q0 -9 -2 -31q-12 -103 -92.5 -162t-211.5 -59h-208l31 191l35 335h-103l-9 -37q-47 -197 -86.5 -302.5t-85 -151t-111.5 -50.5l-41 -1l-11 130q50 12 82 49t59.5 118t62.5 237l29 127h388l-33 -239h126q88 0 134.5 -39.5zM729 228
q0 33 -20 50.5t-59 16.5l-81 -2l-12 -87l-9 -91l84 -5q40 8 65.5 35.5t30.5 68.5q1 5 1 14z" />
    <glyph glyph-name="uni040A" unicode="&#x40a;" horiz-adv-x="952" 
d="M888.5 363.5q46.5 -38.5 46.5 -112.5q0 -9 -2 -31q-13 -104 -93 -162t-212 -58h-202l31 190l9 88h-127l-114 -3l-10 -69l-20 -206h-153l31 191l48 454h156l-35 -248l121 -2l116 1l26 249h156l-35 -243h127q89 0 135.5 -38.5zM771 225q0 63 -79 62l-83 -2l-11 -79l-8 -92
l85 -4q40 8 65 34.5t30 66.5q1 5 1 14z" />
    <glyph glyph-name="uni040B" unicode="&#x40b;" horiz-adv-x="678" 
d="M603.5 393.5q44.5 -41.5 44.5 -126.5q0 -15 -4 -53l-21 -224h-159l32 201q2 12 2 32q0 37 -16 54t-48 17q-54 0 -121 -52l-6 -39l-20 -213h-160l32 197l36 340h-37l-110 -5l-9 13l24 120h506l8 -12l-24 -121l-127 5h-73l-24 -168l8 1q56 50 129 77q93 -2 137.5 -43.5z
" />
    <glyph glyph-name="uni040C" unicode="&#x40c;" horiz-adv-x="614" 
d="M387 333q76 -138 190 -300l-5 -17q-82 -20 -160 -27l-16 10q-99 181 -164 320l-16 -113l-19 -206h-159l33 191l48 454h161l-42 -290l182 225l44 65h170zM409 896l40 -92l-5 -14q-87 -32 -223 -75l-15 4l-24 64q124 64 213 117z" />
    <glyph glyph-name="uni040D" unicode="&#x40d;" horiz-adv-x="699" 
d="M73 191l47 450l162 8l-61 -410h10l275 406h171l-63 -439l-19 -206h-159l31 191l26 216h-9l-276 -407h-166zM525 783l-25 -64l-14 -4q-123 39 -223 75l-5 14l39 92l14 4q83 -50 214 -117z" />
    <glyph glyph-name="uni040E" unicode="&#x40e;" horiz-adv-x="586" 
d="M625 644l-221 -438q-51 -90 -92 -134t-91 -62t-132 -20l-13 5q-11 56 -11 125l5 10q61 5 98 13t61 22l-169 479l162 1l15 -75l76 -260h10l124 269l27 65h151zM538 834q-33 -58 -89 -89.5t-116 -31.5q-53 0 -94 26t-56 76l74 62h15q46 -66 106 -66t116 65h14z" />
    <glyph glyph-name="uni040F" unicode="&#x40f;" horiz-adv-x="650" 
d="M627 645l-63 -439l-19 -206h-182l-30 -151l-114 -9l6 160h-183l31 191l48 454h157l-62 -439l-8 -85h203l11 70l48 454h157z" />
    <glyph glyph-name="uni0410" unicode="&#x410;" horiz-adv-x="608" 
d="M565 0h-160l-5 92l-5 40l-113 2l-98 -3l-13 -30l-31 -101h-156l285 645h190zM380 251l-32 248h-10l-104 -247l72 -2z" />
    <glyph glyph-name="uni0411" unicode="&#x411;" horiz-adv-x="610" 
d="M535.5 358q49.5 -39 49.5 -114q0 -78 -40 -135.5t-115 -88t-176 -30.5h-216l32 196l49 469h482l8 -12l-26 -121l-167 5h-148l-18 -130h139q97 0 146.5 -39zM382 138.5q26 28.5 26 72.5q0 35 -22.5 54.5t-64.5 18.5l-88 -2l-11 -80l-9 -96l94 -6q49 10 75 38.5z" />
    <glyph glyph-name="uni0412" unicode="&#x412;" horiz-adv-x="589" 
d="M528 280.5q25 -31.5 25 -82.5q0 -101 -79 -152.5t-245 -51.5q-75 0 -191 6l32 191l48 454l240 1q95 0 149.5 -37t54.5 -108q0 -56 -29.5 -99.5t-86.5 -68.5q57 -21 82 -52.5zM398 472q0 36 -22 50t-81 14q-23 0 -37 -1l-23 -159l84 -3q79 21 79 99zM359 129q33 25 33 70
q0 29 -16.5 45.5t-51.5 24.5l-104 -2l-9 -61l-9 -98q50 -4 65 -4q59 0 92 25z" />
    <glyph glyph-name="uni0413" unicode="&#x413;" horiz-adv-x="469" 
d="M512 643l-25 -121l-145 5h-79l-46 -324l-20 -213h-165l31 197l50 468h391z" />
    <glyph glyph-name="uni0414" unicode="&#x414;" horiz-adv-x="707" 
d="M687 126l-34 -269l-121 -9l-5 144h-406l-37 -135l-124 -9l34 278h54q48 21 78.5 61.5t56 117.5t57.5 221l31 132h397l-64 -453l-7 -79h90zM441 126l10 63l37 345h-102l-9 -38q-36 -160 -70 -244t-81 -126h215z" />
    <glyph glyph-name="uni0415" unicode="&#x415;" horiz-adv-x="532" 
d="M262 520l-19 -132l104 -1l103 3l8 -11l-25 -117l-112 3l-96 -1l-8 -58l-8 -82l105 -1l159 6l7 -12l-24 -117h-417l31 191l49 454h422l8 -12l-26 -117l-152 5z" />
    <glyph glyph-name="uni0416" unicode="&#x416;" horiz-adv-x="895" 
d="M681 338q78 -155 175 -308l-1 -15q-81 -19 -156 -26l-18 13q-79 152 -149 321l-16 -117l-19 -206h-156l30 191l13 120q-80 -122 -224 -315l-18 -7q-63 6 -150 27l-4 20q132 150 252 308l-157 301h164l26 -65l116 -225l31 290h158l-41 -287l169 222l42 65h169z" />
    <glyph glyph-name="uni0417" unicode="&#x417;" horiz-adv-x="530" 
d="M468 285.5q27 -31.5 27 -81.5q0 -101 -81.5 -158t-224.5 -57q-56 0 -105 9.5t-83 26.5l44 129l12 6q29 -19 68.5 -29.5t78.5 -10.5q59 0 95 23.5t36 63.5q0 45 -53 61h-149l-8 12l22 107l138 -2q27 13 42 35t15 48q0 28 -21.5 40t-68.5 12q-37 0 -76.5 -8t-88.5 -25
l-14 8l29 129q80 30 172 30q111 0 172 -39.5t61 -111.5q0 -56 -32 -100.5t-89 -69.5q55 -16 82 -47.5z" />
    <glyph glyph-name="uni0418" unicode="&#x418;" horiz-adv-x="699" 
d="M73 191l47 450l162 8l-61 -410h10l275 406h171l-63 -439l-19 -206h-159l31 191l26 216h-9l-276 -407h-166z" />
    <glyph glyph-name="uni0419" unicode="&#x419;" horiz-adv-x="699" 
d="M73 191l47 450l162 8l-61 -410h10l275 406h171l-63 -439l-19 -206h-159l31 191l26 216h-9l-276 -407h-166zM589 834q-33 -58 -87.5 -89.5t-111.5 -31.5q-51 0 -90.5 26t-53.5 76l74 62h15q45 -66 101 -66t110 65h14z" />
    <glyph glyph-name="uni041A" unicode="&#x41a;" horiz-adv-x="614" 
d="M387 333q76 -138 190 -300l-5 -17q-82 -20 -160 -27l-16 10q-99 181 -164 320l-16 -113l-19 -206h-159l33 191l48 454h161l-42 -290l182 225l44 65h170z" />
    <glyph glyph-name="uni041B" unicode="&#x41b;" horiz-adv-x="636" 
d="M566 203l-21 -213h-165l32 197l36 345h-105l-9 -38q-49 -204 -90 -312.5t-87.5 -155.5t-115.5 -52l-43 -1l-10 136q51 12 84 50t61 121t64 244l30 132h402z" />
    <glyph glyph-name="uni041C" unicode="&#x41c;" horiz-adv-x="796" 
d="M723 0h-141l17 196l9 217h-10l-170 -348h-121l-69 348h-10l-45 -203l-38 -210h-133l143 645h183l12 -94l47 -280h10l123 277l38 97h180z" />
    <glyph glyph-name="uni041D" unicode="&#x41d;" horiz-adv-x="685" 
d="M669 645l-64 -439l-19 -206h-159l33 191l7 66l-129 2l-115 -3l-7 -50l-18 -206h-159l32 191l48 454h161l-38 -257l121 -3l117 2l27 258h162z" />
    <glyph glyph-name="uni041E" unicode="&#x41e;" horiz-adv-x="662" 
d="M575 585.5q68 -69.5 68 -205.5q0 -116 -40 -204.5t-117 -137.5t-185 -49q-123 0 -191 71t-68 208q0 116 39.5 203.5t116.5 135.5t185 48q124 0 192 -69.5zM247 468.5q-40 -58.5 -40 -199.5q0 -87 24.5 -123.5t85.5 -36.5q78 0 118 59t40 201q0 86 -24.5 122t-85.5 36
q-78 0 -118 -58.5z" />
    <glyph glyph-name="uni041F" unicode="&#x41f;" horiz-adv-x="669" 
d="M590 206l-19 -206h-160l31 191l34 325l-114 3l-100 -5l-44 -308l-19 -206h-159l31 191l48 454h533z" />
    <glyph glyph-name="uni0420" unicode="&#x420;" horiz-adv-x="570" 
d="M522 601q53 -45 53 -129q0 -80 -36.5 -142t-103.5 -97t-155 -35h-64l-18 -198h-159l32 191l48 454l256 1q94 0 147 -45zM407 447q0 42 -21 62.5t-68 22.5l-55 -3l-30 -213l86 -4q88 30 88 135z" />
    <glyph glyph-name="uni0421" unicode="&#x421;" horiz-adv-x="539" 
d="M481.5 645q43.5 -9 77.5 -25l-43 -130l-13 -6q-26 19 -59 29.5t-67 10.5q-85 0 -125.5 -59t-40.5 -179q0 -163 124 -163q33 0 71 9.5t70 25.5l12 -8l-29 -131q-38 -16 -72.5 -22.5t-72.5 -6.5q-132 0 -202.5 70.5t-70.5 199.5q0 123 41 211.5t120.5 135.5t190.5 47
q45 0 88.5 -9z" />
    <glyph glyph-name="uni0422" unicode="&#x422;" horiz-adv-x="505" 
d="M541 633l-24 -117l-122 6h-28l-44 -316l-19 -206h-159l33 191l36 331h-29l-126 -6l-8 12l24 117h459z" />
    <glyph glyph-name="uni0423" unicode="&#x423;" horiz-adv-x="586" 
d="M625 644l-221 -438q-51 -90 -92 -134t-91 -62t-132 -20l-13 5q-11 56 -11 125l5 10q61 5 98 13t61 22l-169 479l162 1l15 -75l76 -260h10l124 269l27 65h151z" />
    <glyph glyph-name="uni0424" unicode="&#x424;" horiz-adv-x="806" 
d="M719 143.5q-90 -80.5 -264 -95.5l-10 -91h-152l14 90q-140 11 -211.5 71.5t-71.5 169.5q0 154 88.5 233t262.5 94l8 73h155l-10 -73q139 -11 210 -70.5t71 -167.5q0 -153 -90 -233.5zM218 210q35 -33 108 -42l3 19l33 307q-93 -11 -136 -56t-43 -133q0 -62 35 -95z
M605.5 221q43.5 44 43.5 134q0 62 -33 95t-105 43l-40 -290l-4 -36q95 10 138.5 54z" />
    <glyph glyph-name="uni0425" unicode="&#x425;" horiz-adv-x="625" 
d="M427 331l154 -331h-186l-22 70l-69 144l-116 -153l-37 -61h-162l235 324l-154 321h187l23 -71l65 -137l105 145l36 63h166z" />
    <glyph glyph-name="uni0426" unicode="&#x426;" horiz-adv-x="702" 
d="M670 129l-34 -260l-113 -9l-3 140h-478l31 191l49 454h161l-62 -439l-7 -77h212l10 62l48 454h162l-63 -439l-7 -77h94z" />
    <glyph glyph-name="uni0427" unicode="&#x427;" horiz-adv-x="624" 
d="M611 655l-65 -452l-20 -213h-166l33 197l8 72l-9 -1q-63 -51 -139 -76q-103 1 -153.5 43.5t-50.5 128.5q0 11 2 35l29 266h168l-31 -230q-2 -18 -2 -25q0 -38 18 -57.5t51 -19.5q53 0 129 50l30 282h168z" />
    <glyph glyph-name="uni0428" unicode="&#x428;" horiz-adv-x="928" 
d="M905 645l-63 -439l-19 -206h-781l31 191l49 454h161l-62 -439l-7 -77h161l10 62l47 454h162l-62 -439l-7 -77h160l10 62l48 454h162z" />
    <glyph glyph-name="uni0429" unicode="&#x429;" horiz-adv-x="955" 
d="M901 645l-63 -439l-19 -206h-781l31 191l49 454h161l-62 -439l-7 -77h161l10 62l47 454h162l-62 -439l-7 -77h160l10 62l48 454h162zM891 -131l-113 -9l-3 140h-116l53 129h213z" />
    <glyph glyph-name="uni042A" unicode="&#x42a;" horiz-adv-x="674" 
d="M608.5 366.5q46.5 -39.5 46.5 -113.5q0 -77 -38 -134t-108.5 -88t-166.5 -31h-200l32 190l34 332h-55l-98 -5l-9 12l24 116h312l-34 -239h124q90 0 136.5 -39.5zM461 148q24 29 24 72q0 36 -20.5 56t-58.5 19l-75 -2l-12 -87l-8 -92l81 -5q45 10 69 39z" />
    <glyph glyph-name="uni042B" unicode="&#x42b;" horiz-adv-x="810" 
d="M482 367q44 -39 44 -113q0 -77 -37 -134.5t-105 -88.5t-161 -31h-192l31 190l48 455h161l-34 -239h118q83 0 127 -39zM795 645l-64 -439l-18 -206h-159l32 191l48 454h161zM335 148.5q22 29.5 22 72.5q0 35 -18 55t-51 19l-68 -2l-12 -87l-9 -92l75 -5q39 10 61 39.5z
" />
    <glyph glyph-name="uni042C" unicode="&#x42c;" horiz-adv-x="588" 
d="M530 368q49 -41 49 -117q0 -79 -40 -138t-114 -91t-174 -32h-213l32 196l50 470h167l-35 -247h136q93 0 142 -41zM376 142.5q25 29.5 25 74.5q0 36 -21.5 56.5t-61.5 20.5l-83 -2l-13 -90l-8 -94l91 -5q46 10 71 39.5z" />
    <glyph glyph-name="uni042D" unicode="&#x42d;" horiz-adv-x="554" 
d="M556 400q0 -29 -5 -71q-21 -170 -118.5 -259.5t-260.5 -89.5q-98 0 -179 36l42 134l12 4q30 -19 68.5 -29t76.5 -10q70 0 111.5 35.5t61.5 110.5l-102 1l-142 -3l-8 12l24 122l153 -3h90q0 73 -31 104.5t-102 31.5q-68 0 -167 -36l-16 10l27 136q88 29 178 29
q287 0 287 -265z" />
    <glyph glyph-name="uni042E" unicode="&#x42e;" horiz-adv-x="880" 
d="M814 588q60 -67 60 -190q0 -36 -4 -68q-19 -163 -104 -252t-220 -89q-114 0 -174 70t-58 199l-48 1l-39 -1l-7 -52l-19 -206h-159l31 191l48 454h161l-37 -259l45 -1h40q31 131 111 200.5t201 69.5q112 0 172 -67zM708 409q0 65 -20 92t-65 27q-61 0 -92.5 -45.5
t-44.5 -155.5q-8 -64 -8 -101q0 -64 20.5 -91t65.5 -27q61 0 92.5 45.5t44.5 157.5q7 53 7 98z" />
    <glyph glyph-name="uni042F" unicode="&#x42f;" horiz-adv-x="598" 
d="M577 644l-64 -453l-16 -191h-158l31 206v4h-79q-59 -102 -130 -211l-16 -10q-85 6 -153 32l-4 18q86 95 181 212q-96 56 -96 160q0 67 35 121t96.5 84.5t137.5 30.5l236 -2zM382 327l21 204l-56 3q-46 -1 -73.5 -28.5t-34.5 -79.5q-1 -7 -1 -19q0 -32 15.5 -52.5
t48.5 -33.5z" />
    <glyph glyph-name="uni0430" unicode="&#x430;" horiz-adv-x="464" 
d="M440 471l-48 -357l-4 -108l-144 -10l19 139h-14q-46 -85 -101 -145h-20q-64 20 -90.5 60.5t-26.5 104.5q0 66 26.5 131t80.5 115.5t132 72.5h6l86 -19l88 23zM217 179q32 51 72 147l3 20l-66 20q-39 0 -60.5 -42t-21.5 -113q0 -83 24 -83q17 0 49 51z" />
    <glyph glyph-name="uni0431" unicode="&#x431;" horiz-adv-x="460" 
d="M416.5 403.5q27.5 -37.5 27.5 -105.5q0 -90 -30.5 -159t-86 -107.5t-127.5 -39.5q-80 0 -124 51.5t-44 145.5q0 164 62 281.5t176 164.5l94 41q23 11 35.5 18.5t30.5 23.5l44 -30q-15 -43 -31.5 -74.5t-39.5 -60.5l-94 -19q-99 -22 -121 -185l-6 -41h10q58 94 116 149h20
q61 -16 88.5 -53.5zM287 132.5q26 41.5 26 108.5q0 41 -6.5 65t-17.5 24q-17 0 -54 -53t-71 -127q4 -31 17.5 -45t37.5 -14q42 0 68 41.5z" />
    <glyph glyph-name="uni0432" unicode="&#x432;" horiz-adv-x="418" 
d="M392 144v-8q-17 -68 -72 -107t-133 -39q-83 0 -127 48t-44 138q0 86 32 153t90 106t135 43l14 -1q53 -10 82 -39.5t29 -75.5q0 -74 -84 -123q51 -39 78 -95zM180 353.5q-22 -32.5 -28 -93.5q63 17 91.5 39.5t28.5 52.5q0 34 -34 34q-36 0 -58 -32.5zM253.5 103
q16.5 15 16.5 36q0 31 -28 67q-37 -14 -91 -28q4 -47 18.5 -68.5t42.5 -21.5q25 0 41.5 15z" />
    <glyph glyph-name="uni0433" unicode="&#x433;" horiz-adv-x="356" 
d="M48 22q-41 31 -41 85q0 37 19.5 66t45.5 48.5t68 45.5q39 24 55.5 37.5t16.5 29.5q0 11 -7 17.5t-20 6.5q-14 0 -31.5 -7t-69.5 -33l-18 3l-31 68q66 60 155 89q69 0 110.5 -32.5t41.5 -85.5q0 -37 -19 -65.5t-46 -48.5t-68 -45q-38 -23 -55.5 -37.5t-17.5 -30.5
q0 -10 7.5 -17.5t21.5 -7.5q17 0 42 12.5t69 43.5l18 -5l33 -68q-65 -68 -166 -102q-72 2 -113 33z" />
    <glyph glyph-name="uni0434" unicode="&#x434;" horiz-adv-x="445" 
d="M224 707q95 0 149.5 -67.5t54.5 -190.5q0 -448 -262 -460q-72 8 -111.5 59.5t-39.5 136.5q0 75 31.5 141t84 105.5t111.5 39.5q26 -2 43 -4q-6 74 -41.5 108.5t-105.5 34.5q-14 0 -50 -4l-5 6l13 69q68 26 128 26zM242.5 120.5q19.5 24.5 29.5 81t13 154.5l-53 11
q-42 -2 -61.5 -48.5t-19.5 -151.5q0 -39 9 -55t31 -16q32 0 51.5 24.5z" />
    <glyph glyph-name="uni0435" unicode="&#x435;" horiz-adv-x="404" 
d="M331 166l43 -55q-68 -92 -176 -121h-15q-86 10 -126.5 54.5t-40.5 129.5q0 87 31.5 154.5t89.5 106.5t135 43l14 -1q53 -10 81.5 -39.5t28.5 -76.5q0 -61 -58.5 -105.5t-185.5 -78.5q4 -39 17 -56.5t39 -17.5q22 0 45 14t61 52zM179.5 353q-21.5 -31 -27.5 -91
q62 16 89 37.5t27 52.5q0 17 -7.5 24.5t-24.5 7.5q-35 0 -56.5 -31z" />
    <glyph glyph-name="uni0436" unicode="&#x436;" horiz-adv-x="693" 
d="M552 255q56 -133 107 -232l-2 -14q-72 -14 -135 -20l-15 11q-56 130 -93 246l-17 -132l-6 -108l-143 -10l33 243q-73 -129 -152 -245l-14 -5q-50 4 -130 22l-4 18q86 118 163 232l-97 206h146l14 -51l73 -161l1 -14l15 113l4 108l143 9l-28 -216l110 161l28 51h151z" />
    <glyph glyph-name="uni0437" unicode="&#x437;" horiz-adv-x="378" 
d="M-11 20l32 102l31 2q24 -15 42.5 -20.5t45.5 -5.5q34 0 55 14.5t21 39.5q0 37 -47 37l-79 -1l-5 9l18 83l59 -2q24 0 41.5 17.5t17.5 40.5q0 15 -9 24t-27 9q-24 0 -44.5 -9.5t-52.5 -34.5l-18 1l-35 62q43 46 90 67.5t103 21.5q60 0 97.5 -29t37.5 -76q0 -38 -26 -71.5
t-72 -53.5v-4q80 -29 80 -99q0 -44 -27 -79t-74.5 -55t-106.5 -20q-82 0 -148 30z" />
    <glyph glyph-name="uni0438" unicode="&#x438;" horiz-adv-x="492" 
d="M468 472l-48 -358l-4 -108l-144 -10l21 155h-11q-65 -99 -127 -154l-12 -1q-54 8 -86 35t-32 66l2 18l38 237l5 110l146 9l-45 -286l-1 -16v-3q0 -21 18 -21q19 0 51 38.5t74 115.5l7 55l4 108z" />
    <glyph glyph-name="uni0439" unicode="&#x439;" horiz-adv-x="492" 
d="M468 472l-48 -358l-4 -108l-144 -10l21 155h-11q-65 -99 -127 -154l-12 -1q-54 8 -86 35t-32 66l2 18l38 237l5 110l146 9l-45 -286l-1 -16v-3q0 -21 18 -21q19 0 51 38.5t74 115.5l7 55l4 108zM464 656q-33 -58 -87.5 -89.5t-111.5 -31.5q-51 0 -90.5 26t-53.5 76l74 62
h15q45 -66 101 -66t110 65h14z" />
    <glyph glyph-name="uni043A" unicode="&#x43a;" horiz-adv-x="472" 
d="M72 354l4 108l142 9l-46 -357l-5 -108l-143 -10zM328 255q53 -124 111 -232l-2 -14q-70 -14 -134 -20l-16 11q-56 126 -97 246l1 9l114 161l28 51h151z" />
    <glyph glyph-name="uni043B" unicode="&#x43b;" horiz-adv-x="458" 
d="M422 5l-142 -9l-2 87l-16 237h-18l-64 -190q-24 -74 -59.5 -106t-95.5 -32q-8 0 -30 2l-10 105l8 14q34 11 52.5 33.5t40.5 80.5l92 240h185z" />
    <glyph glyph-name="uni043C" unicode="&#x43c;" horiz-adv-x="612" 
d="M105 462l155 10l7 -72l31 -185h8l79 181l27 66l153 10l-16 -472h-120l12 143l5 135h-9l-111 -232h-102l-46 232h-10l-25 -120l-27 -158h-114z" />
    <glyph glyph-name="uni043D" unicode="&#x43d;" horiz-adv-x="507" 
d="M482 471l-46 -357l-6 -108l-142 -10l23 179l-67 1l-64 -1l-8 -61l-5 -108l-143 -10l48 358l4 108l142 9l-23 -182l70 -1l61 1l9 65l4 108z" />
    <glyph glyph-name="uni043E" unicode="&#x43e;" horiz-adv-x="442" 
d="M290 477q65 -14 100.5 -56.5t35.5 -115.5q0 -141 -69 -224.5t-189 -91.5l-14 2q-137 30 -137 181q0 88 31.5 156t90 107t137.5 43zM174.5 319q-20.5 -47 -20.5 -150q0 -39 9 -55t32 -16q51 0 71.5 47.5t20.5 150.5q0 39 -8.5 54.5t-30.5 15.5q-53 0 -73.5 -47z" />
    <glyph glyph-name="uni043F" unicode="&#x43f;" horiz-adv-x="496" 
d="M439.5 433.5q33.5 -27.5 32.5 -65.5l-1 -13l-39 -240l-5 -109l-148 -10l48 290l1 11q0 23 -17 23q-21 0 -55.5 -41t-77.5 -122l-6 -43l-4 -108l-145 -10l50 358l4 108l143 10l-22 -162h13q66 100 133 160l12 1q50 -10 83.5 -37.5z" />
    <glyph glyph-name="uni0440" unicode="&#x440;" horiz-adv-x="468" 
d="M430 414q27 -40 27 -105q0 -67 -27 -132t-80 -115.5t-129 -71.5h-6l-57 11l-10 -77l-4 -109l-145 -10l75 549l4 108l143 10l-19 -145h15q51 90 104 147h20q62 -20 89 -60zM304 141.5q21 43.5 21 113.5q0 44 -6.5 64.5t-16.5 20.5q-18 0 -51 -52t-74 -148l-3 -23l72 -19
q37 0 58 43.5z" />
    <glyph glyph-name="uni0441" unicode="&#x441;" horiz-adv-x="364" 
d="M365 451l4 -15l-41 -108l-31 -1q-19 23 -31 30.5t-27 7.5q-41 0 -62 -41t-21 -120q0 -51 9 -70.5t32 -19.5q19 0 36.5 15t41.5 51l19 -1l44 -54q-33 -55 -68.5 -85.5t-87.5 -48.5h-20q-76 12 -110 54.5t-34 129.5t31.5 155.5t91.5 107t143 38.5z" />
    <glyph glyph-name="uni0442" unicode="&#x442;" horiz-adv-x="761" 
d="M705.5 434q31.5 -27 30.5 -66l-1 -13l-39 -240l-4 -109l-148 -10l47 290l1 11q0 23 -17 23q-21 0 -56.5 -43t-80.5 -127l-6 -35l-4 -109l-148 -10l47 290l1 11q0 23 -17 23q-20 0 -54.5 -41t-78.5 -122l-6 -43l-4 -108l-145 -10l50 358l4 108l143 10l-22 -162h14
q67 102 132 160l13 1q54 -10 85 -37t30 -66l-1 -13l-7 -45h12q64 99 132 160l12 1q54 -10 85.5 -37z" />
    <glyph glyph-name="uni0443" unicode="&#x443;" horiz-adv-x="458" 
d="M460 395q0 -37 -10.5 -72t-32.5 -74l-114 -215q-63 -122 -124.5 -176t-138.5 -54q-42 0 -98 17l5 122l13 13q41 -10 78 -10q63 0 105 38l-103 478l144 10l8 -88l34 -230h15l53 117q28 60 28 109q0 37 -17 62l7 15l131 17q17 -48 17 -79z" />
    <glyph glyph-name="uni0444" unicode="&#x444;" horiz-adv-x="649" 
d="M606 420q29 -39 29 -107q0 -76 -28.5 -142t-80 -113t-118.5 -65l-49 9l-10 -79l-5 -108l-142 -10l34 261h-11q-40 -53 -73 -75h-19q-62 16 -91 55t-29 107q0 76 28.5 142.5t80.5 113t120 65.5l47 -10l16 123l5 107l142 10l-40 -303h12q38 50 73 75h18q62 -17 91 -56z
M206.5 134q17.5 13 44.5 41l23 179l-53 15q-36 0 -56.5 -42.5t-20.5 -117.5q0 -88 32 -88q13 0 30.5 13zM484 140q20 42 20 118q0 43 -8 65.5t-23 22.5q-26 0 -75 -53l-24 -180l54 -15q36 0 56 42z" />
    <glyph glyph-name="uni0445" unicode="&#x445;" horiz-adv-x="470" 
d="M432 4l-161 -12l-14 63l-36 93l-61 -90l-26 -58h-157l165 241l-94 222l156 13l13 -51l38 -91l58 87l23 46h152l-163 -234z" />
    <glyph glyph-name="uni0446" unicode="&#x446;" horiz-adv-x="526" 
d="M499 88l-23 -120q-9 -47 -28 -84t-51 -69l-113 53l-1 22q23 16 44 39.5t35 49.5l10 21h-29q-28 0 -43.5 17.5t-15.5 49.5q0 12 1 19l8 65h-11q-33 -51 -62.5 -87t-64.5 -67l-12 -1q-54 8 -86 35t-32 66l2 18l38 237l5 110l146 9l-45 -286l-1 -16v-3q0 -21 18 -21
q39 0 125 155l7 54l5 108l143 9l-46 -341v-6q0 -9 4 -12.5t14 -3.5h48z" />
    <glyph glyph-name="uni0447" unicode="&#x447;" horiz-adv-x="471" 
d="M447 471l-47 -357l-5 -108l-143 -10l26 200h-10q-73 -60 -120 -87h-13q-52 6 -79 30.5t-27 65.5l2 18l18 131l5 108l142 9l-26 -194l-1 -12q0 -15 4.5 -21.5t15.5 -6.5q33 0 103 65l7 52l5 108z" />
    </font>
</defs>
</svg>
