<?xml version="1.0" standalone="no"?>
<!DOCTYPE svg PUBLIC "-//W3C//DTD SVG 1.1//EN" "http://www.w3.org/Graphics/SVG/1.1/DTD/svg11.dtd" >
<svg xmlns="http://www.w3.org/2000/svg" xmlns:xlink="http://www.w3.org/1999/xlink" version="1.1">
<metadata>
Created by FontForge 20170731 at Thu Nov  9 17:49:03 2017
 By Aleksey,,,
Copyright 2013 The Alegreya Sans Project Authors (https://github.com/huertatipografica/Alegreya-Sans)
</metadata>
<defs>
<font id="AlegreyaSans-Italic" horiz-adv-x="0" >
  <font-face 
    font-family="Alegreya Sans"
    font-weight="400"
    font-style="italic"
    font-stretch="normal"
    units-per-em="1000"
    panose-1="0 0 5 0 0 0 0 0 0 0"
    ascent="800"
    descent="-200"
    x-height="463"
    cap-height="640"
    bbox="-389 -262 1155 1004"
    underline-thickness="42"
    underline-position="-226"
    slope="-7"
    unicode-range="U+000D-FB02"
  />
<missing-glyph horiz-adv-x="167" 
 />
    <glyph glyph-name="Idieresis" unicode="&#xa8;I" horiz-adv-x="259" 
d="M159 199l-20 -199h-76l29 193l51 447h76zM167.5 819q10.5 -11 10.5 -30q0 -20 -11.5 -32t-30.5 -12q-20 0 -30.5 11t-10.5 30q0 20 12 32t32 12q18 0 28.5 -11zM292.5 819q10.5 -11 10.5 -30q0 -20 -11.5 -32t-30.5 -12q-20 0 -30.5 11t-10.5 30q0 20 11.5 32t31.5 12
q19 0 29.5 -11z" />
    <glyph glyph-name="Odieresis" unicode="&#xa8;O" horiz-adv-x="611" 
d="M530 580q60 -67 60 -189q0 -123 -37 -213t-107.5 -138t-170.5 -48q-107 0 -167.5 69.5t-60.5 193.5q0 185 81.5 288.5t231.5 103.5q110 0 170 -67zM180.5 501q-56.5 -83 -56.5 -241q0 -205 158 -205q114 0 171.5 84t57.5 243q0 202 -160 202q-114 0 -170.5 -83z
M323.5 818q10.5 -10 10.5 -28q0 -19 -11.5 -30.5t-29.5 -11.5q-19 0 -29 10.5t-10 28.5q0 19 11 30t30 11q18 0 28.5 -10zM486.5 818q10.5 -10 10.5 -28q0 -19 -11 -30.5t-30 -11.5q-18 0 -28 10.5t-10 28.5q0 19 10.5 30t29.5 11q18 0 28.5 -10z" />
    <glyph glyph-name="Yacute" unicode="&#xb4;Y" horiz-adv-x="502" 
d="M277 233l-7 -46l-20 -187h-76l29 187l5 46l-142 407h79l7 -35l98 -291h8l181 289l19 37h82zM412 859l20 -44l-3 -9q-60 -29 -149 -67l-44 -19l-9 4l-14 34q106 53 191 103z" />
    <glyph glyph-name="idieresis" unicode="&#xa8;i" horiz-adv-x="218" 
d="M124 109l-4 -106l-76 -7l52 363l4 97l74 7zM122.5 637q10.5 -11 10.5 -30q0 -20 -11.5 -32t-30.5 -12q-20 0 -30.5 11t-10.5 30q0 20 12 32t32 12q18 0 28.5 -11zM247.5 637q10.5 -11 10.5 -30q0 -20 -11.5 -32t-30.5 -12q-20 0 -30.5 11t-10.5 30q0 20 11.5 32t31.5 12
q19 0 29.5 -11z" />
    <glyph glyph-name="odieresis" unicode="&#xa8;o" horiz-adv-x="411" 
d="M266 466q55 -9 82.5 -46t27.5 -106q0 -92 -26 -163t-75.5 -112.5t-117.5 -47.5l-9 1q-57 11 -84.5 48t-27.5 109q0 90 27 160.5t77.5 111.5t117.5 45h8zM141 336q-36 -69 -36 -186q0 -52 14 -75.5t47 -23.5q67 0 103 70t36 188q0 51 -14 73.5t-46 22.5q-68 0 -104 -69z
M210.5 636q10.5 -10 10.5 -28q0 -19 -11.5 -30.5t-29.5 -11.5q-19 0 -29 10.5t-10 28.5q0 19 11 30t30 11q18 0 28.5 -10zM373.5 636q10.5 -10 10.5 -28q0 -19 -11 -30.5t-30 -11.5q-18 0 -28 10.5t-10 28.5q0 19 10.5 30t29.5 11q18 0 28.5 -10z" />
    <glyph glyph-name="yacute" unicode="&#xb4;y" horiz-adv-x="412" 
d="M401 382q0 -57 -40 -128l-142 -251q-60 -106 -110.5 -152t-111.5 -46q-33 0 -75 14l2 64l9 6q34 -9 63 -9q46 0 81 26.5t72 88.5l-91 460l74 8l11 -80l48 -294h10l98 180q33 57 33 108q0 34 -23 66l3 9l65 11q24 -44 24 -81zM325 695l28 -39l-2 -9q-100 -79 -168 -127
l-9 1l-21 30q92 75 163 145z" />
    <glyph glyph-name="Itilde" unicode="&#x7e;I" horiz-adv-x="259" 
d="M159 199l-20 -199h-76l29 193l51 447h76zM337 818v-8l-54 -67l-9 -3q-14 2 -72 20q-49 17 -61 17q-7 0 -14 -6t-19 -21l-17 -19h-7l-23 25v7l54 67l9 3q21 -2 72 -20q5 -2 28 -9t33 -7q8 0 16 7t18 19t16 19h7z" />
    <glyph glyph-name="itilde" unicode="&#x7e;i" horiz-adv-x="218" 
d="M124 109l-4 -106l-76 -7l52 363l4 97l74 7zM292 636v-8l-54 -67l-9 -3q-14 2 -72 20q-49 17 -61 17q-7 0 -14 -6t-19 -21l-17 -19h-7l-23 25v7l54 67l9 3q21 -2 72 -20q5 -2 28 -9t33 -7q8 0 16 7t18 19t16 19h7z" />
    <glyph glyph-name="Utilde" unicode="&#x7e;U" horiz-adv-x="597" 
d="M534 315l-9 -73q-12 -119 -77 -184t-176 -65q-95 0 -149 49t-54 138q0 29 4 54l12 87l39 319h73l-53 -397q-3 -24 -3 -45q0 -69 34.5 -103.5t101.5 -34.5q78 0 123.5 43.5t55.5 130.5l46 406h75zM524 822v-7l-61 -67l-9 -4q-21 2 -81 20q-59 17 -74 17q-8 0 -16.5 -7
t-24.5 -24l-15 -15h-9l-23 25v7l61 67l9 3q24 -2 83 -20q7 -2 34 -9t38 -7q8 0 17 7.5t21 19.5l19 19h7z" />
    <glyph glyph-name="utilde" unicode="&#x7e;u" horiz-adv-x="471" 
d="M422 463l-50 -354l-4 -106l-76 -7l31 224h-7q-49 -84 -89.5 -137t-84.5 -87h-11q-35 8 -56.5 30t-20.5 56l1 13l41 258l8 105l74 6l-53 -335l-2 -21q-1 -15 5 -22.5t16 -7.5q29 0 82 73t117 208l5 97zM439 640v-7l-61 -68l-9 -3q-23 2 -82 20q-57 17 -72 17
q-8 0 -15.5 -6t-23.5 -22l-18 -18h-8l-24 25v7l62 67l9 4q16 -2 44.5 -9.5t38.5 -10.5q57 -17 71 -17q9 0 17.5 7t24.5 24l15 15h7z" />
    <glyph glyph-name="uni1EBC" unicode="&#x7e;E" horiz-adv-x="461" 
d="M210 576l-28 -216l115 -2l100 3l5 -7l-14 -58l-106 2l-109 -1l-13 -98l-14 -135l122 -2l145 4l3 -7l-13 -59h-340l29 193l52 447h341l3 -7l-13 -59l-142 4zM484 822v-7l-61 -67l-9 -4q-21 2 -81 20q-59 17 -74 17q-8 0 -16.5 -7t-24.5 -24l-15 -15h-9l-23 25v7l61 67l9 3
q24 -2 83 -20q7 -2 34 -9t38 -7q8 0 17 7.5t21 19.5l19 19h7z" />
    <glyph glyph-name="uni1EBD" unicode="&#x7e;e" horiz-adv-x="378" 
d="M302 139l24 -31q-32 -49 -70 -77t-86 -38h-12q-64 8 -93.5 47t-29.5 116q0 88 28.5 158t78 110t113.5 42l8 -1q43 -5 65.5 -28t22.5 -61q0 -60 -62 -110.5t-184 -88.5q0 -63 16.5 -92t51.5 -29q30 0 57.5 20t59.5 64zM152.5 362.5q-35.5 -49.5 -44.5 -132.5
q86 28 130.5 63.5t44.5 77.5q0 41 -44 41q-51 0 -86.5 -49.5zM408 641v-7l-61 -67l-9 -4q-21 2 -81 20q-59 17 -74 17q-8 0 -16.5 -7t-24.5 -24l-15 -15h-9l-23 25v7l61 67l9 3q24 -2 83 -20q7 -2 34 -9t38 -7q8 0 17 7.5t21 19.5l19 19h7z" />
    <glyph glyph-name="uni1EF8" unicode="&#x7e;Y" horiz-adv-x="502" 
d="M277 233l-7 -46l-20 -187h-76l29 187l5 46l-142 407h79l7 -35l98 -291h8l181 289l19 37h82zM476 822v-7l-61 -67l-9 -4q-21 2 -81 20q-59 17 -74 17q-8 0 -16.5 -7t-24.5 -24l-15 -15h-9l-23 25v7l61 67l9 3q24 -2 83 -20q7 -2 34 -9t38 -7q8 0 17 7.5t21 19.5l19 19h7z
" />
    <glyph glyph-name="uni1EF9" unicode="&#x7e;y" horiz-adv-x="412" 
d="M401 382q0 -57 -40 -128l-142 -251q-60 -106 -110.5 -152t-111.5 -46q-33 0 -75 14l2 64l9 6q34 -9 63 -9q46 0 81 26.5t72 88.5l-91 460l74 8l11 -80l48 -294h10l98 180q33 57 33 108q0 34 -23 66l3 9l65 11q24 -44 24 -81zM408 641v-7l-61 -67l-9 -4q-21 2 -81 20
q-59 17 -74 17q-8 0 -16.5 -7t-24.5 -24l-15 -15h-9l-23 25v7l61 67l9 3q24 -2 83 -20q7 -2 34 -9t38 -7q8 0 17 7.5t21 19.5l19 19h7z" />
    <glyph glyph-name="fi" unicode="fi" horiz-adv-x="491" 
d="M451 459l-49 -350l-5 -106l-76 -7l52 363l2 41h-181l-27 -201l-30 -213l-5 -107l-76 -6l45 317l29 210h-69l-5 5l6 45h75l9 68q14 92 58 139t125 47l106 -22l3 -7l-18 -59l-12 -2q-51 35 -95 35q-39 0 -66 -29.5t-34 -82.5l-12 -87h185l58 13z" />
    <glyph glyph-name="fl" unicode="fl" horiz-adv-x="526" 
d="M457 691l-16 -55l-11 -2q-60 21 -109 21q-43 0 -71 -29t-36 -83l-13 -93h108l6 -8l-7 -42h-114l-27 -201l-30 -213l-5 -107l-75 -6l44 317l29 210h-69l-5 5l6 45h75l10 75q14 91 60 138.5t131 47.5l116 -15zM416 109l-5 -106l-75 -7l85 604l3 97l75 7z" />
    <glyph glyph-name="f_j" unicode="fj" horiz-adv-x="496" 
d="M450 459l-50 -351l-9 -90q-10 -78 -41.5 -125t-99.5 -87l-24 34l1 9q46 33 67.5 69t28.5 96l49 345l2 41h-180l-27 -201l-30 -213l-5 -107l-76 -6l45 317l29 210h-69l-5 5l6 45h75l9 68q14 92 58 139t125 47l105 -22l3 -7l-18 -59l-12 -2q-51 35 -95 35q-39 0 -65.5 -29
t-33.5 -83l-12 -87h184l59 13z" />
    <glyph glyph-name="Gtilde" unicode="&#x7e;G" horiz-adv-x="575" 
d="M560 600l-25 -71l-9 -2q-42 29 -78.5 42t-79.5 13q-120 0 -183 -83.5t-63 -243.5q0 -101 42 -149t130 -48q28 0 55.5 5t70.5 19l13 78l10 99l71 5l-13 -94l-14 -139q-59 -20 -103 -29t-95 -9q-120 0 -182 66.5t-62 188.5q0 190 88 294t248 104q96 0 179 -46zM524 822v-7
l-61 -67l-9 -4q-21 2 -81 20q-59 17 -74 17q-8 0 -16.5 -7t-24.5 -24l-15 -15h-9l-23 25v7l61 67l9 3q24 -2 83 -20q7 -2 34 -9t38 -7q8 0 17 7.5t21 19.5l19 19h7z" />
    <glyph glyph-name="gtilde" unicode="&#x7e;g" horiz-adv-x="441" 
d="M393 460l-49 -347l-8 -75q-10 -73 -43 -126.5t-82.5 -81.5t-106.5 -28q-64 0 -106 36.5t-54 103.5l3 8l141 88l1 9q-21 19 -31 47.5t-10 71.5q0 72 25.5 136t75.5 107.5t120 54.5h5l62 -22l47 24zM152 343q-37 -61 -37 -152q0 -49 9.5 -73t18.5 -24q10 0 36.5 31t62 88.5
t70.5 132.5l2 13l2 23l-61 22q-66 0 -103 -61zM216.5 -100q39.5 41 50.5 118l26 192h-10q-71 -125 -148 -186l-102 -76q-9 -8 -9 -17q1 -27 27 -49.5t69 -22.5q57 0 96.5 41zM429 640v-7l-61 -67l-9 -4q-21 2 -81 20q-59 17 -74 17q-8 0 -16.5 -7t-24.5 -24l-15 -15h-9
l-23 25v7l61 67l9 3q24 -2 83 -20q7 -2 34 -9t38 -7q8 0 17 7.5t21 19.5l19 19h7z" />
    <glyph glyph-name=".notdef" horiz-adv-x="167" 
 />
    <glyph glyph-name=".null" 
 />
    <glyph glyph-name="nonmarkingreturn" unicode="&#xd;" horiz-adv-x="147" 
 />
    <glyph glyph-name="space" unicode=" " horiz-adv-x="147" 
 />
    <glyph glyph-name="exclam" unicode="!" horiz-adv-x="260" 
d="M233 650l-74 -434l-45 -5l-8 10l53 427l9 9l58 3zM144 73q11 -11 11 -31q0 -21 -12 -34t-32 -13q-21 0 -32 11.5t-11 32.5q0 20 12 32.5t33 12.5q20 0 31 -11z" />
    <glyph glyph-name="quotedbl" unicode="&#x22;" horiz-adv-x="279" 
d="M169 632l-45 -180l-39 -6l-6 7l27 181l59 4zM286 632l-46 -180l-39 -6l-6 7l28 181l58 4z" />
    <glyph glyph-name="numbersign" unicode="#" horiz-adv-x="513" 
d="M372 366l-27 -118h107l5 -5l-4 -41h-119l-38 -170h-44l-5 7l37 163h-111l-38 -170h-44l-5 7l37 163h-97l-6 5l4 41h109l27 118h-99l-6 5l4 41h111l37 162h44l5 -7l-35 -155h110l37 162h44l5 -7l-35 -155h105l6 -5l-5 -41h-116zM321 366h-110l-27 -118h110z" />
    <glyph glyph-name="dollar" unicode="$" horiz-adv-x="416" 
d="M270 450l-24 -178q53 -25 81.5 -52t28.5 -74q0 -53 -40 -95.5t-107 -52.5l-17 -127h-37l-7 7l15 117q-34 1 -70.5 9.5t-64.5 24.5l13 64l9 4q24 -24 55.5 -37.5t63.5 -15.5l24 182q-56 27 -86 54t-30 75q0 54 42 95.5t110 48.5l17 140h38l8 -8l-17 -131q56 -4 102 -23
l-17 -61l-11 -3q-38 31 -79 37zM154.5 324q16.5 -17 47.5 -32l20 156q-38 -7 -61 -31t-23 -52q0 -24 16.5 -41zM280 173.5q-15 16.5 -43 31.5l-21 -156q35 10 57 34t22 51q0 23 -15 39.5z" />
    <glyph glyph-name="percent" unicode="%" horiz-adv-x="829" 
d="M697 658l4 -13l-564 -736l-30 19l-4 12l564 737zM334.5 608.5q31.5 -35.5 31.5 -101.5q0 -102 -45 -158.5t-130 -56.5q-60 0 -91.5 36t-31.5 103q0 100 45.5 156.5t129.5 56.5q60 0 91.5 -35.5zM148.5 552.5q-28.5 -39.5 -28.5 -111.5q0 -99 80 -99q56 0 85 40t29 112
q0 48 -21 73t-61 25q-55 0 -83.5 -39.5zM750 312.5q32 -35.5 32 -102.5q0 -101 -45.5 -157.5t-129.5 -56.5q-60 0 -92 36t-32 102q0 100 46 157t129 57q60 0 92 -35.5zM563.5 256q-28.5 -40 -28.5 -112q0 -98 80 -98q56 0 85 39.5t29 111.5q0 48 -20.5 73.5t-61.5 25.5
q-55 0 -83.5 -40z" />
    <glyph glyph-name="ampersand" unicode="&#x26;" horiz-adv-x="635" 
d="M412 640.5q37 -8.5 79 -27.5l-20 -64l-12 -2q-70 43 -138 43q-62 0 -97 -30.5t-35 -87.5q0 -49 27.5 -79t74.5 -34l279 15l94 12l7 -11l-16 -54l-172 -8l-2 -5q30 -44 30 -107q0 -59 -28 -106.5t-83.5 -75.5t-132.5 -28q-97 0 -153.5 42.5t-56.5 113.5q0 57 37.5 103.5
t110.5 78.5v4q-40 20 -62 56t-22 84q0 80 57 128t156 48q41 0 78 -8.5zM254 303q-122 -54 -122 -145q0 -51 38.5 -81t105.5 -30q81 0 125 42.5t44 112.5q0 34 -11.5 62t-32.5 45z" />
    <glyph glyph-name="quotesingle" unicode="'" horiz-adv-x="162" 
d="M169 632l-45 -180l-39 -6l-6 7l27 181l59 4z" />
    <glyph glyph-name="parenleft" unicode="(" horiz-adv-x="287" 
d="M320 637l-1 -7q-109 -76 -150.5 -208.5t-41.5 -269.5q0 -92 22.5 -152.5t78.5 -108.5l-1 -7l-31 -25h-7q-67 54 -95 121t-28 172q0 151 48.5 290t173.5 220h7z" />
    <glyph glyph-name="parenright" unicode=")" horiz-adv-x="308" 
d="M-26 -116l1 7q109 76 150.5 208.5t41.5 269.5q0 92 -22.5 152.5t-78.5 108.5l1 7l31 25h7q67 -54 95 -121t28 -172q0 -151 -48.5 -290t-173.5 -220h-7z" />
    <glyph glyph-name="asterisk" unicode="*" horiz-adv-x="374" 
d="M273 726l-22 -119l-32 -4l-5 7l-1 113q27 9 56 9zM199 594l-5 -32l-8 -3l-100 34q0 37 8 58l7 2zM393 580l-3 -4l-112 -17l-13 29l3 8l100 36q19 -28 25 -52zM273 538l62 -91q-13 -23 -40 -41l-7 1l-46 111l23 21zM221 523l1 -9l-60 -92q-19 7 -52 26v7l84 83z" />
    <glyph glyph-name="plus" unicode="+" horiz-adv-x="477" 
d="M295 468l-22 -176h175l6 -6l-10 -47h-178l-21 -178l-48 -4l-5 6l21 176h-176l-5 6l11 47h176l22 178l48 4z" />
    <glyph glyph-name="comma" unicode="," horiz-adv-x="229" 
d="M139 18q0 -64 -92 -131l-25 24v6q55 44 55 88q0 26 -31 46v8q24 16 52 25q41 -26 41 -66z" />
    <glyph glyph-name="hyphen" unicode="-" horiz-adv-x="308" 
d="M286 292l-6 -48l-246 -34l-6 7l6 48l246 34z" />
    <glyph glyph-name="period" unicode="." horiz-adv-x="230" 
d="M124 73q11 -11 11 -31q0 -21 -12 -34t-32 -13t-31.5 12t-11.5 32t12 32.5t33 12.5q20 0 31 -11z" />
    <glyph glyph-name="slash" unicode="/" horiz-adv-x="288" 
d="M314 669l-260 -782h-52l-5 8l260 783h51z" />
    <glyph glyph-name="zero" unicode="0" horiz-adv-x="532" 
d="M441 449q49 -54 49 -163q0 -87 -29.5 -153.5t-86 -103t-135.5 -36.5q-93 0 -142 54t-49 162q0 86 29.5 153t86.5 104t136 37q92 0 141 -54zM155 377q-47 -58 -47 -159q0 -80 34 -119t104 -39q88 0 135.5 56.5t47.5 157.5q0 161 -139 161q-88 0 -135 -58z" />
    <glyph glyph-name="one" unicode="1" horiz-adv-x="343" 
d="M254 493l-40 -286l-21 -207h-75l28 198l26 218l-135 -38l-6 5l7 59l206 59z" />
    <glyph glyph-name="two" unicode="2" horiz-adv-x="454" 
d="M347.5 472q35.5 -29 35.5 -76q0 -40 -32.5 -86t-120.5 -139l-104 -109l2 -3h186l85 6l4 -6l-18 -63l-99 4h-225l-37 -2l-5 4l7 47l155 156q69 69 98 106.5t29 68.5q0 25 -19 41t-52 16q-36 0 -74 -18t-72 -51h-9l-4 58q90 75 178 75q56 0 91.5 -29z" />
    <glyph glyph-name="three" unicode="3" horiz-adv-x="411" 
d="M320.5 470q39.5 -32 39.5 -85q0 -44 -31.5 -87.5t-89.5 -70.5v-3q108 -29 108 -126q0 -55 -32.5 -99.5t-89 -70t-125.5 -25.5q-52 0 -100 10l3 67l8 6q46 -23 97 -23q74 0 120 35.5t46 94.5q0 42 -31 66.5t-89 26.5h-58l-4 6l9 52l43 1q30 0 62.5 16.5t54 45t21.5 63.5
q0 32 -21.5 51t-58.5 19q-32 0 -64 -15t-69 -45h-8l-4 60q42 32 79 47t77 15q68 0 107.5 -32z" />
    <glyph glyph-name="four" unicode="4" horiz-adv-x="479" 
d="M435 130l-11 -53l-90 2h-5l-18 -165l-6 -6l-57 -5l-4 5l23 171h-189l-64 -2l-5 7l6 51l294 363h71l-45 -361h95zM83 137h192l34 269h-6z" />
    <glyph glyph-name="five" unicode="5" horiz-adv-x="416" 
d="M401 496l-14 -60l-6 -5l-71 5h-151l-21 -160l62 -13q156 -33 156 -152q0 -58 -34 -105.5t-93 -75.5t-130 -28q-41 0 -95 9l2 67l7 6q53 -23 103 -23q75 0 121.5 40t46.5 102q0 80 -111 102l-93 18l-6 7l32 258l14 12l53 -2h135l90 3z" />
    <glyph glyph-name="six" unicode="6" horiz-adv-x="468" 
d="M133 309l5 -6q34 22 64.5 33.5t64.5 11.5q68 0 111 -43.5t43 -109.5q0 -44 -19 -90.5t-64 -79.5t-118 -33q-87 0 -132.5 50t-45.5 137q0 75 34 152.5t111 147.5t201 115h5l57 -35l-1 -8q-252 -81 -316 -242zM182.5 276.5q-36.5 -15.5 -68.5 -44.5q-3 -24 -3 -47
q0 -64 25 -100.5t87 -36.5q69 0 99 41.5t30 97.5q0 50 -25.5 77.5t-73.5 27.5q-34 0 -70.5 -15.5z" />
    <glyph glyph-name="seven" unicode="7" horiz-adv-x="416" 
d="M148 498h230l42 2l-6 -56l-249 -430l-59 -116l-60 19l-2 12l296 506h-212l-75 -7l-5 8l13 64z" />
    <glyph glyph-name="eight" unicode="8" horiz-adv-x="474" 
d="M385 557q41 -35 41 -97q0 -56 -32.5 -91.5t-84.5 -59.5l-1 -5q51 -25 78 -55t27 -85q0 -49 -25 -88t-70 -61t-104 -22q-80 0 -127 39.5t-47 105.5q0 58 36.5 94t100.5 65l1 4q-40 23 -61.5 51t-21.5 76q0 73 50 118.5t130 45.5q69 0 110 -35zM189.5 509.5
q-32.5 -28.5 -32.5 -74.5q0 -41 23.5 -63.5t70.5 -42.5q52 21 83 49.5t31 75.5q0 41 -23.5 62.5t-67.5 21.5q-52 0 -84.5 -28.5zM138 224q-34 -27 -34 -78q0 -46 29.5 -73t82.5 -27q59 0 96.5 32.5t37.5 81.5q0 43 -28.5 66.5t-88.5 47.5q-61 -23 -95 -50z" />
    <glyph glyph-name="nine" unicode="9" horiz-adv-x="468" 
d="M340 190l-5 6q-34 -22 -64.5 -33.5t-64.5 -11.5q-68 0 -111 43.5t-43 109.5q0 44 19 90.5t64 79.5t118 33q87 0 132.5 -50t45.5 -137q0 -75 -34 -152.5t-111 -147.5t-201 -115h-5l-57 35l1 8q252 81 316 242zM290.5 222.5q36.5 15.5 68.5 44.5q3 24 3 47q0 64 -25 100.5
t-87 36.5q-69 0 -99 -41.5t-30 -97.5q0 -50 25.5 -77.5t73.5 -27.5q34 0 70.5 15.5z" />
    <glyph glyph-name="colon" unicode=":" horiz-adv-x="229" 
d="M123 73q11 -11 11 -31q0 -21 -12 -34t-32 -13t-31.5 12t-11.5 32t12 32.5t33 12.5q20 0 31 -11zM156 343q11 -11 11 -31q0 -21 -12 -34t-32 -13t-31.5 12t-11.5 32t12 32.5t33 12.5q20 0 31 -11z" />
    <glyph glyph-name="semicolon" unicode=";" horiz-adv-x="229" 
d="M137 18q0 -64 -92 -131l-25 24v6q55 44 55 88q0 26 -31 46v8q24 16 52 25q41 -26 41 -66zM155 343q11 -11 11 -31q0 -21 -12 -34t-32 -13t-31.5 12t-11.5 32t12 32.5t33 12.5q20 0 31 -11z" />
    <glyph glyph-name="less" unicode="&#x3c;" horiz-adv-x="498" 
d="M461 419l-4 -7l-360 -143v-5l327 -134l-17 -43l-9 -6l-364 153l8 62l7 8l400 159z" />
    <glyph glyph-name="equal" unicode="=" horiz-adv-x="478" 
d="M466 368l-5 -47h-407l-5 6l4 47h407zM445 203l-5 -47h-407l-5 6l4 47h407z" />
    <glyph glyph-name="greater" unicode="&#x3e;" horiz-adv-x="503" 
d="M470 304l6 -8l-7 -62l-403 -153l-7 6l-7 43l362 134v5l-325 143l-3 7l22 44z" />
    <glyph glyph-name="question" unicode="?" horiz-adv-x="331" 
d="M309.5 616.5q60.5 -37.5 60.5 -100.5q0 -42 -27 -80t-75 -66l-91 -55l-2 -4l-7 -97l-54 -6l-4 7l6 119l6 9l103 59q75 41 75 103q0 45 -46 72t-139 33l-4 7l19 39l10 5q109 -7 169.5 -44.5zM161 73q11 -11 11 -31q0 -21 -12 -34t-32 -13t-31.5 12t-11.5 32t12.5 32.5
t33.5 12.5q19 0 30 -11z" />
    <glyph glyph-name="at" unicode="@" horiz-adv-x="823" 
d="M705 80q-87 -77 -250 -84l30 212h-9q-80 -136 -165 -215h-14q-75 44 -75 157q0 73 27.5 141t81 115.5t128.5 58.5h5l64 -22l44 22l10 -5l-50 -351l-3 -58q101 13 156 76.5t55 167.5q0 80 -35 140.5t-99.5 93.5t-151.5 33q-108 0 -191 -46.5t-128.5 -129.5t-45.5 -189
q0 -108 47.5 -186.5t134 -120t202.5 -41.5l2 -8l-24 -38q-124 2 -218 49t-145.5 133t-51.5 202q0 124 52.5 220.5t148 150.5t219.5 54q101 0 177 -39t117.5 -110.5t41.5 -165.5q0 -140 -87 -217zM360 105q31 34 70 98t76 149l1 6l1 27l-62 22q-49 0 -85.5 -32.5t-55.5 -87
t-19 -119.5q0 -52 10 -74.5t22 -22.5q11 0 42 34z" />
    <glyph glyph-name="A" unicode="A" horiz-adv-x="548" 
d="M500 0h-76l-6 62l-21 115l-136 2l-123 -2l-52 -111l-25 -66h-75l304 640h86zM385 241l-60 321h-7l-150 -321l106 -1z" />
    <glyph glyph-name="B" unicode="B" horiz-adv-x="512" 
d="M471 201q0 -100 -68.5 -152.5t-203.5 -52.5q-86 0 -135 4h-1l29 193l52 447h1l163 2q77 0 119.5 -34.5t42.5 -99.5q0 -62 -29 -106.5t-83 -67.5q113 -33 113 -133zM368 558.5q-25 20.5 -78 20.5h-78l-31 -219l105 -3q107 24 107 138q0 43 -25 63.5zM347.5 95
q46.5 36 46.5 102q0 88 -104 100l-118 -1l-13 -97l-14 -137q37 -3 71 -3q85 0 131.5 36z" />
    <glyph glyph-name="C" unicode="C" horiz-adv-x="500" 
d="M449 633.5q42 -12.5 74 -36.5l-24 -69l-8 -2q-58 56 -140 56q-108 0 -167 -82.5t-59 -233.5q0 -101 41 -154.5t117 -53.5q42 0 85.5 16t81.5 45l9 -5l-16 -71q-86 -50 -172 -50q-107 0 -165.5 68.5t-58.5 193.5q0 121 37 209t107.5 135t168.5 47q47 0 89 -12.5z" />
    <glyph glyph-name="D" unicode="D" horiz-adv-x="620" 
d="M536 580q63 -65 63 -185q0 -124 -38.5 -214t-113.5 -138.5t-181 -48.5q-39 0 -96.5 1.5t-105.5 4.5h-1l29 193l52 447h1l213 5q115 0 178 -65zM457.5 140.5q62.5 83.5 62.5 240.5q0 100 -43 150.5t-127 50.5q-25 0 -65 -1t-74 -3l-52 -379l-14 -136q92 -6 136 -6
q114 0 176.5 83.5z" />
    <glyph glyph-name="E" unicode="E" horiz-adv-x="461" 
d="M210 576l-28 -216l115 -2l100 3l5 -7l-14 -58l-106 2l-109 -1l-13 -98l-14 -135l122 -2l145 4l3 -7l-13 -59h-340l29 193l52 447h341l3 -7l-13 -59l-142 4z" />
    <glyph glyph-name="F" unicode="F" horiz-adv-x="415" 
d="M210 576l-30 -228l103 -2l100 2l4 -7l-14 -58l-105 3l-96 -1l-12 -86l-21 -199h-76l29 193l52 447h323l5 -7l-16 -60l-137 5z" />
    <glyph glyph-name="G" unicode="G" horiz-adv-x="575" 
d="M560 600l-25 -71l-9 -2q-42 29 -78.5 42t-79.5 13q-120 0 -183 -83.5t-63 -243.5q0 -101 42 -149t130 -48q28 0 55.5 5t70.5 19l13 78l10 99l71 5l-13 -94l-14 -139q-59 -20 -103 -29t-95 -9q-120 0 -182 66.5t-62 188.5q0 190 88 294t248 104q96 0 179 -46z" />
    <glyph glyph-name="H" unicode="H" horiz-adv-x="653" 
d="M614 640l-59 -441l-21 -199h-75l28 193l11 98l-170 3l-156 -3l-13 -92l-20 -199h-76l29 193l51 447h76l-39 -283l162 -3l164 3l32 283h76z" />
    <glyph glyph-name="I" unicode="I" horiz-adv-x="259" 
d="M159 199l-20 -199h-76l29 193l51 447h76z" />
    <glyph glyph-name="J" unicode="J" horiz-adv-x="297" 
d="M194 212l-9 -94q-10 -75 -53.5 -124.5t-138.5 -94.5l-24 42l1 9q72 38 105 75t40 93l11 87l43 374l-119 -1l-7 7l12 55h197z" />
    <glyph glyph-name="K" unicode="K" horiz-adv-x="520" 
d="M159 199l-21 -199h-76l30 193l51 447h76zM271 338q99 -165 224 -322l-3 -9q-35 -10 -73 -16l-7 5q-138 195 -222 340l1 6l235 244l45 54h85z" />
    <glyph glyph-name="L" unicode="L" horiz-adv-x="400" 
d="M376 56l-13 -56h-300l30 193l51 447h76l-60 -441l-14 -135h226z" />
    <glyph glyph-name="M" unicode="M" horiz-adv-x="753" 
d="M664 0h-67l11 195l8 326h-6l-226 -447h-63l-106 447h-7l-71 -320l-42 -201h-64l144 640h85l20 -97l85 -371h7l187 377l42 91h85z" />
    <glyph glyph-name="N" unicode="N" horiz-adv-x="653" 
d="M553 187l-21 -187h-78l-251 520h-7l-39 -310l-23 -210h-71l28 190l54 450h78l251 -520h6l64 517l71 5z" />
    <glyph glyph-name="O" unicode="O" horiz-adv-x="611" 
d="M530 580q60 -67 60 -189q0 -123 -37 -213t-107.5 -138t-170.5 -48q-107 0 -167.5 69.5t-60.5 193.5q0 185 81.5 288.5t231.5 103.5q110 0 170 -67zM180.5 501q-56.5 -83 -56.5 -241q0 -205 158 -205q114 0 171.5 84t57.5 243q0 202 -160 202q-114 0 -170.5 -83z" />
    <glyph glyph-name="P" unicode="P" horiz-adv-x="498" 
d="M447 600q46 -42 46 -124q0 -72 -31 -128.5t-89 -88.5t-135 -32h-74l-4 -28l-21 -199h-76l29 193l52 447h1l176 2q80 0 126 -42zM378.5 345q37.5 49 37.5 121q0 55 -26.5 83t-85.5 31l-93 -3l-39 -287l109 -2q60 8 97.5 57z" />
    <glyph glyph-name="Q" unicode="Q" horiz-adv-x="608" 
d="M674 -141q-16 -31 -32 -48l-7 -2q-97 22 -184 68.5t-157 114.5h-19q-107 0 -167.5 69.5t-60.5 193.5q0 185 81.5 288.5t231.5 103.5q110 0 170 -67t60 -189q0 -154 -57.5 -255t-165.5 -132q132 -104 306 -134zM282 55q114 0 171.5 84t57.5 243q0 202 -160 202
q-114 0 -170.5 -83t-56.5 -241q0 -205 158 -205z" />
    <glyph glyph-name="R" unicode="R" horiz-adv-x="529" 
d="M453.5 350q-40.5 -59 -113.5 -91q57 -121 129 -241l-2 -9q-36 -14 -71 -18l-8 7q-65 125 -112 242h-111l-6 -41l-20 -199h-76l29 193l52 447h1l178 2q81 0 126 -40.5t45 -115.5q0 -77 -40.5 -136zM173 304l115 -3q63 19 95.5 63t32.5 110q0 100 -112 106l-94 -3z" />
    <glyph glyph-name="S" unicode="S" horiz-adv-x="451" 
d="M439 615l-21 -71l-14 -4q-52 44 -116 44q-38 0 -67 -15t-45 -39.5t-16 -51.5q0 -37 26 -61.5t80 -58.5q44 -27 71.5 -48.5t47 -54t19.5 -75.5q0 -51 -28.5 -94t-78.5 -68t-112 -25q-41 0 -85.5 12t-80.5 33l19 77l10 4q29 -32 68 -48t77 -16q59 0 97 32.5t38 78.5
q0 39 -26 65t-80 59q-43 26 -70 47t-46 53t-19 75q0 50 27.5 91.5t76 65.5t107.5 24q72 0 141 -31z" />
    <glyph glyph-name="T" unicode="T" horiz-adv-x="467" 
d="M497 633l-14 -58l-104 5h-63l-51 -381l-21 -199h-75l29 193l43 387h-61l-109 -5l-5 7l14 58h413z" />
    <glyph glyph-name="U" unicode="U" horiz-adv-x="597" 
d="M534 315l-9 -73q-12 -119 -77 -184t-176 -65q-95 0 -149 49t-54 138q0 29 4 54l12 87l39 319h73l-53 -397q-3 -24 -3 -45q0 -69 34.5 -103.5t101.5 -34.5q78 0 123.5 43.5t55.5 130.5l46 406h75z" />
    <glyph glyph-name="V" unicode="V" horiz-adv-x="534" 
d="M277 0h-87l-125 640h77l6 -63l94 -499h5l234 496l24 66h74z" />
    <glyph glyph-name="W" unicode="W" horiz-adv-x="849" 
d="M593 0h-77l-72 378h-7l-172 -378h-79l-115 640h75l2 -59l89 -497h7l180 395l-32 161h78l6 -66l89 -490h7l227 492l22 64h71z" />
    <glyph glyph-name="X" unicode="X" horiz-adv-x="561" 
d="M339 329l162 -329h-87l-19 51l-115 224l-174 -229l-30 -46h-80l247 328l-156 312h87l19 -49l106 -209l158 209l31 49h81z" />
    <glyph glyph-name="Y" unicode="Y" horiz-adv-x="502" 
d="M277 233l-7 -46l-20 -187h-76l29 187l5 46l-142 407h79l7 -35l98 -291h8l181 289l19 37h82z" />
    <glyph glyph-name="Z" unicode="Z" horiz-adv-x="503" 
d="M510 585l-409 -524h254l90 7l3 -6l-13 -64l-110 2h-268l-54 -3l7 56l410 525h-238l-90 -6l-4 5l15 64l366 -1l48 1z" />
    <glyph glyph-name="bracketleft" unicode="[" horiz-adv-x="288" 
d="M323 641l-5 -36l-121 -11l-82 -671l118 -11l-4 -37l-6 -5l-175 10l50 379l43 378l178 10z" />
    <glyph glyph-name="backslash" unicode="\" horiz-adv-x="291" 
d="M30 669l7 9h51l205 -783l-6 -8h-52z" />
    <glyph glyph-name="bracketright" unicode="]" horiz-adv-x="288" 
d="M-27 -124l5 36l121 11l82 671l-118 11l4 37l6 5l175 -10l-50 -379l-43 -378l-178 -10z" />
    <glyph glyph-name="asciicircum" unicode="^" horiz-adv-x="423" 
d="M390 133l-6 -8l-45 -10l-95 319h-5l-181 -317l-9 -5l-40 17l201 358l9 4h63z" />
    <glyph glyph-name="underscore" unicode="_" horiz-adv-x="451" 
d="M426 -93l-10 -45h-470l-5 6l10 44h470z" />
    <glyph glyph-name="grave" unicode="`" horiz-adv-x="402" 
d="M308 550l-21 -30l-9 -1q-68 48 -168 127l-2 9l28 39l9 1q71 -70 163 -145z" />
    <glyph glyph-name="a" unicode="a" horiz-adv-x="439" 
d="M391 460l-49 -351l-5 -106l-76 -7l29 205h-10q-73 -128 -157 -208h-14q-76 43 -76 157q0 72 27 140t79.5 115.5t127.5 59.5h5l62 -23l48 24zM171.5 108q29.5 33 67 96t73.5 148l1 6l1 24l-62 22q-46 0 -80.5 -31.5t-52.5 -85t-18 -118.5q0 -50 9 -72t20 -22q12 0 41.5 33
z" />
    <glyph glyph-name="b" unicode="b" horiz-adv-x="441" 
d="M405 308q0 -73 -27 -141t-80 -115.5t-128 -58.5h-4l-65 15l-51 9l82 583l2 97l76 7l-63 -447h11q69 123 157 208h14q76 -45 76 -157zM266.5 85q34.5 32 53 85.5t18.5 118.5q0 50 -9 71.5t-21 21.5t-41 -32.5t-66.5 -94.5t-73.5 -146l-2 -39l60 -17q47 0 81.5 32z" />
    <glyph glyph-name="c" unicode="c" horiz-adv-x="336" 
d="M333 444l6 -11l-20 -59l-16 -3q-19 20 -34.5 27.5t-32.5 7.5q-60 0 -95 -63t-35 -172q0 -62 14 -88.5t44 -26.5q53 0 104 90l11 -1l23 -32q-31 -53 -64.5 -80t-78.5 -40h-12q-58 10 -84.5 45.5t-26.5 119.5q0 134 58.5 220t174.5 86z" />
    <glyph glyph-name="d" unicode="d" horiz-adv-x="441" 
d="M427 704l-83 -595l-5 -106l-76 -7l29 205h-10q-74 -127 -159 -208h-15q-76 43 -76 157q0 72 27 140t80.5 116t128.5 59h5l53 -19l22 154l3 97zM171 107.5q29 32.5 67 95t75 146.5l4 32l-63 23q-47 0 -82 -31.5t-54 -85t-19 -118.5q0 -50 9.5 -72t21.5 -22t41 32.5z" />
    <glyph glyph-name="e" unicode="e" horiz-adv-x="378" 
d="M302 139l24 -31q-32 -49 -70 -77t-86 -38h-12q-64 8 -93.5 47t-29.5 116q0 88 28.5 158t78 110t113.5 42l8 -1q43 -5 65.5 -28t22.5 -61q0 -60 -62 -110.5t-184 -88.5q0 -63 16.5 -92t51.5 -29q30 0 57.5 20t59.5 64zM152.5 362.5q-35.5 -49.5 -44.5 -132.5
q86 28 130.5 63.5t44.5 77.5q0 41 -44 41q-51 0 -86.5 -49.5z" />
    <glyph glyph-name="f" unicode="f" horiz-adv-x="280" 
d="M425 683l-20 -54l-11 -2q-18 10 -40 16t-40 6q-40 0 -67 -29t-34 -83l-12 -87h108l6 -8l-7 -42h-113l-27 -201l-31 -213l-4 -107l-76 -6l44 317l29 210h-69l-5 5l6 45h75l10 68q12 92 56.5 139t127.5 47l91 -14z" />
    <glyph glyph-name="g" unicode="g" horiz-adv-x="441" 
d="M393 460l-49 -347l-8 -75q-10 -73 -43 -126.5t-82.5 -81.5t-106.5 -28q-64 0 -106 36.5t-54 103.5l3 8l141 88l1 9q-21 19 -31 47.5t-10 71.5q0 72 25.5 136t75.5 107.5t120 54.5h5l62 -22l47 24zM152 343q-37 -61 -37 -152q0 -49 9.5 -73t18.5 -24q10 0 36.5 31t62 88.5
t70.5 132.5l2 13l2 23l-61 22q-66 0 -103 -61zM216.5 -100q39.5 41 50.5 118l26 192h-10q-71 -125 -148 -186l-102 -76q-9 -8 -9 -17q1 -27 27 -49.5t69 -22.5q57 0 96.5 41z" />
    <glyph glyph-name="h" unicode="h" horiz-adv-x="469" 
d="M395.5 434.5q21.5 -22.5 20.5 -56.5l-1 -13l-41 -257l-6 -105l-77 -7l55 342l1 13q0 31 -21 31q-29 0 -81.5 -73t-117.5 -208l-5 -98l-76 -7l86 604l2 97l76 7l-65 -466h9q49 86 90 139.5t84 87.5h11q35 -8 56.5 -30.5z" />
    <glyph glyph-name="i" unicode="i" horiz-adv-x="218" 
d="M124 109l-4 -106l-76 -7l52 363l4 97l74 7zM187.5 648q11.5 -11 11.5 -31q0 -21 -12 -34t-32 -13t-31.5 12t-11.5 32t12 32.5t33 12.5q19 0 30.5 -11z" />
    <glyph glyph-name="j" unicode="j" horiz-adv-x="232" 
d="M186 458l-49 -350l-9 -90q-10 -78 -42.5 -125t-103.5 -87l-25 34l1 9q49 33 72 69t30 96l48 344l3 42h-76l-5 5l7 45h71l74 10zM196.5 648q11.5 -11 11.5 -31q0 -21 -12 -34t-32 -13t-31.5 12t-11.5 32t12 32.5t33 12.5q19 0 30.5 -11z" />
    <glyph glyph-name="k" unicode="k" horiz-adv-x="462" 
d="M291 182q66 -108 115 -175l-4 -7l-62 -12l-7 4q-49 74 -108 186l2 13q68 42 102 80.5t34 76.5q0 34 -24 34q-33 0 -88 -71.5t-125 -215.5l-3 -92l-76 -7l85 604l3 97l76 7l-65 -460h10q57 88 98 139.5t85 79.5l15 1q38 -8 60 -32t22 -66q0 -97 -145 -184z" />
    <glyph glyph-name="l" unicode="l" horiz-adv-x="247" 
d="M137 109l-5 -106l-75 -7l85 604l3 97l75 7z" />
    <glyph glyph-name="m" unicode="m" horiz-adv-x="717" 
d="M643.5 434.5q21.5 -22.5 20.5 -56.5l-1 -13l-41 -257l-6 -105l-77 -7l54 342l1 13q1 14 -4.5 22.5t-15.5 8.5q-29 0 -83 -75t-120 -213l-5 -91l-77 -7l55 342l1 13q0 31 -21 31q-29 0 -81.5 -73t-117.5 -208l-5 -98l-76 -7l52 363l5 97l74 7l-32 -225h9q51 87 91 140.5
t83 86.5h11q35 -8 56.5 -30.5t20.5 -56.5l-1 -13l-20 -127h9q49 86 90 139.5t84 87.5h11q35 -8 56.5 -30.5z" />
    <glyph glyph-name="n" unicode="n" horiz-adv-x="467" 
d="M393.5 434.5q21.5 -22.5 20.5 -56.5l-1 -13l-41 -257l-6 -105l-77 -7l55 342l1 13q0 31 -21 31q-29 0 -81.5 -73t-117.5 -208l-5 -98l-76 -7l52 363l5 97l74 7l-32 -225h9q51 87 91 140.5t83 86.5h11q35 -8 56.5 -30.5z" />
    <glyph glyph-name="o" unicode="o" horiz-adv-x="411" 
d="M266 466q55 -9 82.5 -46t27.5 -106q0 -92 -26 -163t-75.5 -112.5t-117.5 -47.5l-9 1q-57 11 -84.5 48t-27.5 109q0 90 27 160.5t77.5 111.5t117.5 45h8zM141 336q-36 -69 -36 -186q0 -52 14 -75.5t47 -23.5q67 0 103 70t36 188q0 51 -14 73.5t-46 22.5q-68 0 -104 -69z
" />
    <glyph glyph-name="p" unicode="p" horiz-adv-x="437" 
d="M406 308q0 -73 -27 -140.5t-80.5 -115.5t-128.5 -59h-4l-54 12l-11 -81l-5 -109l-76 -7l77 551l5 97l73 7l-28 -206h11q73 128 158 208h14q76 -46 76 -157zM266.5 85q34.5 32 53 85.5t18.5 118.5q0 50 -9 71.5t-21 21.5t-41.5 -33t-67 -96t-73.5 -148l-5 -34l64 -18
q47 0 81.5 32z" />
    <glyph glyph-name="q" unicode="q" horiz-adv-x="438" 
d="M390 460l-75 -538l-5 -107l-76 -7l56 393h-11q-73 -128 -157 -208h-14q-76 43 -76 157q0 72 27 140t80 116t128 59h4l62 -23l48 24zM170.5 108q29.5 33 67 96t73.5 148l1 6l1 24l-61 22q-47 0 -81 -31.5t-52.5 -85t-18.5 -118.5q0 -50 9 -72t20 -22q12 0 41.5 33z" />
    <glyph glyph-name="r" unicode="r" horiz-adv-x="325" 
d="M347 460l-15 -100l-6 -3l-9 1q-48 -7 -92 -65.5t-102 -202.5l-4 -87l-76 -7l52 363l5 97l73 7l-30 -220h8q36 73 77.5 126.5t94.5 92.5z" />
    <glyph glyph-name="s" unicode="s" horiz-adv-x="317" 
d="M304 439l-21 -68l-12 -4q-39 44 -80 44q-30 0 -51.5 -21.5t-21.5 -48.5q0 -22 15 -38t48 -40q43 -31 65.5 -57.5t22.5 -69.5q0 -40 -22 -73t-61 -52t-89 -19q-52 7 -100 34l19 71l11 5q20 -28 45 -42.5t51 -14.5q34 0 56 22t22 50q0 26 -16.5 44t-50.5 41
q-42 30 -64 55.5t-22 66.5t23.5 73t63 50t85.5 17q43 -8 84 -25z" />
    <glyph glyph-name="t" unicode="t" horiz-adv-x="331" 
d="M145 111l-2 -16q0 -15 7 -24t20 -9q36 0 87 80h9l21 -27q-35 -58 -63 -85t-63 -37q-40 0 -62.5 22t-22.5 62l2 24l43 258l5 41h-67l-5 5l5 45h74l14 111l69 32l6 -6l-22 -137h122l6 -8l-5 -42h-131z" />
    <glyph glyph-name="u" unicode="u" horiz-adv-x="471" 
d="M422 463l-50 -354l-4 -106l-76 -7l31 224h-7q-49 -84 -89.5 -137t-84.5 -87h-11q-35 8 -56.5 30t-20.5 56l1 13l41 258l8 105l74 6l-53 -335l-2 -21q-1 -15 5 -22.5t16 -7.5q29 0 82 73t117 208l5 97z" />
    <glyph glyph-name="v" unicode="v" horiz-adv-x="407" 
d="M398 383q0 -53 -44 -128l-150 -255h-82l-50 456l75 7l3 -80l25 -303h7l112 196q33 57 33 94q0 32 -24 67l2 10l70 16q23 -40 23 -80z" />
    <glyph glyph-name="w" unicode="w" horiz-adv-x="683" 
d="M488 0h-78l-36 357h-8l-159 -357h-81l-54 456l74 7l1 -61l31 -317h7l140 313l23 61h79l3 -57l31 -317h6l103 191q16 30 24 52t8 42q0 32 -24 67l3 10l69 16q23 -37 23 -80q0 -28 -11 -58.5t-32 -69.5z" />
    <glyph glyph-name="x" unicode="x" horiz-adv-x="439" 
d="M381 4l-81 -10l-16 50l-70 143l-109 -144l-24 -43h-82l175 237l-103 217l78 10l14 -41l67 -137l102 132l24 40h80l-170 -226z" />
    <glyph glyph-name="y" unicode="y" horiz-adv-x="412" 
d="M401 382q0 -57 -40 -128l-142 -251q-60 -106 -110.5 -152t-111.5 -46q-33 0 -75 14l2 64l9 6q34 -9 63 -9q46 0 81 26.5t72 88.5l-91 460l74 8l11 -80l48 -294h10l98 180q33 57 33 108q0 34 -23 66l3 9l65 11q24 -44 24 -81z" />
    <glyph glyph-name="z" unicode="z" horiz-adv-x="407" 
d="M383 451l-283 -375l29 7q17 0 51 -12q5 -1 21.5 -6t28.5 -5q43 0 63.5 28.5t23.5 97.5l13 6l36 -20q-4 -91 -39.5 -136.5t-98.5 -45.5q-18 0 -39 5.5t-40 11.5q-46 16 -69 16q-17 0 -31.5 -6.5t-29.5 -22.5h-8l-24 22l286 380l-139 -1l-69 -8l-6 6l15 67l7 5l64 -5
l190 -1l25 14z" />
    <glyph glyph-name="braceleft" unicode="{" horiz-adv-x="288" 
d="M315 648l3 -6l-13 -42q-22 5 -36 5q-38 0 -56 -24.5t-18 -79.5q0 -18 2 -58q2 -38 2 -53q0 -94 -81 -128l-1 -3q56 -26 56 -89q0 -16 -5.5 -38t-9.5 -36t-6 -20q-23 -67 -23 -101q0 -60 55 -60q14 0 37 5l3 -41l-5 -6q-22 -7 -51 -7q-100 0 -100 94q0 40 24 116
q19 65 19 90q0 62 -72 75l4 39q50 8 72.5 35.5t22.5 80.5l-1 51q-2 40 -2 55q0 153 130 153q22 0 50 -7z" />
    <glyph glyph-name="bar" unicode="|" horiz-adv-x="314" 
d="M256 792l-63 -504l-67 -547l-53 -3l-5 8l66 537l63 509l54 5z" />
    <glyph glyph-name="braceright" unicode="}" horiz-adv-x="288" 
d="M-19 -127l-3 6l13 42q22 -5 36 -5q38 0 56 24.5t18 79.5q0 18 -2 58q-2 38 -2 53q0 94 81 128l1 3q-56 26 -56 89q0 16 5.5 38t9.5 36t6 20q23 67 23 101q0 60 -55 60q-14 0 -37 -5l-3 41l5 6q22 7 51 7q100 0 100 -94q0 -40 -24 -116q-19 -65 -19 -90q0 -62 72 -75
l-4 -39q-50 -8 -72.5 -35.5t-22.5 -80.5l1 -51q2 -40 2 -55q0 -153 -130 -153q-22 0 -50 7z" />
    <glyph glyph-name="asciitilde" unicode="~" horiz-adv-x="480" 
d="M130.5 251q-11.5 -8 -33.5 -27l-18 -16h-9l-17 26v8l80 71l11 5q24 -5 90 -24q11 -3 49.5 -14t53.5 -11q11 0 25 10.5t48 40.5h9l17 -26l-1 -8l-80 -73l-10 -2q-23 3 -103 26q-8 2 -42.5 12t-48.5 10q-9 0 -20.5 -8z" />
    <glyph glyph-name="uni00A0" unicode="&#xa0;" horiz-adv-x="147" 
 />
    <glyph glyph-name="exclamdown" unicode="&#xa1;" horiz-adv-x="261" 
d="M30 -187l74 434l45 5l8 -10l-53 -427l-9 -9l-58 -3zM119 390q-11 11 -11 31q0 21 12 34t32 13q21 0 32 -11.5t11 -32.5q0 -20 -12 -32.5t-33 -12.5q-20 0 -31 11z" />
    <glyph glyph-name="cent" unicode="&#xa2;" horiz-adv-x="389" 
d="M362 475l-17 -48l-14 -3q-33 29 -65 32l-61 -361q48 19 86 88l11 -1l20 -28q-29 -45 -58.5 -70.5t-66.5 -38.5l-28 -164h-37l-5 7l24 150q-55 10 -82 45.5t-27 119.5q0 115 46.5 195t138.5 101l26 153h37l7 -8l-23 -139h14l68 -20zM115.5 124q14.5 -29 43.5 -34l60 361
q-56 -17 -87 -79.5t-31 -158.5q0 -60 14.5 -89z" />
    <glyph glyph-name="sterling" unicode="&#xa3;" horiz-adv-x="418" 
d="M413 575l-11 -57l-5 -5q-48 31 -98 31q-93 0 -107 -103l-13 -106h128l2 -5l-9 -38h-126l-17 -133q-4 -36 -17 -60.5t-36 -41.5v-3h167l89 6l3 -6l-13 -56l-96 2h-249l-4 6l8 39q75 14 86 107l17 140h-71l-3 6l9 37h70l12 97q9 78 55.5 119.5t123.5 41.5q48 0 105 -18z
" />
    <glyph glyph-name="currency" unicode="&#xa4;" horiz-adv-x="436" 
d="M435 511l-2 -9l-74 -63q18 -27 18 -67q0 -51 -37 -91l60 -63v-8l-37 -35l-8 1l-56 67q-40 -28 -83 -28t-75 27l-71 -68l-8 1l-31 32l3 9l74 62q-19 26 -19 68q0 47 38 92l-60 62l1 9l36 33h8l56 -68q36 27 83 27q44 0 74 -25l71 67h9zM167.5 425q-33.5 -32 -33.5 -77
q0 -38 24.5 -63t62.5 -25q46 0 79 32t33 77q0 38 -24.5 63t-62.5 25q-45 0 -78.5 -32z" />
    <glyph glyph-name="yen" unicode="&#xa5;" horiz-adv-x="517" 
d="M485 293l4 -4l-8 -35h-151l-57 -81l-2 -13h197l4 -5l-7 -33h-199l-14 -122h-61l18 122h-180l-4 4l7 34h182l2 18l-32 76h-139l-3 6l7 33h119l-83 204h67l7 -28l93 -223h5l160 221l16 30h66l-142 -204h128z" />
    <glyph glyph-name="brokenbar" unicode="&#xa6;" horiz-adv-x="314" 
d="M256 792l-52 -420l-53 -6l-6 6l52 420l54 5zM177 152l-51 -411l-52 -3l-6 8l51 408l52 6z" />
    <glyph glyph-name="section" unicode="&#xa7;" horiz-adv-x="392" 
d="M194 570q-27 -24 -27 -52q0 -25 20.5 -46t61.5 -51q54 -39 83 -71.5t29 -78.5q0 -43 -29 -80.5t-79 -60.5q39 -41 39 -87q0 -38 -24 -71.5t-65 -53.5t-91 -20q-31 0 -66.5 9t-60.5 24l16 64l9 5q25 -25 54.5 -38t60.5 -13q44 0 72.5 24t28.5 54q0 26 -21 47.5t-64 52.5
q-54 39 -82.5 71t-28.5 77q0 43 30 81.5t80 62.5q-38 38 -38 84q0 38 23 71t63 52.5t89 19.5q24 0 52 -5.5t52 -16.5l-16 -63l-11 -3q-49 36 -94 36q-39 0 -66 -24zM274 305.5q-22 23.5 -65 55.5l-30 23q-41 -19 -62 -42.5t-21 -48.5q0 -27 21.5 -50t65.5 -55l32 -24
q81 35 81 88q0 30 -22 53.5z" />
    <glyph glyph-name="dieresis" unicode="&#xa8;" horiz-adv-x="394" 
d="M191.5 636q10.5 -10 10.5 -28q0 -19 -11.5 -30.5t-29.5 -11.5q-19 0 -29 10.5t-10 28.5q0 19 11 30t30 11q18 0 28.5 -10zM354.5 636q10.5 -10 10.5 -28q0 -19 -11 -30.5t-30 -11.5q-18 0 -28 10.5t-10 28.5q0 19 10.5 30t29.5 11q18 0 28.5 -10z" />
    <glyph glyph-name="copyright" unicode="&#xa9;" horiz-adv-x="691" 
d="M507.5 560q66.5 -38 103.5 -107t37 -160t-37 -160t-103.5 -107t-154.5 -38t-155 38t-104 107t-37 160t37 160t104 107t155 38t154.5 -38zM215.5 531q-59.5 -34 -92.5 -95.5t-33 -142.5t33 -142.5t92.5 -95.5t137.5 -34t137.5 34t92 95.5t32.5 142.5t-32.5 142.5t-92 95.5
t-137.5 34t-137.5 -34zM461 442l-11 -43l-5 -2q-16 11 -37 17t-42 6q-105 0 -105 -122q0 -62 26.5 -94.5t77.5 -32.5q21 0 44 6.5t42 17.5l6 -2l-4 -44q-48 -23 -91 -23q-77 0 -116 43t-39 125t41.5 126.5t119.5 44.5q47 0 93 -23z" />
    <glyph glyph-name="ordfeminine" unicode="&#xaa;" horiz-adv-x="312" 
d="M315 644l-31 -234l-5 -72l-60 -4l17 137v-1h-7q-48 -90 -97 -137h-10q-33 13 -46 36t-13 64q0 78 40 138t114 74h4l50 -7l38 10zM181 434.5q32 45.5 65 115.5l3 23l2 21l-42 7q-42 -1 -66 -42t-24 -103q0 -33 7 -50t14 -17q9 0 41 45.5z" />
    <glyph glyph-name="guillemotleft" unicode="&#xab;" horiz-adv-x="394" 
d="M219 220l2 16l166 169l34 -20v-10l-144 -149l107 -150l-2 -9l-38 -21zM55 220l2 16l166 169l34 -20v-10l-144 -149l107 -150l-2 -9l-38 -21z" />
    <glyph glyph-name="logicalnot" unicode="&#xac;" horiz-adv-x="480" 
d="M430 285l-27 -224l-47 -4l-7 6l22 176h-335l-4 6l9 47h384z" />
    <glyph glyph-name="uni00AD" unicode="&#xad;" horiz-adv-x="308" 
d="M286 292l-6 -48l-246 -34l-6 7l6 48l246 34z" />
    <glyph glyph-name="registered" unicode="&#xae;" horiz-adv-x="439" 
d="M351.5 652.5q49.5 -49.5 49.5 -130.5q0 -82 -49.5 -132t-131.5 -50t-132 50t-50 132q0 81 50 130.5t132 49.5t131.5 -49.5zM333 408q43 43 43 114q0 70 -42.5 112t-113.5 42q-70 0 -112.5 -42t-42.5 -112q0 -71 42.5 -114t112.5 -43t113 43zM280.5 533
q-10.5 -15 -29.5 -24q22 -34 52 -71v-3q-13 -5 -34 -7l-4 3q-21 31 -43 69h-34v-7l1 -62h-34l1 58l-1 136h71q32 0 48.5 -15t16.5 -43q0 -19 -10.5 -34zM189 529l35 -2q31 10 31 37q0 33 -39 34l-26 -1z" />
    <glyph glyph-name="macron" unicode="&#xaf;" horiz-adv-x="386" 
d="M387 627l-5 -45h-283l-6 6l5 44h283z" />
    <glyph glyph-name="degree" unicode="&#xb0;" horiz-adv-x="294" 
d="M277.5 615q31.5 -32 31.5 -79q0 -37 -19.5 -68.5t-52 -50t-69.5 -18.5q-48 0 -80 32t-32 79q0 37 19.5 68.5t52.5 50t70 18.5q48 0 79.5 -32zM124 581q-30 -28 -30 -66q0 -33 22.5 -56t55.5 -23q39 0 69 28.5t30 66.5q0 33 -22.5 55.5t-55.5 22.5q-39 0 -69 -28z" />
    <glyph glyph-name="plusminus" unicode="&#xb1;" horiz-adv-x="478" 
d="M295 468l-22 -176h175l6 -6l-10 -47h-178l-21 -178l-48 -4l-5 6l21 176h-176l-5 6l11 47h176l22 178l48 4zM412 -42l-5 -47h-407l-5 6l4 47h407z" />
    <glyph glyph-name="uni00B2" unicode="&#xb2;" horiz-adv-x="348" 
d="M299.5 681q29.5 -22 29.5 -57q0 -31 -23.5 -65t-82.5 -96l-82 -88l1 -2h131l65 3l2 -6l-12 -50l-80 3h-166l-27 -1l-4 3l4 38l114 115q52 54 73 81.5t21 50.5q0 18 -13 30t-37 12q-25 0 -53 -14t-53 -38h-7l-5 48q67 55 132 55q43 0 72.5 -22z" />
    <glyph glyph-name="uni00B3" unicode="&#xb3;" horiz-adv-x="307" 
d="M264 681.5q31 -22.5 31 -57.5q0 -28 -19.5 -54.5t-56.5 -41.5l-1 -3q69 -18 69 -82q0 -55 -48 -89.5t-124 -34.5q-39 0 -67 7l2 46l5 3q46 -8 67 -8q47 0 75.5 20t28.5 53q0 52 -72 55h-41l-4 4l7 43h30q30 0 57 21t27 50q0 19 -14 30t-37 11q-38 0 -85 -32h-7l-5 43
q30 20 54.5 29.5t52.5 9.5q44 0 75 -22.5z" />
    <glyph glyph-name="acute" unicode="&#xb4;" horiz-adv-x="377" 
d="M307 694l28 -39l-2 -9q-100 -79 -168 -127l-9 1l-21 30q92 75 163 145z" />
    <glyph glyph-name="uni00B5" unicode="&#xb5;" horiz-adv-x="466" 
d="M423 463l-50 -354l-4 -106l-76 -7l31 224h-7q-46 -78 -84.5 -130.5t-81.5 -93.5h-11q-22 9 -36 28l-9 -209l-76 -7l77 551l5 97l73 7l-48 -355q-2 -15 3.5 -22.5t16.5 -7.5q29 0 80 72t118 209l5 97z" />
    <glyph glyph-name="paragraph" unicode="&#xb6;" horiz-adv-x="484" 
d="M506 633l-12 -52h-74l-52 -400l-6 -52q-8 -66 -50.5 -115t-130.5 -90l-19 34l2 9q61 35 91.5 72.5t35.5 84.5l6 45l49 413h-59q-68 -6 -106 -48.5t-38 -111.5q0 -55 30.5 -93t88.5 -54l-30 -44q-81 17 -124 64.5t-43 121.5q0 104 67.5 163.5t183.5 59.5h185z" />
    <glyph glyph-name="periodcentered" unicode="&#xb7;" horiz-adv-x="229" 
d="M148 278q11 -11 11 -31q0 -21 -12 -34t-32 -13t-31.5 12t-11.5 32t12 32.5t33 12.5q20 0 31 -11z" />
    <glyph glyph-name="cedilla" unicode="&#xb8;" horiz-adv-x="385" 
d="M151 -52l34 -20q38 -20 38 -55q0 -29 -22 -47t-57 -18q-43 0 -72 31l8 38l5 2q13 -16 25.5 -23.5t29.5 -7.5q15 0 24 7t9 20q0 9 -5.5 14.5t-16.5 10.5l-47 29l24 90h44z" />
    <glyph glyph-name="uni00B9" unicode="&#xb9;" horiz-adv-x="257" 
d="M225 698l-31 -242l-15 -133h-63l17 126l22 185l-89 -22l-4 4l6 49l150 40z" />
    <glyph glyph-name="ordmasculine" unicode="&#xba;" horiz-adv-x="296" 
d="M220 647q76 -12 76 -102q0 -94 -40.5 -151.5t-110.5 -61.5l-6 1q-77 8 -77 105q0 91 40.5 148.5t110.5 60.5h7zM141 557.5q-22 -44.5 -22 -119.5q0 -33 8.5 -47.5t28.5 -14.5q40 0 61 43.5t21 120.5q0 33 -8 47.5t-27 14.5q-40 0 -62 -44.5z" />
    <glyph glyph-name="guillemotright" unicode="&#xbb;" horiz-adv-x="394" 
d="M337 232l-2 -16l-166 -169l-34 20v10l144 149l-107 150l2 9l38 21zM173 232l-2 -16l-166 -169l-34 20v10l144 149l-107 150l2 9l38 21z" />
    <glyph glyph-name="onequarter" unicode="&#xbc;" horiz-adv-x="698" 
d="M217 639l-31 -242l-15 -133h-63l17 126l22 185l-89 -22l-4 4l6 49l150 40zM604 658l4 -13l-564 -736l-30 19l-4 12l564 737zM645 101l-60 2l-9 -98l-4 -5l-51 -3l-3 4l14 102h-119l-49 -2l-4 6l5 40l196 230h58l-29 -226h60l4 -6zM423 151h116l20 154h-5z" />
    <glyph glyph-name="onehalf" unicode="&#xbd;" horiz-adv-x="705" 
d="M217 639l-31 -242l-15 -133h-63l17 126l22 185l-89 -22l-4 4l6 49l150 40zM604 658l4 -13l-564 -736l-30 19l-4 12l564 737zM616.5 358q29.5 -22 29.5 -57q0 -31 -23.5 -65t-82.5 -96l-82 -88l1 -2h131l65 3l2 -6l-12 -50l-80 3h-166l-27 -1l-4 3l4 38l114 115
q52 54 73 81.5t21 50.5q0 18 -13 30t-37 12q-25 0 -53 -14t-53 -38h-7l-5 48q67 55 132 55q43 0 72.5 -22z" />
    <glyph glyph-name="threequarters" unicode="&#xbe;" horiz-adv-x="735" 
d="M256.5 622.5q30.5 -22.5 30.5 -57.5q0 -28 -19.5 -54.5t-56.5 -41.5l-1 -3q69 -18 69 -82q0 -55 -48 -89.5t-124 -34.5q-39 0 -67 7l2 46l5 3q46 -8 67 -8q47 0 75.5 20t28.5 53q0 52 -72 55h-41l-4 4l7 43h30q30 0 57 21t27 50q0 19 -14 30t-37 11q-38 0 -85 -32h-7
l-5 43q30 20 54.5 29.5t52.5 9.5q45 0 75.5 -22.5zM641 658l4 -13l-564 -736l-30 19l-4 12l564 737zM682 101l-60 2l-9 -98l-4 -5l-51 -3l-3 4l14 102h-119l-49 -2l-4 6l5 40l196 230h58l-29 -226h60l4 -6zM460 151h116l20 154h-5z" />
    <glyph glyph-name="questiondown" unicode="&#xbf;" horiz-adv-x="331" 
d="M25.5 -153.5q-60.5 37.5 -60.5 100.5q0 42 27 80t75 66l91 55l2 4l7 97l54 6l4 -7l-6 -119l-6 -9l-103 -59q-75 -41 -75 -103q0 -45 46 -72t139 -33l4 -7l-19 -39l-10 -5q-109 7 -169.5 44.5zM174 390q-11 11 -11 31q0 21 12 34t32 13t31.5 -12t11.5 -32t-12.5 -32.5
t-33.5 -12.5q-19 0 -30 11z" />
    <glyph glyph-name="Agrave" unicode="&#xc0;" horiz-adv-x="548" 
d="M500 0h-76l-6 62l-21 115l-136 2l-123 -2l-52 -111l-25 -66h-75l304 640h86zM385 241l-60 321h-7l-150 -321l106 -1zM435 758l-14 -34l-9 -4l-44 19q-89 38 -149 67l-3 9l20 44l8 2q94 -55 191 -103z" />
    <glyph glyph-name="Aacute" unicode="&#xc1;" horiz-adv-x="548" 
d="M500 0h-76l-6 62l-21 115l-136 2l-123 -2l-52 -111l-25 -66h-75l304 640h86zM385 241l-60 321h-7l-150 -321l106 -1zM439 859l20 -44l-3 -9q-60 -29 -149 -67l-44 -19l-9 4l-14 34q106 53 191 103z" />
    <glyph glyph-name="Acircumflex" unicode="&#xc2;" horiz-adv-x="548" 
d="M500 0h-76l-6 62l-21 115l-136 2l-123 -2l-52 -111l-25 -66h-75l304 640h86zM385 241l-60 321h-7l-150 -321l106 -1zM218 757q58 37 121 90h22q51 -48 108 -90l-18 -32h-9q-69 47 -94 66q-30 -19 -110 -66h-9z" />
    <glyph glyph-name="Atilde" unicode="&#xc3;" horiz-adv-x="548" 
d="M500 0h-76l-6 62l-21 115l-136 2l-123 -2l-52 -111l-25 -66h-75l304 640h86zM385 241l-60 321h-7l-150 -321l106 -1zM503 822v-7l-61 -67l-9 -4q-21 2 -81 20q-59 17 -74 17q-8 0 -16.5 -7t-24.5 -24l-15 -15h-9l-23 25v7l61 67l9 3q24 -2 83 -20q7 -2 34 -9t38 -7
q8 0 17 7.5t21 19.5l19 19h7z" />
    <glyph glyph-name="Adieresis" unicode="&#xc4;" horiz-adv-x="548" 
d="M500 0h-76l-6 62l-21 115l-136 2l-123 -2l-52 -111l-25 -66h-75l304 640h86zM385 241l-60 321h-7l-150 -321l106 -1zM295.5 818q10.5 -10 10.5 -28q0 -19 -11.5 -30.5t-29.5 -11.5q-19 0 -29 10.5t-10 28.5q0 19 11 30t30 11q18 0 28.5 -10zM458.5 818q10.5 -10 10.5 -28
q0 -19 -11 -30.5t-30 -11.5q-18 0 -28 10.5t-10 28.5q0 19 10.5 30t29.5 11q18 0 28.5 -10z" />
    <glyph glyph-name="Aring" unicode="&#xc5;" horiz-adv-x="548" 
d="M500 0h-76l-6 62l-21 115l-136 2l-123 -2l-52 -111l-25 -66h-75l304 640h86zM385 241l-60 321h-7l-150 -321l106 -1zM408.5 854.5q21.5 -22.5 21.5 -57.5q0 -39 -24 -61t-60 -22t-58.5 21.5t-22.5 59.5q0 37 22 59.5t61 22.5t60.5 -22.5zM313.5 828q-11.5 -11 -11.5 -32
q0 -22 12.5 -34t33.5 -12q20 0 32.5 11.5t12.5 32.5q0 20 -12 32.5t-34 12.5t-33.5 -11z" />
    <glyph glyph-name="AE" unicode="&#xc6;" horiz-adv-x="766" 
d="M730 59l-13 -59h-329l2 62l-3 199l-231 -53l-89 -142l-32 -66h-78l402 640h352l4 -7l-14 -59l-153 4h-92l3 -242l210 45l5 -6l-2 -55l-213 -43l3 -216h108l156 5zM386 320l-4 242h-5l-176 -282z" />
    <glyph glyph-name="Ccedilla" unicode="&#xc7;" horiz-adv-x="500" 
d="M449 633.5q42 -12.5 74 -36.5l-24 -69l-8 -2q-58 56 -140 56q-108 0 -167 -82.5t-59 -233.5q0 -101 41 -154.5t117 -53.5q42 0 85.5 16t81.5 45l9 -5l-16 -71q-86 -50 -172 -50q-107 0 -165.5 68.5t-58.5 193.5q0 121 37 209t107.5 135t168.5 47q47 0 89 -12.5zM302 -52
l34 -20q38 -20 38 -55q0 -29 -22 -47t-57 -18q-43 0 -72 31l8 38l5 2q13 -16 25.5 -23.5t29.5 -7.5q15 0 24 7t9 20q0 9 -5.5 14.5t-16.5 10.5l-47 29l24 90h44z" />
    <glyph glyph-name="Egrave" unicode="&#xc8;" horiz-adv-x="461" 
d="M210 576l-28 -216l115 -2l100 3l5 -7l-14 -58l-106 2l-109 -1l-13 -98l-14 -135l122 -2l145 4l3 -7l-13 -59h-340l29 193l52 447h341l3 -7l-13 -59l-142 4zM416 758l-14 -34l-9 -4l-44 19q-89 38 -149 67l-3 9l20 44l8 2q94 -55 191 -103z" />
    <glyph glyph-name="Eacute" unicode="&#xc9;" horiz-adv-x="461" 
d="M210 576l-28 -216l115 -2l100 3l5 -7l-14 -58l-106 2l-109 -1l-13 -98l-14 -135l122 -2l145 4l3 -7l-13 -59h-340l29 193l52 447h341l3 -7l-13 -59l-142 4zM420 859l20 -44l-3 -9q-60 -29 -149 -67l-44 -19l-9 4l-14 34q106 53 191 103z" />
    <glyph glyph-name="Ecircumflex" unicode="&#xca;" horiz-adv-x="461" 
d="M210 576l-28 -216l115 -2l100 3l5 -7l-14 -58l-106 2l-109 -1l-13 -98l-14 -135l122 -2l145 4l3 -7l-13 -59h-340l29 193l52 447h341l3 -7l-13 -59l-142 4zM199 757q58 37 121 90h22q51 -48 108 -90l-18 -32h-9q-69 47 -94 66q-30 -19 -110 -66h-9z" />
    <glyph glyph-name="Edieresis" unicode="&#xcb;" horiz-adv-x="461" 
d="M210 576l-28 -216l115 -2l100 3l5 -7l-14 -58l-106 2l-109 -1l-13 -98l-14 -135l122 -2l145 4l3 -7l-13 -59h-340l29 193l52 447h341l3 -7l-13 -59l-142 4zM276.5 818q10.5 -10 10.5 -28q0 -19 -11.5 -30.5t-29.5 -11.5q-19 0 -29 10.5t-10 28.5q0 19 11 30t30 11
q18 0 28.5 -10zM439.5 818q10.5 -10 10.5 -28q0 -19 -11 -30.5t-30 -11.5q-18 0 -28 10.5t-10 28.5q0 19 10.5 30t29.5 11q18 0 28.5 -10z" />
    <glyph glyph-name="Igrave" unicode="&#xcc;" horiz-adv-x="259" 
d="M159 199l-20 -199h-76l29 193l51 447h76zM287 758l-14 -34l-9 -4l-44 19q-89 38 -149 67l-3 9l20 44l8 2q94 -55 191 -103z" />
    <glyph glyph-name="Iacute" unicode="&#xcd;" horiz-adv-x="259" 
d="M159 199l-20 -199h-76l29 193l51 447h76zM291 859l20 -44l-3 -9q-60 -29 -149 -67l-44 -19l-9 4l-14 34q106 53 191 103z" />
    <glyph glyph-name="Icircumflex" unicode="&#xce;" horiz-adv-x="259" 
d="M159 199l-20 -199h-76l29 193l51 447h76zM70 757q58 37 121 90h22q51 -48 108 -90l-18 -32h-9q-69 47 -94 66q-30 -19 -110 -66h-9z" />
    <glyph glyph-name="Eth" unicode="&#xd0;" horiz-adv-x="644" 
d="M559 580q63 -65 63 -185q0 -124 -38.5 -214t-113.5 -138.5t-181 -48.5q-39 0 -96.5 1.5t-105.5 4.5h-1l29 193l52 447h1l213 5q115 0 178 -65zM480.5 140.5q62.5 83.5 62.5 240.5q0 100 -43 150.5t-127 50.5q-25 0 -65 -1t-74 -3l-52 -379l-14 -136q92 -6 136 -6
q114 0 176.5 83.5zM362.017 345l-5.80762 -47h-322.662l-3.22656 6l6.45312 47h322.662z" />
    <glyph glyph-name="Ntilde" unicode="&#xd1;" horiz-adv-x="653" 
d="M553 187l-21 -187h-78l-251 520h-7l-39 -310l-23 -210h-71l28 190l54 450h78l251 -520h6l64 517l71 5zM553 822v-7l-61 -67l-9 -4q-21 2 -81 20q-59 17 -74 17q-8 0 -16.5 -7t-24.5 -24l-15 -15h-9l-23 25v7l61 67l9 3q24 -2 83 -20q7 -2 34 -9t38 -7q8 0 17 7.5t21 19.5
l19 19h7z" />
    <glyph glyph-name="Ograve" unicode="&#xd2;" horiz-adv-x="611" 
d="M530 580q60 -67 60 -189q0 -123 -37 -213t-107.5 -138t-170.5 -48q-107 0 -167.5 69.5t-60.5 193.5q0 185 81.5 288.5t231.5 103.5q110 0 170 -67zM180.5 501q-56.5 -83 -56.5 -241q0 -205 158 -205q114 0 171.5 84t57.5 243q0 202 -160 202q-114 0 -170.5 -83zM463 758
l-14 -34l-9 -4l-44 19q-89 38 -149 67l-3 9l20 44l8 2q94 -55 191 -103z" />
    <glyph glyph-name="Oacute" unicode="&#xd3;" horiz-adv-x="611" 
d="M530 580q60 -67 60 -189q0 -123 -37 -213t-107.5 -138t-170.5 -48q-107 0 -167.5 69.5t-60.5 193.5q0 185 81.5 288.5t231.5 103.5q110 0 170 -67zM180.5 501q-56.5 -83 -56.5 -241q0 -205 158 -205q114 0 171.5 84t57.5 243q0 202 -160 202q-114 0 -170.5 -83zM467 859
l20 -44l-3 -9q-60 -29 -149 -67l-44 -19l-9 4l-14 34q106 53 191 103z" />
    <glyph glyph-name="Ocircumflex" unicode="&#xd4;" horiz-adv-x="611" 
d="M530 580q60 -67 60 -189q0 -123 -37 -213t-107.5 -138t-170.5 -48q-107 0 -167.5 69.5t-60.5 193.5q0 185 81.5 288.5t231.5 103.5q110 0 170 -67zM180.5 501q-56.5 -83 -56.5 -241q0 -205 158 -205q114 0 171.5 84t57.5 243q0 202 -160 202q-114 0 -170.5 -83zM246 757
q58 37 121 90h22q51 -48 108 -90l-18 -32h-9q-69 47 -94 66q-30 -19 -110 -66h-9z" />
    <glyph glyph-name="Otilde" unicode="&#xd5;" horiz-adv-x="611" 
d="M530 580q60 -67 60 -189q0 -123 -37 -213t-107.5 -138t-170.5 -48q-107 0 -167.5 69.5t-60.5 193.5q0 185 81.5 288.5t231.5 103.5q110 0 170 -67zM180.5 501q-56.5 -83 -56.5 -241q0 -205 158 -205q114 0 171.5 84t57.5 243q0 202 -160 202q-114 0 -170.5 -83zM531 822
v-7l-61 -67l-9 -4q-21 2 -81 20q-59 17 -74 17q-8 0 -16.5 -7t-24.5 -24l-15 -15h-9l-23 25v7l61 67l9 3q24 -2 83 -20q7 -2 34 -9t38 -7q8 0 17 7.5t21 19.5l19 19h7z" />
    <glyph glyph-name="multiply" unicode="&#xd7;" horiz-adv-x="481" 
d="M423 399l-1 -9l-139 -124l108 -125l-1 -8l-40 -31l-110 125l-142 -125l-32 31l1 7l141 126l-110 124l1 9l39 30l112 -126l140 126z" />
    <glyph glyph-name="Oslash" unicode="&#xd8;" horiz-adv-x="612" 
d="M590 391q0 -123 -37 -213t-107.5 -138t-170.5 -48q-58 0 -103 21l-65 -114l-43 16l-3 8l67 118q-39 33 -60 87.5t-21 126.5q0 185 81.5 288.5t231.5 103.5q58 0 102 -19l53 94l44 -16l3 -9l-55 -96q83 -66 83 -210zM165 105l263 463q-32 16 -77 16q-114 0 -170.5 -83
t-56.5 -241q0 -102 41 -155zM453.5 139q57.5 84 57.5 243q0 103 -41 153l-265 -463q34 -17 77 -17q114 0 171.5 84z" />
    <glyph glyph-name="Ugrave" unicode="&#xd9;" horiz-adv-x="597" 
d="M534 315l-9 -73q-12 -119 -77 -184t-176 -65q-95 0 -149 49t-54 138q0 29 4 54l12 87l39 319h73l-53 -397q-3 -24 -3 -45q0 -69 34.5 -103.5t101.5 -34.5q78 0 123.5 43.5t55.5 130.5l46 406h75zM456 758l-14 -34l-9 -4l-44 19q-89 38 -149 67l-3 9l20 44l8 2
q94 -55 191 -103z" />
    <glyph glyph-name="Uacute" unicode="&#xda;" horiz-adv-x="597" 
d="M534 315l-9 -73q-12 -119 -77 -184t-176 -65q-95 0 -149 49t-54 138q0 29 4 54l12 87l39 319h73l-53 -397q-3 -24 -3 -45q0 -69 34.5 -103.5t101.5 -34.5q78 0 123.5 43.5t55.5 130.5l46 406h75zM460 859l20 -44l-3 -9q-60 -29 -149 -67l-44 -19l-9 4l-14 34
q106 53 191 103z" />
    <glyph glyph-name="Ucircumflex" unicode="&#xdb;" horiz-adv-x="597" 
d="M534 315l-9 -73q-12 -119 -77 -184t-176 -65q-95 0 -149 49t-54 138q0 29 4 54l12 87l39 319h73l-53 -397q-3 -24 -3 -45q0 -69 34.5 -103.5t101.5 -34.5q78 0 123.5 43.5t55.5 130.5l46 406h75zM239 757q58 37 121 90h22q51 -48 108 -90l-18 -32h-9q-69 47 -94 66
q-30 -19 -110 -66h-9z" />
    <glyph glyph-name="Udieresis" unicode="&#xdc;" horiz-adv-x="597" 
d="M534 315l-9 -73q-12 -119 -77 -184t-176 -65q-95 0 -149 49t-54 138q0 29 4 54l12 87l39 319h73l-53 -397q-3 -24 -3 -45q0 -69 34.5 -103.5t101.5 -34.5q78 0 123.5 43.5t55.5 130.5l46 406h75zM318.5 818q10.5 -10 10.5 -28q0 -19 -11.5 -30.5t-29.5 -11.5
q-19 0 -29 10.5t-10 28.5q0 19 11 30t30 11q18 0 28.5 -10zM481.5 818q10.5 -10 10.5 -28q0 -19 -11 -30.5t-30 -11.5q-18 0 -28 10.5t-10 28.5q0 19 10.5 30t29.5 11q18 0 28.5 -10z" />
    <glyph glyph-name="Thorn" unicode="&#xde;" horiz-adv-x="502" 
d="M436.5 487.5q45.5 -41.5 45.5 -123.5q0 -72 -31 -128.5t-88.5 -88.5t-135.5 -32h-76l-12 -115h-75l28 193l53 447h74l-15 -112l106 1q81 0 126.5 -41.5zM368 232.5q37 48.5 37 121.5q0 54 -26.5 82t-85.5 31l-97 -2l-36 -266l-2 -21l112 -2q61 8 98 56.5z" />
    <glyph glyph-name="germandbls" unicode="&#xdf;" horiz-adv-x="550" 
d="M378 310.5q15 -18.5 47 -45.5q40 -34 61.5 -62.5t21.5 -70.5q0 -39 -21.5 -70.5t-60 -50.5t-87.5 -19q-55 6 -103 34l16 67l10 5q21 -26 46.5 -40.5t52.5 -14.5q35 0 58.5 21.5t23.5 53.5q0 25 -15.5 44t-48.5 47q-40 34 -60.5 61t-20.5 68q0 44 17.5 72.5t50.5 61.5
q29 29 43 50t14 52q0 71 -86 71q-49 0 -81.5 -25.5t-41.5 -73.5l-46 -347l-30 -213l-5 -107l-75 -6l44 317l29 210h-70l-5 5l7 45h74l11 78q11 85 62 130.5t134 45.5q70 0 108.5 -31.5t38.5 -89.5q0 -44 -18.5 -73.5t-53.5 -62.5q-29 -28 -42.5 -48t-13.5 -47
q0 -23 15 -41.5z" />
    <glyph glyph-name="agrave" unicode="&#xe0;" horiz-adv-x="439" 
d="M391 460l-49 -351l-5 -106l-76 -7l29 205h-10q-73 -128 -157 -208h-14q-76 43 -76 157q0 72 27 140t79.5 115.5t127.5 59.5h5l62 -23l48 24zM171.5 108q29.5 33 67 96t73.5 148l1 6l1 24l-62 22q-46 0 -80.5 -31.5t-52.5 -85t-18 -118.5q0 -50 9 -72t20 -22q12 0 41.5 33
zM329 551l-21 -30l-9 -1q-68 48 -168 127l-2 9l28 39l9 1q71 -70 163 -145z" />
    <glyph glyph-name="aacute" unicode="&#xe1;" horiz-adv-x="439" 
d="M391 460l-49 -351l-5 -106l-76 -7l29 205h-10q-73 -128 -157 -208h-14q-76 43 -76 157q0 72 27 140t79.5 115.5t127.5 59.5h5l62 -23l48 24zM171.5 108q29.5 33 67 96t73.5 148l1 6l1 24l-62 22q-46 0 -80.5 -31.5t-52.5 -85t-18 -118.5q0 -50 9 -72t20 -22q12 0 41.5 33
zM339 695l28 -39l-2 -9q-100 -79 -168 -127l-9 1l-21 30q92 75 163 145z" />
    <glyph glyph-name="acircumflex" unicode="&#xe2;" horiz-adv-x="439" 
d="M391 460l-49 -351l-5 -106l-76 -7l29 205h-10q-73 -128 -157 -208h-14q-76 43 -76 157q0 72 27 140t79.5 115.5t127.5 59.5h5l62 -23l48 24zM171.5 108q29.5 33 67 96t73.5 148l1 6l1 24l-62 22q-46 0 -80.5 -31.5t-52.5 -85t-18 -118.5q0 -50 9 -72t20 -22q12 0 41.5 33
zM131 553q39 36 132 133h24q49 -72 106 -133l-25 -31h-8q-58 63 -89 106q-42 -43 -115 -106h-9z" />
    <glyph glyph-name="atilde" unicode="&#xe3;" horiz-adv-x="439" 
d="M391 460l-49 -351l-5 -106l-76 -7l29 205h-10q-73 -128 -157 -208h-14q-76 43 -76 157q0 72 27 140t79.5 115.5t127.5 59.5h5l62 -23l48 24zM171.5 108q29.5 33 67 96t73.5 148l1 6l1 24l-62 22q-46 0 -80.5 -31.5t-52.5 -85t-18 -118.5q0 -50 9 -72t20 -22q12 0 41.5 33
zM422 641v-7l-61 -67l-9 -4q-21 2 -81 20q-59 17 -74 17q-8 0 -16.5 -7t-24.5 -24l-15 -15h-9l-23 25v7l61 67l9 3q24 -2 83 -20q7 -2 34 -9t38 -7q8 0 17 7.5t21 19.5l19 19h7z" />
    <glyph glyph-name="adieresis" unicode="&#xe4;" horiz-adv-x="439" 
d="M391 460l-49 -351l-5 -106l-76 -7l29 205h-10q-73 -128 -157 -208h-14q-76 43 -76 157q0 72 27 140t79.5 115.5t127.5 59.5h5l62 -23l48 24zM171.5 108q29.5 33 67 96t73.5 148l1 6l1 24l-62 22q-46 0 -80.5 -31.5t-52.5 -85t-18 -118.5q0 -50 9 -72t20 -22q12 0 41.5 33
zM214.5 637q10.5 -10 10.5 -28q0 -19 -11.5 -30.5t-29.5 -11.5q-19 0 -29 10.5t-10 28.5q0 19 11 30t30 11q18 0 28.5 -10zM377.5 637q10.5 -10 10.5 -28q0 -19 -11 -30.5t-30 -11.5q-18 0 -28 10.5t-10 28.5q0 19 10.5 30t29.5 11q18 0 28.5 -10z" />
    <glyph glyph-name="aring" unicode="&#xe5;" horiz-adv-x="439" 
d="M391 460l-49 -351l-5 -106l-76 -7l29 205h-10q-73 -128 -157 -208h-14q-76 43 -76 157q0 72 27 140t79.5 115.5t127.5 59.5h5l62 -23l48 24zM171.5 108q29.5 33 67 96t73.5 148l1 6l1 24l-62 22q-46 0 -80.5 -31.5t-52.5 -85t-18 -118.5q0 -50 9 -72t20 -22q12 0 41.5 33
zM327.5 673.5q21.5 -22.5 21.5 -57.5q0 -39 -24 -61t-60 -22t-58.5 21.5t-22.5 59.5q0 37 22 59.5t61 22.5t60.5 -22.5zM232.5 647q-11.5 -11 -11.5 -32q0 -22 12.5 -34t33.5 -12q20 0 32.5 11.5t12.5 32.5q0 20 -12 32.5t-34 12.5t-33.5 -11z" />
    <glyph glyph-name="ae" unicode="&#xe6;" horiz-adv-x="614" 
d="M494 466l9 -1q86 -13 86 -89q0 -58 -60.5 -108t-188.5 -94v-13q2 -54 18 -79.5t47 -25.5q34 0 67 26.5t54 67.5l12 -1l25 -35q-70 -101 -157 -121h-12q-67 7 -95.5 48.5t-28.5 118.5q0 2 -0.5 9t0.5 10q-66 -111 -146 -186h-14q-77 43 -77 157q0 72 27 140t80.5 115.5
t129.5 59.5h4l106 -39q49 37 114 40zM388.5 362.5q-35.5 -49.5 -45.5 -132.5q88 28 133.5 64t45.5 77q0 19 -12 30t-35 11q-51 0 -86.5 -49.5zM173 372.5q-35 -31.5 -53.5 -85t-18.5 -117.5q0 -51 9 -73t21 -22t39 30t62.5 87.5t69.5 134.5q13 28 28 48l-75 29
q-47 0 -82 -31.5z" />
    <glyph glyph-name="ccedilla" unicode="&#xe7;" horiz-adv-x="336" 
d="M333 444l6 -11l-20 -59l-16 -3q-19 20 -34.5 27.5t-32.5 7.5q-60 0 -95 -63t-35 -172q0 -62 14 -88.5t44 -26.5q53 0 104 90l11 -1l23 -32q-31 -53 -64.5 -80t-78.5 -40h-12q-58 10 -84.5 45.5t-26.5 119.5q0 134 58.5 220t174.5 86zM177 -52l34 -20q38 -20 38 -55
q0 -29 -22 -47t-57 -18q-43 0 -72 31l8 38l5 2q13 -16 25.5 -23.5t29.5 -7.5q15 0 24 7t9 20q0 9 -5.5 14.5t-16.5 10.5l-47 29l24 90h44z" />
    <glyph glyph-name="egrave" unicode="&#xe8;" horiz-adv-x="378" 
d="M302 139l24 -31q-32 -49 -70 -77t-86 -38h-12q-64 8 -93.5 47t-29.5 116q0 88 28.5 158t78 110t113.5 42l8 -1q43 -5 65.5 -28t22.5 -61q0 -60 -62 -110.5t-184 -88.5q0 -63 16.5 -92t51.5 -29q30 0 57.5 20t59.5 64zM152.5 362.5q-35.5 -49.5 -44.5 -132.5
q86 28 130.5 63.5t44.5 77.5q0 41 -44 41q-51 0 -86.5 -49.5zM315 551l-21 -30l-9 -1q-68 48 -168 127l-2 9l28 39l9 1q71 -70 163 -145z" />
    <glyph glyph-name="eacute" unicode="&#xe9;" horiz-adv-x="378" 
d="M302 139l24 -31q-32 -49 -70 -77t-86 -38h-12q-64 8 -93.5 47t-29.5 116q0 88 28.5 158t78 110t113.5 42l8 -1q43 -5 65.5 -28t22.5 -61q0 -60 -62 -110.5t-184 -88.5q0 -63 16.5 -92t51.5 -29q30 0 57.5 20t59.5 64zM152.5 362.5q-35.5 -49.5 -44.5 -132.5
q86 28 130.5 63.5t44.5 77.5q0 41 -44 41q-51 0 -86.5 -49.5zM325 695l28 -39l-2 -9q-100 -79 -168 -127l-9 1l-21 30q92 75 163 145z" />
    <glyph glyph-name="ecircumflex" unicode="&#xea;" horiz-adv-x="378" 
d="M302 139l24 -31q-32 -49 -70 -77t-86 -38h-12q-64 8 -93.5 47t-29.5 116q0 88 28.5 158t78 110t113.5 42l8 -1q43 -5 65.5 -28t22.5 -61q0 -60 -62 -110.5t-184 -88.5q0 -63 16.5 -92t51.5 -29q30 0 57.5 20t59.5 64zM152.5 362.5q-35.5 -49.5 -44.5 -132.5
q86 28 130.5 63.5t44.5 77.5q0 41 -44 41q-51 0 -86.5 -49.5zM117 553q39 36 132 133h24q49 -72 106 -133l-25 -31h-8q-58 63 -89 106q-42 -43 -115 -106h-9z" />
    <glyph glyph-name="edieresis" unicode="&#xeb;" horiz-adv-x="378" 
d="M302 139l24 -31q-32 -49 -70 -77t-86 -38h-12q-64 8 -93.5 47t-29.5 116q0 88 28.5 158t78 110t113.5 42l8 -1q43 -5 65.5 -28t22.5 -61q0 -60 -62 -110.5t-184 -88.5q0 -63 16.5 -92t51.5 -29q30 0 57.5 20t59.5 64zM152.5 362.5q-35.5 -49.5 -44.5 -132.5
q86 28 130.5 63.5t44.5 77.5q0 41 -44 41q-51 0 -86.5 -49.5zM200.5 637q10.5 -10 10.5 -28q0 -19 -11.5 -30.5t-29.5 -11.5q-19 0 -29 10.5t-10 28.5q0 19 11 30t30 11q18 0 28.5 -10zM363.5 637q10.5 -10 10.5 -28q0 -19 -11 -30.5t-30 -11.5q-18 0 -28 10.5t-10 28.5
q0 19 10.5 30t29.5 11q18 0 28.5 -10z" />
    <glyph glyph-name="igrave" unicode="&#xec;" horiz-adv-x="218" 
d="M124 109l-4 -106l-76 -7l52 363l4 97l74 7zM217 550l-21 -30l-9 -1q-68 48 -168 127l-2 9l28 39l9 1q71 -70 163 -145z" />
    <glyph glyph-name="iacute" unicode="&#xed;" horiz-adv-x="218" 
d="M124 109l-4 -106l-76 -7l52 363l4 97l74 7zM227 694l28 -39l-2 -9q-100 -79 -168 -127l-9 1l-21 30q92 75 163 145z" />
    <glyph glyph-name="icircumflex" unicode="&#xee;" horiz-adv-x="218" 
d="M124 109l-4 -106l-76 -7l52 363l4 97l74 7zM19 552q39 36 132 133h24q49 -72 106 -133l-25 -31h-8q-58 63 -89 106q-42 -43 -115 -106h-9z" />
    <glyph glyph-name="eth" unicode="&#xf0;" horiz-adv-x="437" 
d="M287 592q50 -56 76 -126t26 -149q0 -92 -26.5 -164t-76 -114t-117.5 -48l-9 1q-58 11 -86 48t-28 109q0 88 27 157t77 109.5t117 43.5h8q12 -2 19 -4q-24 59 -71 106l-127 -61l-6 3l-11 37l108 53q-47 37 -113 66l1 10l50 36h5q74 -34 123 -80l120 59l7 -3l12 -38z
M283 118.5q37 70.5 38 190.5q0 31 -5 68q-17 31 -59 31q-68 0 -106 -70t-38 -188q0 -54 15.5 -78t49.5 -24q68 0 105 70.5z" />
    <glyph glyph-name="ntilde" unicode="&#xf1;" horiz-adv-x="467" 
d="M393.5 434.5q21.5 -22.5 20.5 -56.5l-1 -13l-41 -257l-6 -105l-77 -7l55 342l1 13q0 31 -21 31q-29 0 -81.5 -73t-117.5 -208l-5 -98l-76 -7l52 363l5 97l74 7l-32 -225h9q51 87 91 140.5t83 86.5h11q35 -8 56.5 -30.5zM438 640v-7l-61 -67l-9 -4q-21 2 -81 20
q-59 17 -74 17q-8 0 -16.5 -7t-24.5 -24l-15 -15h-9l-23 25v7l61 67l9 3q24 -2 83 -20q7 -2 34 -9t38 -7q8 0 17 7.5t21 19.5l19 19h7z" />
    <glyph glyph-name="ograve" unicode="&#xf2;" horiz-adv-x="411" 
d="M266 466q55 -9 82.5 -46t27.5 -106q0 -92 -26 -163t-75.5 -112.5t-117.5 -47.5l-9 1q-57 11 -84.5 48t-27.5 109q0 90 27 160.5t77.5 111.5t117.5 45h8zM141 336q-36 -69 -36 -186q0 -52 14 -75.5t47 -23.5q67 0 103 70t36 188q0 51 -14 73.5t-46 22.5q-68 0 -104 -69z
M325 550l-21 -30l-9 -1q-68 48 -168 127l-2 9l28 39l9 1q71 -70 163 -145z" />
    <glyph glyph-name="oacute" unicode="&#xf3;" horiz-adv-x="411" 
d="M266 466q55 -9 82.5 -46t27.5 -106q0 -92 -26 -163t-75.5 -112.5t-117.5 -47.5l-9 1q-57 11 -84.5 48t-27.5 109q0 90 27 160.5t77.5 111.5t117.5 45h8zM141 336q-36 -69 -36 -186q0 -52 14 -75.5t47 -23.5q67 0 103 70t36 188q0 51 -14 73.5t-46 22.5q-68 0 -104 -69z
M335 694l28 -39l-2 -9q-100 -79 -168 -127l-9 1l-21 30q92 75 163 145z" />
    <glyph glyph-name="ocircumflex" unicode="&#xf4;" horiz-adv-x="411" 
d="M266 466q55 -9 82.5 -46t27.5 -106q0 -92 -26 -163t-75.5 -112.5t-117.5 -47.5l-9 1q-57 11 -84.5 48t-27.5 109q0 90 27 160.5t77.5 111.5t117.5 45h8zM141 336q-36 -69 -36 -186q0 -52 14 -75.5t47 -23.5q67 0 103 70t36 188q0 51 -14 73.5t-46 22.5q-68 0 -104 -69z
M127 552q39 36 132 133h24q49 -72 106 -133l-25 -31h-8q-58 63 -89 106q-42 -43 -115 -106h-9z" />
    <glyph glyph-name="otilde" unicode="&#xf5;" horiz-adv-x="411" 
d="M266 466q55 -9 82.5 -46t27.5 -106q0 -92 -26 -163t-75.5 -112.5t-117.5 -47.5l-9 1q-57 11 -84.5 48t-27.5 109q0 90 27 160.5t77.5 111.5t117.5 45h8zM141 336q-36 -69 -36 -186q0 -52 14 -75.5t47 -23.5q67 0 103 70t36 188q0 51 -14 73.5t-46 22.5q-68 0 -104 -69z
M418 640v-7l-61 -67l-9 -4q-21 2 -81 20q-59 17 -74 17q-8 0 -16.5 -7t-24.5 -24l-15 -15h-9l-23 25v7l61 67l9 3q24 -2 83 -20q7 -2 34 -9t38 -7q8 0 17 7.5t21 19.5l19 19h7z" />
    <glyph glyph-name="divide" unicode="&#xf7;" horiz-adv-x="478" 
d="M452 286l-5 -47h-407l-5 6l4 47h407zM252.128 122.954q10.3906 -10.3896 10.3906 -29.2822q0 -19.8359 -11.335 -32.1152t-30.2266 -12.2793t-29.7549 11.335q-10.8623 11.335 -10.8623 30.2266t11.335 30.6982q11.335 11.8076 31.1709 11.8076
q18.8916 0 29.2822 -10.3906zM294.128 473.954q10.3906 -10.3896 10.3906 -29.2822q0 -19.8359 -11.335 -32.1152t-30.2266 -12.2793t-29.7549 11.335q-10.8623 11.335 -10.8623 30.2266t11.335 30.6982q11.335 11.8076 31.1709 11.8076q18.8916 0 29.2822 -10.3906z" />
    <glyph glyph-name="oslash" unicode="&#xf8;" horiz-adv-x="411" 
d="M376 314q0 -92 -26 -163t-75.5 -112.5t-117.5 -47.5l-9 1q-18 4 -26 7l-55 -114l-42 19l-3 7l56 113q-42 39 -42 125q0 90 27 160.5t77.5 111.5t117.5 45h8q6 -1 13.5 -3t11.5 -3l44 89l38 -18l5 -8l-43 -88q41 -38 41 -121zM111 93l152 310q-10 2 -18 2q-68 0 -104 -69
t-36 -186q0 -34 6 -57zM269 121q36 70 36 188q0 32 -6 53l-150 -309q10 -2 17 -2q67 0 103 70z" />
    <glyph glyph-name="ugrave" unicode="&#xf9;" horiz-adv-x="471" 
d="M422 463l-50 -354l-4 -106l-76 -7l31 224h-7q-49 -84 -89.5 -137t-84.5 -87h-11q-35 8 -56.5 30t-20.5 56l1 13l41 258l8 105l74 6l-53 -335l-2 -21q-1 -15 5 -22.5t16 -7.5q29 0 82 73t117 208l5 97zM345 550l-21 -30l-9 -1q-68 48 -168 127l-2 9l28 39l9 1
q71 -70 163 -145z" />
    <glyph glyph-name="uacute" unicode="&#xfa;" horiz-adv-x="471" 
d="M422 463l-50 -354l-4 -106l-76 -7l31 224h-7q-49 -84 -89.5 -137t-84.5 -87h-11q-35 8 -56.5 30t-20.5 56l1 13l41 258l8 105l74 6l-53 -335l-2 -21q-1 -15 5 -22.5t16 -7.5q29 0 82 73t117 208l5 97zM355 694l28 -39l-2 -9q-100 -79 -168 -127l-9 1l-21 30
q92 75 163 145z" />
    <glyph glyph-name="ucircumflex" unicode="&#xfb;" horiz-adv-x="471" 
d="M422 463l-50 -354l-4 -106l-76 -7l31 224h-7q-49 -84 -89.5 -137t-84.5 -87h-11q-35 8 -56.5 30t-20.5 56l1 13l41 258l8 105l74 6l-53 -335l-2 -21q-1 -15 5 -22.5t16 -7.5q29 0 82 73t117 208l5 97zM147 552q39 36 132 133h24q49 -72 106 -133l-25 -31h-8
q-58 63 -89 106q-42 -43 -115 -106h-9z" />
    <glyph glyph-name="udieresis" unicode="&#xfc;" horiz-adv-x="471" 
d="M422 463l-50 -354l-4 -106l-76 -7l31 224h-7q-49 -84 -89.5 -137t-84.5 -87h-11q-35 8 -56.5 30t-20.5 56l1 13l41 258l8 105l74 6l-53 -335l-2 -21q-1 -15 5 -22.5t16 -7.5q29 0 82 73t117 208l5 97zM230.5 636q10.5 -10 10.5 -28q0 -19 -11.5 -30.5t-29.5 -11.5
q-19 0 -29 10.5t-10 28.5q0 19 11 30t30 11q18 0 28.5 -10zM393.5 636q10.5 -10 10.5 -28q0 -19 -11 -30.5t-30 -11.5q-18 0 -28 10.5t-10 28.5q0 19 10.5 30t29.5 11q18 0 28.5 -10z" />
    <glyph glyph-name="thorn" unicode="&#xfe;" horiz-adv-x="440" 
d="M408 308q0 -72 -27 -140t-80 -116t-128 -59h-5l-53 12l-11 -80l-5 -110l-76 -7l110 791l4 98l74 6l-62 -448h11q74 129 158 210h15q75 -45 75 -157zM269 85q34 32 52.5 85.5t18.5 118.5q0 50 -9 71.5t-21 21.5q-11 0 -40.5 -33t-67 -95t-73.5 -146l-5 -37l64 -18
q47 0 81 32z" />
    <glyph glyph-name="ydieresis" unicode="&#xff;" horiz-adv-x="412" 
d="M401 382q0 -57 -40 -128l-142 -251q-60 -106 -110.5 -152t-111.5 -46q-33 0 -75 14l2 64l9 6q34 -9 63 -9q46 0 81 26.5t72 88.5l-91 460l74 8l11 -80l48 -294h10l98 180q33 57 33 108q0 34 -23 66l3 9l65 11q24 -44 24 -81zM200.5 637q10.5 -10 10.5 -28
q0 -19 -11.5 -30.5t-29.5 -11.5q-19 0 -29 10.5t-10 28.5q0 19 11 30t30 11q18 0 28.5 -10zM363.5 637q10.5 -10 10.5 -28q0 -19 -11 -30.5t-30 -11.5q-18 0 -28 10.5t-10 28.5q0 19 10.5 30t29.5 11q18 0 28.5 -10z" />
    <glyph glyph-name="Amacron" unicode="&#x100;" horiz-adv-x="548" 
d="M500 0h-76l-6 62l-21 115l-136 2l-123 -2l-52 -111l-25 -66h-75l304 640h86zM385 241l-60 321h-7l-150 -321l106 -1zM493 809l-5 -45h-283l-6 6l5 44h283z" />
    <glyph glyph-name="amacron" unicode="&#x101;" horiz-adv-x="439" 
d="M391 460l-49 -351l-5 -106l-76 -7l29 205h-10q-73 -128 -157 -208h-14q-76 43 -76 157q0 72 27 140t79.5 115.5t127.5 59.5h5l62 -23l48 24zM171.5 108q29.5 33 67 96t73.5 148l1 6l1 24l-62 22q-46 0 -80.5 -31.5t-52.5 -85t-18 -118.5q0 -50 9 -72t20 -22q12 0 41.5 33
zM413 628l-5 -45h-283l-6 6l5 44h283z" />
    <glyph glyph-name="Abreve" unicode="&#x102;" horiz-adv-x="548" 
d="M500 0h-76l-6 62l-21 115l-136 2l-123 -2l-52 -111l-25 -66h-75l304 640h86zM385 241l-60 321h-7l-150 -321l106 -1zM469 813q-42 -89 -131 -89q-46 0 -77 23.5t-40 65.5l24 26h12q7 -29 28.5 -44.5t55.5 -15.5q68 0 98 60h11z" />
    <glyph glyph-name="abreve" unicode="&#x103;" horiz-adv-x="439" 
d="M391 460l-49 -351l-5 -106l-76 -7l29 205h-10q-73 -128 -157 -208h-14q-76 43 -76 157q0 72 27 140t79.5 115.5t127.5 59.5h5l62 -23l48 24zM171.5 108q29.5 33 67 96t73.5 148l1 6l1 24l-62 22q-46 0 -80.5 -31.5t-52.5 -85t-18 -118.5q0 -50 9 -72t20 -22q12 0 41.5 33
zM388 641q-17 -54 -50.5 -84t-82.5 -30q-103 0 -115 114l24 29h12q7 -88 81 -88q37 0 62 21.5t40 66.5h11z" />
    <glyph glyph-name="Aogonek" unicode="&#x104;" horiz-adv-x="548" 
d="M500 0h-76l-6 62l-21 115l-136 2l-123 -2l-52 -111l-25 -66h-75l304 640h86zM385 241l-60 321h-7l-150 -321l106 -1zM436 -66.5q-25 -26.5 -32 -38t-7 -22.5q0 -9 6 -15t18 -6q14 0 27 8.5t30 25.5l4 -1l14 -38q-21 -23 -41 -33.5t-43 -10.5q-30 0 -49 16t-19 42
q0 27 20.5 55t81.5 84h54q-39 -40 -64 -66.5z" />
    <glyph glyph-name="aogonek" unicode="&#x105;" horiz-adv-x="439" 
d="M391 460l-49 -351l-5 -106l-76 -7l29 205h-10q-73 -128 -157 -208h-14q-76 43 -76 157q0 72 27 140t79.5 115.5t127.5 59.5h5l62 -23l48 24zM171.5 108q29.5 33 67 96t73.5 148l1 6l1 24l-62 22q-46 0 -80.5 -31.5t-52.5 -85t-18 -118.5q0 -50 9 -72t20 -22q12 0 41.5 33
zM273 -63.5q-25 -26.5 -32 -38t-7 -22.5q0 -9 6 -15t18 -6q14 0 27 8.5t30 25.5l4 -1l14 -38q-21 -23 -41 -33.5t-43 -10.5q-30 0 -49 16t-19 42q0 27 20.5 55t81.5 84h54q-39 -40 -64 -66.5z" />
    <glyph glyph-name="Cacute" unicode="&#x106;" horiz-adv-x="500" 
d="M449 633.5q42 -12.5 74 -36.5l-24 -69l-8 -2q-58 56 -140 56q-108 0 -167 -82.5t-59 -233.5q0 -101 41 -154.5t117 -53.5q42 0 85.5 16t81.5 45l9 -5l-16 -71q-86 -50 -172 -50q-107 0 -165.5 68.5t-58.5 193.5q0 121 37 209t107.5 135t168.5 47q47 0 89 -12.5zM447 859
l20 -44l-3 -9q-60 -29 -149 -67l-44 -19l-9 4l-14 34q106 53 191 103z" />
    <glyph glyph-name="cacute" unicode="&#x107;" horiz-adv-x="336" 
d="M333 444l6 -11l-20 -59l-16 -3q-19 20 -34.5 27.5t-32.5 7.5q-60 0 -95 -63t-35 -172q0 -62 14 -88.5t44 -26.5q53 0 104 90l11 -1l23 -32q-31 -53 -64.5 -80t-78.5 -40h-12q-58 10 -84.5 45.5t-26.5 119.5q0 134 58.5 220t174.5 86zM324 695l28 -39l-2 -9
q-100 -79 -168 -127l-9 1l-21 30q92 75 163 145z" />
    <glyph glyph-name="Ccircumflex" unicode="&#x108;" horiz-adv-x="500" 
d="M449 633.5q42 -12.5 74 -36.5l-24 -69l-8 -2q-58 56 -140 56q-108 0 -167 -82.5t-59 -233.5q0 -101 41 -154.5t117 -53.5q42 0 85.5 16t81.5 45l9 -5l-16 -71q-86 -50 -172 -50q-107 0 -165.5 68.5t-58.5 193.5q0 121 37 209t107.5 135t168.5 47q47 0 89 -12.5zM226 757
q58 37 121 90h22q51 -48 108 -90l-18 -32h-9q-69 47 -94 66q-30 -19 -110 -66h-9z" />
    <glyph glyph-name="ccircumflex" unicode="&#x109;" horiz-adv-x="336" 
d="M333 444l6 -11l-20 -59l-16 -3q-19 20 -34.5 27.5t-32.5 7.5q-60 0 -95 -63t-35 -172q0 -62 14 -88.5t44 -26.5q53 0 104 90l11 -1l23 -32q-31 -53 -64.5 -80t-78.5 -40h-12q-58 10 -84.5 45.5t-26.5 119.5q0 134 58.5 220t174.5 86zM116 553q39 36 132 133h24
q49 -72 106 -133l-25 -31h-8q-58 63 -89 106q-42 -43 -115 -106h-9z" />
    <glyph glyph-name="Cdotaccent" unicode="&#x10a;" horiz-adv-x="500" 
d="M449 633.5q42 -12.5 74 -36.5l-24 -69l-8 -2q-58 56 -140 56q-108 0 -167 -82.5t-59 -233.5q0 -101 41 -154.5t117 -53.5q42 0 85.5 16t81.5 45l9 -5l-16 -71q-86 -50 -172 -50q-107 0 -165.5 68.5t-58.5 193.5q0 121 37 209t107.5 135t168.5 47q47 0 89 -12.5z
M388.5 830q11.5 -11 11.5 -31q0 -21 -12 -34t-32 -13t-31.5 12t-11.5 32t12 32.5t33 12.5q19 0 30.5 -11z" />
    <glyph glyph-name="cdotaccent" unicode="&#x10b;" horiz-adv-x="336" 
d="M333 444l6 -11l-20 -59l-16 -3q-19 20 -34.5 27.5t-32.5 7.5q-60 0 -95 -63t-35 -172q0 -62 14 -88.5t44 -26.5q53 0 104 90l11 -1l23 -32q-31 -53 -64.5 -80t-78.5 -40h-12q-58 10 -84.5 45.5t-26.5 119.5q0 134 58.5 220t174.5 86zM284.5 649q11.5 -11 11.5 -31
q0 -21 -12 -34t-32 -13t-31.5 12t-11.5 32t12 32.5t33 12.5q19 0 30.5 -11z" />
    <glyph glyph-name="Ccaron" unicode="&#x10c;" horiz-adv-x="500" 
d="M449 633.5q42 -12.5 74 -36.5l-24 -69l-8 -2q-58 56 -140 56q-108 0 -167 -82.5t-59 -233.5q0 -101 41 -154.5t117 -53.5q42 0 85.5 16t81.5 45l9 -5l-16 -71q-86 -50 -172 -50q-107 0 -165.5 68.5t-58.5 193.5q0 121 37 209t107.5 135t168.5 47q47 0 89 -12.5zM481 813
q-58 -37 -121 -90h-22q-51 48 -108 90l18 32h9q69 -47 94 -66q30 19 110 66h9z" />
    <glyph glyph-name="ccaron" unicode="&#x10d;" horiz-adv-x="336" 
d="M333 444l6 -11l-20 -59l-16 -3q-19 20 -34.5 27.5t-32.5 7.5q-60 0 -95 -63t-35 -172q0 -62 14 -88.5t44 -26.5q53 0 104 90l11 -1l23 -32q-31 -53 -64.5 -80t-78.5 -40h-12q-58 10 -84.5 45.5t-26.5 119.5q0 134 58.5 220t174.5 86zM382 656q-39 -36 -132 -133h-24
q-49 72 -106 133l25 31h8q58 -63 89 -106q42 43 115 106h9z" />
    <glyph glyph-name="Dcaron" unicode="&#x10e;" horiz-adv-x="620" 
d="M536 580q63 -65 63 -185q0 -124 -38.5 -214t-113.5 -138.5t-181 -48.5q-39 0 -96.5 1.5t-105.5 4.5h-1l29 193l52 447h1l213 5q115 0 178 -65zM457.5 140.5q62.5 83.5 62.5 240.5q0 100 -43 150.5t-127 50.5q-25 0 -65 -1t-74 -3l-52 -379l-14 -136q92 -6 136 -6
q114 0 176.5 83.5zM475 813q-58 -37 -121 -90h-22q-51 48 -108 90l18 32h9q69 -47 94 -66q30 19 110 66h9z" />
    <glyph glyph-name="dcaron" unicode="&#x10f;" horiz-adv-x="492" 
d="M427 704l-83 -595l-5 -106l-76 -7l29 205h-10q-74 -127 -159 -208h-15q-76 43 -76 157q0 72 27 140t80.5 116t128.5 59h5l53 -19l22 154l3 97zM171 107.5q29 32.5 67 95t75 146.5l4 32l-63 23q-47 0 -82 -31.5t-54 -85t-19 -118.5q0 -50 9.5 -72t21.5 -22t41 32.5z
M562 644l-43 -170l-38 -6l-4 6l26 172l55 4z" />
    <glyph glyph-name="Dcroat" unicode="&#x110;" horiz-adv-x="644" 
d="M559 580q63 -65 63 -185q0 -124 -38.5 -214t-113.5 -138.5t-181 -48.5q-39 0 -96.5 1.5t-105.5 4.5h-1l29 193l52 447h1l213 5q115 0 178 -65zM480.5 140.5q62.5 83.5 62.5 240.5q0 100 -43 150.5t-127 50.5q-25 0 -65 -1t-74 -3l-52 -379l-14 -136q92 -6 136 -6
q114 0 176.5 83.5zM362.017 345l-5.80762 -47h-322.662l-3.22656 6l6.45312 47h322.662z" />
    <glyph glyph-name="dcroat" unicode="&#x111;" horiz-adv-x="453" 
d="M489 557h-83l-62 -448l-5 -106l-76 -7l29 205h-10q-74 -127 -159 -208h-15q-76 43 -76 157q0 72 27 140t80.5 116t128.5 59h5l53 -19l16 111h-119l-6 5l5 41h126l3 94l76 7l-14 -101h74l6 -7zM171 107.5q29 32.5 67 95t75 146.5l4 32l-63 23q-47 0 -82 -31.5t-54 -85
t-19 -118.5q0 -50 9.5 -72t21.5 -22t41 32.5z" />
    <glyph glyph-name="Emacron" unicode="&#x112;" horiz-adv-x="461" 
d="M210 576l-28 -216l115 -2l100 3l5 -7l-14 -58l-106 2l-109 -1l-13 -98l-14 -135l122 -2l145 4l3 -7l-13 -59h-340l29 193l52 447h341l3 -7l-13 -59l-142 4zM474 809l-5 -45h-283l-6 6l5 44h283z" />
    <glyph glyph-name="emacron" unicode="&#x113;" horiz-adv-x="378" 
d="M302 139l24 -31q-32 -49 -70 -77t-86 -38h-12q-64 8 -93.5 47t-29.5 116q0 88 28.5 158t78 110t113.5 42l8 -1q43 -5 65.5 -28t22.5 -61q0 -60 -62 -110.5t-184 -88.5q0 -63 16.5 -92t51.5 -29q30 0 57.5 20t59.5 64zM152.5 362.5q-35.5 -49.5 -44.5 -132.5
q86 28 130.5 63.5t44.5 77.5q0 41 -44 41q-51 0 -86.5 -49.5zM399 628l-5 -45h-283l-6 6l5 44h283z" />
    <glyph glyph-name="Ebreve" unicode="&#x114;" horiz-adv-x="461" 
d="M210 576l-28 -216l115 -2l100 3l5 -7l-14 -58l-106 2l-109 -1l-13 -98l-14 -135l122 -2l145 4l3 -7l-13 -59h-340l29 193l52 447h341l3 -7l-13 -59l-142 4zM450 813q-42 -89 -131 -89q-46 0 -77 23.5t-40 65.5l24 26h12q7 -29 28.5 -44.5t55.5 -15.5q68 0 98 60h11z" />
    <glyph glyph-name="ebreve" unicode="&#x115;" horiz-adv-x="378" 
d="M302 139l24 -31q-32 -49 -70 -77t-86 -38h-12q-64 8 -93.5 47t-29.5 116q0 88 28.5 158t78 110t113.5 42l8 -1q43 -5 65.5 -28t22.5 -61q0 -60 -62 -110.5t-184 -88.5q0 -63 16.5 -92t51.5 -29q30 0 57.5 20t59.5 64zM152.5 362.5q-35.5 -49.5 -44.5 -132.5
q86 28 130.5 63.5t44.5 77.5q0 41 -44 41q-51 0 -86.5 -49.5zM374 641q-17 -54 -50.5 -84t-82.5 -30q-103 0 -115 114l24 29h12q7 -88 81 -88q37 0 62 21.5t40 66.5h11z" />
    <glyph glyph-name="Edotaccent" unicode="&#x116;" horiz-adv-x="461" 
d="M210 576l-28 -216l115 -2l100 3l5 -7l-14 -58l-106 2l-109 -1l-13 -98l-14 -135l122 -2l145 4l3 -7l-13 -59h-340l29 193l52 447h341l3 -7l-13 -59l-142 4zM361.5 830q11.5 -11 11.5 -31q0 -21 -12 -34t-32 -13t-31.5 12t-11.5 32t12 32.5t33 12.5q19 0 30.5 -11z" />
    <glyph glyph-name="edotaccent" unicode="&#x117;" horiz-adv-x="378" 
d="M302 139l24 -31q-32 -49 -70 -77t-86 -38h-12q-64 8 -93.5 47t-29.5 116q0 88 28.5 158t78 110t113.5 42l8 -1q43 -5 65.5 -28t22.5 -61q0 -60 -62 -110.5t-184 -88.5q0 -63 16.5 -92t51.5 -29q30 0 57.5 20t59.5 64zM152.5 362.5q-35.5 -49.5 -44.5 -132.5
q86 28 130.5 63.5t44.5 77.5q0 41 -44 41q-51 0 -86.5 -49.5zM285.5 649q11.5 -11 11.5 -31q0 -21 -12 -34t-32 -13t-31.5 12t-11.5 32t12 32.5t33 12.5q19 0 30.5 -11z" />
    <glyph glyph-name="Eogonek" unicode="&#x118;" horiz-adv-x="461" 
d="M210 576l-28 -216l115 -2l100 3l5 -7l-14 -58l-106 2l-109 -1l-13 -98l-14 -135l122 -2l145 4l3 -7l-13 -59h-340l29 193l52 447h341l3 -7l-13 -59l-142 4zM251.5 -196q-22.5 20 -22.5 54q0 19 8.5 36t29 40.5t71.5 75.5h49q-39 -44 -63.5 -73.5t-31.5 -42t-7 -24.5
q0 -17 9 -26.5t27 -9.5q36 0 77 41h5l12 -42q-52 -49 -103 -49q-38 0 -60.5 20z" />
    <glyph glyph-name="eogonek" unicode="&#x119;" horiz-adv-x="378" 
d="M302 139l24 -31q-32 -49 -70 -77t-86 -38h-12q-64 8 -93.5 47t-29.5 116q0 88 28.5 158t78 110t113.5 42l8 -1q43 -5 65.5 -28t22.5 -61q0 -60 -62 -110.5t-184 -88.5q0 -63 16.5 -92t51.5 -29q30 0 57.5 20t59.5 64zM152.5 362.5q-35.5 -49.5 -44.5 -132.5
q86 28 130.5 63.5t44.5 77.5q0 41 -44 41q-51 0 -86.5 -49.5zM111.5 -179q-22.5 20 -22.5 54q0 19 8.5 36t29 40.5t71.5 75.5h49q-39 -44 -63.5 -73.5t-31.5 -42t-7 -24.5q0 -17 9 -26.5t27 -9.5q36 0 77 41h5l12 -42q-52 -49 -103 -49q-38 0 -60.5 20z" />
    <glyph glyph-name="Ecaron" unicode="&#x11a;" horiz-adv-x="461" 
d="M210 576l-28 -216l115 -2l100 3l5 -7l-14 -58l-106 2l-109 -1l-13 -98l-14 -135l122 -2l145 4l3 -7l-13 -59h-340l29 193l52 447h341l3 -7l-13 -59l-142 4zM454 813q-58 -37 -121 -90h-22q-51 48 -108 90l18 32h9q69 -47 94 -66q30 19 110 66h9z" />
    <glyph glyph-name="ecaron" unicode="&#x11b;" horiz-adv-x="378" 
d="M302 139l24 -31q-32 -49 -70 -77t-86 -38h-12q-64 8 -93.5 47t-29.5 116q0 88 28.5 158t78 110t113.5 42l8 -1q43 -5 65.5 -28t22.5 -61q0 -60 -62 -110.5t-184 -88.5q0 -63 16.5 -92t51.5 -29q30 0 57.5 20t59.5 64zM152.5 362.5q-35.5 -49.5 -44.5 -132.5
q86 28 130.5 63.5t44.5 77.5q0 41 -44 41q-51 0 -86.5 -49.5zM383 656q-39 -36 -132 -133h-24q-49 72 -106 133l25 31h8q58 -63 89 -106q42 43 115 106h9z" />
    <glyph glyph-name="Gcircumflex" unicode="&#x11c;" horiz-adv-x="575" 
d="M560 600l-25 -71l-9 -2q-42 29 -78.5 42t-79.5 13q-120 0 -183 -83.5t-63 -243.5q0 -101 42 -149t130 -48q28 0 55.5 5t70.5 19l13 78l10 99l71 5l-13 -94l-14 -139q-59 -20 -103 -29t-95 -9q-120 0 -182 66.5t-62 188.5q0 190 88 294t248 104q96 0 179 -46zM239 757
q58 37 121 90h22q51 -48 108 -90l-18 -32h-9q-69 47 -94 66q-30 -19 -110 -66h-9z" />
    <glyph glyph-name="gcircumflex" unicode="&#x11d;" horiz-adv-x="441" 
d="M393 460l-49 -347l-8 -75q-10 -73 -43 -126.5t-82.5 -81.5t-106.5 -28q-64 0 -106 36.5t-54 103.5l3 8l141 88l1 9q-21 19 -31 47.5t-10 71.5q0 72 25.5 136t75.5 107.5t120 54.5h5l62 -22l47 24zM152 343q-37 -61 -37 -152q0 -49 9.5 -73t18.5 -24q10 0 36.5 31t62 88.5
t70.5 132.5l2 13l2 23l-61 22q-66 0 -103 -61zM216.5 -100q39.5 41 50.5 118l26 192h-10q-71 -125 -148 -186l-102 -76q-9 -8 -9 -17q1 -27 27 -49.5t69 -22.5q57 0 96.5 41zM138 552q39 36 132 133h24q49 -72 106 -133l-25 -31h-8q-58 63 -89 106q-42 -43 -115 -106h-9z
" />
    <glyph glyph-name="Gbreve" unicode="&#x11e;" horiz-adv-x="575" 
d="M560 600l-25 -71l-9 -2q-42 29 -78.5 42t-79.5 13q-120 0 -183 -83.5t-63 -243.5q0 -101 42 -149t130 -48q28 0 55.5 5t70.5 19l13 78l10 99l71 5l-13 -94l-14 -139q-59 -20 -103 -29t-95 -9q-120 0 -182 66.5t-62 188.5q0 190 88 294t248 104q96 0 179 -46zM490 813
q-42 -89 -131 -89q-46 0 -77 23.5t-40 65.5l24 26h12q7 -29 28.5 -44.5t55.5 -15.5q68 0 98 60h11z" />
    <glyph glyph-name="gbreve" unicode="&#x11f;" horiz-adv-x="441" 
d="M393 460l-49 -347l-8 -75q-10 -73 -43 -126.5t-82.5 -81.5t-106.5 -28q-64 0 -106 36.5t-54 103.5l3 8l141 88l1 9q-21 19 -31 47.5t-10 71.5q0 72 25.5 136t75.5 107.5t120 54.5h5l62 -22l47 24zM152 343q-37 -61 -37 -152q0 -49 9.5 -73t18.5 -24q10 0 36.5 31t62 88.5
t70.5 132.5l2 13l2 23l-61 22q-66 0 -103 -61zM216.5 -100q39.5 41 50.5 118l26 192h-10q-71 -125 -148 -186l-102 -76q-9 -8 -9 -17q1 -27 27 -49.5t69 -22.5q57 0 96.5 41zM395 640q-17 -54 -50.5 -84t-82.5 -30q-103 0 -115 114l24 29h12q7 -88 81 -88q37 0 62 21.5
t40 66.5h11z" />
    <glyph glyph-name="Gdotaccent" unicode="&#x120;" horiz-adv-x="575" 
d="M560 600l-25 -71l-9 -2q-42 29 -78.5 42t-79.5 13q-120 0 -183 -83.5t-63 -243.5q0 -101 42 -149t130 -48q28 0 55.5 5t70.5 19l13 78l10 99l71 5l-13 -94l-14 -139q-59 -20 -103 -29t-95 -9q-120 0 -182 66.5t-62 188.5q0 190 88 294t248 104q96 0 179 -46zM401.5 830
q11.5 -11 11.5 -31q0 -21 -12 -34t-32 -13t-31.5 12t-11.5 32t12 32.5t33 12.5q19 0 30.5 -11z" />
    <glyph glyph-name="gdotaccent" unicode="&#x121;" horiz-adv-x="441" 
d="M393 460l-49 -347l-8 -75q-10 -73 -43 -126.5t-82.5 -81.5t-106.5 -28q-64 0 -106 36.5t-54 103.5l3 8l141 88l1 9q-21 19 -31 47.5t-10 71.5q0 72 25.5 136t75.5 107.5t120 54.5h5l62 -22l47 24zM152 343q-37 -61 -37 -152q0 -49 9.5 -73t18.5 -24q10 0 36.5 31t62 88.5
t70.5 132.5l2 13l2 23l-61 22q-66 0 -103 -61zM216.5 -100q39.5 41 50.5 118l26 192h-10q-71 -125 -148 -186l-102 -76q-9 -8 -9 -17q1 -27 27 -49.5t69 -22.5q57 0 96.5 41zM306.5 648q11.5 -11 11.5 -31q0 -21 -12 -34t-32 -13t-31.5 12t-11.5 32t12 32.5t33 12.5
q19 0 30.5 -11z" />
    <glyph glyph-name="Gcommaaccent" unicode="&#x122;" horiz-adv-x="575" 
d="M560 600l-25 -71l-9 -2q-42 29 -78.5 42t-79.5 13q-120 0 -183 -83.5t-63 -243.5q0 -101 42 -149t130 -48q28 0 55.5 5t70.5 19l13 78l10 99l71 5l-13 -94l-14 -139q-59 -20 -103 -29t-95 -9q-120 0 -182 66.5t-62 188.5q0 190 88 294t248 104q96 0 179 -46zM361 -114
q0 -63 -89 -128l-25 23v6q54 43 54 86q0 24 -30 45v7q22 16 50 25q40 -25 40 -64z" />
    <glyph glyph-name="gcommaaccent" unicode="&#x123;" horiz-adv-x="441" 
d="M247 586q0 56 68 123l27 -19v-5q-40 -44 -40 -79t37 -51v-7q-13 -13 -42 -31q-50 19 -50 69zM393 460l-49 -347l-8 -75q-10 -73 -43 -126.5t-82.5 -81.5t-106.5 -28q-64 0 -106 36.5t-54 103.5l3 8l141 88l1 9q-21 19 -31 47.5t-10 71.5q0 72 25.5 136t75.5 107.5
t120 54.5h5l62 -22l47 24zM152 343q-37 -61 -37 -152q0 -49 9.5 -73t18.5 -24q10 0 36.5 31t62 88.5t70.5 132.5l2 13l2 23l-61 22q-66 0 -103 -61zM216.5 -100q39.5 41 50.5 118l26 192h-10q-71 -125 -148 -186l-102 -76q-9 -8 -9 -17q1 -27 27 -49.5t69 -22.5
q57 0 96.5 41z" />
    <glyph glyph-name="Hcircumflex" unicode="&#x124;" horiz-adv-x="653" 
d="M614 640l-59 -441l-21 -199h-75l28 193l11 98l-170 3l-156 -3l-13 -92l-20 -199h-76l29 193l51 447h76l-39 -283l162 -3l164 3l32 283h76zM268 757q58 37 121 90h22q51 -48 108 -90l-18 -32h-9q-69 47 -94 66q-30 -19 -110 -66h-9z" />
    <glyph glyph-name="hcircumflex" unicode="&#x125;" horiz-adv-x="469" 
d="M395.5 434.5q21.5 -22.5 20.5 -56.5l-1 -13l-41 -257l-6 -105l-77 -7l55 342l1 13q0 31 -21 31q-29 0 -81.5 -73t-117.5 -208l-5 -98l-76 -7l86 604l2 97l76 7l-65 -466h9q49 86 90 139.5t84 87.5h11q35 -8 56.5 -30.5zM58 817q58 37 121 90h22q51 -48 108 -90l-18 -32
h-9q-69 47 -94 66q-30 -19 -110 -66h-9z" />
    <glyph glyph-name="Hbar" unicode="&#x126;" horiz-adv-x="680" 
d="M672 478h-68l-37 -279l-22 -199h-74l28 193l11 98l-171 3l-156 -3l-12 -92l-21 -199h-75l28 193l33 285h-57l-3 5l3 49h63l13 108h75l-14 -108h322l12 108h76l-14 -108h60l5 -6zM532 478h-324l-16 -121l162 -3l164 3z" />
    <glyph glyph-name="hbar" unicode="&#x127;" horiz-adv-x="528" 
d="M436.5 434.5q21.5 -22.5 20.5 -56.5l-1 -13l-41 -257l-6 -105l-77 -7l55 342l1 13q0 31 -21 31q-29 0 -81.5 -73t-117.5 -208l-5 -98l-76 -7l80 561h-74l-5 5l3 41h82l2 94l76 7l-14 -101h120l6 -7l-4 -39h-129l-44 -319h9q49 86 90 139.5t84 87.5h11q35 -8 56.5 -30.5z
" />
    <glyph glyph-name="Imacron" unicode="&#x12a;" horiz-adv-x="259" 
d="M159 199l-20 -199h-76l29 193l51 447h76zM313 809l-5 -45h-215l-7 6l5 44h216z" />
    <glyph glyph-name="imacron" unicode="&#x12b;" horiz-adv-x="218" 
d="M124 109l-4 -106l-76 -7l52 363l4 97l74 7zM268 627l-5 -45h-215l-7 6l5 44h216z" />
    <glyph glyph-name="Ibreve" unicode="&#x12c;" horiz-adv-x="259" 
d="M159 199l-20 -199h-76l29 193l51 447h76zM321 813q-42 -89 -131 -89q-46 0 -77 23.5t-40 65.5l24 26h12q7 -29 28.5 -44.5t55.5 -15.5q68 0 98 60h11z" />
    <glyph glyph-name="ibreve" unicode="&#x12d;" horiz-adv-x="218" 
d="M124 109l-4 -106l-76 -7l52 363l4 97l74 7zM276 640q-17 -54 -50.5 -84t-82.5 -30q-103 0 -115 114l24 29h12q7 -88 81 -88q37 0 62 21.5t40 66.5h11z" />
    <glyph glyph-name="Iogonek" unicode="&#x12e;" horiz-adv-x="259" 
d="M159 199l-20 -199h-76l29 193l51 447h76zM75 -66.5q-25 -26.5 -32 -38t-7 -22.5q0 -9 6 -15t18 -6q14 0 27 8.5t30 25.5l4 -1l14 -38q-21 -23 -41 -33.5t-43 -10.5q-30 0 -49 16t-19 42q0 27 20.5 55t81.5 84h54q-39 -40 -64 -66.5z" />
    <glyph glyph-name="iogonek" unicode="&#x12f;" horiz-adv-x="218" 
d="M124 109l-4 -106l-76 -7l52 363l4 97l74 7zM187.5 648q11.5 -11 11.5 -31q0 -21 -12 -34t-32 -13t-31.5 12t-11.5 32t12 32.5t33 12.5q19 0 30.5 -11zM56 -63.5q-25 -26.5 -32 -38t-7 -22.5q0 -9 6 -15t18 -6q14 0 27 8.5t30 25.5l4 -1l14 -38q-21 -23 -41 -33.5
t-43 -10.5q-30 0 -49 16t-19 42q0 27 20.5 55t81.5 84h54q-39 -40 -64 -66.5z" />
    <glyph glyph-name="Idotaccent" unicode="&#x130;" horiz-adv-x="259" 
d="M159 199l-20 -199h-76l29 193l51 447h76zM232.5 830q11.5 -11 11.5 -31q0 -21 -12 -34t-32 -13t-31.5 12t-11.5 32t12 32.5t33 12.5q19 0 30.5 -11z" />
    <glyph glyph-name="dotlessi" unicode="&#x131;" horiz-adv-x="218" 
d="M124 109l-4 -106l-76 -7l52 363l4 97l74 7z" />
    <glyph glyph-name="IJ" unicode="&#x132;" horiz-adv-x="556" 
d="M159 199l-20 -199h-76l29 193l51 447h76zM453 212l-9 -94q-10 -75 -53.5 -124.5t-138.5 -94.5l-24 42l1 9q72 38 105 75t40 93l11 87l43 374l-119 -1l-7 7l12 55h197z" />
    <glyph glyph-name="ij" unicode="&#x133;" horiz-adv-x="450" 
d="M124 109l-4 -106l-76 -7l52 363l4 97l74 7zM187.5 648q11.5 -11 11.5 -31q0 -21 -12 -34t-32 -13t-31.5 12t-11.5 32t12 32.5t33 12.5q19 0 30.5 -11zM404 458l-49 -350l-9 -90q-10 -78 -42.5 -125t-103.5 -87l-25 34l1 9q49 33 72 69t30 96l48 344l3 42h-76l-5 5l7 45
h71l74 10zM414.5 648q11.5 -11 11.5 -31q0 -21 -12 -34t-32 -13t-31.5 12t-11.5 32t12 32.5t33 12.5q19 0 30.5 -11z" />
    <glyph glyph-name="Jcircumflex" unicode="&#x134;" horiz-adv-x="297" 
d="M194 212l-9 -94q-10 -75 -53.5 -124.5t-138.5 -94.5l-24 42l1 9q72 38 105 75t40 93l11 87l43 374l-119 -1l-7 7l12 55h197zM59 757q58 37 121 90h22q51 -48 108 -90l-18 -32h-9q-69 47 -94 66q-30 -19 -110 -66h-9z" />
    <glyph glyph-name="jcircumflex" unicode="&#x135;" horiz-adv-x="232" 
d="M186 458l-49 -350l-9 -90q-10 -78 -42.5 -125t-103.5 -87l-25 34l1 9q49 33 72 69t30 96l48 344l3 42h-76l-5 5l7 45h71l74 10zM28 552q39 36 132 133h24q49 -72 106 -133l-25 -31h-8q-58 63 -89 106q-42 -43 -115 -106h-9z" />
    <glyph glyph-name="Kcommaaccent" unicode="&#x136;" horiz-adv-x="520" 
d="M159 199l-21 -199h-76l30 193l51 447h76zM271 338q99 -165 224 -322l-3 -9q-35 -10 -73 -16l-7 5q-138 195 -222 340l1 6l235 244l45 54h85zM327 -114q0 -63 -89 -128l-25 23v6q54 43 54 86q0 24 -30 45v7q22 16 50 25q40 -25 40 -64z" />
    <glyph glyph-name="kcommaaccent" unicode="&#x137;" horiz-adv-x="462" 
d="M291 182q66 -108 115 -175l-4 -7l-62 -12l-7 4q-49 74 -108 186l2 13q68 42 102 80.5t34 76.5q0 34 -24 34q-33 0 -88 -71.5t-125 -215.5l-3 -92l-76 -7l85 604l3 97l76 7l-65 -460h10q57 88 98 139.5t85 79.5l15 1q38 -8 60 -32t22 -66q0 -97 -145 -184zM254 -114
q0 -63 -89 -128l-25 23v6q54 43 54 86q0 24 -30 45v7q22 16 50 25q40 -25 40 -64z" />
    <glyph glyph-name="kgreenlandic" unicode="&#x138;" horiz-adv-x="463" 
d="M291 182q61 -99 116 -175l-3 -7l-62 -12l-8 4q-46 69 -111 186l3 13q70 42 104.5 80.5t34.5 76.5q0 18 -7.5 26t-18.5 8q-33 0 -89 -71.5t-127 -216.5l-3 -91l-76 -7l52 363l4 97l74 7l-31 -222h10q60 91 101.5 142.5t85.5 79.5l14 1q39 -8 61 -32t22 -66
q0 -97 -146 -184z" />
    <glyph glyph-name="Lacute" unicode="&#x139;" horiz-adv-x="400" 
d="M376 56l-13 -56h-300l30 193l51 447h76l-60 -441l-14 -135h226zM294 859l20 -44l-3 -9q-60 -29 -149 -67l-44 -19l-9 4l-14 34q106 53 191 103z" />
    <glyph glyph-name="lacute" unicode="&#x13a;" horiz-adv-x="247" 
d="M137 109l-5 -106l-75 -7l85 604l3 97l75 7zM291 919l20 -44l-3 -9q-60 -29 -149 -67l-44 -19l-9 4l-14 34q106 53 191 103z" />
    <glyph glyph-name="Lcommaaccent" unicode="&#x13b;" horiz-adv-x="400" 
d="M376 56l-13 -56h-300l30 193l51 447h76l-60 -441l-14 -135h226zM256 -114q0 -63 -89 -128l-25 23v6q54 43 54 86q0 24 -30 45v7q22 16 50 25q40 -25 40 -64z" />
    <glyph glyph-name="lcommaaccent" unicode="&#x13c;" horiz-adv-x="247" 
d="M137 109l-5 -106l-75 -7l85 604l3 97l75 7zM146 -114q0 -63 -89 -128l-25 23v6q54 43 54 86q0 24 -30 45v7q22 16 50 25q40 -25 40 -64z" />
    <glyph glyph-name="Lcaron" unicode="&#x13d;" horiz-adv-x="445" 
d="M376 56l-13 -56h-300l30 193l51 447h76l-60 -441l-14 -135h226zM434 581l-43 -170l-38 -6l-4 6l26 172l55 4z" />
    <glyph glyph-name="lcaron" unicode="&#x13e;" horiz-adv-x="280" 
d="M137 109l-5 -106l-75 -7l85 604l3 97l75 7zM349 644l-43 -170l-38 -6l-4 6l26 172l55 4z" />
    <glyph glyph-name="Ldot" unicode="&#x13f;" horiz-adv-x="400" 
d="M376 56l-13 -56h-300l30 193l51 447h76l-60 -441l-14 -135h226zM360 410q11 -11 11 -31q0 -21 -12 -34t-32 -13t-31.5 12t-11.5 32t12 32.5t33 12.5q20 0 31 -11z" />
    <glyph glyph-name="ldot" unicode="&#x140;" horiz-adv-x="247" 
d="M136 109l-6 -106l-73 -7l81 604l5 96l72 7zM284.5 317.5q11.5 -11.5 11.5 -31.5q0 -21 -12.5 -33.5t-33.5 -12.5q-19 0 -30 11.5t-11 31.5q0 21 12 33.5t32 12.5t31.5 -11.5z" />
    <glyph glyph-name="Lslash" unicode="&#x141;" horiz-adv-x="406" 
d="M382 56l-13 -56h-300l30 193l11 99l-74 -39l-9 5l-8 45l98 51l33 286h76l-34 -247l134 69l8 -4l10 -45l-160 -83l-18 -131l-14 -135h226z" />
    <glyph glyph-name="lslash" unicode="&#x142;" horiz-adv-x="243" 
d="M166 360l-35 -251l-4 -106l-76 -7l47 332l-66 -33l-3 3l-12 51l90 46l29 205l3 97l76 7l-39 -277l70 36l4 -2l12 -51z" />
    <glyph glyph-name="Nacute" unicode="&#x143;" horiz-adv-x="653" 
d="M553 187l-21 -187h-78l-251 520h-7l-39 -310l-23 -210h-71l28 190l54 450h78l251 -520h6l64 517l71 5zM489 859l20 -44l-3 -9q-60 -29 -149 -67l-44 -19l-9 4l-14 34q106 53 191 103z" />
    <glyph glyph-name="nacute" unicode="&#x144;" horiz-adv-x="467" 
d="M393.5 434.5q21.5 -22.5 20.5 -56.5l-1 -13l-41 -257l-6 -105l-77 -7l55 342l1 13q0 31 -21 31q-29 0 -81.5 -73t-117.5 -208l-5 -98l-76 -7l52 363l5 97l74 7l-32 -225h9q51 87 91 140.5t83 86.5h11q35 -8 56.5 -30.5zM355 694l28 -39l-2 -9q-100 -79 -168 -127l-9 1
l-21 30q92 75 163 145z" />
    <glyph glyph-name="Ncommaaccent" unicode="&#x145;" horiz-adv-x="653" 
d="M553 187l-21 -187h-78l-251 520h-7l-39 -310l-23 -210h-71l28 190l54 450h78l251 -520h6l64 517l71 5zM351 -114q0 -63 -89 -128l-25 23v6q54 43 54 86q0 24 -30 45v7q22 16 50 25q40 -25 40 -64z" />
    <glyph glyph-name="ncommaaccent" unicode="&#x146;" horiz-adv-x="467" 
d="M393.5 434.5q21.5 -22.5 20.5 -56.5l-1 -13l-41 -257l-6 -105l-77 -7l55 342l1 13q0 31 -21 31q-29 0 -81.5 -73t-117.5 -208l-5 -98l-76 -7l52 363l5 97l74 7l-32 -225h9q51 87 91 140.5t83 86.5h11q35 -8 56.5 -30.5zM259 -114q0 -63 -89 -128l-25 23v6q54 43 54 86
q0 24 -30 45v7q22 16 50 25q40 -25 40 -64z" />
    <glyph glyph-name="Ncaron" unicode="&#x147;" horiz-adv-x="653" 
d="M553 187l-21 -187h-78l-251 520h-7l-39 -310l-23 -210h-71l28 190l54 450h78l251 -520h6l64 517l71 5zM523 813q-58 -37 -121 -90h-22q-51 48 -108 90l18 32h9q69 -47 94 -66q30 19 110 66h9z" />
    <glyph glyph-name="ncaron" unicode="&#x148;" horiz-adv-x="467" 
d="M393.5 434.5q21.5 -22.5 20.5 -56.5l-1 -13l-41 -257l-6 -105l-77 -7l55 342l1 13q0 31 -21 31q-29 0 -81.5 -73t-117.5 -208l-5 -98l-76 -7l52 363l5 97l74 7l-32 -225h9q51 87 91 140.5t83 86.5h11q35 -8 56.5 -30.5zM413 655q-39 -36 -132 -133h-24q-49 72 -106 133
l25 31h8q58 -63 89 -106q42 43 115 106h9z" />
    <glyph glyph-name="Eng" unicode="&#x14a;" horiz-adv-x="662" 
d="M556 187l-14 -132q-10 -74 -52.5 -122t-136.5 -92l-25 42l2 9q52 28 82.5 54t44.5 56l-255 517h-7l-37 -309l-23 -210h-72l29 190l52 450h79l254 -517h7l62 514l72 5z" />
    <glyph glyph-name="eng" unicode="&#x14b;" horiz-adv-x="466" 
d="M393.5 434.5q21.5 -22.5 20.5 -56.5l-1 -13l-43 -257l-12 -90q-12 -79 -44 -125.5t-100 -86.5l-24 34l1 9q47 33 69.5 69t30.5 96l51 318l1 13q1 37 -19 37q-29 0 -82 -74.5t-118 -215.5l-4 -89l-76 -7l52 363l5 97l74 7l-32 -225h9q51 87 91 140.5t84 86.5h11
q34 -8 55.5 -30.5z" />
    <glyph glyph-name="Omacron" unicode="&#x14c;" horiz-adv-x="611" 
d="M530 580q60 -67 60 -189q0 -123 -37 -213t-107.5 -138t-170.5 -48q-107 0 -167.5 69.5t-60.5 193.5q0 185 81.5 288.5t231.5 103.5q110 0 170 -67zM180.5 501q-56.5 -83 -56.5 -241q0 -205 158 -205q114 0 171.5 84t57.5 243q0 202 -160 202q-114 0 -170.5 -83zM521 809
l-5 -45h-283l-6 6l5 44h283z" />
    <glyph glyph-name="omacron" unicode="&#x14d;" horiz-adv-x="411" 
d="M266 466q55 -9 82.5 -46t27.5 -106q0 -92 -26 -163t-75.5 -112.5t-117.5 -47.5l-9 1q-57 11 -84.5 48t-27.5 109q0 90 27 160.5t77.5 111.5t117.5 45h8zM141 336q-36 -69 -36 -186q0 -52 14 -75.5t47 -23.5q67 0 103 70t36 188q0 51 -14 73.5t-46 22.5q-68 0 -104 -69z
M409 627l-5 -45h-283l-6 6l5 44h283z" />
    <glyph glyph-name="Obreve" unicode="&#x14e;" horiz-adv-x="611" 
d="M530 580q60 -67 60 -189q0 -123 -37 -213t-107.5 -138t-170.5 -48q-107 0 -167.5 69.5t-60.5 193.5q0 185 81.5 288.5t231.5 103.5q110 0 170 -67zM180.5 501q-56.5 -83 -56.5 -241q0 -205 158 -205q114 0 171.5 84t57.5 243q0 202 -160 202q-114 0 -170.5 -83zM497 813
q-42 -89 -131 -89q-46 0 -77 23.5t-40 65.5l24 26h12q7 -29 28.5 -44.5t55.5 -15.5q68 0 98 60h11z" />
    <glyph glyph-name="obreve" unicode="&#x14f;" horiz-adv-x="411" 
d="M266 466q55 -9 82.5 -46t27.5 -106q0 -92 -26 -163t-75.5 -112.5t-117.5 -47.5l-9 1q-57 11 -84.5 48t-27.5 109q0 90 27 160.5t77.5 111.5t117.5 45h8zM141 336q-36 -69 -36 -186q0 -52 14 -75.5t47 -23.5q67 0 103 70t36 188q0 51 -14 73.5t-46 22.5q-68 0 -104 -69z
M384 640q-17 -54 -50.5 -84t-82.5 -30q-103 0 -115 114l24 29h12q7 -88 81 -88q37 0 62 21.5t40 66.5h11z" />
    <glyph glyph-name="Ohungarumlaut" unicode="&#x150;" horiz-adv-x="611" 
d="M530 580q60 -67 60 -189q0 -123 -37 -213t-107.5 -138t-170.5 -48q-107 0 -167.5 69.5t-60.5 193.5q0 185 81.5 288.5t231.5 103.5q110 0 170 -67zM180.5 501q-56.5 -83 -56.5 -241q0 -205 158 -205q114 0 171.5 84t57.5 243q0 202 -160 202q-114 0 -170.5 -83zM274 757
q59 61 95 104h8l34 -24v-8q-51 -50 -118 -110l-9 -1l-25 23zM432 775q44 46 79 86h6l36 -24l-1 -8q-17 -17 -94 -89l-23 -21l-9 -1l-25 23q32 35 31 34z" />
    <glyph glyph-name="ohungarumlaut" unicode="&#x151;" horiz-adv-x="411" 
d="M266 466q55 -9 82.5 -46t27.5 -106q0 -92 -26 -163t-75.5 -112.5t-117.5 -47.5l-9 1q-57 11 -84.5 48t-27.5 109q0 90 27 160.5t77.5 111.5t117.5 45h8zM141 336q-36 -69 -36 -186q0 -52 14 -75.5t47 -23.5q67 0 103 70t36 188q0 51 -14 73.5t-46 22.5q-68 0 -104 -69z
M278 695h7l34 -26v-7q-59 -61 -144 -143h-8l-25 23q65 70 136 153zM419 695h6l35 -26v-7q-47 -49 -145 -143h-7l-25 23q81 89 136 153z" />
    <glyph glyph-name="OE" unicode="&#x152;" horiz-adv-x="813" 
d="M477 646q48 -6 75 -6h283l4 -7l-14 -59l-136 4h-128l-27 -218l107 -2l108 3l4 -7l-14 -58l-112 2l-104 -1l-12 -102l-15 -131l117 -2l150 4l5 -7l-14 -59h-282q-24 1 -53.5 -2t-37.5 -4q-58 -6 -86 -6q-119 0 -184 72t-65 201q0 120 42 208t120 135.5t186 47.5
q31 0 83 -6zM188.5 505.5q-65.5 -84.5 -65.5 -240.5q0 -105 47 -159.5t141 -54.5q25 0 51.5 3t39.5 7q14 4 21 11t9 22l51 446q1 7 1 17q0 16 -9 20q-13 5 -40.5 9t-55.5 4q-125 0 -190.5 -84.5z" />
    <glyph glyph-name="oe" unicode="&#x153;" horiz-adv-x="649" 
d="M572 149l25 -35q-70 -101 -157 -121h-11q-48 5 -74.5 28t-36.5 64q-27 -41 -67.5 -65.5t-90.5 -28.5l-8 1q-59 11 -87 48t-28 110q0 89 27 159.5t78 111.5t120 45h8q41 -7 65.5 -28.5t33.5 -60.5q59 85 159 89l10 -1q41 -6 63.5 -28.5t22.5 -60.5q0 -117 -249 -201
q0 -62 15.5 -90.5t48.5 -28.5q34 0 67 26.5t54 67.5zM423.5 362.5q-35.5 -49.5 -45.5 -132.5q88 29 133 64.5t45 76.5t-47 41q-50 0 -85.5 -49.5zM274 119.5q37 70.5 37 189.5q0 52 -15 75t-47 23q-69 0 -106 -69.5t-37 -187.5q0 -53 15 -77t48 -24q68 0 105 70.5z" />
    <glyph glyph-name="Racute" unicode="&#x154;" horiz-adv-x="529" 
d="M453.5 350q-40.5 -59 -113.5 -91q57 -121 129 -241l-2 -9q-36 -14 -71 -18l-8 7q-65 125 -112 242h-111l-6 -41l-20 -199h-76l29 193l52 447h1l178 2q81 0 126 -40.5t45 -115.5q0 -77 -40.5 -136zM173 304l115 -3q63 19 95.5 63t32.5 110q0 100 -112 106l-94 -3zM406 876
l28 -39l-2 -9q-100 -79 -168 -127l-9 1l-21 30q92 75 163 145z" />
    <glyph glyph-name="racute" unicode="&#x155;" horiz-adv-x="325" 
d="M347 460l-15 -100l-6 -3l-9 1q-48 -7 -92 -65.5t-102 -202.5l-4 -87l-76 -7l52 363l5 97l73 7l-30 -220h8q36 73 77.5 126.5t94.5 92.5zM318 694l28 -39l-2 -9q-100 -79 -168 -127l-9 1l-21 30q92 75 163 145z" />
    <glyph glyph-name="Rcommaaccent" unicode="&#x156;" horiz-adv-x="529" 
d="M453.5 350q-40.5 -59 -113.5 -91q57 -121 129 -241l-2 -9q-36 -14 -71 -18l-8 7q-65 125 -112 242h-111l-6 -41l-20 -199h-76l29 193l52 447h1l178 2q81 0 126 -40.5t45 -115.5q0 -77 -40.5 -136zM173 304l115 -3q63 19 95.5 63t32.5 110q0 100 -112 106l-94 -3z
M288 -114q0 -63 -89 -128l-25 23v6q54 43 54 86q0 24 -30 45v7q22 16 50 25q40 -25 40 -64z" />
    <glyph glyph-name="rcommaaccent" unicode="&#x157;" horiz-adv-x="325" 
d="M347 460l-15 -100l-6 -3l-9 1q-48 -7 -92 -65.5t-102 -202.5l-4 -87l-76 -7l52 363l5 97l73 7l-30 -220h8q36 73 77.5 126.5t94.5 92.5zM128 -114q0 -63 -89 -128l-25 23v6q54 43 54 86q0 24 -30 45v7q22 16 50 25q40 -25 40 -64z" />
    <glyph glyph-name="Rcaron" unicode="&#x158;" horiz-adv-x="529" 
d="M453.5 350q-40.5 -59 -113.5 -91q57 -121 129 -241l-2 -9q-36 -14 -71 -18l-8 7q-65 125 -112 242h-111l-6 -41l-20 -199h-76l29 193l52 447h1l178 2q81 0 126 -40.5t45 -115.5q0 -77 -40.5 -136zM173 304l115 -3q63 19 95.5 63t32.5 110q0 100 -112 106l-94 -3zM464 837
q-39 -36 -132 -133h-24q-49 72 -106 133l25 31h8q58 -63 89 -106q42 43 115 106h9z" />
    <glyph glyph-name="rcaron" unicode="&#x159;" horiz-adv-x="325" 
d="M347 460l-15 -100l-6 -3l-9 1q-48 -7 -92 -65.5t-102 -202.5l-4 -87l-76 -7l52 363l5 97l73 7l-30 -220h8q36 73 77.5 126.5t94.5 92.5zM376 655q-39 -36 -132 -133h-24q-49 72 -106 133l25 31h8q58 -63 89 -106q42 43 115 106h9z" />
    <glyph glyph-name="Sacute" unicode="&#x15a;" horiz-adv-x="451" 
d="M439 615l-21 -71l-14 -4q-52 44 -116 44q-38 0 -67 -15t-45 -39.5t-16 -51.5q0 -37 26 -61.5t80 -58.5q44 -27 71.5 -48.5t47 -54t19.5 -75.5q0 -51 -28.5 -94t-78.5 -68t-112 -25q-41 0 -85.5 12t-80.5 33l19 77l10 4q29 -32 68 -48t77 -16q59 0 97 32.5t38 78.5
q0 39 -26 65t-80 59q-43 26 -70 47t-46 53t-19 75q0 50 27.5 91.5t76 65.5t107.5 24q72 0 141 -31zM369 876l28 -39l-2 -9q-100 -79 -168 -127l-9 1l-21 30q92 75 163 145z" />
    <glyph glyph-name="sacute" unicode="&#x15b;" horiz-adv-x="317" 
d="M304 439l-21 -68l-12 -4q-39 44 -80 44q-30 0 -51.5 -21.5t-21.5 -48.5q0 -22 15 -38t48 -40q43 -31 65.5 -57.5t22.5 -69.5q0 -40 -22 -73t-61 -52t-89 -19q-52 7 -100 34l19 71l11 5q20 -28 45 -42.5t51 -14.5q34 0 56 22t22 50q0 26 -16.5 44t-50.5 41
q-42 30 -64 55.5t-22 66.5t23.5 73t63 50t85.5 17q43 -8 84 -25zM286 694l28 -39l-2 -9q-100 -79 -168 -127l-9 1l-21 30q92 75 163 145z" />
    <glyph glyph-name="Scircumflex" unicode="&#x15c;" horiz-adv-x="451" 
d="M439 615l-21 -71l-14 -4q-52 44 -116 44q-38 0 -67 -15t-45 -39.5t-16 -51.5q0 -37 26 -61.5t80 -58.5q44 -27 71.5 -48.5t47 -54t19.5 -75.5q0 -51 -28.5 -94t-78.5 -68t-112 -25q-41 0 -85.5 12t-80.5 33l19 77l10 4q29 -32 68 -48t77 -16q59 0 97 32.5t38 78.5
q0 39 -26 65t-80 59q-43 26 -70 47t-46 53t-19 75q0 50 27.5 91.5t76 65.5t107.5 24q72 0 141 -31zM161 734q39 36 132 133h24q49 -72 106 -133l-25 -31h-8q-58 63 -89 106q-42 -43 -115 -106h-9z" />
    <glyph glyph-name="scircumflex" unicode="&#x15d;" horiz-adv-x="317" 
d="M304 439l-21 -68l-12 -4q-39 44 -80 44q-30 0 -51.5 -21.5t-21.5 -48.5q0 -22 15 -38t48 -40q43 -31 65.5 -57.5t22.5 -69.5q0 -40 -22 -73t-61 -52t-89 -19q-52 7 -100 34l19 71l11 5q20 -28 45 -42.5t51 -14.5q34 0 56 22t22 50q0 26 -16.5 44t-50.5 41
q-42 30 -64 55.5t-22 66.5t23.5 73t63 50t85.5 17q43 -8 84 -25zM78 552q39 36 132 133h24q49 -72 106 -133l-25 -31h-8q-58 63 -89 106q-42 -43 -115 -106h-9z" />
    <glyph glyph-name="Scedilla" unicode="&#x15e;" horiz-adv-x="451" 
d="M439 615l-21 -71l-14 -4q-52 44 -116 44q-38 0 -67 -15t-45 -39.5t-16 -51.5q0 -37 26 -61.5t80 -58.5q44 -27 71.5 -48.5t47 -54t19.5 -75.5q0 -51 -28.5 -94t-78.5 -68t-112 -25q-41 0 -85.5 12t-80.5 33l19 77l10 4q29 -32 68 -48t77 -16q59 0 97 32.5t38 78.5
q0 39 -26 65t-80 59q-43 26 -70 47t-46 53t-19 75q0 50 27.5 91.5t76 65.5t107.5 24q72 0 141 -31zM202 -52l34 -20q38 -20 38 -55q0 -29 -22 -47t-57 -18q-43 0 -72 31l8 38l5 2q13 -16 25.5 -23.5t29.5 -7.5q15 0 24 7t9 20q0 9 -5.5 14.5t-16.5 10.5l-47 29l24 90h44z
" />
    <glyph glyph-name="scedilla" unicode="&#x15f;" horiz-adv-x="317" 
d="M304 439l-21 -68l-12 -4q-39 44 -80 44q-30 0 -51.5 -21.5t-21.5 -48.5q0 -22 15 -38t48 -40q43 -31 65.5 -57.5t22.5 -69.5q0 -40 -22 -73t-61 -52t-89 -19q-52 7 -100 34l19 71l11 5q20 -28 45 -42.5t51 -14.5q34 0 56 22t22 50q0 26 -16.5 44t-50.5 41
q-42 30 -64 55.5t-22 66.5t23.5 73t63 50t85.5 17q43 -8 84 -25zM141 -52l34 -20q38 -20 38 -55q0 -29 -22 -47t-57 -18q-43 0 -72 31l8 38l5 2q13 -16 25.5 -23.5t29.5 -7.5q15 0 24 7t9 20q0 9 -5.5 14.5t-16.5 10.5l-47 29l24 90h44z" />
    <glyph glyph-name="Scaron" unicode="&#x160;" horiz-adv-x="451" 
d="M439 615l-21 -71l-14 -4q-52 44 -116 44q-38 0 -67 -15t-45 -39.5t-16 -51.5q0 -37 26 -61.5t80 -58.5q44 -27 71.5 -48.5t47 -54t19.5 -75.5q0 -51 -28.5 -94t-78.5 -68t-112 -25q-41 0 -85.5 12t-80.5 33l19 77l10 4q29 -32 68 -48t77 -16q59 0 97 32.5t38 78.5
q0 39 -26 65t-80 59q-43 26 -70 47t-46 53t-19 75q0 50 27.5 91.5t76 65.5t107.5 24q72 0 141 -31zM422 813q-58 -37 -121 -90h-22q-51 48 -108 90l18 32h9q69 -47 94 -66q30 19 110 66h9z" />
    <glyph glyph-name="scaron" unicode="&#x161;" horiz-adv-x="317" 
d="M304 439l-21 -68l-12 -4q-39 44 -80 44q-30 0 -51.5 -21.5t-21.5 -48.5q0 -22 15 -38t48 -40q43 -31 65.5 -57.5t22.5 -69.5q0 -40 -22 -73t-61 -52t-89 -19q-52 7 -100 34l19 71l11 5q20 -28 45 -42.5t51 -14.5q34 0 56 22t22 50q0 26 -16.5 44t-50.5 41
q-42 30 -64 55.5t-22 66.5t23.5 73t63 50t85.5 17q43 -8 84 -25zM344 655q-39 -36 -132 -133h-24q-49 72 -106 133l25 31h8q58 -63 89 -106q42 43 115 106h9z" />
    <glyph glyph-name="uni0162" unicode="&#x162;" horiz-adv-x="467" 
d="M497 633l-14 -58l-104 5h-63l-51 -381l-21 -199h-16l-17 -52l33 -20q38 -20 38 -55q0 -29 -22 -47t-57 -18q-43 0 -72 31l8 38l5 2q13 -16 25.5 -23.5t30.5 -7.5q15 0 23.5 7t8.5 20q0 9 -5 14.5t-16 10.5l-48 29l21 71h-15l29 193l43 387h-61l-109 -5l-5 7l14 58h413z
" />
    <glyph glyph-name="uni0163" unicode="&#x163;" horiz-adv-x="331" 
d="M145 111l-2 -16q0 -15 7 -24t20 -9q36 0 87 80h9l21 -27q-35 -58 -63 -85t-63 -37q-40 0 -62.5 22t-22.5 62l2 24l43 258l5 41h-67l-5 5l5 45h74l14 111l69 32l6 -6l-22 -137h122l6 -8l-5 -42h-131zM174 -52l34 -20q38 -20 38 -55q0 -29 -22 -47t-57 -18q-43 0 -72 31
l8 38l5 2q13 -16 25.5 -23.5t29.5 -7.5q15 0 24 7t9 20q0 9 -5.5 14.5t-16.5 10.5l-47 29l24 90h44z" />
    <glyph glyph-name="Tcaron" unicode="&#x164;" horiz-adv-x="467" 
d="M497 633l-14 -58l-104 5h-63l-51 -381l-21 -199h-75l29 193l43 387h-61l-109 -5l-5 7l14 58h413zM434 837q-39 -36 -132 -133h-24q-49 72 -106 133l25 31h8q58 -63 89 -106q42 43 115 106h9z" />
    <glyph glyph-name="tcaron" unicode="&#x165;" horiz-adv-x="356" 
d="M145 111l-2 -16q0 -15 7 -24t20 -9q36 0 87 80h9l21 -27q-35 -58 -63 -85t-63 -37q-40 0 -62.5 22t-22.5 62l2 24l43 258l5 41h-67l-5 5l5 45h74l14 111l69 32l6 -6l-22 -137h122l6 -8l-5 -42h-131zM364 680l-43 -170l-38 -6l-4 6l26 172l55 4z" />
    <glyph glyph-name="Tbar" unicode="&#x166;" horiz-adv-x="467" 
d="M316 580l-31 -234h93l7 -6l-4 -42h-103l-13 -99l-21 -199h-75l29 193l12 105h-91l-5 6l3 42h98l26 234h-61l-109 -5l-5 7l14 58h413l4 -7l-14 -58l-104 5h-63z" />
    <glyph glyph-name="tbar" unicode="&#x167;" horiz-adv-x="331" 
d="M195 400l-18 -110h108l6 -6l-4 -42h-118l-21 -131l-2 -16q0 -15 7 -24t20 -9q36 0 87 80h9l22 -27q-36 -58 -63.5 -85t-62.5 -37q-41 0 -63.5 22t-21.5 62l2 24l24 141h-70l-6 6l4 42h80l11 69l5 41h-67l-6 5l6 45h74l14 111l69 32l5 -6l-22 -137h122l7 -8l-6 -42h-131z
" />
    <glyph glyph-name="Umacron" unicode="&#x16a;" horiz-adv-x="597" 
d="M534 315l-9 -73q-12 -119 -77 -184t-176 -65q-95 0 -149 49t-54 138q0 29 4 54l12 87l39 319h73l-53 -397q-3 -24 -3 -45q0 -69 34.5 -103.5t101.5 -34.5q78 0 123.5 43.5t55.5 130.5l46 406h75zM514 809l-5 -45h-283l-6 6l5 44h283z" />
    <glyph glyph-name="umacron" unicode="&#x16b;" horiz-adv-x="471" 
d="M422 463l-50 -354l-4 -106l-76 -7l31 224h-7q-49 -84 -89.5 -137t-84.5 -87h-11q-35 8 -56.5 30t-20.5 56l1 13l41 258l8 105l74 6l-53 -335l-2 -21q-1 -15 5 -22.5t16 -7.5q29 0 82 73t117 208l5 97zM429 627l-5 -45h-283l-6 6l5 44h283z" />
    <glyph glyph-name="Ubreve" unicode="&#x16c;" horiz-adv-x="597" 
d="M534 315l-9 -73q-12 -119 -77 -184t-176 -65q-95 0 -149 49t-54 138q0 29 4 54l12 87l39 319h73l-53 -397q-3 -24 -3 -45q0 -69 34.5 -103.5t101.5 -34.5q78 0 123.5 43.5t55.5 130.5l46 406h75zM490 822q-17 -54 -50.5 -84t-82.5 -30q-103 0 -115 114l24 29h12
q7 -88 81 -88q37 0 62 21.5t40 66.5h11z" />
    <glyph glyph-name="ubreve" unicode="&#x16d;" horiz-adv-x="471" 
d="M422 463l-50 -354l-4 -106l-76 -7l31 224h-7q-49 -84 -89.5 -137t-84.5 -87h-11q-35 8 -56.5 30t-20.5 56l1 13l41 258l8 105l74 6l-53 -335l-2 -21q-1 -15 5 -22.5t16 -7.5q29 0 82 73t117 208l5 97zM404 640q-17 -54 -50.5 -84t-82.5 -30q-103 0 -115 114l24 29h12
q7 -88 81 -88q37 0 62 21.5t40 66.5h11z" />
    <glyph glyph-name="Uring" unicode="&#x16e;" horiz-adv-x="597" 
d="M534 315l-9 -73q-12 -119 -77 -184t-176 -65q-95 0 -149 49t-54 138q0 29 4 54l12 87l39 319h73l-53 -397q-3 -24 -3 -45q0 -69 34.5 -103.5t101.5 -34.5q78 0 123.5 43.5t55.5 130.5l46 406h75zM429.5 854.5q21.5 -22.5 21.5 -57.5q0 -39 -24 -61t-60 -22t-58.5 21.5
t-22.5 59.5q0 37 22 59.5t61 22.5t60.5 -22.5zM334.5 828q-11.5 -11 -11.5 -32q0 -22 12.5 -34t33.5 -12q20 0 32.5 11.5t12.5 32.5q0 20 -12 32.5t-34 12.5t-33.5 -11z" />
    <glyph glyph-name="uring" unicode="&#x16f;" horiz-adv-x="471" 
d="M422 463l-50 -354l-4 -106l-76 -7l31 224h-7q-49 -84 -89.5 -137t-84.5 -87h-11q-35 8 -56.5 30t-20.5 56l1 13l41 258l8 105l74 6l-53 -335l-2 -21q-1 -15 5 -22.5t16 -7.5q29 0 82 73t117 208l5 97zM343.5 672.5q21.5 -22.5 21.5 -57.5q0 -39 -24 -61t-60 -22
t-58.5 21.5t-22.5 59.5q0 37 22 59.5t61 22.5t60.5 -22.5zM248.5 646q-11.5 -11 -11.5 -32q0 -22 12.5 -34t33.5 -12q20 0 32.5 11.5t12.5 32.5q0 20 -12 32.5t-34 12.5t-33.5 -11z" />
    <glyph glyph-name="Uhungarumlaut" unicode="&#x170;" horiz-adv-x="597" 
d="M534 315l-9 -73q-12 -119 -77 -184t-176 -65q-95 0 -149 49t-54 138q0 29 4 54l12 87l39 319h73l-53 -397q-3 -24 -3 -45q0 -69 34.5 -103.5t101.5 -34.5q78 0 123.5 43.5t55.5 130.5l46 406h75zM267 757q59 61 95 104h8l34 -24v-8q-51 -50 -118 -110l-9 -1l-25 23z
M425 775q44 46 79 86h6l36 -24l-1 -8q-17 -17 -94 -89l-23 -21l-9 -1l-25 23q32 35 31 34z" />
    <glyph glyph-name="uhungarumlaut" unicode="&#x171;" horiz-adv-x="471" 
d="M422 463l-50 -354l-4 -106l-76 -7l31 224h-7q-49 -84 -89.5 -137t-84.5 -87h-11q-35 8 -56.5 30t-20.5 56l1 13l41 258l8 105l74 6l-53 -335l-2 -21q-1 -15 5 -22.5t16 -7.5q29 0 82 73t117 208l5 97zM298 695h7l34 -26v-7q-59 -61 -144 -143h-8l-25 23q65 70 136 153z
M439 695h6l35 -26v-7q-47 -49 -145 -143h-7l-25 23q81 89 136 153z" />
    <glyph glyph-name="Uogonek" unicode="&#x172;" horiz-adv-x="597" 
d="M534 315l-9 -73q-12 -119 -77 -184t-176 -65q-95 0 -149 49t-54 138q0 29 4 54l12 87l39 319h73l-53 -397q-3 -24 -3 -45q0 -69 34.5 -103.5t101.5 -34.5q78 0 123.5 43.5t55.5 130.5l46 406h75zM234.5 -196q-22.5 20 -22.5 54q0 19 8.5 36t29 40.5t71.5 75.5h49
q-39 -44 -63.5 -73.5t-31.5 -42t-7 -24.5q0 -17 9 -26.5t27 -9.5q36 0 77 41h5l12 -42q-52 -49 -103 -49q-38 0 -60.5 20z" />
    <glyph glyph-name="uogonek" unicode="&#x173;" horiz-adv-x="471" 
d="M422 463l-50 -354l-4 -106l-76 -7l31 224h-7q-49 -84 -89.5 -137t-84.5 -87h-11q-35 8 -56.5 30t-20.5 56l1 13l41 258l8 105l74 6l-53 -335l-2 -21q-1 -15 5 -22.5t16 -7.5q29 0 82 73t117 208l5 97zM304 -63.5q-25 -26.5 -32 -38t-7 -22.5q0 -9 6 -15t18 -6
q14 0 27 8.5t30 25.5l4 -1l14 -38q-21 -23 -41 -33.5t-43 -10.5q-30 0 -49 16t-19 42q0 27 20.5 55t81.5 84h54q-39 -40 -64 -66.5z" />
    <glyph glyph-name="Wcircumflex" unicode="&#x174;" horiz-adv-x="849" 
d="M593 0h-77l-72 378h-7l-172 -378h-79l-115 640h75l2 -59l89 -497h7l180 395l-32 161h78l6 -66l89 -490h7l227 492l22 64h71zM344 757q58 37 121 90h22q51 -48 108 -90l-18 -32h-9q-69 47 -94 66q-30 -19 -110 -66h-9z" />
    <glyph glyph-name="wcircumflex" unicode="&#x175;" horiz-adv-x="683" 
d="M488 0h-78l-36 357h-8l-159 -357h-81l-54 456l74 7l1 -61l31 -317h7l140 313l23 61h79l3 -57l31 -317h6l103 191q16 30 24 52t8 42q0 32 -24 67l3 10l69 16q23 -37 23 -80q0 -28 -11 -58.5t-32 -69.5zM253 552q39 36 132 133h24q49 -72 106 -133l-25 -31h-8
q-58 63 -89 106q-42 -43 -115 -106h-9z" />
    <glyph glyph-name="Ycircumflex" unicode="&#x176;" horiz-adv-x="502" 
d="M277 233l-7 -46l-20 -187h-76l29 187l5 46l-142 407h79l7 -35l98 -291h8l181 289l19 37h82zM191 757q58 37 121 90h22q51 -48 108 -90l-18 -32h-9q-69 47 -94 66q-30 -19 -110 -66h-9z" />
    <glyph glyph-name="ycircumflex" unicode="&#x177;" horiz-adv-x="412" 
d="M401 382q0 -57 -40 -128l-142 -251q-60 -106 -110.5 -152t-111.5 -46q-33 0 -75 14l2 64l9 6q34 -9 63 -9q46 0 81 26.5t72 88.5l-91 460l74 8l11 -80l48 -294h10l98 180q33 57 33 108q0 34 -23 66l3 9l65 11q24 -44 24 -81zM117 553q39 36 132 133h24q49 -72 106 -133
l-25 -31h-8q-58 63 -89 106q-42 -43 -115 -106h-9z" />
    <glyph glyph-name="Ydieresis" unicode="&#x178;" horiz-adv-x="502" 
d="M277 233l-7 -46l-20 -187h-76l29 187l5 46l-142 407h79l7 -35l98 -291h8l181 289l19 37h82zM270.5 818q10.5 -10 10.5 -28q0 -19 -11.5 -30.5t-29.5 -11.5q-19 0 -29 10.5t-10 28.5q0 19 11 30t30 11q18 0 28.5 -10zM433.5 818q10.5 -10 10.5 -28q0 -19 -11 -30.5
t-30 -11.5q-18 0 -28 10.5t-10 28.5q0 19 10.5 30t29.5 11q18 0 28.5 -10z" />
    <glyph glyph-name="Zacute" unicode="&#x179;" horiz-adv-x="503" 
d="M510 585l-409 -524h254l90 7l3 -6l-13 -64l-110 2h-268l-54 -3l7 56l410 525h-238l-90 -6l-4 5l15 64l366 -1l48 1zM380 859l20 -44l-3 -9q-60 -29 -149 -67l-44 -19l-9 4l-14 34q106 53 191 103z" />
    <glyph glyph-name="zacute" unicode="&#x17a;" horiz-adv-x="407" 
d="M383 451l-283 -375l29 7q17 0 51 -12q5 -1 21.5 -6t28.5 -5q43 0 63.5 28.5t23.5 97.5l13 6l36 -20q-4 -91 -39.5 -136.5t-98.5 -45.5q-18 0 -39 5.5t-40 11.5q-46 16 -69 16q-17 0 -31.5 -6.5t-29.5 -22.5h-8l-24 22l286 380l-139 -1l-69 -8l-6 6l15 67l7 5l64 -5
l190 -1l25 14zM324 694l28 -39l-2 -9q-100 -79 -168 -127l-9 1l-21 30q92 75 163 145z" />
    <glyph glyph-name="Zdotaccent" unicode="&#x17b;" horiz-adv-x="503" 
d="M510 585l-409 -524h254l90 7l3 -6l-13 -64l-110 2h-268l-54 -3l7 56l410 525h-238l-90 -6l-4 5l15 64l366 -1l48 1zM321.5 830q11.5 -11 11.5 -31q0 -21 -12 -34t-32 -13t-31.5 12t-11.5 32t12 32.5t33 12.5q19 0 30.5 -11z" />
    <glyph glyph-name="zdotaccent" unicode="&#x17c;" horiz-adv-x="407" 
d="M383 451l-283 -375l29 7q17 0 51 -12q5 -1 21.5 -6t28.5 -5q43 0 63.5 28.5t23.5 97.5l13 6l36 -20q-4 -91 -39.5 -136.5t-98.5 -45.5q-18 0 -39 5.5t-40 11.5q-46 16 -69 16q-17 0 -31.5 -6.5t-29.5 -22.5h-8l-24 22l286 380l-139 -1l-69 -8l-6 6l15 67l7 5l64 -5
l190 -1l25 14zM284.5 648q11.5 -11 11.5 -31q0 -21 -12 -34t-32 -13t-31.5 12t-11.5 32t12 32.5t33 12.5q19 0 30.5 -11z" />
    <glyph glyph-name="Zcaron" unicode="&#x17d;" horiz-adv-x="503" 
d="M510 585l-409 -524h254l90 7l3 -6l-13 -64l-110 2h-268l-54 -3l7 56l410 525h-238l-90 -6l-4 5l15 64l366 -1l48 1zM414 813q-58 -37 -121 -90h-22q-51 48 -108 90l18 32h9q69 -47 94 -66q30 19 110 66h9z" />
    <glyph glyph-name="zcaron" unicode="&#x17e;" horiz-adv-x="407" 
d="M383 451l-283 -375l29 7q17 0 51 -12q5 -1 21.5 -6t28.5 -5q43 0 63.5 28.5t23.5 97.5l13 6l36 -20q-4 -91 -39.5 -136.5t-98.5 -45.5q-18 0 -39 5.5t-40 11.5q-46 16 -69 16q-17 0 -31.5 -6.5t-29.5 -22.5h-8l-24 22l286 380l-139 -1l-69 -8l-6 6l15 67l7 5l64 -5
l190 -1l25 14zM382 655q-39 -36 -132 -133h-24q-49 72 -106 133l25 31h8q58 -63 89 -106q42 43 115 106h9z" />
    <glyph glyph-name="uni018F" unicode="&#x18f;" horiz-adv-x="594" 
d="M509.5 574q63.5 -72 63.5 -198q0 -113 -40.5 -200t-113.5 -135t-167 -48q-98 0 -157 55t-59 149q0 21 3.5 39t7.5 33.5t5 20.5l13 12l426 3q4 25 4 61q0 101 -47.5 156.5t-137.5 55.5q-49 0 -99.5 -15.5t-93.5 -44.5l-9 7l21 71q102 50 200 50q117 0 180.5 -72zM397 105
q58 51 82 139l-359 -3l-5 -24q-2 -18 -2 -25q0 -65 39.5 -101.5t107.5 -36.5q79 0 137 51z" />
    <glyph glyph-name="florin" unicode="&#x192;" horiz-adv-x="276" 
d="M369 606l-10 -49l-7 -3q-30 13 -61 13q-89 0 -100 -95l-13 -99h110l4 -5l-4 -36h-116l-18 -147l-17 -138q-7 -67 -32 -108.5t-86 -88.5l-30 29l1 7q45 39 63 72t24 87l17 135l18 152h-65l-4 5l3 36h71l11 90q8 73 52.5 112.5t117.5 39.5q31 0 71 -9z" />
    <glyph glyph-name="Ohorn" unicode="&#x1a0;" horiz-adv-x="626" 
d="M614.5 606.5q-27.5 -28.5 -73.5 -34.5q27 -33 40 -79t13 -111q0 -116 -38.5 -204.5t-110 -137t-168.5 -48.5q-113 0 -171.5 70t-58.5 206q0 115 39 201t111 132t166 46q36 0 60.5 -5.5t50.5 -15.5q3 -1 19 -6.5t33 -5.5q25 0 40.5 13.5t15.5 37.5q0 33 -25 63l3 8
q21 14 37 14q18 0 31.5 -22.5t13.5 -51.5q0 -41 -27.5 -69.5zM454 134.5q62 82.5 62 237.5q0 109 -38.5 161t-123.5 52q-106 0 -167.5 -81.5t-61.5 -235.5q0 -110 39 -163t123 -53q105 0 167 82.5z" />
    <glyph glyph-name="ohorn" unicode="&#x1a1;" horiz-adv-x="456" 
d="M448 439.5q-32 -29.5 -76 -29.5q-10 0 -15 1q23 -37 23 -97q0 -93 -26.5 -163.5t-76.5 -112t-118 -47.5l-9 1q-58 11 -86 48t-28 110q0 90 27.5 160.5t78 111.5t118.5 44h8q23 -2 49 -12q23 -9 42 -9q28 0 45.5 16t17.5 41q0 32 -33 65l3 8q20 17 37 17q19 0 35 -25
t16 -55q0 -43 -32 -72.5zM272.5 119.5q36.5 70.5 36.5 188.5q0 52 -15 75.5t-47 23.5q-68 0 -105 -69.5t-37 -186.5q0 -54 14.5 -78t48.5 -24q68 0 104.5 70.5z" />
    <glyph glyph-name="Uhorn" unicode="&#x1af;" horiz-adv-x="607" 
d="M630 639.5q-21 -24.5 -58 -34.5l-38 -290l-9 -73q-12 -119 -77 -184t-176 -65q-95 0 -149 49t-54 138q0 29 4 54l12 87l39 319h73l-53 -397q-3 -24 -3 -45q0 -69 34.5 -103.5t101.5 -34.5q78 0 123.5 43.5t55.5 130.5l46 406h28q31 0 47 13.5t16 38.5q0 29 -30 60l2 7
q22 15 36 15q18 0 34 -23t16 -54q0 -33 -21 -57.5z" />
    <glyph glyph-name="uhorn" unicode="&#x1b0;" horiz-adv-x="481" 
d="M489 471.5q-25 -26.5 -72 -42.5l-44 -320l-5 -106l-75 -7l32 227h-8q-50 -87 -90.5 -140t-84.5 -87h-11q-35 8 -56.5 30t-20.5 56l1 13l41 258l8 105l74 6l-53 -335l-1 -14q-1 -19 4.5 -28t15.5 -9q29 0 82 74.5t118 215.5l5 88l30 6q73 10 73 58q0 33 -31 65l2 8
q23 18 40 18q18 0 34.5 -23.5t16.5 -54.5q0 -35 -25 -61.5z" />
    <glyph glyph-name="uni01C4" unicode="&#x1c4;" horiz-adv-x="1123" 
d="M536 580q63 -65 63 -185q0 -124 -38.5 -214t-113.5 -138.5t-181 -48.5q-39 0 -96.5 1.5t-105.5 4.5h-1l29 193l52 447h1l213 5q115 0 178 -65zM457.5 140.5q62.5 83.5 62.5 240.5q0 100 -43 150.5t-127 50.5q-25 0 -65 -1t-74 -3l-52 -379l-14 -136q92 -6 136 -6
q114 0 176.5 83.5zM1130 585l-409 -524h254l90 7l3 -6l-13 -64l-110 2h-268l-54 -3l7 56l410 525h-238l-90 -6l-4 5l15 64l366 -1l48 1zM1034 813q-58 -37 -121 -90h-22q-51 48 -108 90l18 32h9q69 -47 94 -66q30 19 110 66h9z" />
    <glyph glyph-name="uni01C5" unicode="&#x1c5;" horiz-adv-x="1027" 
d="M536 580q63 -65 63 -185q0 -124 -38.5 -214t-113.5 -138.5t-181 -48.5q-39 0 -96.5 1.5t-105.5 4.5h-1l29 193l52 447h1l213 5q115 0 178 -65zM457.5 140.5q62.5 83.5 62.5 240.5q0 100 -43 150.5t-127 50.5q-25 0 -65 -1t-74 -3l-52 -379l-14 -136q92 -6 136 -6
q114 0 176.5 83.5zM1003 451l-283 -375l29 7q17 0 51 -12q5 -1 21.5 -6t28.5 -5q43 0 63.5 28.5t23.5 97.5l13 6l36 -20q-4 -91 -39.5 -136.5t-98.5 -45.5q-18 0 -39 5.5t-40 11.5q-46 16 -69 16q-17 0 -31.5 -6.5t-29.5 -22.5h-8l-24 22l286 380l-139 -1l-69 -8l-6 6l15 67
l7 5l64 -5l190 -1l25 14zM1002 655q-39 -36 -132 -133h-24q-49 72 -106 133l25 31h8q58 -63 89 -106q42 43 115 106h9z" />
    <glyph glyph-name="uni01C6" unicode="&#x1c6;" horiz-adv-x="848" 
d="M427 704l-83 -595l-5 -106l-76 -7l29 205h-10q-74 -127 -159 -208h-15q-76 43 -76 157q0 72 27 140t80.5 116t128.5 59h5l53 -19l22 154l3 97zM171 107.5q29 32.5 67 95t75 146.5l4 32l-63 23q-47 0 -82 -31.5t-54 -85t-19 -118.5q0 -50 9.5 -72t21.5 -22t41 32.5z
M824 451l-283 -375l29 7q17 0 51 -12q5 -1 21.5 -6t28.5 -5q43 0 63.5 28.5t23.5 97.5l13 6l36 -20q-4 -91 -39.5 -136.5t-98.5 -45.5q-18 0 -39 5.5t-40 11.5q-46 16 -69 16q-17 0 -31.5 -6.5t-29.5 -22.5h-8l-24 22l286 380l-139 -1l-69 -8l-6 6l15 67l7 5l64 -5l190 -1
l25 14zM823 655q-39 -36 -132 -133h-24q-49 72 -106 133l25 31h8q58 -63 89 -106q42 43 115 106h9z" />
    <glyph glyph-name="uni01C7" unicode="&#x1c7;" horiz-adv-x="697" 
d="M376 56l-13 -56h-300l30 193l51 447h76l-60 -441l-14 -135h226zM594 212l-9 -94q-10 -75 -53.5 -124.5t-138.5 -94.5l-24 42l1 9q72 38 105 75t40 93l11 87l43 374l-119 -1l-7 7l12 55h197z" />
    <glyph glyph-name="uni01C8" unicode="&#x1c8;" horiz-adv-x="632" 
d="M376 56l-13 -56h-300l30 193l51 447h76l-60 -441l-14 -135h226zM586 458l-49 -350l-9 -90q-10 -78 -42.5 -125t-103.5 -87l-25 34l1 9q49 33 72 69t30 96l48 344l3 42h-76l-5 5l7 45h71l74 10zM596.5 648q11.5 -11 11.5 -31q0 -21 -12 -34t-32 -13t-31.5 12t-11.5 32
t12 32.5t33 12.5q19 0 30.5 -11z" />
    <glyph glyph-name="uni01C9" unicode="&#x1c9;" horiz-adv-x="479" 
d="M137 109l-5 -106l-75 -7l85 604l3 97l75 7zM433 458l-49 -350l-9 -90q-10 -78 -42.5 -125t-103.5 -87l-25 34l1 9q49 33 72 69t30 96l48 344l3 42h-76l-5 5l7 45h71l74 10zM443.5 648q11.5 -11 11.5 -31q0 -21 -12 -34t-32 -13t-31.5 12t-11.5 32t12 32.5t33 12.5
q19 0 30.5 -11z" />
    <glyph glyph-name="uni01CA" unicode="&#x1ca;" horiz-adv-x="950" 
d="M553 187l-21 -187h-78l-251 520h-7l-39 -310l-23 -210h-71l28 190l54 450h78l251 -520h6l64 517l71 5zM847 212l-9 -94q-10 -75 -53.5 -124.5t-138.5 -94.5l-24 42l1 9q72 38 105 75t40 93l11 87l43 374l-119 -1l-7 7l12 55h197z" />
    <glyph glyph-name="uni01CB" unicode="&#x1cb;" horiz-adv-x="885" 
d="M553 187l-21 -187h-78l-251 520h-7l-39 -310l-23 -210h-71l28 190l54 450h78l251 -520h6l64 517l71 5zM839 458l-49 -350l-9 -90q-10 -78 -42.5 -125t-103.5 -87l-25 34l1 9q49 33 72 69t30 96l48 344l3 42h-76l-5 5l7 45h71l74 10zM849.5 648q11.5 -11 11.5 -31
q0 -21 -12 -34t-32 -13t-31.5 12t-11.5 32t12 32.5t33 12.5q19 0 30.5 -11z" />
    <glyph glyph-name="uni01CC" unicode="&#x1cc;" horiz-adv-x="699" 
d="M393.5 434.5q21.5 -22.5 20.5 -56.5l-1 -13l-41 -257l-6 -105l-77 -7l55 342l1 13q0 31 -21 31q-29 0 -81.5 -73t-117.5 -208l-5 -98l-76 -7l52 363l5 97l74 7l-32 -225h9q51 87 91 140.5t83 86.5h11q35 -8 56.5 -30.5zM653 458l-49 -350l-9 -90q-10 -78 -42.5 -125
t-103.5 -87l-25 34l1 9q49 33 72 69t30 96l48 344l3 42h-76l-5 5l7 45h71l74 10zM663.5 648q11.5 -11 11.5 -31q0 -21 -12 -34t-32 -13t-31.5 12t-11.5 32t12 32.5t33 12.5q19 0 30.5 -11z" />
    <glyph glyph-name="uni01CD" unicode="&#x1cd;" horiz-adv-x="548" 
d="M500 0h-76l-6 62l-21 115l-136 2l-123 -2l-52 -111l-25 -66h-75l304 640h86zM385 241l-60 321h-7l-150 -321l106 -1zM473 813q-58 -37 -121 -90h-22q-51 48 -108 90l18 32h9q69 -47 94 -66q30 19 110 66h9z" />
    <glyph glyph-name="uni01CE" unicode="&#x1ce;" horiz-adv-x="439" 
d="M391 460l-49 -351l-5 -106l-76 -7l29 205h-10q-73 -128 -157 -208h-14q-76 43 -76 157q0 72 27 140t79.5 115.5t127.5 59.5h5l62 -23l48 24zM171.5 108q29.5 33 67 96t73.5 148l1 6l1 24l-62 22q-46 0 -80.5 -31.5t-52.5 -85t-18 -118.5q0 -50 9 -72t20 -22q12 0 41.5 33
zM397 656q-39 -36 -132 -133h-24q-49 72 -106 133l25 31h8q58 -63 89 -106q42 43 115 106h9z" />
    <glyph glyph-name="uni01CF" unicode="&#x1cf;" horiz-adv-x="259" 
d="M159 199l-20 -199h-76l29 193l51 447h76zM325 813q-58 -37 -121 -90h-22q-51 48 -108 90l18 32h9q69 -47 94 -66q30 19 110 66h9z" />
    <glyph glyph-name="uni01D0" unicode="&#x1d0;" horiz-adv-x="218" 
d="M124 109l-4 -106l-76 -7l52 363l4 97l74 7zM285 655q-39 -36 -132 -133h-24q-49 72 -106 133l25 31h8q58 -63 89 -106q42 43 115 106h9z" />
    <glyph glyph-name="uni01D1" unicode="&#x1d1;" horiz-adv-x="611" 
d="M530 580q60 -67 60 -189q0 -123 -37 -213t-107.5 -138t-170.5 -48q-107 0 -167.5 69.5t-60.5 193.5q0 185 81.5 288.5t231.5 103.5q110 0 170 -67zM180.5 501q-56.5 -83 -56.5 -241q0 -205 158 -205q114 0 171.5 84t57.5 243q0 202 -160 202q-114 0 -170.5 -83zM501 813
q-58 -37 -121 -90h-22q-51 48 -108 90l18 32h9q69 -47 94 -66q30 19 110 66h9z" />
    <glyph glyph-name="uni01D2" unicode="&#x1d2;" horiz-adv-x="411" 
d="M266 466q55 -9 82.5 -46t27.5 -106q0 -92 -26 -163t-75.5 -112.5t-117.5 -47.5l-9 1q-57 11 -84.5 48t-27.5 109q0 90 27 160.5t77.5 111.5t117.5 45h8zM141 336q-36 -69 -36 -186q0 -52 14 -75.5t47 -23.5q67 0 103 70t36 188q0 51 -14 73.5t-46 22.5q-68 0 -104 -69z
M393 655q-39 -36 -132 -133h-24q-49 72 -106 133l25 31h8q58 -63 89 -106q42 43 115 106h9z" />
    <glyph glyph-name="uni01D3" unicode="&#x1d3;" horiz-adv-x="597" 
d="M534 315l-9 -73q-12 -119 -77 -184t-176 -65q-95 0 -149 49t-54 138q0 29 4 54l12 87l39 319h73l-53 -397q-3 -24 -3 -45q0 -69 34.5 -103.5t101.5 -34.5q78 0 123.5 43.5t55.5 130.5l46 406h75zM499 837q-39 -36 -132 -133h-24q-49 72 -106 133l25 31h8q58 -63 89 -106
q42 43 115 106h9z" />
    <glyph glyph-name="uni01D4" unicode="&#x1d4;" horiz-adv-x="471" 
d="M422 463l-50 -354l-4 -106l-76 -7l31 224h-7q-49 -84 -89.5 -137t-84.5 -87h-11q-35 8 -56.5 30t-20.5 56l1 13l41 258l8 105l74 6l-53 -335l-2 -21q-1 -15 5 -22.5t16 -7.5q29 0 82 73t117 208l5 97zM413 655q-39 -36 -132 -133h-24q-49 72 -106 133l25 31h8
q58 -63 89 -106q42 43 115 106h9z" />
    <glyph glyph-name="uni01D5" unicode="&#x1d5;" horiz-adv-x="597" 
d="M534 315l-9 -73q-12 -119 -77 -184t-176 -65q-95 0 -149 49t-54 138q0 29 4 54l12 87l39 319h73l-53 -397q-3 -24 -3 -45q0 -69 34.5 -103.5t101.5 -34.5q78 0 123.5 43.5t55.5 130.5l46 406h75zM518 920l-4 -45h-258l-6 6l5 45h257zM326 797.5q10 -10.5 10 -28.5
q0 -19 -11 -30t-30 -11q-18 0 -28 10t-10 29t11 30t30 11q18 0 28 -10.5zM482 797.5q10 -10.5 10 -28.5q0 -19 -11 -30t-30 -11q-18 0 -28 10.5t-10 28.5q0 19 11 30t30 11q18 0 28 -10.5z" />
    <glyph glyph-name="uni01D6" unicode="&#x1d6;" horiz-adv-x="471" 
d="M422 463l-50 -354l-4 -106l-76 -7l31 224h-7q-49 -84 -89.5 -137t-84.5 -87h-11q-35 8 -56.5 30t-20.5 56l1 13l41 258l8 105l74 6l-53 -335l-2 -21q-1 -15 5 -22.5t16 -7.5q29 0 82 73t117 208l5 97zM432 738l-4 -45h-258l-6 6l5 45h257zM240 615.5q10 -10.5 10 -28.5
q0 -19 -11 -30t-30 -11q-18 0 -28 10t-10 29t11 30t30 11q18 0 28 -10.5zM396 615.5q10 -10.5 10 -28.5q0 -19 -11 -30t-30 -11q-18 0 -28 10.5t-10 28.5q0 19 11 30t30 11q18 0 28 -10.5z" />
    <glyph glyph-name="uni01D7" unicode="&#x1d7;" horiz-adv-x="597" 
d="M534 315l-9 -73q-12 -119 -77 -184t-176 -65q-95 0 -149 49t-54 138q0 29 4 54l12 87l39 319h73l-53 -397q-3 -24 -3 -45q0 -69 34.5 -103.5t101.5 -34.5q78 0 123.5 43.5t55.5 130.5l46 406h75zM463 959l12 -47l-4 -7q-97 -27 -206 -51l-8 5l-8 37q102 28 206 67z
M300.5 797.5q10.5 -10.5 10.5 -28.5q0 -19 -11 -30t-29 -11q-19 0 -29.5 10t-10.5 29t11.5 30t29.5 11t28.5 -10.5zM456.5 797.5q10.5 -10.5 10.5 -28.5q0 -19 -11 -30t-29 -11q-19 0 -29.5 10t-10.5 29t11.5 30t29.5 11t28.5 -10.5z" />
    <glyph glyph-name="uni01D8" unicode="&#x1d8;" horiz-adv-x="471" 
d="M422 463l-50 -354l-4 -106l-76 -7l31 224h-7q-49 -84 -89.5 -137t-84.5 -87h-11q-35 8 -56.5 30t-20.5 56l1 13l41 258l8 105l74 6l-53 -335l-2 -21q-1 -15 5 -22.5t16 -7.5q29 0 82 73t117 208l5 97zM389 777l11 -47l-4 -7q-101 -28 -205 -51l-8 5l-8 37q102 28 206 67z
M239 615.5q10 -10.5 10 -28.5q0 -19 -10.5 -30t-29.5 -11q-18 0 -28 10t-10 29t11 30t30 11q17 0 27 -10.5zM395 615.5q10 -10.5 10 -28.5q0 -19 -10.5 -30t-29.5 -11q-38 0 -38 39q0 19 11 30t30 11q17 0 27 -10.5z" />
    <glyph glyph-name="uni01D9" unicode="&#x1d9;" horiz-adv-x="597" 
d="M534 315l-9 -73q-12 -119 -77 -184t-176 -65q-95 0 -149 49t-54 138q0 29 4 54l12 87l39 319h73l-53 -397q-3 -24 -3 -45q0 -69 34.5 -103.5t101.5 -34.5q78 0 123.5 43.5t55.5 130.5l46 406h75zM312.5 801q10.5 -10 10.5 -28q0 -19 -11.5 -30.5t-29.5 -11.5
q-19 0 -29 10.5t-10 28.5q0 19 11 30t30 11q18 0 28.5 -10zM475.5 801q10.5 -10 10.5 -28q0 -19 -11 -30.5t-30 -11.5q-18 0 -28 10.5t-10 28.5q0 19 10.5 30t29.5 11q18 0 28.5 -10zM501 921q-58 -37 -121 -90h-22q-51 48 -108 90l18 32h9q69 -47 94 -66q30 19 110 66h9z
" />
    <glyph glyph-name="uni01DA" unicode="&#x1da;" horiz-adv-x="471" 
d="M422 463l-50 -354l-4 -106l-76 -7l31 224h-7q-49 -84 -89.5 -137t-84.5 -87h-11q-35 8 -56.5 30t-20.5 56l1 13l41 258l8 105l74 6l-53 -335l-2 -21q-1 -15 5 -22.5t16 -7.5q29 0 82 73t117 208l5 97zM415 739q-57 -38 -121 -89h-21q-49 43 -109 89l18 33h9
q34 -23 61 -44q11 -7 33 -23q68 43 111 67h8zM233 615.5q10 -10.5 10 -28.5q0 -19 -11 -30t-29 -11q-19 0 -29 10t-10 29t11 30t30 11q18 0 28 -10.5zM389 615.5q10 -10.5 10 -28.5q0 -19 -11 -30t-29 -11q-19 0 -29 10t-10 29t11 30t30 11q18 0 28 -10.5z" />
    <glyph glyph-name="uni01DB" unicode="&#x1db;" horiz-adv-x="597" 
d="M534 315l-9 -73q-12 -119 -77 -184t-176 -65q-95 0 -149 49t-54 138q0 29 4 54l12 87l39 319h73l-53 -397q-3 -24 -3 -45q0 -69 34.5 -103.5t101.5 -34.5q78 0 123.5 43.5t55.5 130.5l46 406h75zM241 905l-4 7l11 47l9 4q103 -39 206 -67l-9 -37l-8 -5q-110 25 -205 51z
M242 738q-10 10 -10 29t11 30t30 11q18 0 28 -10.5t10 -28.5q0 -19 -11 -30t-30 -11q-18 0 -28 10zM398 738.5q-10 10.5 -10 28.5q0 19 11 30t30 11q18 0 28 -10.5t10 -28.5q0 -19 -11 -30t-30 -11q-18 0 -28 10.5z" />
    <glyph glyph-name="uni01DC" unicode="&#x1dc;" horiz-adv-x="471" 
d="M422 463l-50 -354l-4 -106l-76 -7l31 224h-7q-49 -84 -89.5 -137t-84.5 -87h-11q-35 8 -56.5 30t-20.5 56l1 13l41 258l8 105l74 6l-53 -335l-2 -21q-1 -15 5 -22.5t16 -7.5q29 0 82 73t117 208l5 97zM181 723l-4 7l11 47l9 4q103 -39 206 -67l-9 -37l-8 -5
q-110 25 -205 51zM182 556q-10 10 -10 29t11 30t30 11q18 0 28 -10.5t10 -28.5q0 -19 -11 -30t-30 -11q-18 0 -28 10zM338 556.5q-10 10.5 -10 28.5q0 19 11 30t30 11q18 0 28 -10.5t10 -28.5q0 -19 -11 -30t-30 -11q-18 0 -28 10.5z" />
    <glyph glyph-name="Gcaron" unicode="&#x1e6;" horiz-adv-x="575" 
d="M560 600l-25 -71l-9 -2q-42 29 -78.5 42t-79.5 13q-120 0 -183 -83.5t-63 -243.5q0 -101 42 -149t130 -48q28 0 55.5 5t70.5 19l13 78l10 99l71 5l-13 -94l-14 -139q-59 -20 -103 -29t-95 -9q-120 0 -182 66.5t-62 188.5q0 190 88 294t248 104q96 0 179 -46zM494 813
q-58 -37 -121 -90h-22q-51 48 -108 90l18 32h9q69 -47 94 -66q30 19 110 66h9z" />
    <glyph glyph-name="gcaron" unicode="&#x1e7;" horiz-adv-x="441" 
d="M393 460l-49 -347l-8 -75q-10 -73 -43 -126.5t-82.5 -81.5t-106.5 -28q-64 0 -106 36.5t-54 103.5l3 8l141 88l1 9q-21 19 -31 47.5t-10 71.5q0 72 25.5 136t75.5 107.5t120 54.5h5l62 -22l47 24zM152 343q-37 -61 -37 -152q0 -49 9.5 -73t18.5 -24q10 0 36.5 31t62 88.5
t70.5 132.5l2 13l2 23l-61 22q-66 0 -103 -61zM216.5 -100q39.5 41 50.5 118l26 192h-10q-71 -125 -148 -186l-102 -76q-9 -8 -9 -17q1 -27 27 -49.5t69 -22.5q57 0 96.5 41zM404 655q-39 -36 -132 -133h-24q-49 72 -106 133l25 31h8q58 -63 89 -106q42 43 115 106h9z" />
    <glyph glyph-name="uni01EA" unicode="&#x1ea;" horiz-adv-x="611" 
d="M530 580q60 -67 60 -189q0 -123 -37 -213t-107.5 -138t-170.5 -48q-107 0 -167.5 69.5t-60.5 193.5q0 185 81.5 288.5t231.5 103.5q110 0 170 -67zM180.5 501q-56.5 -83 -56.5 -241q0 -205 158 -205q114 0 171.5 84t57.5 243q0 202 -160 202q-114 0 -170.5 -83z
M243.5 -196q-22.5 20 -22.5 54q0 19 8.5 36t29 40.5t71.5 75.5h49q-39 -44 -63.5 -73.5t-31.5 -42t-7 -24.5q0 -17 9 -26.5t27 -9.5q36 0 77 41h5l12 -42q-52 -49 -103 -49q-38 0 -60.5 20z" />
    <glyph glyph-name="uni01EB" unicode="&#x1eb;" horiz-adv-x="411" 
d="M266 466q55 -9 82.5 -46t27.5 -106q0 -92 -26 -163t-75.5 -112.5t-117.5 -47.5l-9 1q-57 11 -84.5 48t-27.5 109q0 90 27 160.5t77.5 111.5t117.5 45h8zM141 336q-36 -69 -36 -186q0 -52 14 -75.5t47 -23.5q67 0 103 70t36 188q0 51 -14 73.5t-46 22.5q-68 0 -104 -69z
M119.5 -179q-22.5 20 -22.5 54q0 19 8.5 36t29 40.5t71.5 75.5h49q-39 -44 -63.5 -73.5t-31.5 -42t-7 -24.5q0 -17 9 -26.5t27 -9.5q36 0 77 41h5l12 -42q-52 -49 -103 -49q-38 0 -60.5 20z" />
    <glyph glyph-name="Aringacute" unicode="&#x1fa;" horiz-adv-x="551" 
d="M262 790l-10 35q117 41 203 79l8 -3l14 -46l-4 -8q-77 -26 -202 -62zM502 0h-76l-7 61l-21 114l-136 3l-123 -3l-53 -110l-23 -65h-75l300 619q-32 21 -32 67q0 37 22 59.5t61 22.5t60.5 -22.5t21.5 -57.5q0 -26 -11.5 -45.5t-30.5 -29.5zM304.5 718.5
q-11.5 -11.5 -11.5 -31.5q0 -22 12 -34t33 -12t33.5 11.5t12.5 32.5q0 20 -12 32.5t-34 12.5t-33.5 -11.5zM385 240l-59 317h-6l-151 -317l106 -2z" />
    <glyph glyph-name="aringacute" unicode="&#x1fb;" horiz-adv-x="439" 
d="M391 460l-49 -351l-5 -106l-76 -7l29 205h-10q-73 -128 -157 -208h-14q-76 43 -76 157q0 72 27 140t79.5 115.5t127.5 59.5h5l62 -23l48 24zM171.5 108q29.5 33 67 96t73.5 148l1 6l1 24l-62 22q-46 0 -80.5 -31.5t-52.5 -85t-18 -118.5q0 -50 9 -72t20 -22q12 0 41.5 33
zM328.5 673.5q21.5 -22.5 21.5 -57.5q0 -39 -24 -61t-60 -22t-58.5 21.5t-22.5 59.5q0 37 22 59.5t61 22.5t60.5 -22.5zM233.5 647q-11.5 -11 -11.5 -32q0 -22 12.5 -34t33.5 -12q20 0 32.5 11.5t12.5 32.5q0 20 -12 32.5t-34 12.5t-33.5 -11zM391.987 828.868
l14.4834 -46.1084l-4.07422 -8.56641q-63.0869 -21.4658 -156.053 -48.3271l-45.9863 -13.4912l-8.44434 5.06738l-9.74902 35.4521q111.668 39.6758 202.127 78.9346z" />
    <glyph glyph-name="AEacute" unicode="&#x1fc;" horiz-adv-x="766" 
d="M730 59l-13 -59h-329l2 62l-3 199l-231 -53l-89 -142l-32 -66h-78l402 640h352l4 -7l-14 -59l-153 4h-92l3 -242l210 45l5 -6l-2 -55l-213 -43l3 -216h108l156 5zM386 320l-4 242h-5l-176 -282zM634 859l20 -44l-3 -9q-60 -29 -149 -67l-44 -19l-9 4l-14 34
q106 53 191 103z" />
    <glyph glyph-name="aeacute" unicode="&#x1fd;" horiz-adv-x="614" 
d="M494 466l9 -1q86 -13 86 -89q0 -58 -60.5 -108t-188.5 -94v-13q2 -54 18 -79.5t47 -25.5q34 0 67 26.5t54 67.5l12 -1l25 -35q-70 -101 -157 -121h-12q-67 7 -95.5 48.5t-28.5 118.5q0 2 -0.5 9t0.5 10q-66 -111 -146 -186h-14q-77 43 -77 157q0 72 27 140t80.5 115.5
t129.5 59.5h4l106 -39q49 37 114 40zM388.5 362.5q-35.5 -49.5 -45.5 -132.5q88 28 133.5 64t45.5 77q0 19 -12 30t-35 11q-51 0 -86.5 -49.5zM173 372.5q-35 -31.5 -53.5 -85t-18.5 -117.5q0 -51 9 -73t21 -22t39 30t62.5 87.5t69.5 134.5q13 28 28 48l-75 29
q-47 0 -82 -31.5zM437 695l28 -39l-2 -9q-100 -79 -168 -127l-9 1l-21 30q92 75 163 145z" />
    <glyph glyph-name="Oslashacute" unicode="&#x1fe;" horiz-adv-x="612" 
d="M590 391q0 -123 -37 -213t-107.5 -138t-170.5 -48q-58 0 -103 21l-65 -114l-43 16l-3 8l67 118q-39 33 -60 87.5t-21 126.5q0 185 81.5 288.5t231.5 103.5q58 0 102 -19l53 94l44 -16l3 -9l-55 -96q83 -66 83 -210zM165 105l263 463q-32 16 -77 16q-114 0 -170.5 -83
t-56.5 -241q0 -102 41 -155zM453.5 139q57.5 84 57.5 243q0 103 -41 153l-265 -463q34 -17 77 -17q114 0 171.5 84zM450 859l20 -44l-3 -9q-60 -29 -149 -67l-44 -19l-9 4l-14 34q106 53 191 103z" />
    <glyph glyph-name="oslashacute" unicode="&#x1ff;" horiz-adv-x="411" 
d="M376 314q0 -92 -26 -163t-75.5 -112.5t-117.5 -47.5l-9 1q-18 4 -26 7l-55 -114l-42 19l-3 7l56 113q-42 39 -42 125q0 90 27 160.5t77.5 111.5t117.5 45h8q6 -1 13.5 -3t11.5 -3l44 89l38 -18l5 -8l-43 -88q41 -38 41 -121zM111 93l152 310q-10 2 -18 2q-68 0 -104 -69
t-36 -186q0 -34 6 -57zM269 121q36 70 36 188q0 32 -6 53l-150 -309q10 -2 17 -2q67 0 103 70zM336 694l28 -39l-2 -9q-100 -79 -168 -127l-9 1l-21 30q92 75 163 145z" />
    <glyph glyph-name="uni0200" unicode="&#x200;" horiz-adv-x="548" 
d="M500 0h-76l-6 62l-21 115l-136 2l-123 -2l-52 -111l-25 -66h-75l304 640h86zM385 241l-60 321h-7l-150 -321l106 -1zM300 724l-117 109v7l30 27h8q60 -70 109 -120l-23 -24zM437 724q-70 63 -116 109v7l29 27h8q45 -55 109 -120l-23 -24z" />
    <glyph glyph-name="uni0201" unicode="&#x201;" horiz-adv-x="439" 
d="M391 460l-49 -351l-5 -106l-76 -7l29 205h-10q-73 -128 -157 -208h-14q-76 43 -76 157q0 72 27 140t79.5 115.5t127.5 59.5h5l62 -23l48 24zM171.5 108q29.5 33 67 96t73.5 148l1 6l1 24l-62 22q-46 0 -80.5 -31.5t-52.5 -85t-18 -118.5q0 -50 9 -72t20 -22q12 0 41.5 33
zM219 520q-85 82 -144 143v7l34 26h8q68 -82 136 -153l-26 -23h-8zM360 520q-98 94 -145 143l1 7l34 26h8q64 -78 135 -153l-26 -23h-7z" />
    <glyph glyph-name="uni0202" unicode="&#x202;" horiz-adv-x="548" 
d="M500 0h-76l-6 62l-21 115l-136 2l-123 -2l-52 -111l-25 -66h-75l304 640h86zM385 241l-60 321h-7l-150 -321l106 -1zM223 736q17 54 50.5 84t82.5 30q103 0 115 -114l-24 -29h-12q-7 88 -81 88q-37 0 -62 -21.5t-40 -66.5h-11z" />
    <glyph glyph-name="uni0203" unicode="&#x203;" horiz-adv-x="439" 
d="M391 460l-49 -351l-5 -106l-76 -7l29 205h-10q-73 -128 -157 -208h-14q-76 43 -76 157q0 72 27 140t79.5 115.5t127.5 59.5h5l62 -23l48 24zM171.5 108q29.5 33 67 96t73.5 148l1 6l1 24l-62 22q-46 0 -80.5 -31.5t-52.5 -85t-18 -118.5q0 -50 9 -72t20 -22q12 0 41.5 33
zM142 555q17 54 50.5 84t82.5 30q103 0 115 -114l-24 -29h-12q-7 88 -81 88q-37 0 -62 -21.5t-40 -66.5h-11z" />
    <glyph glyph-name="uni0204" unicode="&#x204;" horiz-adv-x="461" 
d="M210 576l-28 -216l115 -2l100 3l5 -7l-14 -58l-106 2l-109 -1l-13 -98l-14 -135l122 -2l145 4l3 -7l-13 -59h-340l29 193l52 447h341l3 -7l-13 -59l-142 4zM281 724l-117 109v7l30 27h8q60 -70 109 -120l-23 -24zM418 724q-70 63 -116 109v7l29 27h8q45 -55 109 -120
l-23 -24z" />
    <glyph glyph-name="uni0205" unicode="&#x205;" horiz-adv-x="378" 
d="M302 139l24 -31q-32 -49 -70 -77t-86 -38h-12q-64 8 -93.5 47t-29.5 116q0 88 28.5 158t78 110t113.5 42l8 -1q43 -5 65.5 -28t22.5 -61q0 -60 -62 -110.5t-184 -88.5q0 -63 16.5 -92t51.5 -29q30 0 57.5 20t59.5 64zM152.5 362.5q-35.5 -49.5 -44.5 -132.5
q86 28 130.5 63.5t44.5 77.5q0 41 -44 41q-51 0 -86.5 -49.5zM205 520q-85 82 -144 143v7l34 26h8q68 -82 136 -153l-26 -23h-8zM346 520q-98 94 -145 143l1 7l34 26h8q64 -78 135 -153l-26 -23h-7z" />
    <glyph glyph-name="uni0206" unicode="&#x206;" horiz-adv-x="461" 
d="M210 576l-28 -216l115 -2l100 3l5 -7l-14 -58l-106 2l-109 -1l-13 -98l-14 -135l122 -2l145 4l3 -7l-13 -59h-340l29 193l52 447h341l3 -7l-13 -59l-142 4zM204 736q17 54 50.5 84t82.5 30q103 0 115 -114l-24 -29h-12q-7 88 -81 88q-37 0 -62 -21.5t-40 -66.5h-11z" />
    <glyph glyph-name="uni0207" unicode="&#x207;" horiz-adv-x="378" 
d="M302 139l24 -31q-32 -49 -70 -77t-86 -38h-12q-64 8 -93.5 47t-29.5 116q0 88 28.5 158t78 110t113.5 42l8 -1q43 -5 65.5 -28t22.5 -61q0 -60 -62 -110.5t-184 -88.5q0 -63 16.5 -92t51.5 -29q30 0 57.5 20t59.5 64zM152.5 362.5q-35.5 -49.5 -44.5 -132.5
q86 28 130.5 63.5t44.5 77.5q0 41 -44 41q-51 0 -86.5 -49.5zM128 555q17 54 50.5 84t82.5 30q103 0 115 -114l-24 -29h-12q-7 88 -81 88q-37 0 -62 -21.5t-40 -66.5h-11z" />
    <glyph glyph-name="uni0208" unicode="&#x208;" horiz-adv-x="259" 
d="M159 199l-20 -199h-76l29 193l51 447h76zM152 724l-117 109v7l30 27h8q60 -70 109 -120l-23 -24zM289 724q-70 63 -116 109v7l29 27h8q45 -55 109 -120l-23 -24z" />
    <glyph glyph-name="uni0209" unicode="&#x209;" horiz-adv-x="218" 
d="M124 109l-4 -106l-76 -7l52 363l4 97l74 7zM107 519q-85 82 -144 143v7l34 26h8q68 -82 136 -153l-26 -23h-8zM248 519q-98 94 -145 143l1 7l34 26h8q64 -78 135 -153l-26 -23h-7z" />
    <glyph glyph-name="uni020A" unicode="&#x20a;" horiz-adv-x="259" 
d="M159 199l-20 -199h-76l29 193l51 447h76zM75 736q17 54 50.5 84t82.5 30q103 0 115 -114l-24 -29h-12q-7 88 -81 88q-37 0 -62 -21.5t-40 -66.5h-11z" />
    <glyph glyph-name="uni020B" unicode="&#x20b;" horiz-adv-x="218" 
d="M124 109l-4 -106l-76 -7l52 363l4 97l74 7zM30 554q17 54 50.5 84t82.5 30q103 0 115 -114l-24 -29h-12q-7 88 -81 88q-37 0 -62 -21.5t-40 -66.5h-11z" />
    <glyph glyph-name="uni020C" unicode="&#x20c;" horiz-adv-x="611" 
d="M530 580q60 -67 60 -189q0 -123 -37 -213t-107.5 -138t-170.5 -48q-107 0 -167.5 69.5t-60.5 193.5q0 185 81.5 288.5t231.5 103.5q110 0 170 -67zM180.5 501q-56.5 -83 -56.5 -241q0 -205 158 -205q114 0 171.5 84t57.5 243q0 202 -160 202q-114 0 -170.5 -83zM328 724
l-117 109v7l30 27h8q60 -70 109 -120l-23 -24zM465 724q-70 63 -116 109v7l29 27h8q45 -55 109 -120l-23 -24z" />
    <glyph glyph-name="uni020D" unicode="&#x20d;" horiz-adv-x="411" 
d="M266 466q55 -9 82.5 -46t27.5 -106q0 -92 -26 -163t-75.5 -112.5t-117.5 -47.5l-9 1q-57 11 -84.5 48t-27.5 109q0 90 27 160.5t77.5 111.5t117.5 45h8zM141 336q-36 -69 -36 -186q0 -52 14 -75.5t47 -23.5q67 0 103 70t36 188q0 51 -14 73.5t-46 22.5q-68 0 -104 -69z
M215 519q-85 82 -144 143v7l34 26h8q68 -82 136 -153l-26 -23h-8zM356 519q-98 94 -145 143l1 7l34 26h8q64 -78 135 -153l-26 -23h-7z" />
    <glyph glyph-name="uni020E" unicode="&#x20e;" horiz-adv-x="611" 
d="M530 580q60 -67 60 -189q0 -123 -37 -213t-107.5 -138t-170.5 -48q-107 0 -167.5 69.5t-60.5 193.5q0 185 81.5 288.5t231.5 103.5q110 0 170 -67zM180.5 501q-56.5 -83 -56.5 -241q0 -205 158 -205q114 0 171.5 84t57.5 243q0 202 -160 202q-114 0 -170.5 -83zM251 736
q17 54 50.5 84t82.5 30q103 0 115 -114l-24 -29h-12q-7 88 -81 88q-37 0 -62 -21.5t-40 -66.5h-11z" />
    <glyph glyph-name="uni020F" unicode="&#x20f;" horiz-adv-x="411" 
d="M266 466q55 -9 82.5 -46t27.5 -106q0 -92 -26 -163t-75.5 -112.5t-117.5 -47.5l-9 1q-57 11 -84.5 48t-27.5 109q0 90 27 160.5t77.5 111.5t117.5 45h8zM141 336q-36 -69 -36 -186q0 -52 14 -75.5t47 -23.5q67 0 103 70t36 188q0 51 -14 73.5t-46 22.5q-68 0 -104 -69z
M138 554q17 54 50.5 84t82.5 30q103 0 115 -114l-24 -29h-12q-7 88 -81 88q-37 0 -62 -21.5t-40 -66.5h-11z" />
    <glyph glyph-name="uni0210" unicode="&#x210;" horiz-adv-x="529" 
d="M453.5 350q-40.5 -59 -113.5 -91q57 -121 129 -241l-2 -9q-36 -14 -71 -18l-8 7q-65 125 -112 242h-111l-6 -41l-20 -199h-76l29 193l52 447h1l178 2q81 0 126 -40.5t45 -115.5q0 -77 -40.5 -136zM173 304l115 -3q63 19 95.5 63t32.5 110q0 100 -112 106l-94 -3zM286 724
l-117 109v7l30 27h8q60 -70 109 -120l-23 -24zM423 724q-70 63 -116 109v7l29 27h8q45 -55 109 -120l-23 -24z" />
    <glyph glyph-name="uni0211" unicode="&#x211;" horiz-adv-x="325" 
d="M347 460l-15 -100l-6 -3l-9 1q-48 -7 -92 -65.5t-102 -202.5l-4 -87l-76 -7l52 363l5 97l73 7l-30 -220h8q36 73 77.5 126.5t94.5 92.5zM198 519q-85 82 -144 143v7l34 26h8q68 -82 136 -153l-26 -23h-8zM339 519q-98 94 -145 143l1 7l34 26h8q64 -78 135 -153l-26 -23
h-7z" />
    <glyph glyph-name="uni0212" unicode="&#x212;" horiz-adv-x="529" 
d="M453.5 350q-40.5 -59 -113.5 -91q57 -121 129 -241l-2 -9q-36 -14 -71 -18l-8 7q-65 125 -112 242h-111l-6 -41l-20 -199h-76l29 193l52 447h1l178 2q81 0 126 -40.5t45 -115.5q0 -77 -40.5 -136zM173 304l115 -3q63 19 95.5 63t32.5 110q0 100 -112 106l-94 -3zM209 736
q17 54 50.5 84t82.5 30q103 0 115 -114l-24 -29h-12q-7 88 -81 88q-37 0 -62 -21.5t-40 -66.5h-11z" />
    <glyph glyph-name="uni0213" unicode="&#x213;" horiz-adv-x="325" 
d="M347 460l-15 -100l-6 -3l-9 1q-48 -7 -92 -65.5t-102 -202.5l-4 -87l-76 -7l52 363l5 97l73 7l-30 -220h8q36 73 77.5 126.5t94.5 92.5zM121 554q17 54 50.5 84t82.5 30q103 0 115 -114l-24 -29h-12q-7 88 -81 88q-37 0 -62 -21.5t-40 -66.5h-11z" />
    <glyph glyph-name="uni0214" unicode="&#x214;" horiz-adv-x="597" 
d="M534 315l-9 -73q-12 -119 -77 -184t-176 -65q-95 0 -149 49t-54 138q0 29 4 54l12 87l39 319h73l-53 -397q-3 -24 -3 -45q0 -69 34.5 -103.5t101.5 -34.5q78 0 123.5 43.5t55.5 130.5l46 406h75zM321 724l-117 109v7l30 27h8q60 -70 109 -120l-23 -24zM458 724
q-70 63 -116 109v7l29 27h8q45 -55 109 -120l-23 -24z" />
    <glyph glyph-name="uni0215" unicode="&#x215;" horiz-adv-x="471" 
d="M422 463l-50 -354l-4 -106l-76 -7l31 224h-7q-49 -84 -89.5 -137t-84.5 -87h-11q-35 8 -56.5 30t-20.5 56l1 13l41 258l8 105l74 6l-53 -335l-2 -21q-1 -15 5 -22.5t16 -7.5q29 0 82 73t117 208l5 97zM235 519q-85 82 -144 143v7l34 26h8q68 -82 136 -153l-26 -23h-8z
M376 519q-98 94 -145 143l1 7l34 26h8q64 -78 135 -153l-26 -23h-7z" />
    <glyph glyph-name="uni0216" unicode="&#x216;" horiz-adv-x="597" 
d="M534 315l-9 -73q-12 -119 -77 -184t-176 -65q-95 0 -149 49t-54 138q0 29 4 54l12 87l39 319h73l-53 -397q-3 -24 -3 -45q0 -69 34.5 -103.5t101.5 -34.5q78 0 123.5 43.5t55.5 130.5l46 406h75zM244 736q17 54 50.5 84t82.5 30q103 0 115 -114l-24 -29h-12q-7 88 -81 88
q-37 0 -62 -21.5t-40 -66.5h-11z" />
    <glyph glyph-name="uni0217" unicode="&#x217;" horiz-adv-x="471" 
d="M422 463l-50 -354l-4 -106l-76 -7l31 224h-7q-49 -84 -89.5 -137t-84.5 -87h-11q-35 8 -56.5 30t-20.5 56l1 13l41 258l8 105l74 6l-53 -335l-2 -21q-1 -15 5 -22.5t16 -7.5q29 0 82 73t117 208l5 97zM158 554q17 54 50.5 84t82.5 30q103 0 115 -114l-24 -29h-12
q-7 88 -81 88q-37 0 -62 -21.5t-40 -66.5h-11z" />
    <glyph glyph-name="Scommaaccent" unicode="&#x218;" horiz-adv-x="451" 
d="M439 615l-21 -71l-14 -4q-52 44 -116 44q-38 0 -67 -15t-45 -39.5t-16 -51.5q0 -37 26 -61.5t80 -58.5q44 -27 71.5 -48.5t47 -54t19.5 -75.5q0 -51 -28.5 -94t-78.5 -68t-112 -25q-41 0 -85.5 12t-80.5 33l19 77l10 4q29 -32 68 -48t77 -16q59 0 97 32.5t38 78.5
q0 39 -26 65t-80 59q-43 26 -70 47t-46 53t-19 75q0 50 27.5 91.5t76 65.5t107.5 24q72 0 141 -31zM249 -114q0 -63 -89 -128l-25 23v6q54 43 54 86q0 24 -30 45v7q22 16 50 25q40 -25 40 -64z" />
    <glyph glyph-name="scommaaccent" unicode="&#x219;" horiz-adv-x="317" 
d="M304 439l-21 -68l-12 -4q-39 44 -80 44q-30 0 -51.5 -21.5t-21.5 -48.5q0 -22 15 -38t48 -40q43 -31 65.5 -57.5t22.5 -69.5q0 -40 -22 -73t-61 -52t-89 -19q-52 7 -100 34l19 71l11 5q20 -28 45 -42.5t51 -14.5q34 0 56 22t22 50q0 26 -16.5 44t-50.5 41
q-42 30 -64 55.5t-22 66.5t23.5 73t63 50t85.5 17q43 -8 84 -25zM188 -114q0 -63 -89 -128l-25 23v6q54 43 54 86q0 24 -30 45v7q22 16 50 25q40 -25 40 -64z" />
    <glyph glyph-name="uni021A" unicode="&#x21a;" horiz-adv-x="467" 
d="M497 633l-14 -58l-104 5h-63l-51 -381l-21 -199h-75l29 193l43 387h-61l-109 -5l-5 7l14 58h413zM257 -114q0 -63 -89 -128l-25 23v6q54 43 54 86q0 24 -30 45v7q22 16 50 25q40 -25 40 -64z" />
    <glyph glyph-name="uni021B" unicode="&#x21b;" horiz-adv-x="331" 
d="M145 111l-2 -16q0 -15 7 -24t20 -9q36 0 87 80h9l21 -27q-35 -58 -63 -85t-63 -37q-40 0 -62.5 22t-22.5 62l2 24l43 258l5 41h-67l-5 5l5 45h74l14 111l69 32l6 -6l-22 -137h122l6 -8l-5 -42h-131zM221 -114q0 -63 -89 -128l-25 23v6q54 43 54 86q0 24 -30 45v7
q22 16 50 25q40 -25 40 -64z" />
    <glyph glyph-name="uni022A" unicode="&#x22a;" horiz-adv-x="611" 
d="M530 580q60 -67 60 -189q0 -123 -37 -213t-107.5 -138t-170.5 -48q-107 0 -167.5 69.5t-60.5 193.5q0 185 81.5 288.5t231.5 103.5q110 0 170 -67zM180.5 501q-56.5 -83 -56.5 -241q0 -205 158 -205q114 0 171.5 84t57.5 243q0 202 -160 202q-114 0 -170.5 -83zM525 920
l-4 -45h-258l-6 6l5 45h257zM333 797.5q10 -10.5 10 -28.5q0 -19 -11 -30t-30 -11q-18 0 -28 10t-10 29t11 30t30 11q18 0 28 -10.5zM489 797.5q10 -10.5 10 -28.5q0 -19 -11 -30t-30 -11q-18 0 -28 10.5t-10 28.5q0 19 11 30t30 11q18 0 28 -10.5z" />
    <glyph glyph-name="uni022B" unicode="&#x22b;" horiz-adv-x="411" 
d="M266 466q55 -9 82.5 -46t27.5 -106q0 -92 -26 -163t-75.5 -112.5t-117.5 -47.5l-9 1q-57 11 -84.5 48t-27.5 109q0 90 27 160.5t77.5 111.5t117.5 45h8zM141 336q-36 -69 -36 -186q0 -52 14 -75.5t47 -23.5q67 0 103 70t36 188q0 51 -14 73.5t-46 22.5q-68 0 -104 -69z
M412 738l-4 -45h-258l-6 6l5 45h257zM220 615.5q10 -10.5 10 -28.5q0 -19 -11 -30t-30 -11q-18 0 -28 10t-10 29t11 30t30 11q18 0 28 -10.5zM376 615.5q10 -10.5 10 -28.5q0 -19 -11 -30t-30 -11q-18 0 -28 10.5t-10 28.5q0 19 11 30t30 11q18 0 28 -10.5z" />
    <glyph glyph-name="uni022C" unicode="&#x22c;" horiz-adv-x="611" 
d="M530 580q60 -67 60 -189q0 -123 -37 -213t-107.5 -138t-170.5 -48q-107 0 -167.5 69.5t-60.5 193.5q0 185 81.5 288.5t231.5 103.5q110 0 170 -67zM180.5 501q-56.5 -83 -56.5 -241q0 -205 158 -205q114 0 171.5 84t57.5 243q0 202 -160 202q-114 0 -170.5 -83zM515 818
v-8l-54 -67l-9 -3q-14 2 -72 20q-49 17 -61 17q-7 0 -14 -6t-19 -21l-17 -19h-7l-23 25v7l54 67l9 3q21 -2 72 -20q5 -2 28 -9t33 -7q8 0 16 7t18 19t16 19h7zM516 938l-5 -45h-215l-7 6l5 44h216z" />
    <glyph glyph-name="uni022D" unicode="&#x22d;" horiz-adv-x="411" 
d="M266 466q55 -9 82.5 -46t27.5 -106q0 -92 -26 -163t-75.5 -112.5t-117.5 -47.5l-9 1q-57 11 -84.5 48t-27.5 109q0 90 27 160.5t77.5 111.5t117.5 45h8zM141 336q-36 -69 -36 -186q0 -52 14 -75.5t47 -23.5q67 0 103 70t36 188q0 51 -14 73.5t-46 22.5q-68 0 -104 -69z
M402 636v-8l-54 -67l-9 -3q-14 2 -72 20q-49 17 -61 17q-7 0 -14 -6t-19 -21l-17 -19h-7l-23 25v7l54 67l9 3q21 -2 72 -20q5 -2 28 -9t33 -7q8 0 16 7t18 19t16 19h7zM403 756l-5 -45h-215l-7 6l5 44h216z" />
    <glyph glyph-name="uni0230" unicode="&#x230;" horiz-adv-x="611" 
d="M530 580q60 -67 60 -189q0 -123 -37 -213t-107.5 -138t-170.5 -48q-107 0 -167.5 69.5t-60.5 193.5q0 185 81.5 288.5t231.5 103.5q110 0 170 -67zM180.5 501q-56.5 -83 -56.5 -241q0 -205 158 -205q114 0 171.5 84t57.5 243q0 202 -160 202q-114 0 -170.5 -83z
M396.5 803q11.5 -11 11.5 -31q0 -21 -12 -34t-32 -13t-31.5 12t-11.5 32t12 32.5t33 12.5q19 0 30.5 -11zM490 904l-5 -45h-215l-7 6l5 44h216z" />
    <glyph glyph-name="uni0231" unicode="&#x231;" horiz-adv-x="411" 
d="M266 466q55 -9 82.5 -46t27.5 -106q0 -92 -26 -163t-75.5 -112.5t-117.5 -47.5l-9 1q-57 11 -84.5 48t-27.5 109q0 90 27 160.5t77.5 111.5t117.5 45h8zM141 336q-36 -69 -36 -186q0 -52 14 -75.5t47 -23.5q67 0 103 70t36 188q0 51 -14 73.5t-46 22.5q-68 0 -104 -69z
M283.5 621q11.5 -11 11.5 -31q0 -21 -12 -34t-32 -13t-31.5 12t-11.5 32t12 32.5t33 12.5q19 0 30.5 -11zM377 722l-5 -45h-215l-7 6l5 44h216z" />
    <glyph glyph-name="uni0232" unicode="&#x232;" horiz-adv-x="502" 
d="M277 233l-7 -46l-20 -187h-76l29 187l5 46l-142 407h79l7 -35l98 -291h8l181 289l19 37h82zM466 809l-5 -45h-283l-6 6l5 44h283z" />
    <glyph glyph-name="uni0233" unicode="&#x233;" horiz-adv-x="412" 
d="M401 382q0 -57 -40 -128l-142 -251q-60 -106 -110.5 -152t-111.5 -46q-33 0 -75 14l2 64l9 6q34 -9 63 -9q46 0 81 26.5t72 88.5l-91 460l74 8l11 -80l48 -294h10l98 180q33 57 33 108q0 34 -23 66l3 9l65 11q24 -44 24 -81zM399 628l-5 -45h-283l-6 6l5 44h283z" />
    <glyph glyph-name="uni0237" unicode="&#x237;" horiz-adv-x="232" 
d="M186 458l-49 -350l-9 -90q-10 -78 -42.5 -125t-103.5 -87l-25 34l1 9q49 33 72 69t30 96l48 344l3 42h-76l-5 5l7 45h71l74 10z" />
    <glyph glyph-name="uni0259" unicode="&#x259;" horiz-adv-x="378" 
d="M313.5 418q29.5 -39 29.5 -116q0 -88 -28.5 -158t-78 -110t-113.5 -42l-8 1q-43 5 -65.5 28t-22.5 61q0 60 62 110.5t184 88.5q0 63 -16.5 92t-51.5 29q-30 0 -57.5 -20t-59.5 -64l-12 1l-24 31q32 49 70 77t86 38h12q64 -8 93.5 -47zM225.5 95.5q35.5 49.5 44.5 132.5
q-86 -28 -130.5 -63.5t-44.5 -77.5q0 -41 44 -41q51 0 86.5 49.5z" />
    <glyph glyph-name="uni02B0" unicode="&#x2b0;" horiz-adv-x="332" 
d="M307.5 623.5q15.5 -17.5 14.5 -40.5l-1 -9l-27 -166l-5 -70l-62 -4l33 212l1 9q0 13 -5 20.5t-11 7.5q-14 0 -43 -38t-67 -109l-3 -26l-5 -72l-61 -4l54 404l3 67l62 5l-40 -305h7q57 102 106 141h8q26 -5 41.5 -22.5z" />
    <glyph glyph-name="uni02B2" unicode="&#x2b2;" horiz-adv-x="171" 
d="M170 779.5q9 -8.5 9 -24.5q0 -18 -10 -27.5t-27 -9.5q-35 0 -35 33q0 18 10.5 27.5t27.5 9.5q16 0 25 -8.5zM166 641l-31 -236l-7 -51q-7 -53 -29.5 -86t-68.5 -60l-20 27l1 6q28 20 41.5 43.5t18.5 61.5l30 227l1 29h-42l-4 4l5 32h47l56 5z" />
    <glyph glyph-name="uni02B7" unicode="&#x2b7;" horiz-adv-x="473" 
d="M490 590q0 -35 -27 -86l-91 -167h-66l-21 224h-5l-94 -224h-68l-34 302l61 5l1 -41l15 -198h6l83 193l16 43h64l1 -38l17 -198h6l58 116q20 40 20 67q0 21 -13 44l56 13q15 -28 15 -55z" />
    <glyph glyph-name="uni02B8" unicode="&#x2b8;" horiz-adv-x="288" 
d="M306 592q0 -43 -35 -103l-69 -128q-47 -84 -87 -119t-85 -35q-26 0 -56 10l-3 51l6 6q27 -9 51 -9q56 0 103 63l-63 311l61 5l6 -53l29 -184h10l54 108q21 44 21 73q0 21 -13 44l56 13q14 -25 14 -53z" />
    <glyph glyph-name="uni02B9" unicode="&#x2b9;" horiz-adv-x="163" 
d="M170 632l-45 -180l-40 -6l-5 7l27 181l58 4z" />
    <glyph glyph-name="uni02BB" unicode="&#x2bb;" horiz-adv-x="166" 
d="M68 511q0 61 72 132l29 -21l1 -6q-43 -44 -43 -84q0 -39 39 -54v-7q-15 -15 -44 -33q-54 20 -54 73z" />
    <glyph glyph-name="uni02BC" unicode="&#x2bc;" horiz-adv-x="166" 
d="M177 568q0 -60 -72 -131l-29 20l-1 6q43 46 43 84q0 39 -39 54v8q12 11 44 33q54 -20 54 -74z" />
    <glyph glyph-name="uni02BE" unicode="&#x2be;" horiz-adv-x="303" 
d="M136 501q29 -1 44.5 12.5t15.5 39.5q0 39 -48 39l4 42q42 0 63.5 -19t21.5 -55q0 -46 -28.5 -73t-77.5 -27z" />
    <glyph glyph-name="uni02BF" unicode="&#x2bf;" horiz-adv-x="237" 
d="M211 593q-28 1 -44 -12.5t-16 -39.5q0 -19 12 -29.5t36 -10.5l-5 -41q-41 0 -62.5 19t-21.5 54q0 46 29 73.5t77 27.5z" />
    <glyph glyph-name="circumflex" unicode="&#x2c6;" horiz-adv-x="388" 
d="M103 552q39 36 132 133h24q49 -72 106 -133l-25 -31h-8q-58 63 -89 106q-42 -43 -115 -106h-9z" />
    <glyph glyph-name="caron" unicode="&#x2c7;" horiz-adv-x="388" 
d="M377 655q-39 -36 -132 -133h-24q-49 72 -106 133l25 31h8q58 -63 89 -106q42 43 115 106h9z" />
    <glyph glyph-name="uni02C8" unicode="&#x2c8;" horiz-adv-x="258" 
d="M136 640h57l-21 -173h-56z" />
    <glyph glyph-name="uni02C9" unicode="&#x2c9;" horiz-adv-x="386" 
d="M387 627l-5 -45h-283l-6 6l5 44h283z" />
    <glyph glyph-name="uni02CA" unicode="&#x2ca;" horiz-adv-x="377" 
d="M307 694l28 -39l-2 -9q-100 -79 -168 -127l-9 1l-21 30q92 75 163 145z" />
    <glyph glyph-name="uni02CB" unicode="&#x2cb;" horiz-adv-x="402" 
d="M308 550l-21 -30l-9 -1q-68 48 -168 127l-2 9l28 39l9 1q71 -70 163 -145z" />
    <glyph glyph-name="uni02CC" unicode="&#x2cc;" horiz-adv-x="228" 
d="M50 -57h56l-21 -173h-56z" />
    <glyph glyph-name="breve" unicode="&#x2d8;" horiz-adv-x="388" 
d="M369 640q-17 -54 -50.5 -84t-82.5 -30q-103 0 -115 114l24 29h12q7 -88 81 -88q37 0 62 21.5t40 66.5h11z" />
    <glyph glyph-name="dotaccent" unicode="&#x2d9;" horiz-adv-x="244" 
d="M200.5 648q11.5 -11 11.5 -31q0 -21 -12 -34t-32 -13t-31.5 12t-11.5 32t12 32.5t33 12.5q19 0 30.5 -11z" />
    <glyph glyph-name="ring" unicode="&#x2da;" horiz-adv-x="390" 
d="M302.5 672.5q21.5 -22.5 21.5 -57.5q0 -39 -24 -61t-60 -22t-58.5 21.5t-22.5 59.5q0 37 22 59.5t61 22.5t60.5 -22.5zM207.5 646q-11.5 -11 -11.5 -32q0 -22 12.5 -34t33.5 -12q20 0 32.5 11.5t12.5 32.5q0 20 -12 32.5t-34 12.5t-33.5 -11z" />
    <glyph glyph-name="ogonek" unicode="&#x2db;" horiz-adv-x="298" 
d="M40.5 -177q-22.5 20 -22.5 54q0 19 8.5 36t29 40.5t71.5 75.5h49q-39 -44 -63.5 -73.5t-31.5 -42t-7 -24.5q0 -17 9 -26.5t27 -9.5q36 0 77 41h5l12 -42q-52 -49 -103 -49q-38 0 -60.5 20z" />
    <glyph glyph-name="tilde" unicode="&#x2dc;" horiz-adv-x="383" 
d="M395 640v-7l-61 -67l-9 -4q-21 2 -81 20q-59 17 -74 17q-8 0 -16.5 -7t-24.5 -24l-15 -15h-9l-23 25v7l61 67l9 3q24 -2 83 -20q7 -2 34 -9t38 -7q8 0 17 7.5t21 19.5l19 19h7z" />
    <glyph glyph-name="hungarumlaut" unicode="&#x2dd;" horiz-adv-x="375" 
d="M218 695h7l34 -26v-7q-59 -61 -144 -143h-8l-25 23q65 70 136 153zM359 695h6l35 -26v-7q-47 -49 -145 -143h-7l-25 23q81 89 136 153z" />
    <glyph glyph-name="uni02E1" unicode="&#x2e1;" horiz-adv-x="157" 
d="M127 410l-5 -72l-61 -4l54 404l3 67l61 5z" />
    <glyph glyph-name="uni02E2" unicode="&#x2e2;" horiz-adv-x="235" 
d="M248 630l-13 -46l-9 -3q-13 12 -28 18t-27 6q-19 0 -31.5 -13t-12.5 -30q0 -14 10 -24.5t31 -24.5q29 -20 45 -38.5t16 -48.5q0 -40 -32.5 -66.5t-82.5 -27.5q-43 5 -71 18l14 49l6 6q15 -16 33 -25t34 -9q20 0 33.5 12.5t13.5 29.5q0 15 -10.5 26t-34.5 29
q-29 21 -44 38t-15 43q0 43 33.5 70t81.5 26q31 -3 60 -15z" />
    <glyph glyph-name="uni02E3" unicode="&#x2e3;" horiz-adv-x="308" 
d="M296 340l-68 -7l-8 34l-40 88l-61 -89l-17 -29h-66l111 157l-64 145l64 7l10 -28l37 -84l60 81l13 26h65l-108 -151z" />
    <glyph glyph-name="gravecomb" unicode="&#x300;" 
d="M-55 550l-21 -30l-9 -1q-68 48 -168 127l-2 9l28 39l9 1q71 -70 163 -145z" />
    <glyph glyph-name="acutecomb" unicode="&#x301;" 
d="M-70 694l28 -39l-2 -9q-100 -79 -168 -127l-9 1l-21 30q92 75 163 145z" />
    <glyph glyph-name="uni0302" unicode="&#x302;" 
d="M-284 552q39 36 132 133h24q49 -72 106 -133l-25 -31h-8q-58 63 -89 106q-42 -43 -115 -106h-9z" />
    <glyph glyph-name="tildecomb" unicode="&#x303;" 
d="M11 640v-7l-61 -68l-9 -3q-23 2 -82 20q-57 17 -72 17q-8 0 -15.5 -6t-23.5 -22l-18 -18h-8l-24 25v7l62 67l9 4q16 -2 44.5 -9.5t38.5 -10.5q57 -17 71 -17q9 0 17.5 7t24.5 24l15 15h7z" />
    <glyph glyph-name="uni0304" unicode="&#x304;" 
d="M1 627l-5 -45h-283l-6 6l5 44h283z" />
    <glyph glyph-name="uni0306" unicode="&#x306;" 
d="M-19 640q-17 -54 -50.5 -84t-82.5 -30q-103 0 -115 114l24 29h12q7 -88 81 -88q37 0 62 21.5t40 66.5h11z" />
    <glyph glyph-name="uni0307" unicode="&#x307;" 
d="M-43.5 648q11.5 -11 11.5 -31q0 -21 -12 -34t-32 -13t-31.5 12t-11.5 32t12 32.5t33 12.5q19 0 30.5 -11z" />
    <glyph glyph-name="uni0308" unicode="&#x308;" 
d="M-202.5 636q10.5 -10 10.5 -28q0 -19 -11.5 -30.5t-29.5 -11.5q-19 0 -29 10.5t-10 28.5q0 19 11 30t30 11q18 0 28.5 -10zM-39.5 636q10.5 -10 10.5 -28q0 -19 -11 -30.5t-30 -11.5q-18 0 -28 10.5t-10 28.5q0 19 10.5 30t29.5 11q18 0 28.5 -10z" />
    <glyph glyph-name="hookabovecomb" unicode="&#x309;" 
d="M-120 565q25 17 39 34.5t14 31.5q0 10 -8 15.5t-20 5.5q-14 0 -30 -6t-31 -18l-15 26q43 41 87 41q29 0 47 -15.5t18 -40.5q0 -18 -12 -35t-40 -40l19 -35l-34 -19z" />
    <glyph glyph-name="uni030A" unicode="&#x30a;" 
d="M-87.5 672.5q21.5 -22.5 21.5 -57.5q0 -39 -24 -61t-60 -22t-58.5 21.5t-22.5 59.5q0 37 22 59.5t61 22.5t60.5 -22.5zM-182.5 646q-11.5 -11 -11.5 -32q0 -22 12.5 -34t33.5 -12q20 0 32.5 11.5t12.5 32.5q0 20 -12 32.5t-34 12.5t-33.5 -11z" />
    <glyph glyph-name="uni030B" unicode="&#x30b;" 
d="M-173 695h7l34 -26v-7q-59 -61 -144 -143h-8l-25 23q65 70 136 153zM-32 695h6l35 -26v-7q-47 -49 -145 -143h-7l-25 23q81 89 136 153z" />
    <glyph glyph-name="uni030C" unicode="&#x30c;" 
d="M-11 655q-39 -36 -132 -133h-24q-49 72 -106 133l25 31h8q58 -63 89 -106q42 43 115 106h9z" />
    <glyph glyph-name="uni030F" unicode="&#x30f;" 
d="M-177 519q-85 82 -144 143v7l34 26h8q68 -82 136 -153l-26 -23h-8zM-36 519q-98 94 -145 143l1 7l34 26h8q64 -78 135 -153l-26 -23h-7z" />
    <glyph glyph-name="uni0311" unicode="&#x311;" 
d="M-278 554q17 54 50.5 84t82.5 30q103 0 115 -114l-24 -29h-12q-7 88 -81 88q-37 0 -62 -21.5t-40 -66.5h-11z" />
    <glyph glyph-name="uni0312" unicode="&#x312;" 
d="M-98 511q0 60 72 131l29 -20v-6q-42 -46 -42 -84q0 -39 39 -54v-8q-14 -13 -45 -33q-53 21 -53 74z" />
    <glyph glyph-name="uni031B" unicode="&#x31b;" 
d="M-166 458q30 0 51.5 16t21.5 44q0 36 -33 69l2 7q23 15 38 15q18 0 35 -25t17 -60q0 -49 -36.5 -78t-95.5 -30v42z" />
    <glyph glyph-name="dotbelowcomb" unicode="&#x323;" 
d="M-128.5 -85.5q11.5 -11.5 11.5 -30.5q0 -21 -12 -34t-32 -13t-31.5 12t-11.5 32t12 32.5t33 12.5q19 0 30.5 -11.5z" />
    <glyph glyph-name="uni0324" unicode="&#x324;" 
d="M-292.5 -101q10.5 -10 10.5 -28q0 -19 -11.5 -30.5t-29.5 -11.5q-19 0 -29 10.5t-10 28.5q0 19 11 30t30 11q18 0 28.5 -10zM-129.5 -101q10.5 -10 10.5 -28q0 -19 -11 -30.5t-30 -11.5q-18 0 -28 10.5t-10 28.5q0 19 10.5 30t29.5 11q18 0 28.5 -10z" />
    <glyph glyph-name="uni0326" unicode="&#x326;" 
d="M-120 -114q0 -63 -89 -128l-25 23v6q54 43 54 86q0 24 -30 45v7q22 16 50 25q40 -25 40 -64z" />
    <glyph glyph-name="uni0327" unicode="&#x327;" 
d="M-234 -52l34 -20q38 -20 38 -55q0 -29 -22 -47t-57 -18q-43 0 -72 31l8 38l5 2q13 -16 25.5 -23.5t29.5 -7.5q15 0 24 7t9 20q0 9 -5.5 14.5t-16.5 10.5l-47 29l24 90h44z" />
    <glyph glyph-name="uni0328" unicode="&#x328;" 
d="M-257.5 -177q-22.5 20 -22.5 54q0 19 8.5 36t29 40.5t71.5 75.5h49q-39 -44 -63.5 -73.5t-31.5 -42t-7 -24.5q0 -17 9 -26.5t27 -9.5q36 0 77 41h5l12 -42q-52 -49 -103 -49q-38 0 -60.5 20z" />
    <glyph glyph-name="uni032E" unicode="&#x32e;" 
d="M-100 -91q-17 -54 -50.5 -84t-82.5 -30q-103 0 -115 114l24 29h12q7 -88 81 -88q37 0 62 21.5t40 66.5h11z" />
    <glyph glyph-name="uni0331" unicode="&#x331;" 
d="M-92 -114l-3 -45h-219l-6 7l5 43h218z" />
    <glyph glyph-name="uni0335" unicode="&#x335;" 
d="M-49 277l-9 -47h-327l-4 5l9 47h327z" />
    <glyph glyph-name="uni0342" unicode="&#x342;" 
d="M12 640v-7l-54 -67l-7 -4q-23 4 -73 21q-5 2 -27 9t-31 7q-7 0 -15 -7t-18 -19t-17 -20h-7l-23 25v7l54 66l8 4q21 -4 67 -19q5 -2 29.5 -10t34.5 -8q8 0 17 8.5t18.5 20.5t13.5 17h7z" />
    <glyph glyph-name="uni0343" unicode="&#x343;" 
d="M12 652q0 -30 -19.5 -61.5t-60.5 -68.5l-25 18v6q49 49 49 86q0 14 -7.5 25t-22.5 17l1 6q22 18 44 28q41 -15 41 -56z" />
    <glyph glyph-name="uni0344" unicode="&#x344;" 
d="M-160 553q28 71 49 141l6 3l42 -16l4 -7l-62 -131l-10 -3zM-244 563.5q-9 9.5 -9 26.5t10 27.5t27 10.5t26 -9.5t9 -26.5t-10 -27.5t-27 -10.5t-26 9.5zM-50.5 563.5q-9.5 9.5 -9.5 26.5t10.5 27.5t27.5 10.5t26.5 -9.5t9.5 -26.5t-10.5 -27.5t-27.5 -10.5t-26.5 9.5z
" />
    <glyph glyph-name="uni0345" unicode="&#x345;" 
d="M-179 -215l30 176l38 4l6 -7l-11 -174l-58 -4z" />
    <glyph glyph-name="uni0374" unicode="&#x374;" horiz-adv-x="162" 
d="M169 632l-45 -180l-39 -6l-6 7l27 181l59 4z" />
    <glyph glyph-name="uni0375" unicode="&#x375;" horiz-adv-x="163" 
d="M-2 -139l45 179l40 5l5 -5l-27 -182l-59 -4z" />
    <glyph glyph-name="uni037A" unicode="&#x37a;" horiz-adv-x="210" 
d="M8 -215l30 176l38 4l6 -7l-11 -174l-58 -4z" />
    <glyph glyph-name="uni037E" unicode="&#x37e;" horiz-adv-x="229" 
d="M137 18q0 -64 -92 -131l-25 24v6q55 44 55 88q0 26 -31 46v8q24 16 52 25q41 -26 41 -66zM155 343q11 -11 11 -31q0 -21 -12 -34t-32 -13t-31.5 12t-11.5 32t12 32.5t33 12.5q20 0 31 -11z" />
    <glyph glyph-name="tonos" unicode="&#x384;" horiz-adv-x="188" 
d="M163 706l45 -17l1 -10l-58 -101l-31 -53l-8 -3l-37 16q26 47 80 165z" />
    <glyph glyph-name="dieresistonos" unicode="&#x385;" horiz-adv-x="328" 
d="M168 553q28 71 49 141l6 3l42 -16l4 -7l-62 -131l-10 -3zM84 563.5q-9 9.5 -9 26.5t10 27.5t27 10.5t26 -9.5t9 -26.5t-10 -27.5t-27 -10.5t-26 9.5zM277.5 563.5q-9.5 9.5 -9.5 26.5t10.5 27.5t27.5 10.5t26.5 -9.5t9.5 -26.5t-10.5 -27.5t-27.5 -10.5t-26.5 9.5z" />
    <glyph glyph-name="Alphatonos" unicode="&#x386;" horiz-adv-x="600" 
d="M552 0h-76l-6 62l-21 115l-136 2l-123 -2l-52 -111l-25 -66h-75l304 640h86zM437 241l-60 321h-7l-150 -321l106 -1zM183 664l45 -17l1 -10l-58 -101l-31 -53l-8 -3l-37 16q26 47 80 165z" />
    <glyph glyph-name="anoteleia" unicode="&#x387;" horiz-adv-x="230" 
d="M156 338q11 -11 11 -31q0 -21 -12 -34t-32 -13t-31.5 12t-11.5 32t12 32.5t33 12.5q20 0 31 -11z" />
    <glyph glyph-name="Epsilontonos" unicode="&#x388;" horiz-adv-x="581" 
d="M330 576l-28 -216l115 -2l100 3l5 -7l-14 -58l-106 2l-109 -1l-13 -98l-14 -135l122 -2l145 4l3 -7l-13 -59h-340l29 193l52 447h341l3 -7l-13 -59l-142 4zM145 664l45 -17l1 -10l-58 -101l-31 -53l-8 -3l-37 16q26 47 80 165z" />
    <glyph glyph-name="Etatonos" unicode="&#x389;" horiz-adv-x="773" 
d="M734 640l-59 -441l-21 -199h-75l28 193l11 98l-170 3l-156 -3l-13 -92l-20 -199h-76l29 193l51 447h76l-39 -283l162 -3l164 3l32 283h76zM145 664l45 -17l1 -10l-58 -101l-31 -53l-8 -3l-37 16q26 47 80 165z" />
    <glyph glyph-name="Iotatonos" unicode="&#x38a;" horiz-adv-x="378" 
d="M279 199l-20 -199h-76l29 193l51 447h76zM145 664l45 -17l1 -10l-58 -101l-31 -53l-8 -3l-37 16q26 47 80 165z" />
    <glyph glyph-name="Omicrontonos" unicode="&#x38c;" horiz-adv-x="700" 
d="M619 580q60 -67 60 -189q0 -123 -37 -213t-107.5 -138t-170.5 -48q-107 0 -167.5 69.5t-60.5 193.5q0 185 81.5 288.5t231.5 103.5q110 0 170 -67zM269.5 501q-56.5 -83 -56.5 -241q0 -205 158 -205q114 0 171.5 84t57.5 243q0 202 -160 202q-114 0 -170.5 -83zM124 664
l45 -17l1 -10l-58 -101l-31 -53l-8 -3l-37 16q26 47 80 165z" />
    <glyph glyph-name="Upsilontonos" unicode="&#x38e;" horiz-adv-x="678" 
d="M453 233l-7 -46l-20 -187h-76l29 187l5 46l-142 407h79l7 -35l98 -291h8l181 289l19 37h82zM146 664l45 -17l1 -10l-58 -101l-31 -53l-8 -3l-37 16q26 47 80 165z" />
    <glyph glyph-name="Omegatonos" unicode="&#x38f;" horiz-adv-x="742" 
d="M102 4l14 58l67 -3h84v4q-60 43 -88.5 101.5t-28.5 140.5q0 101 39 179t109 120.5t162 42.5q111 0 170.5 -66t59.5 -189q0 -107 -48.5 -191t-140.5 -138v-4h85l69 4l4 -6l-15 -58l-66 1h-109l-39 -2l-3 4l8 70q93 58 136 133t43 179q0 100 -41.5 150.5t-123.5 50.5
q-67 0 -117.5 -35t-78.5 -99t-28 -148q0 -75 26 -129t85 -102l-8 -70l-4 -4l-39 2h-111l-68 -3zM127 664l45 -17l1 -10l-58 -101l-31 -53l-8 -3l-37 16q26 47 80 165z" />
    <glyph glyph-name="iotadieresistonos" unicode="&#x390;" horiz-adv-x="215" 
d="M123 109l-4 -106l-76 -7l52 363l4 97l74 7zM113 553q28 71 49 141l6 3l42 -16l4 -7l-62 -131l-10 -3zM29 563.5q-9 9.5 -9 26.5t10 27.5t27 10.5t26 -9.5t9 -26.5t-10 -27.5t-27 -10.5t-26 9.5zM222.5 563.5q-9.5 9.5 -9.5 26.5t10.5 27.5t27.5 10.5t26.5 -9.5t9.5 -26.5
t-10.5 -27.5t-27.5 -10.5t-26.5 9.5z" />
    <glyph glyph-name="Alpha" unicode="&#x391;" horiz-adv-x="548" 
d="M500 0h-76l-6 62l-21 115l-136 2l-123 -2l-52 -111l-25 -66h-75l304 640h86zM385 241l-60 321h-7l-150 -321l106 -1z" />
    <glyph glyph-name="Beta" unicode="&#x392;" horiz-adv-x="512" 
d="M471 201q0 -100 -68.5 -152.5t-203.5 -52.5q-86 0 -135 4h-1l29 193l52 447h1l163 2q77 0 119.5 -34.5t42.5 -99.5q0 -62 -29 -106.5t-83 -67.5q113 -33 113 -133zM368 558.5q-25 20.5 -78 20.5h-78l-31 -219l105 -3q107 24 107 138q0 43 -25 63.5zM347.5 95
q46.5 36 46.5 102q0 88 -104 100l-118 -1l-13 -97l-14 -137q37 -3 71 -3q85 0 131.5 36z" />
    <glyph glyph-name="Gamma" unicode="&#x393;" horiz-adv-x="420" 
d="M466 633l-14 -55l-241 1l-48 -380l-23 -199h-75l27 193l52 447h317z" />
    <glyph glyph-name="uni0394" unicode="&#x394;" horiz-adv-x="551" 
d="M11 51l278 589h88l118 -589l-6 -51h-485zM421 60l-96 502h-7l-235 -502h338z" />
    <glyph glyph-name="Epsilon" unicode="&#x395;" horiz-adv-x="461" 
d="M210 576l-28 -216l115 -2l100 3l5 -7l-14 -58l-106 2l-109 -1l-13 -98l-14 -135l122 -2l145 4l3 -7l-13 -59h-340l29 193l52 447h341l3 -7l-13 -59l-142 4z" />
    <glyph glyph-name="Zeta" unicode="&#x396;" horiz-adv-x="503" 
d="M510 585l-409 -524h254l90 7l3 -6l-13 -64l-110 2h-268l-54 -3l7 56l410 525h-238l-90 -6l-4 5l15 64l366 -1l48 1z" />
    <glyph glyph-name="Eta" unicode="&#x397;" horiz-adv-x="653" 
d="M614 640l-59 -441l-21 -199h-75l28 193l11 98l-170 3l-156 -3l-13 -92l-20 -199h-76l29 193l51 447h76l-39 -283l162 -3l164 3l32 283h76z" />
    <glyph glyph-name="Theta" unicode="&#x398;" horiz-adv-x="645" 
d="M561.5 578.5q62.5 -68.5 62.5 -193.5q0 -120 -40.5 -209t-116.5 -136.5t-180 -47.5q-116 0 -178 70t-62 198q0 120 40 207t115.5 133.5t180.5 46.5q116 0 178.5 -68.5zM185.5 502.5q-62.5 -82.5 -62.5 -237.5q0 -213 176 -213q121 0 184.5 84t63.5 239q0 210 -177 210
q-122 0 -184.5 -82.5zM201 293l9 49l253 9l5 -6l-10 -50l-253 -9z" />
    <glyph glyph-name="Iota" unicode="&#x399;" horiz-adv-x="259" 
d="M159 199l-20 -199h-76l29 193l51 447h76z" />
    <glyph glyph-name="Kappa" unicode="&#x39a;" horiz-adv-x="520" 
d="M159 199l-21 -199h-76l30 193l51 447h76zM271 338q99 -165 224 -322l-3 -9q-35 -10 -73 -16l-7 5q-138 195 -222 340l1 6l235 244l45 54h85z" />
    <glyph glyph-name="Lambda" unicode="&#x39b;" horiz-adv-x="554" 
d="M291 640h88l127 -640h-76l-7 62l-94 500h-6l-237 -496l-23 -66h-77z" />
    <glyph glyph-name="Mu" unicode="&#x39c;" horiz-adv-x="753" 
d="M664 0h-67l11 195l8 326h-6l-226 -447h-63l-106 447h-7l-71 -320l-42 -201h-64l144 640h85l20 -97l85 -371h7l187 377l42 91h85z" />
    <glyph glyph-name="Nu" unicode="&#x39d;" horiz-adv-x="653" 
d="M553 187l-21 -187h-78l-251 520h-7l-39 -310l-23 -210h-71l28 190l54 450h78l251 -520h6l64 517l71 5z" />
    <glyph glyph-name="Xi" unicode="&#x39e;" horiz-adv-x="559" 
d="M121 579l15 61h390l5 -7l-15 -62l-198 3l-193 -3zM125 301l16 62l155 -2l153 2l5 -8l-16 -61l-160 2l-147 -2zM56 62l7 7l191 -3l204 3l5 -7l-15 -62h-393z" />
    <glyph glyph-name="Omicron" unicode="&#x39f;" horiz-adv-x="611" 
d="M530 580q60 -67 60 -189q0 -123 -37 -213t-107.5 -138t-170.5 -48q-107 0 -167.5 69.5t-60.5 193.5q0 185 81.5 288.5t231.5 103.5q110 0 170 -67zM180.5 501q-56.5 -83 -56.5 -241q0 -205 158 -205q114 0 171.5 84t57.5 243q0 202 -160 202q-114 0 -170.5 -83z" />
    <glyph glyph-name="Pi" unicode="&#x3a0;" horiz-adv-x="641" 
d="M543 199l-22 -199h-74l26 193l45 384l-164 1l-145 -2l-48 -377l-22 -199h-76l28 193l51 447h459z" />
    <glyph glyph-name="Rho" unicode="&#x3a1;" horiz-adv-x="498" 
d="M447 600q46 -42 46 -124q0 -72 -31 -128.5t-89 -88.5t-135 -32h-74l-4 -28l-21 -199h-76l29 193l52 447h1l176 2q80 0 126 -42zM378.5 345q37.5 49 37.5 121q0 55 -26.5 83t-85.5 31l-93 -3l-39 -287l109 -2q60 8 97.5 57z" />
    <glyph glyph-name="Sigma" unicode="&#x3a3;" horiz-adv-x="489" 
d="M23 53l217 275l-143 256l8 56h314l79 1l5 -7l-12 -57l-74 3h-229l133 -241l-2 -12l-209 -266h226l85 4l5 -9l-13 -57l-97 1h-225l-74 -1z" />
    <glyph glyph-name="Tau" unicode="&#x3a4;" horiz-adv-x="467" 
d="M497 633l-14 -58l-104 5h-63l-51 -381l-21 -199h-75l29 193l43 387h-61l-109 -5l-5 7l14 58h413z" />
    <glyph glyph-name="Upsilon" unicode="&#x3a5;" horiz-adv-x="502" 
d="M277 233l-7 -46l-20 -187h-76l29 187l5 46l-142 407h79l7 -35l98 -291h8l181 289l19 37h82z" />
    <glyph glyph-name="Phi" unicode="&#x3a6;" horiz-adv-x="748" 
d="M634.5 156q-85.5 -77 -245.5 -86l-10 -87h-71l12 87q-130 5 -198 61t-68 161q0 143 84 217.5t246 82.5l8 70h71l-9 -70q131 -5 198.5 -59.5t67.5 -158.5q0 -141 -85.5 -218zM646 364q0 81 -49 123t-150 47l-43 -333l-8 -73q250 15 250 236zM177.5 175.5
q50.5 -42.5 150.5 -47.5l10 67l39 339q-125 -8 -187.5 -65.5t-62.5 -168.5q0 -82 50.5 -124.5z" />
    <glyph glyph-name="Chi" unicode="&#x3a7;" horiz-adv-x="561" 
d="M339 329l162 -329h-87l-19 51l-115 224l-174 -229l-30 -46h-80l247 328l-156 312h87l19 -49l106 -209l158 209l31 49h81z" />
    <glyph glyph-name="Psi" unicode="&#x3a8;" horiz-adv-x="684" 
d="M673 640l-25 -190l-11 -88q-12 -105 -83 -166.5t-189 -69.5l-15 -126h-71l18 126q-108 6 -163.5 57t-55.5 142q0 11 2 37l11 95l22 183h70l-33 -269q-2 -24 -2 -34q0 -137 157 -151l1 7l51 447h72l-56 -441l-1 -13q88 8 138.5 54t60.5 131l32 269h70z" />
    <glyph glyph-name="uni03A9" unicode="&#x3a9;" horiz-adv-x="674" 
d="M34 4l14 58l67 -3h84v4q-60 43 -88.5 101.5t-28.5 140.5q0 101 39 179t109 120.5t162 42.5q111 0 170.5 -66t59.5 -189q0 -107 -48.5 -191t-140.5 -138v-4h85l69 4l4 -6l-15 -58l-66 1h-109l-39 -2l-3 4l8 70q93 58 136 133t43 179q0 100 -41.5 150.5t-123.5 50.5
q-67 0 -117.5 -35t-78.5 -99t-28 -148q0 -75 26 -129t85 -102l-8 -70l-4 -4l-39 2h-111l-68 -3z" />
    <glyph glyph-name="Iotadieresis" unicode="&#x3aa;" horiz-adv-x="259" 
d="M159 199l-20 -199h-76l29 193l51 447h76zM152.5 818q10.5 -10 10.5 -28q0 -19 -11.5 -30.5t-29.5 -11.5q-19 0 -29 10.5t-10 28.5q0 19 11 30t30 11q18 0 28.5 -10zM315.5 818q10.5 -10 10.5 -28q0 -19 -11 -30.5t-30 -11.5q-18 0 -28 10.5t-10 28.5q0 19 10.5 30
t29.5 11q18 0 28.5 -10z" />
    <glyph glyph-name="Upsilondieresis" unicode="&#x3ab;" horiz-adv-x="502" 
d="M277 233l-7 -46l-20 -187h-76l29 187l5 46l-142 407h79l7 -35l98 -291h8l181 289l19 37h82zM272.5 818q10.5 -10 10.5 -28q0 -19 -11.5 -30.5t-29.5 -11.5q-19 0 -29 10.5t-10 28.5q0 19 11 30t30 11q18 0 28.5 -10zM435.5 818q10.5 -10 10.5 -28q0 -19 -11 -30.5
t-30 -11.5q-18 0 -28 10.5t-10 28.5q0 19 10.5 30t29.5 11q18 0 28.5 -10z" />
    <glyph glyph-name="alphatonos" unicode="&#x3ac;" horiz-adv-x="430" 
d="M387 464l-49 -355l-5 -106l-75 -7l29 205h-12q-69 -124 -156 -208h-15q-38 21 -56.5 59.5t-18.5 97.5q0 71 25.5 136.5t74.5 113.5t117 65h5l68 -45l5 38zM169 110q31 36 69 100.5t72 146.5l2 19l-64 28q-45 0 -79.5 -31.5t-53.5 -85.5t-19 -120q0 -48 8.5 -70.5
t20.5 -22.5q13 0 44 36zM343 706l45 -17l1 -10l-58 -101l-31 -53l-8 -3l-37 16q26 47 80 165z" />
    <glyph glyph-name="epsilontonos" unicode="&#x3ad;" horiz-adv-x="365" 
d="M354 431l-19 -59l-12 -2q-54 41 -108 41q-36 0 -60 -22t-24 -58q0 -28 18 -47t50 -24h77l3 -6l-10 -44h-71q-42 0 -73 -29t-31 -68q0 -32 18.5 -49t49.5 -17q33 0 67.5 19t60.5 54h10l21 -43q-30 -35 -70.5 -57t-86.5 -27q-141 0 -141 107q0 48 30 85.5t80 53.5
q-68 26 -68 90q0 61 49 99t127 38q66 -14 113 -35zM280 706l45 -17l1 -10l-58 -101l-31 -53l-8 -3l-37 16q26 47 80 165z" />
    <glyph glyph-name="etatonos" unicode="&#x3ae;" horiz-adv-x="458" 
d="M391.5 434.5q21.5 -22.5 20.5 -56.5l-1 -13l-70 -442l-6 -105l-77 -7l84 527l1 13q0 31 -21 31q-29 0 -81.5 -73t-117.5 -208l-5 -98l-76 -7l52 363l5 97l73 7l-31 -225h9q49 86 90 139.5t84 87.5h11q35 -8 56.5 -30.5zM330 706l45 -17l1 -10l-58 -101l-31 -53l-8 -3
l-37 16q26 47 80 165z" />
    <glyph glyph-name="iotatonos" unicode="&#x3af;" horiz-adv-x="215" 
d="M123 109l-4 -106l-76 -7l52 363l4 97l74 7zM205 706l45 -17l1 -10l-58 -101l-31 -53l-8 -3l-37 16q26 47 80 165z" />
    <glyph glyph-name="upsilondieresistonos" unicode="&#x3b0;" horiz-adv-x="433" 
d="M85.5 28q-35.5 34 -35.5 96q0 22 2 33l27 202l5 97l72 6l-40 -296q-2 -22 -2 -31q0 -43 20.5 -64t61.5 -21q48 0 72.5 26.5t32.5 88.5l25 194l6 97l72 6l-40 -299q-10 -82 -56.5 -125.5t-120.5 -43.5q-66 0 -101.5 34zM221 553q28 71 49 141l6 3l42 -16l4 -7l-62 -131
l-10 -3zM137 563.5q-9 9.5 -9 26.5t10 27.5t27 10.5t26 -9.5t9 -26.5t-10 -27.5t-27 -10.5t-26 9.5zM330.5 563.5q-9.5 9.5 -9.5 26.5t10.5 27.5t27.5 10.5t26.5 -9.5t9.5 -26.5t-10.5 -27.5t-27.5 -10.5t-26.5 9.5z" />
    <glyph glyph-name="alpha" unicode="&#x3b1;" horiz-adv-x="430" 
d="M387 464l-49 -355l-5 -106l-75 -7l29 205h-12q-69 -124 -156 -208h-15q-38 21 -56.5 59.5t-18.5 97.5q0 71 25.5 136.5t74.5 113.5t117 65h5l68 -45l5 38zM169 110q31 36 69 100.5t72 146.5l2 19l-64 28q-45 0 -79.5 -31.5t-53.5 -85.5t-19 -120q0 -48 8.5 -70.5
t20.5 -22.5q13 0 44 36z" />
    <glyph glyph-name="beta" unicode="&#x3b2;" horiz-adv-x="457" 
d="M419 215q0 -63 -26 -113.5t-72 -79t-103 -28.5t-101 29l-13 -101l-7 -107l-71 -7l84 651q17 121 68 183t134 62q60 0 93 -31.5t33 -88.5q0 -63 -39.5 -117t-112.5 -90q133 -26 133 -162zM316 93.5q37 46.5 37 118.5q0 63 -35.5 93.5t-106.5 30.5l-3 6l6 49
q75 27 116.5 74.5t41.5 106.5q0 75 -72 75q-53 0 -83.5 -40.5t-41.5 -123.5l-50 -398q46 -38 96 -38q58 0 95 46.5z" />
    <glyph glyph-name="gamma" unicode="&#x3b3;" horiz-adv-x="386" 
d="M335 255l-162 -266l-9 -65l-5 -109l-76 -7l25 177l-55 471l74 7l3 -80l26 -303h6l113 196q32 55 32 94q0 32 -24 67l3 10l69 16q23 -37 23 -80q0 -54 -43 -128z" />
    <glyph glyph-name="delta" unicode="&#x3b4;" horiz-adv-x="405" 
d="M217.5 636q-24.5 -20 -24.5 -53q0 -27 15.5 -47t49.5 -50q35 -30 57.5 -56t39 -67t16.5 -97q0 -77 -27 -139.5t-74.5 -98t-104.5 -35.5q-64 0 -98.5 44.5t-34.5 126.5q0 112 47 186t132 94l2 5q-4 4 -29.5 26.5t-38 48t-12.5 53.5q0 59 45 94t122 35q47 -5 93 -24
l-17 -55l-11 -2q-45 31 -81 31q-42 0 -66.5 -20zM291 345.5q-15 38.5 -42 67.5q-77 -19 -114 -78t-37 -163q0 -64 19 -94.5t58 -30.5q38 0 68 26t46.5 73t16.5 107q0 54 -15 92.5z" />
    <glyph glyph-name="epsilon" unicode="&#x3b5;" horiz-adv-x="365" 
d="M354 431l-19 -59l-12 -2q-54 41 -108 41q-36 0 -60 -22t-24 -58q0 -28 18 -47t50 -24h77l3 -6l-10 -44h-71q-42 0 -73 -29t-31 -68q0 -32 18.5 -49t49.5 -17q33 0 67.5 19t60.5 54h10l21 -43q-30 -35 -70.5 -57t-86.5 -27q-141 0 -141 107q0 48 30 85.5t80 53.5
q-68 26 -68 90q0 61 49 99t127 38q66 -14 113 -35z" />
    <glyph glyph-name="zeta" unicode="&#x3b6;" horiz-adv-x="350" 
d="M147 57q20 0 57 5q13 1 32.5 3t27.5 2q51 0 51 -57q0 -40 -35.5 -86t-107.5 -103l-38 30v5q50 34 84 71.5t34 58.5q0 12 -5 17t-16 5q-16 0 -49 -5q-55 -5 -62 -5q-48 0 -73 31.5t-25 92.5q0 91 77 219.5t241 305.5h-154l-69 -3l-3 5l13 52l80 -1h169l45 1l-6 -51
q-173 -194 -249 -317.5t-76 -201.5q0 -74 57 -74z" />
    <glyph glyph-name="eta" unicode="&#x3b7;" horiz-adv-x="458" 
d="M391.5 434.5q21.5 -22.5 20.5 -56.5l-1 -13l-70 -442l-6 -105l-77 -7l84 527l1 13q0 31 -21 31q-29 0 -81.5 -73t-117.5 -208l-5 -98l-76 -7l52 363l5 97l73 7l-31 -225h9q49 86 90 139.5t84 87.5h11q35 -8 56.5 -30.5z" />
    <glyph glyph-name="theta" unicode="&#x3b8;" horiz-adv-x="440" 
d="M379.5 647.5q30.5 -59.5 30.5 -169.5q0 -140 -28.5 -250.5t-81 -173t-120.5 -62.5q-58 0 -88.5 59.5t-30.5 170.5q0 140 29 250.5t81.5 172.5t120.5 62q57 0 87.5 -59.5zM188.5 576.5q-40.5 -75.5 -56.5 -207.5l210 8q4 44 4 104q0 81 -16.5 126t-48.5 45
q-52 0 -92.5 -75.5zM281 120.5q40 74.5 56 203.5l-210 -9q-3 -46 -3 -98q0 -82 17.5 -126.5t50.5 -44.5q49 0 89 74.5z" />
    <glyph glyph-name="iota" unicode="&#x3b9;" horiz-adv-x="215" 
d="M123 109l-4 -106l-76 -7l52 363l4 97l74 7z" />
    <glyph glyph-name="kappa" unicode="&#x3ba;" horiz-adv-x="416" 
d="M209 241q33 -50 114 -158l51 -70l-1 -9q-22 -6 -62 -13l-8 4l-164 237l-16 -123l-6 -106l-73 -7l49 363l5 97l71 6l-27 -210l167 165l31 41h81z" />
    <glyph glyph-name="lambda" unicode="&#x3bb;" horiz-adv-x="399" 
d="M370 53l-14 -44q-25 -13 -47 -14q-24 1 -36.5 15t-17.5 48l-40 295h-4l-132 -296l-22 -62l-69 9l212 457l-5 40q-7 55 -15.5 84t-22 41.5t-35.5 12.5q-13 0 -29 -3l-2 8l16 55q19 4 39 4q32 0 52 -16t33 -53.5t23 -103.5l63 -449q5 -30 21 -30q8 0 26 8z" />
    <glyph glyph-name="uni03BC" unicode="&#x3bc;" horiz-adv-x="466" 
d="M423 463l-50 -354l-4 -106l-76 -7l31 224h-7q-46 -78 -84.5 -130.5t-81.5 -93.5h-11q-22 9 -36 28l-9 -209l-76 -7l77 551l5 97l73 7l-48 -355q-2 -15 3.5 -22.5t16.5 -7.5q29 0 80 72t118 209l5 97z" />
    <glyph glyph-name="nu" unicode="&#x3bd;" horiz-adv-x="387" 
d="M379 383q0 -53 -44 -128l-150 -255h-82l-50 456l75 7l3 -80l25 -303h7l112 196q33 57 33 94q0 32 -24 67l2 10l70 16q23 -40 23 -80z" />
    <glyph glyph-name="xi" unicode="&#x3be;" horiz-adv-x="366" 
d="M412 674l-19 -52l-13 -1q-44 26 -80 26q-37 0 -68.5 -21.5t-49.5 -58.5t-18 -80q0 -50 26.5 -75.5t75.5 -25.5h66l4 -8l-10 -42h-45q-88 -27 -138.5 -81t-50.5 -121q0 -37 16.5 -57.5t45.5 -20.5q8 0 26.5 2t29.5 3q44 6 58 6q49 0 49 -55q0 -42 -34 -87.5t-108 -103.5
l-40 30v5q55 36 87.5 72t32.5 60q0 20 -22 20q-13 0 -43 -5q-46 -6 -67 -6q-45 0 -71 32.5t-26 88.5q0 74 44 134.5t122 94.5q-45 15 -69 48t-24 83q0 60 30.5 112.5t82 84t111.5 31.5q45 -7 85 -26z" />
    <glyph glyph-name="omicron" unicode="&#x3bf;" horiz-adv-x="404" 
d="M262 466q55 -9 82.5 -46t27.5 -106q0 -92 -26 -163t-75.5 -112.5t-117.5 -47.5l-9 1q-57 11 -84.5 48t-27.5 109q0 90 27 160.5t77.5 111.5t117.5 45h8zM137 336q-36 -69 -36 -186q0 -52 14 -75.5t47 -23.5q67 0 103 70t36 188q0 51 -14 73.5t-46 22.5q-68 0 -104 -69z
" />
    <glyph glyph-name="pi" unicode="&#x3c0;" horiz-adv-x="489" 
d="M503 407h-90l-46 -302l-10 -102l-72 -7l65 411h-162l-42 -298l-8 -106l-72 -7l59 411h-84l-5 6l6 45h461l6 -6z" />
    <glyph glyph-name="rho" unicode="&#x3c1;" horiz-adv-x="423" 
d="M390 304q0 -87 -30 -157t-83 -110.5t-120 -42.5l-62 13l-11 -85l-6 -107l-72 -7l57 440q14 99 68 158t132 59q127 0 127 -161zM283.5 116.5q41.5 66.5 41.5 178.5q0 63 -16.5 89t-55.5 26q-49 0 -81.5 -38t-41.5 -104l-27 -204l69 -16q70 2 111.5 68.5z" />
    <glyph glyph-name="uni03C2" unicode="&#x3c2;" horiz-adv-x="346" 
d="M110 -149l1 6q51 34 85 71t34 59q0 21 -22 21q-15 0 -42 -5l-24 -3t-24 -2q-41 0 -62.5 38.5t-21.5 113.5q0 93 29.5 164t83 110.5t122.5 39.5l66 -21l5 -10l-20 -50l-15 -3q-34 28 -60 28q-43 0 -76 -31.5t-51 -88t-18 -129.5q0 -54 12 -78t38 -24q7 0 20.5 2t22.5 3
q34 6 47 6q52 0 52 -58q0 -39 -35.5 -85.5t-108.5 -102.5z" />
    <glyph glyph-name="sigma" unicode="&#x3c3;" horiz-adv-x="441" 
d="M348 405l-3 -6q23 -67 23 -134q0 -74 -27 -137t-74 -99.5t-105 -36.5q-65 0 -96.5 44t-31.5 135q0 134 61 210.5t168 76.5h179l3 -6l-9 -47h-88zM291 405h-41q-71 0 -110 -60.5t-39 -172.5q0 -70 15.5 -97t55.5 -27q61 0 97 64.5t36 168.5q0 60 -14 124z" />
    <glyph glyph-name="tau" unicode="&#x3c4;" horiz-adv-x="365" 
d="M172 111l-2 -16q0 -15 7 -24t20 -9q33 0 79 68h9l21 -27q-32 -53 -58 -77t-60 -33q-40 0 -62.5 22t-22.5 62l2 24l52 306h-122l-6 6l6 45h334l6 -6l-7 -45h-148z" />
    <glyph glyph-name="upsilon" unicode="&#x3c5;" horiz-adv-x="433" 
d="M85.5 28q-35.5 34 -35.5 96q0 22 2 33l27 202l5 97l72 6l-40 -296q-2 -22 -2 -31q0 -43 20.5 -64t61.5 -21q48 0 72.5 26.5t32.5 88.5l25 194l6 97l72 6l-40 -299q-10 -82 -56.5 -125.5t-120.5 -43.5q-66 0 -101.5 34z" />
    <glyph glyph-name="phi" unicode="&#x3c6;" horiz-adv-x="559" 
d="M463 77.5q-63 -73.5 -187 -82.5l-10 -73l-9 -107l-70 -7l25 187q-180 13 -180 193q0 200 165 274l25 -29l-1 -8q-67 -44 -96 -97.5t-29 -131.5q0 -69 30.5 -106t92.5 -44l35 267q9 71 47.5 111.5t98.5 40.5q59 0 92.5 -48t33.5 -132q0 -134 -63 -207.5zM417 111
q44 58 44 168q0 63 -19 99t-51 36q-30 0 -48.5 -22.5t-23.5 -65.5l-37 -281q91 8 135 66z" />
    <glyph glyph-name="chi" unicode="&#x3c7;" horiz-adv-x="413" 
d="M334 -128q5 -6 14 -6q6 0 19 5l6 -6l-13 -43q-23 -10 -46 -13q-21 1 -32.5 13.5t-20.5 47.5l-68 228l-129 -234l-23 -49h-73l189 329l-69 213q-9 28 -17 37.5t-20 9.5q-5 0 -17 -2l-4 7l16 49q11 2 29 2q30 0 46 -15.5t29 -56.5l60 -203l123 224l22 49h73l-182 -317
l78 -248q5 -15 10 -21z" />
    <glyph glyph-name="psi" unicode="&#x3c8;" horiz-adv-x="572" 
d="M547 462l-35 -269q-8 -61 -40.5 -106t-80 -69t-101.5 -24h-3l-9 -72l-8 -107l-71 -7l24 186h-8q-73 0 -119 43t-46 119q0 10 2 32l22 171l6 97l72 6l-36 -265q-2 -22 -2 -30q0 -57 30.5 -87t79.5 -30h7l51 394l6 98l70 5l-64 -497h4q59 0 99.5 37t49.5 108l22 164l6 97z
" />
    <glyph glyph-name="omega" unicode="&#x3c9;" horiz-adv-x="567" 
d="M503 372.5q23 -51.5 23 -125.5q0 -120 -43 -188.5t-119 -68.5q-86 0 -103 98q-20 -51 -49.5 -74.5t-72.5 -23.5q-54 0 -79.5 39.5t-25.5 118.5q0 111 38 188t117 125l26 -28l-2 -10q-58 -48 -86 -115t-28 -154q0 -109 57 -109q35 0 57 39t33 118l14 103l59 5l6 -5
l-15 -111q-4 -27 -4 -54q0 -46 14.5 -70.5t42.5 -24.5q44 0 70.5 53t26.5 142q0 109 -59 183v11l29 27q50 -37 73 -88.5z" />
    <glyph glyph-name="iotadieresis" unicode="&#x3ca;" horiz-adv-x="215" 
d="M123 109l-4 -106l-76 -7l52 363l4 97l74 7zM103.5 636q10.5 -10 10.5 -28q0 -19 -11.5 -30.5t-29.5 -11.5q-19 0 -29 10.5t-10 28.5q0 19 11 30t30 11q18 0 28.5 -10zM266.5 636q10.5 -10 10.5 -28q0 -19 -11 -30.5t-30 -11.5q-18 0 -28 10.5t-10 28.5q0 19 10.5 30
t29.5 11q18 0 28.5 -10z" />
    <glyph glyph-name="upsilondieresis" unicode="&#x3cb;" horiz-adv-x="433" 
d="M85.5 28q-35.5 34 -35.5 96q0 22 2 33l27 202l5 97l72 6l-40 -296q-2 -22 -2 -31q0 -43 20.5 -64t61.5 -21q48 0 72.5 26.5t32.5 88.5l25 194l6 97l72 6l-40 -299q-10 -82 -56.5 -125.5t-120.5 -43.5q-66 0 -101.5 34zM211.5 636q10.5 -10 10.5 -28q0 -19 -11.5 -30.5
t-29.5 -11.5q-19 0 -29 10.5t-10 28.5q0 19 11 30t30 11q18 0 28.5 -10zM374.5 636q10.5 -10 10.5 -28q0 -19 -11 -30.5t-30 -11.5q-18 0 -28 10.5t-10 28.5q0 19 10.5 30t29.5 11q18 0 28.5 -10z" />
    <glyph glyph-name="omicrontonos" unicode="&#x3cc;" horiz-adv-x="404" 
d="M262 466q55 -9 82.5 -46t27.5 -106q0 -92 -26 -163t-75.5 -112.5t-117.5 -47.5l-9 1q-57 11 -84.5 48t-27.5 109q0 90 27 160.5t77.5 111.5t117.5 45h8zM137 336q-36 -69 -36 -186q0 -52 14 -75.5t47 -23.5q67 0 103 70t36 188q0 51 -14 73.5t-46 22.5q-68 0 -104 -69z
M329 706l45 -17l1 -10l-58 -101l-31 -53l-8 -3l-37 16q26 47 80 165z" />
    <glyph glyph-name="upsilontonos" unicode="&#x3cd;" horiz-adv-x="433" 
d="M85.5 28q-35.5 34 -35.5 96q0 22 2 33l27 202l5 97l72 6l-40 -296q-2 -22 -2 -31q0 -43 20.5 -64t61.5 -21q48 0 72.5 26.5t32.5 88.5l25 194l6 97l72 6l-40 -299q-10 -82 -56.5 -125.5t-120.5 -43.5q-66 0 -101.5 34zM313 706l45 -17l1 -10l-58 -101l-31 -53l-8 -3
l-37 16q26 47 80 165z" />
    <glyph glyph-name="omegatonos" unicode="&#x3ce;" horiz-adv-x="567" 
d="M503 372.5q23 -51.5 23 -125.5q0 -120 -43 -188.5t-119 -68.5q-86 0 -103 98q-20 -51 -49.5 -74.5t-72.5 -23.5q-54 0 -79.5 39.5t-25.5 118.5q0 111 38 188t117 125l26 -28l-2 -10q-58 -48 -86 -115t-28 -154q0 -109 57 -109q35 0 57 39t33 118l14 103l59 5l6 -5
l-15 -111q-4 -27 -4 -54q0 -46 14.5 -70.5t42.5 -24.5q44 0 70.5 53t26.5 142q0 109 -59 183v11l29 27q50 -37 73 -88.5zM381 697l45 -17l1 -10l-58 -101l-31 -53l-8 -3l-37 16q26 47 80 165z" />
    <glyph glyph-name="uni03CF" unicode="&#x3cf;" horiz-adv-x="582" 
d="M184 640l-57 -441l-22 -199h-76l28 193l51 447h76zM238 338q107 -163 241 -323v-7l-45 -8l45 6q-53 -115 -108.5 -166.5t-128.5 -51.5q-24 0 -45 4q-23 25 -23 60l5 4q28 -6 52 -6q54 0 94.5 34t81.5 112l-14 7q-139 181 -232 335l-1 4l246 244l47 54h88z" />
    <glyph glyph-name="uni03D1" unicode="&#x3d1;" horiz-adv-x="440" 
d="M379.5 647.5q30.5 -59.5 30.5 -169.5q0 -140 -28.5 -250.5t-81 -173t-120.5 -62.5q-58 0 -88.5 59.5t-30.5 170.5q0 140 29 250.5t81.5 172.5t120.5 62q57 0 87.5 -59.5zM188.5 576.5q-40.5 -75.5 -56.5 -207.5l210 8q4 44 4 104q0 81 -16.5 126t-48.5 45
q-52 0 -92.5 -75.5zM281 120.5q40 74.5 56 203.5l-210 -9q-3 -46 -3 -98q0 -82 17.5 -126.5t50.5 -44.5q49 0 89 74.5z" />
    <glyph glyph-name="uni03D5" unicode="&#x3d5;" horiz-adv-x="559" 
d="M463 77.5q-63 -73.5 -187 -82.5l-10 -73l-9 -107l-70 -7l25 187q-180 13 -180 193q0 200 165 274l25 -29l-1 -8q-67 -44 -96 -97.5t-29 -131.5q0 -69 30.5 -106t92.5 -44l35 267q9 71 47.5 111.5t98.5 40.5q59 0 92.5 -48t33.5 -132q0 -134 -63 -207.5zM417 111
q44 58 44 168q0 63 -19 99t-51 36q-30 0 -48.5 -22.5t-23.5 -65.5l-37 -281q91 8 135 66z" />
    <glyph glyph-name="uni03D6" unicode="&#x3d6;" horiz-adv-x="489" 
d="M503 407h-90l-46 -302l-10 -102l-72 -7l65 411h-162l-42 -298l-8 -106l-72 -7l59 411h-84l-5 6l6 45h461l6 -6z" />
    <glyph glyph-name="uni03D7" unicode="&#x3d7;" horiz-adv-x="459" 
d="M175 247q31 -44 78 -100.5t58 -69.5l54 -64l-1 -9l-22 -2l22 1q-44 -91 -91 -132.5t-107 -41.5q-17 0 -35 3q-24 20 -27 57l5 4q20 -4 41 -4q45 0 79.5 25.5t68.5 82.5l-13 7l-54 69q-88 110 -126 166l-5 -39l-23 -200h-72l26 194l30 258l74 8l-28 -208l181 165l36 41h84
z" />
    <glyph glyph-name="uni03F0" unicode="&#x3f0;" horiz-adv-x="416" 
d="M209 241q33 -50 114 -158l51 -70l-1 -9q-22 -6 -62 -13l-8 4l-164 237l-16 -123l-6 -106l-73 -7l49 363l5 97l71 6l-27 -210l167 165l31 41h81z" />
    <glyph glyph-name="uni0400" unicode="&#x400;" horiz-adv-x="485" 
d="M211 576l-28 -216l115 -2l100 3l5 -7l-14 -58l-106 2l-109 -1l-13 -98l-14 -135l122 -2l145 4l3 -7l-13 -59h-340l29 193l52 447h341l3 -7l-13 -59l-142 4zM417 758l-14 -34l-9 -4l-44 19q-89 38 -149 67l-3 9l20 44l8 2q94 -55 191 -103z" />
    <glyph glyph-name="uni0401" unicode="&#x401;" horiz-adv-x="485" 
d="M211 576l-28 -216l115 -2l100 3l5 -7l-14 -58l-106 2l-109 -1l-13 -98l-14 -135l122 -2l145 4l3 -7l-13 -59h-340l29 193l52 447h341l3 -7l-13 -59l-142 4zM279.5 818q10.5 -10 10.5 -28q0 -19 -11.5 -30.5t-29.5 -11.5q-19 0 -29 10.5t-10 28.5q0 19 11 30t30 11
q18 0 28.5 -10zM442.5 818q10.5 -10 10.5 -28q0 -19 -11 -30.5t-30 -11.5q-18 0 -28 10.5t-10 28.5q0 19 10.5 30t29.5 11q18 0 28.5 -10z" />
    <glyph glyph-name="uni0402" unicode="&#x402;" horiz-adv-x="637" 
d="M547 388q37 -36 37 -123q0 -36 -6 -81q-17 -130 -61.5 -219.5t-126.5 -156.5l-27 29v10q61 59 97 138.5t50 189.5q5 45 5 71q0 59 -20 84.5t-65 25.5q-87 0 -173 -84l-9 -73l-22 -199h-73l28 193l44 386l-154 -1l-4 7l12 55h437l5 -7l-13 -55l-211 1l-30 -231h6
q73 59 152 77q85 -1 122 -37z" />
    <glyph glyph-name="uni0403" unicode="&#x403;" horiz-adv-x="438" 
d="M467 633l-14 -55l-241 1l-48 -380l-23 -199h-75l27 193l52 447h317zM412 859l20 -44l-3 -9q-60 -29 -149 -67l-44 -19l-9 4l-14 34q106 53 191 103z" />
    <glyph glyph-name="uni0404" unicode="&#x404;" horiz-adv-x="536" 
d="M462 633q43 -13 75 -37l-22 -68l-8 -1q-60 55 -145 55q-88 0 -146 -57t-81 -165l119 -1l175 2l6 -6l-13 -59l-181 3l-116 -2q-2 -17 -2 -47q0 -95 42 -143.5t124 -48.5q46 0 92 16.5t84 45.5l11 -6l-14 -72q-89 -49 -187 -49q-112 0 -171.5 63.5t-59.5 184.5q0 30 5 72
q19 158 103 245.5t217 87.5q50 0 93 -13z" />
    <glyph glyph-name="uni0405" unicode="&#x405;" horiz-adv-x="460" 
d="M443 615l-21 -71l-14 -4q-52 44 -116 44q-38 0 -67 -15t-45 -39.5t-16 -51.5q0 -37 26 -61.5t80 -58.5q44 -27 71.5 -48.5t47 -54t19.5 -75.5q0 -51 -28.5 -94t-78.5 -68t-112 -25q-41 0 -85.5 12t-80.5 33l19 77l10 4q29 -32 68 -48t77 -16q59 0 97 32.5t38 78.5
q0 39 -26 65t-80 59q-43 26 -70 47t-46 53t-19 75q0 50 27.5 91.5t76 65.5t107.5 24q72 0 141 -31z" />
    <glyph glyph-name="uni0406" unicode="&#x406;" horiz-adv-x="263" 
d="M161 199l-20 -199h-76l29 193l51 447h76z" />
    <glyph glyph-name="uni0407" unicode="&#x407;" horiz-adv-x="259" 
d="M159 199l-20 -199h-76l29 193l51 447h76zM149.5 818q10.5 -10 10.5 -28q0 -19 -11.5 -30.5t-29.5 -11.5q-19 0 -29 10.5t-10 28.5q0 19 11 30t30 11q18 0 28.5 -10zM312.5 818q10.5 -10 10.5 -28q0 -19 -11 -30.5t-30 -11.5q-18 0 -28 10.5t-10 28.5q0 19 10.5 30
t29.5 11q18 0 28.5 -10z" />
    <glyph glyph-name="uni0408" unicode="&#x408;" horiz-adv-x="318" 
d="M222 212l-9 -94q-10 -75 -53.5 -124.5t-138.5 -94.5l-24 42l1 9q72 38 105 75t40 93l11 87l43 374l-119 -1l-7 7l12 55h197z" />
    <glyph glyph-name="uni0409" unicode="&#x409;" horiz-adv-x="846" 
d="M765 336q42 -37 42 -105q0 -10 -2 -32q-11 -95 -80 -147t-185 -52h-147l27 193l45 388h-173l-13 -58q-40 -194 -76 -303.5t-76.5 -162t-96.5 -67.5l-24 -4l-8 61q51 18 85.5 65.5t64.5 145.5t67 278l22 102l-1 2h311l-34 -267h131q79 0 121 -37zM732 219q0 47 -29.5 72.5
t-85.5 25.5l-111 -1l-15 -117l-16 -141l102 -3q67 8 106.5 44.5t46.5 97.5q2 16 2 22z" />
    <glyph glyph-name="uni040A" unicode="&#x40a;" horiz-adv-x="917" 
d="M837 332.5q42 -35.5 42 -103.5q0 -10 -2 -32q-11 -95 -80 -146t-186 -51h-143l26 193l13 113l-336 -1l-14 -106l-22 -199h-72l28 193l51 447h73l-36 -275l167 -1l168 1l32 275h73l-35 -272h131q80 0 122 -35.5zM803 217q0 47 -29 70.5t-86 22.5l-112 -1l-14 -110
l-16 -141l102 -3q68 8 107 43t46 96q2 16 2 23z" />
    <glyph glyph-name="uni040B" unicode="&#x40b;" horiz-adv-x="641" 
d="M546.5 387.5q40.5 -36.5 40.5 -109.5q0 -18 -3 -39l-27 -239h-72l31 225q2 22 2 30q0 101 -92 101q-41 0 -84.5 -21.5t-83.5 -62.5l-10 -73l-22 -199h-73l28 193l44 386l-154 -1l-4 7l12 55h437l5 -7l-13 -55l-210 1l-30 -231h5q72 59 150 77q83 -1 123.5 -37.5z" />
    <glyph glyph-name="uni040C" unicode="&#x40c;" horiz-adv-x="550" 
d="M161 199l-21 -199h-76l30 193l51 447h76zM273 338q99 -165 224 -322l-3 -9q-35 -10 -73 -16l-7 5q-138 195 -222 340l1 6l235 244l45 54h85zM380 859l20 -44l-3 -9q-60 -29 -149 -67l-44 -19l-9 4l-14 34q106 53 191 103z" />
    <glyph glyph-name="uni040D" unicode="&#x40d;" horiz-adv-x="661" 
d="M91 193l50 445l77 4l-69 -522h7l385 520h80l-58 -441l-22 -199h-75l27 193l39 327h-6l-386 -520h-77zM486 758l-14 -34l-9 -4l-44 19q-89 38 -149 67l-3 9l20 44l8 2q94 -55 191 -103z" />
    <glyph glyph-name="uni040E" unicode="&#x40e;" horiz-adv-x="552" 
d="M578 639l-240 -447q-47 -83 -79.5 -121.5t-71 -55t-106.5 -23.5l-8 2q-7 28 -7 60l3 5q56 9 86.5 18.5t53 28t44.5 53.5l-178 480l78 1l14 -56l123 -343h9l181 346l25 52h73zM484 806q-23 -45 -67.5 -69t-93.5 -24q-46 0 -81.5 22t-46.5 63l37 31h9q12 -31 39 -48t61 -17
t65 17t50 48h10z" />
    <glyph glyph-name="uni040F" unicode="&#x40f;" horiz-adv-x="625" 
d="M583 640l-58 -441l-22 -199h-185l-22 -139l-57 -6l11 145h-185l27 193l52 447h73l-57 -441l-15 -139h293l19 133l52 447h74z" />
    <glyph glyph-name="uni0410" unicode="&#x410;" horiz-adv-x="570" 
d="M513 0h-76l-6 62l-21 115l-136 2l-123 -2l-52 -111l-25 -66h-75l304 640h86zM398 241l-60 321h-7l-150 -321l106 -1z" />
    <glyph glyph-name="uni0411" unicode="&#x411;" horiz-adv-x="571" 
d="M199 369h141q86 0 130.5 -37.5t44.5 -107.5q0 -106 -74.5 -165t-208.5 -59h-151l27 193l51 447h379l5 -7l-14 -55l-302 1zM192 312l-15 -113l-15 -141l110 -4q80 8 122 47.5t42 107.5q0 50 -31.5 77t-92.5 27z" />
    <glyph glyph-name="uni0412" unicode="&#x412;" horiz-adv-x="525" 
d="M472 201q0 -100 -68.5 -152.5t-203.5 -52.5q-86 0 -135 4h-1l29 193l52 447h1l163 2q77 0 119.5 -34.5t42.5 -99.5q0 -62 -29 -106.5t-83 -67.5q113 -33 113 -133zM369 558.5q-25 20.5 -78 20.5h-78l-31 -219l105 -3q107 24 107 138q0 43 -25 63.5zM348.5 95
q46.5 36 46.5 102q0 88 -104 100l-118 -1l-13 -97l-14 -137q37 -3 71 -3q85 0 131.5 36z" />
    <glyph glyph-name="uni0413" unicode="&#x413;" horiz-adv-x="438" 
d="M467 633l-14 -55l-241 1l-48 -380l-23 -199h-75l27 193l52 447h317z" />
    <glyph glyph-name="uni0414" unicode="&#x414;" horiz-adv-x="646" 
d="M569 -119l-58 -6l4 125h-449l-24 -119l-60 -6l23 188h54q44 25 74.5 75.5t57 142.5t60.5 255l21 104h305l-57 -441l-15 -136h87zM450 193l45 388h-168l-13 -58q-42 -211 -81 -313t-95 -147h294z" />
    <glyph glyph-name="uni0415" unicode="&#x415;" horiz-adv-x="485" 
d="M211 576l-28 -216l115 -2l100 3l5 -7l-14 -58l-106 2l-109 -1l-13 -98l-14 -135l122 -2l145 4l3 -7l-13 -59h-340l29 193l52 447h341l3 -7l-13 -59l-142 4z" />
    <glyph glyph-name="uni0416" unicode="&#x416;" horiz-adv-x="812" 
d="M2 7l-1 10q159 163 294 325l-201 298h82l30 -54l166 -244v-7q-109 -141 -293 -340l-10 -4q-40 7 -67 16zM368 193l51 447h75l-57 -441l-22 -199h-74zM678 -3q-115 163 -210 340l-1 5l225 244l44 54h85l-277 -301q98 -169 214 -324v-8q-27 -8 -70 -16z" />
    <glyph glyph-name="uni0417" unicode="&#x417;" horiz-adv-x="495" 
d="M411.5 286q29.5 -35 29.5 -87q0 -62 -32.5 -109t-90.5 -73t-133 -26q-51 0 -95 13.5t-73 38.5l24 67l8 3q25 -27 63 -42t80 -15q49 0 88.5 18t62.5 50t23 73t-26 68.5t-74 35.5h-127l-6 7l12 52l124 -1q44 16 72.5 53.5t28.5 81.5q0 42 -29 64t-82 22q-80 0 -167 -57
l-9 3l14 69q83 51 174 51q82 0 129.5 -36.5t47.5 -99.5q0 -56 -33 -103t-89 -72q56 -14 85.5 -49z" />
    <glyph glyph-name="uni0418" unicode="&#x418;" horiz-adv-x="661" 
d="M91 193l50 445l77 4l-69 -522h7l385 520h80l-58 -441l-22 -199h-75l27 193l39 327h-6l-386 -520h-77z" />
    <glyph glyph-name="uni0419" unicode="&#x419;" horiz-adv-x="661" 
d="M91 193l50 445l77 4l-69 -522h7l385 520h80l-58 -441l-22 -199h-75l27 193l39 327h-6l-386 -520h-77zM535 806q-23 -45 -65.5 -69t-89.5 -24q-43 0 -76.5 22t-44.5 63l37 31h10q11 -31 36.5 -48t56.5 -17t60 17t48 48h9z" />
    <glyph glyph-name="uni041A" unicode="&#x41a;" horiz-adv-x="550" 
d="M161 199l-21 -199h-76l30 193l51 447h76zM273 338q99 -165 224 -322l-3 -9q-35 -10 -73 -16l-7 5q-138 195 -222 340l1 6l235 244l45 54h85z" />
    <glyph glyph-name="uni041B" unicode="&#x41b;" horiz-adv-x="592" 
d="M491 199l-22 -199h-75l27 193l45 388h-174l-12 -58q-40 -194 -76 -303.5t-76.5 -162t-96.5 -67.5l-24 -4l-8 61q51 18 85.5 65.5t64.5 145.5t67 278l22 102l-1 2h311z" />
    <glyph glyph-name="uni041C" unicode="&#x41c;" horiz-adv-x="765" 
d="M669 0h-67l11 195l8 326h-6l-226 -447h-63l-106 447h-7l-71 -320l-42 -201h-64l144 640h85l20 -97l85 -371h7l187 377l42 91h85z" />
    <glyph glyph-name="uni041D" unicode="&#x41d;" horiz-adv-x="659" 
d="M616 640l-59 -441l-21 -199h-75l28 193l11 98l-170 3l-156 -3l-13 -92l-20 -199h-76l29 193l51 447h76l-39 -283l162 -3l164 3l32 283h76z" />
    <glyph glyph-name="uni041E" unicode="&#x41e;" horiz-adv-x="645" 
d="M546 580q60 -67 60 -189q0 -123 -37 -213t-107.5 -138t-170.5 -48q-107 0 -167.5 69.5t-60.5 193.5q0 185 81.5 288.5t231.5 103.5q110 0 170 -67zM196.5 501q-56.5 -83 -56.5 -241q0 -205 158 -205q114 0 171.5 84t57.5 243q0 202 -160 202q-114 0 -170.5 -83z" />
    <glyph glyph-name="uni041F" unicode="&#x41f;" horiz-adv-x="648" 
d="M546 199l-22 -199h-74l26 193l45 384l-164 1l-145 -2l-48 -377l-22 -199h-76l28 193l51 447h459z" />
    <glyph glyph-name="uni0420" unicode="&#x420;" horiz-adv-x="504" 
d="M448 600q46 -42 46 -124q0 -72 -31 -128.5t-89 -88.5t-135 -32h-74l-4 -28l-21 -199h-76l29 193l52 447h1l176 2q80 0 126 -42zM379.5 345q37.5 49 37.5 121q0 55 -26.5 83t-85.5 31l-93 -3l-39 -287l109 -2q60 8 97.5 57z" />
    <glyph glyph-name="uni0421" unicode="&#x421;" horiz-adv-x="535" 
d="M464 633.5q42 -12.5 74 -36.5l-24 -69l-8 -2q-58 56 -140 56q-108 0 -167 -82.5t-59 -233.5q0 -101 41 -154.5t117 -53.5q42 0 85.5 16t81.5 45l9 -5l-16 -71q-86 -50 -172 -50q-107 0 -165.5 68.5t-58.5 193.5q0 121 37 209t107.5 135t168.5 47q47 0 89 -12.5z" />
    <glyph glyph-name="uni0422" unicode="&#x422;" horiz-adv-x="467" 
d="M496 633l-14 -58l-104 5h-63l-51 -381l-21 -199h-75l29 193l43 387h-61l-109 -5l-5 7l14 58h413z" />
    <glyph glyph-name="uni0423" unicode="&#x423;" horiz-adv-x="552" 
d="M578 639l-240 -447q-47 -83 -79.5 -121.5t-71 -55t-106.5 -23.5l-8 2q-7 28 -7 60l3 5q56 9 86.5 18.5t53 28t44.5 53.5l-178 480l78 1l14 -56l123 -343h9l181 346l25 52h73z" />
    <glyph glyph-name="uni0424" unicode="&#x424;" horiz-adv-x="746" 
d="M633.5 156q-85.5 -77 -245.5 -86l-10 -87h-71l12 87q-130 5 -198 61t-68 161q0 143 84 217.5t246 82.5l8 70h71l-9 -70q131 -5 198.5 -59.5t67.5 -158.5q0 -141 -85.5 -218zM645 364q0 81 -49 123t-150 47l-43 -333l-8 -73q250 15 250 236zM176.5 175.5
q50.5 -42.5 150.5 -47.5l10 67l39 339q-125 -8 -187.5 -65.5t-62.5 -168.5q0 -82 50.5 -124.5z" />
    <glyph glyph-name="uni0425" unicode="&#x425;" horiz-adv-x="567" 
d="M346 329l162 -329h-87l-19 51l-115 224l-174 -229l-30 -46h-80l247 328l-156 312h87l19 -49l106 -209l158 209l31 49h81z" />
    <glyph glyph-name="uni0426" unicode="&#x426;" horiz-adv-x="661" 
d="M587 -119l-57 -6l5 125h-470l27 193l52 447h75l-56 -441l-16 -136h294l18 130l51 447h78l-58 -441l-15 -136h96z" />
    <glyph glyph-name="uni0427" unicode="&#x427;" horiz-adv-x="573" 
d="M533 640l-58 -441l-22 -199h-76l27 193l11 92h-8q-71 -58 -156 -77q-89 0 -132 34.5t-43 106.5q0 11 2 35l30 256h76l-31 -239q-2 -18 -2 -25q0 -48 25.5 -74t71.5 -26q43 0 88.5 22t87.5 63l32 279h77z" />
    <glyph glyph-name="uni0428" unicode="&#x428;" horiz-adv-x="873" 
d="M831 640l-58 -441l-22 -199h-686l27 193l52 447h75l-56 -441l-16 -136h232l19 130l51 447h76l-57 -441l-15 -136h232l18 130l51 447h77z" />
    <glyph glyph-name="uni0429" unicode="&#x429;" horiz-adv-x="904" 
d="M833 640l-58 -441l-22 -199h-686l27 193l52 447h75l-56 -441l-16 -136h232l19 130l51 447h76l-57 -441l-15 -136h232l18 130l51 447h77zM834 -119l-57 -6l5 125h-105l22 63h159z" />
    <glyph glyph-name="uni042A" unicode="&#x42a;" horiz-adv-x="615" 
d="M535 335.5q42 -37.5 42 -107.5q0 -108 -71 -168t-199 -60h-144l27 193l45 386h-75l-100 -1l-6 7l14 55h249l-35 -267h131q80 0 122 -37.5zM458.5 103.5q39.5 40.5 39.5 108.5q0 50 -29.5 77.5t-85.5 27.5l-108 -1l-15 -117l-16 -141l101 -3q74 8 113.5 48.5z" />
    <glyph glyph-name="uni042B" unicode="&#x42b;" horiz-adv-x="713" 
d="M420.5 335.5q40.5 -37.5 40.5 -106.5q0 -108 -70 -168.5t-195 -60.5h-138l27 193l51 447h77l-35 -267h126q76 0 116.5 -37.5zM671 640l-60 -441l-20 -199h-76l29 193l51 447h76zM343 104q38 41 38 109q0 50 -27 77t-80 27l-104 -1l-15 -117l-16 -141l96 -3q70 8 108 49z
" />
    <glyph glyph-name="uni042C" unicode="&#x42c;" horiz-adv-x="541" 
d="M462 335q43 -38 43 -108q0 -107 -73 -167t-204 -60h-147l27 193l51 447h76l-35 -267h136q83 0 126 -38zM384 103.5q40 40.5 40 108.5q0 50 -29.5 77.5t-87.5 27.5l-115 -1l-15 -117l-15 -141l106 -3q76 8 116 48.5z" />
    <glyph glyph-name="uni042D" unicode="&#x42d;" horiz-adv-x="533" 
d="M452 582.5q59 -63.5 59 -183.5q0 -30 -5 -72q-20 -158 -103.5 -246t-216.5 -88q-98 0 -169 50l23 68l8 1q60 -55 145 -55q91 0 151 62t79 177l-119 2l-174 -3l-5 7l13 58l178 -2l115 2q1 11 1 32q0 94 -42 142t-124 48q-44 0 -89.5 -16.5t-87.5 -45.5l-9 5l13 73
q89 48 188 48q112 0 171 -63.5z" />
    <glyph glyph-name="uni042E" unicode="&#x42e;" horiz-adv-x="820" 
d="M746.5 583.5q54.5 -63.5 54.5 -183.5q0 -38 -4 -71q-19 -162 -97 -249.5t-202 -87.5q-103 0 -157.5 64.5t-54.5 185.5q0 15 2 49l-60 1l-55 -1l-12 -92l-22 -199h-76l28 193l51 447h75l-36 -285l58 -1l57 1q26 141 101 216.5t191 75.5q104 0 158.5 -63.5zM724 399
q0 94 -36 140t-108 46q-181 0 -212 -265q-6 -45 -6 -82q0 -186 143 -186q90 0 143.5 67t70.5 203q5 47 5 77z" />
    <glyph glyph-name="uni042F" unicode="&#x42f;" horiz-adv-x="533" 
d="M492 639l-58 -446l-21 -193h-75l27 199l5 43h-108q-81 -123 -176 -245l-9 -6q-38 4 -67 18l-2 9q119 141 193 240q-53 22 -80.5 62.5t-27.5 95.5q0 10 2 30q11 89 73.5 142.5t154.5 53.5l170 -2zM377 302l32 281l-88 2q-60 -1 -100.5 -40t-48.5 -105q-2 -18 -2 -25
q0 -93 94 -117z" />
    <glyph glyph-name="uni0430" unicode="&#x430;" horiz-adv-x="429" 
d="M386 460l-49 -351l-5 -106l-76 -7l29 205h-10q-73 -128 -157 -208h-14q-76 43 -76 157q0 72 27 140t79.5 115.5t127.5 59.5h5l62 -23l48 24zM166.5 108q29.5 33 67 96t73.5 148l1 6l1 24l-62 22q-46 0 -80.5 -31.5t-52.5 -85t-18 -118.5q0 -50 9 -72t20 -22q12 0 41.5 33
z" />
    <glyph glyph-name="uni0431" unicode="&#x431;" horiz-adv-x="426" 
d="M376.5 400.5q17.5 -33.5 17.5 -91.5q0 -90 -27 -160.5t-75.5 -111t-111.5 -43.5q-127 0 -127 175q0 163 50.5 280t141.5 160l89 43q29 15 42 25.5t27 35.5l28 -17q-16 -39 -30.5 -59.5t-44.5 -42.5l-90 -36q-57 -23 -92 -97t-45 -184l-3 -29h6q72 123 171 206h15
q41 -20 58.5 -53.5zM261.5 75.5q32.5 30.5 50.5 85t18 122.5q0 43 -9.5 71.5t-24.5 28.5q-12 0 -44.5 -35.5t-70.5 -89t-65 -103.5q2 -57 19 -83.5t53 -26.5q41 0 73.5 30.5z" />
    <glyph glyph-name="uni0432" unicode="&#x432;" horiz-adv-x="382" 
d="M335 131v-10q-17 -58 -62 -93t-106 -35q-135 0 -135 168q0 84 28.5 153t79 109.5t113.5 42.5l9 -1q44 -6 67.5 -28.5t23.5 -59.5q0 -75 -98 -134q55 -49 80 -112zM148.5 362q-37.5 -53 -46.5 -138q90 31 137.5 69t47.5 79q0 21 -12.5 32t-35.5 11q-53 0 -90.5 -53z
M243 71q28 25 28 55q0 17 -15 45t-38 52q-47 -23 -118 -46q0 -69 19 -100t62 -31q34 0 62 25z" />
    <glyph glyph-name="uni0433" unicode="&#x433;" horiz-adv-x="332" 
d="M52.5 21.5q-34.5 27.5 -34.5 73.5q0 33 18 61t43 48.5t66 48.5q46 31 68.5 52t22.5 45q0 23 -15 36t-40 13q-23 0 -45.5 -12.5t-53.5 -40.5h-13l-19 39q52 64 132 81q56 0 90.5 -28.5t34.5 -73.5q0 -47 -32 -80t-92 -73q-48 -33 -71 -54.5t-23 -48.5q0 -22 16 -36t43 -14
q50 0 107 69l12 -3l21 -38q-51 -73 -141 -94q-60 2 -94.5 29.5z" />
    <glyph glyph-name="uni0434" unicode="&#x434;" horiz-adv-x="410" 
d="M213 707q79 0 120.5 -60.5t41.5 -180.5q0 -228 -57.5 -350t-167.5 -124q-117 7 -117 169q0 83 27.5 152t74.5 109t104 40q33 -2 68 -9v12q0 99 -31 145t-96 46q-34 0 -77 -12l-3 3l8 39q58 21 105 21zM264 133q36 86 42 262l-72 13q-62 -2 -99 -70t-37 -185
q0 -57 15 -81.5t48 -24.5q67 0 103 86z" />
    <glyph glyph-name="uni0435" unicode="&#x435;" horiz-adv-x="368" 
d="M299 139l24 -31q-32 -49 -70 -77t-86 -38h-12q-64 8 -93.5 47t-29.5 116q0 88 28.5 158t78 110t113.5 42l8 -1q43 -5 65.5 -28t22.5 -61q0 -60 -62 -110.5t-184 -88.5q0 -63 16.5 -92t51.5 -29q30 0 57.5 20t59.5 64zM149.5 362.5q-35.5 -49.5 -44.5 -132.5
q86 28 130.5 63.5t44.5 77.5q0 41 -44 41q-51 0 -86.5 -49.5z" />
    <glyph glyph-name="uni0436" unicode="&#x436;" horiz-adv-x="604" 
d="M364 462l-46 -353l-7 -106l-72 -7l49 363l5 97zM258 239q-102 -133 -199 -245l-8 -3q-23 3 -59 16l-2 8q119 135 197 234l-129 209h73l19 -41l107 -169zM419 246q70 -129 141 -234v-7q-35 -10 -63 -14l-8 6q-66 102 -139 244l1 7l146 169l29 41h77z" />
    <glyph glyph-name="uni0437" unicode="&#x437;" horiz-adv-x="347" 
d="M0 19l16 50l15 3q49 -23 92 -23q52 0 83 23.5t31 65.5q0 32 -24 50.5t-69 20.5h-54l-3 4l9 44l43 -1q25 0 48.5 14t38.5 37t15 46q0 24 -16.5 40.5t-42.5 16.5q-28 0 -52.5 -13t-52.5 -42h-9l-18 32q34 40 70 58.5t79 18.5q49 0 79.5 -27t30.5 -70q0 -37 -27 -72t-72 -55
v-3q43 -11 66.5 -37.5t23.5 -63.5q0 -63 -50 -102.5t-128 -39.5q-63 0 -122 25z" />
    <glyph glyph-name="uni0438" unicode="&#x438;" horiz-adv-x="455" 
d="M412 463l-50 -354l-4 -106l-76 -7l31 224h-7q-49 -84 -89.5 -137t-84.5 -87h-11q-35 8 -56.5 30t-20.5 56l1 13l41 258l8 105l74 6l-53 -335l-2 -21q-1 -15 5 -22.5t16 -7.5q29 0 82 73t117 208l5 97z" />
    <glyph glyph-name="uni0439" unicode="&#x439;" horiz-adv-x="455" 
d="M412 463l-50 -354l-4 -106l-76 -7l31 224h-7q-49 -84 -89.5 -137t-84.5 -87h-11q-35 8 -56.5 30t-20.5 56l1 13l41 258l8 105l74 6l-53 -335l-2 -21q-1 -15 5 -22.5t16 -7.5q29 0 82 73t117 208l5 97zM409 624q-23 -45 -65.5 -69t-89.5 -24q-43 0 -76.5 22t-44.5 63
l37 31h10q11 -31 36.5 -48t56.5 -17t60 17t48 48h9z" />
    <glyph glyph-name="uni043A" unicode="&#x43a;" horiz-adv-x="415" 
d="M93 359l5 97l71 6l-46 -353l-7 -106l-72 -7zM225 246q69 -122 148 -234l-1 -7q-33 -10 -62 -14l-8 6q-73 110 -146 244l1 7l151 169l31 41h76z" />
    <glyph glyph-name="uni043B" unicode="&#x43b;" horiz-adv-x="407" 
d="M354 3l-70 -7l-3 79l-28 307h-13l-105 -259q-20 -51 -39.5 -79t-43.5 -39.5t-61 -12.5l-7 52l5 8q32 8 52 31t46 83l127 292h88z" />
    <glyph glyph-name="uni043C" unicode="&#x43c;" horiz-adv-x="567" 
d="M124 456l76 6l14 -74l55 -249h4l120 251l30 66l78 6l-15 -462h-61l9 144l5 211h-6l-148 -302h-55l-68 302h-7l-43 -198l-32 -157h-58z" />
    <glyph glyph-name="uni043D" unicode="&#x43d;" horiz-adv-x="467" 
d="M422 462l-46 -353l-7 -106l-72 -7l27 206h-189l-12 -93l-6 -106l-73 -7l49 363l5 97l71 6l-26 -203l94 -1l95 1l13 100l5 97z" />
    <glyph glyph-name="uni043E" unicode="&#x43e;" horiz-adv-x="404" 
d="M262 466q55 -9 82.5 -46t27.5 -106q0 -92 -26 -163t-75.5 -112.5t-117.5 -47.5l-9 1q-57 11 -84.5 48t-27.5 109q0 90 27 160.5t77.5 111.5t117.5 45h8zM137 336q-36 -69 -36 -186q0 -52 14 -75.5t47 -23.5q67 0 103 70t36 188q0 51 -14 73.5t-46 22.5q-68 0 -104 -69z
" />
    <glyph glyph-name="uni043F" unicode="&#x43f;" horiz-adv-x="456" 
d="M391.5 434.5q21.5 -22.5 20.5 -56.5l-1 -13l-41 -257l-6 -105l-77 -7l55 342l1 13q0 31 -21 31q-29 0 -81.5 -73t-117.5 -208l-5 -98l-76 -7l52 363l5 97l74 7l-32 -225h9q51 87 91 140.5t83 86.5h11q35 -8 56.5 -30.5z" />
    <glyph glyph-name="uni0440" unicode="&#x440;" horiz-adv-x="433" 
d="M405 308q0 -73 -27 -140.5t-80.5 -115.5t-128.5 -59h-4l-54 12l-11 -81l-5 -109l-76 -7l77 551l5 97l73 7l-28 -206h11q73 128 158 208h14q76 -46 76 -157zM265.5 85q34.5 32 53 85.5t18.5 118.5q0 50 -9 71.5t-21 21.5t-41.5 -33t-67 -96t-73.5 -148l-5 -34l64 -18
q47 0 81.5 32z" />
    <glyph glyph-name="uni0441" unicode="&#x441;" horiz-adv-x="342" 
d="M332 444l6 -11l-20 -59l-16 -3q-19 20 -34.5 27.5t-32.5 7.5q-60 0 -95 -63t-35 -172q0 -62 14 -88.5t44 -26.5q53 0 104 90l11 -1l23 -32q-31 -53 -64.5 -80t-78.5 -40h-12q-58 10 -84.5 45.5t-26.5 119.5q0 134 58.5 220t174.5 86z" />
    <glyph glyph-name="uni0442" unicode="&#x442;" horiz-adv-x="705" 
d="M641.5 434.5q21.5 -22.5 20.5 -56.5l-1 -13l-41 -257l-6 -105l-77 -7l54 342l1 13q1 14 -4.5 22.5t-15.5 8.5q-29 0 -83 -75t-120 -213l-5 -91l-77 -7l55 342l1 13q0 31 -21 31q-29 0 -81.5 -73t-117.5 -208l-5 -98l-76 -7l52 363l5 97l74 7l-32 -225h9q51 87 91 140.5
t83 86.5h11q35 -8 56.5 -30.5t20.5 -56.5l-1 -13l-20 -127h9q49 86 90 139.5t84 87.5h11q35 -8 56.5 -30.5z" />
    <glyph glyph-name="uni0443" unicode="&#x443;" horiz-adv-x="398" 
d="M387 382q0 -57 -40 -128l-142 -251q-60 -106 -110.5 -152t-111.5 -46q-33 0 -75 14l2 64l9 6q34 -9 63 -9q46 0 81 26.5t72 88.5l-91 460l74 8l11 -80l48 -294h10l98 180q33 57 33 108q0 34 -23 66l3 9l65 11q24 -44 24 -81z" />
    <glyph glyph-name="uni0444" unicode="&#x444;" horiz-adv-x="591" 
d="M532 411q24 -40 24 -102q0 -84 -24.5 -153t-69 -111.5t-102.5 -49.5l-62 15l-12 -89l-7 -107l-71 -7l33 249h-9q-42 -44 -88 -63h-16q-45 13 -69.5 53t-24.5 102q0 84 25 153t70.5 111.5t104.5 50.5l58 -14l20 151l5 96l71 7l-39 -301h9q43 43 91 63h14q45 -14 69 -54z
M249 121l36 271l-59 17q-38 0 -67.5 -30t-45.5 -84.5t-16 -124.5q0 -50 14.5 -81t38.5 -31q36 0 99 63zM458.5 115q34.5 66 34.5 173q0 50 -14.5 80.5t-37.5 30.5q-38 0 -101 -62l-35 -271l62 -17q57 0 91.5 66z" />
    <glyph glyph-name="uni0445" unicode="&#x445;" horiz-adv-x="425" 
d="M374 4l-81 -10l-16 50l-70 143l-109 -144l-24 -43h-82l175 237l-103 217l78 10l14 -41l67 -137l102 132l24 40h80l-170 -226z" />
    <glyph glyph-name="uni0446" unicode="&#x446;" horiz-adv-x="476" 
d="M431 42l-16 -81q-9 -43 -25 -70t-47 -51l-55 22l-1 13q28 16 44.5 38.5t26.5 54.5l9 32h-28q-47 0 -47 47q0 11 1 18l20 155h-7q-51 -86 -91.5 -138.5t-83.5 -85.5h-11q-34 8 -56 30.5t-21 55.5l1 13l42 258l8 105l73 6l-52 -335l-2 -21q-1 -15 5 -22.5t16 -7.5
q28 0 80 72t116 204l1 5l7 97l72 6l-50 -379q-1 -4 -1 -10q0 -11 5 -14.5t18 -3.5h42z" />
    <glyph glyph-name="uni0447" unicode="&#x447;" horiz-adv-x="424" 
d="M380 462l-47 -353l-6 -106l-73 -7l31 233h-7q-53 -45 -86 -68.5t-64 -36.5h-12q-35 5 -54.5 25.5t-18.5 50.5l1 13l20 146l6 97l71 6l-30 -226v-12q0 -14 8 -22t21 -8q21 0 62.5 28t92.5 76l8 61l5 97z" />
    <glyph glyph-name="uni0448" unicode="&#x448;" horiz-adv-x="704" 
d="M661 463l-50 -354l-4 -106l-76 -7l31 224h-7q-50 -86 -90.5 -138t-84.5 -86h-11q-34 8 -56 30t-21 56l1 13l20 125h-7q-50 -86 -90.5 -138t-84.5 -86h-11q-34 8 -56 30t-21 56l1 13l42 258l8 105l73 6l-52 -335l-2 -21q-1 -15 5 -22.5t16 -7.5q29 0 82.5 74.5
t119.5 212.5l7 93l73 6l-52 -335l-2 -21q-1 -15 5 -22.5t16 -7.5q29 0 82 73t117 208l4 97z" />
    <glyph glyph-name="uni0449" unicode="&#x449;" horiz-adv-x="724" 
d="M679 42l-16 -81q-9 -43 -25 -70t-47 -51l-55 22l-1 13q28 16 44.5 38.5t26.5 54.5l9 32h-28q-47 0 -47 47q0 11 1 18l20 155h-6q-50 -86 -90.5 -138t-84.5 -86h-11q-34 8 -56 30t-21 56l1 13l20 125h-7q-50 -86 -90.5 -138t-84.5 -86h-11q-34 8 -56 30t-21 56l1 13
l42 258l8 105l73 6l-52 -335l-2 -21q-1 -15 5 -22.5t16 -7.5q29 0 82.5 74.5t119.5 212.5l7 93l73 6l-52 -335l-2 -21q-1 -15 5 -22.5t16 -7.5q28 0 79.5 70.5t115.5 202.5l1 8l7 97l72 6l-50 -379q-1 -4 -1 -10q0 -11 5 -14.5t18 -3.5h42z" />
    <glyph glyph-name="uni044A" unicode="&#x44a;" horiz-adv-x="417" 
d="M372 282.5q18 -28.5 18 -74.5q0 -56 -29 -104t-79.5 -77.5t-111.5 -32.5h-5l-118 25l125 385h-64l-69 -1l-3 5l10 50h204l-84 -258h6q43 52 68.5 78t60.5 49h15q38 -16 56 -44.5zM259 65.5q32 19.5 50.5 53t18.5 74.5q0 33 -10 50.5t-26 17.5q-15 0 -55.5 -40
t-100.5 -115l-16 -48l68 -12q39 0 71 19.5z" />
    <glyph glyph-name="uni044B" unicode="&#x44b;" horiz-adv-x="615" 
d="M351 282.5q18 -28.5 18 -73.5q0 -57 -26 -104t-72 -76.5t-102 -34.5h-5l-120 20l47 345l5 97l71 6l-34 -268h5q42 50 72.5 79t67.5 54h15q40 -16 58 -44.5zM270.5 87.5q36.5 41.5 36.5 105.5q0 33 -9.5 50.5t-24.5 17.5q-17 0 -58.5 -38.5t-91.5 -102.5l-8 -64l63 -10
q56 0 92.5 41.5zM521 109l-4 -106l-76 -7l52 363l4 97l74 7z" />
    <glyph glyph-name="uni044C" unicode="&#x44c;" horiz-adv-x="397" 
d="M351 282.5q18 -28.5 18 -73.5q0 -57 -26 -104t-72 -76.5t-102 -34.5h-5l-120 20l47 345l5 97l71 6l-34 -268h5q42 50 72.5 79t67.5 54h15q40 -16 58 -44.5zM270.5 87.5q36.5 41.5 36.5 105.5q0 33 -9.5 50.5t-24.5 17.5q-17 0 -58.5 -38.5t-91.5 -102.5l-8 -64l63 -10
q56 0 92.5 41.5z" />
    <glyph glyph-name="uni044D" unicode="&#x44d;" horiz-adv-x="352" 
d="M292.5 415q26.5 -38 26.5 -119q0 -88 -29 -156.5t-79 -107t-113 -38.5q-46 0 -93 24l-5 10l16 44l15 2q21 -15 37.5 -21.5t35.5 -6.5q55 0 93 43.5t52 119.5h-153l-5 5l9 43l90 -1h64q1 10 1 31q0 66 -15.5 94.5t-51.5 28.5q-58 0 -110 -67h-11l-21 31q34 40 68.5 61.5
t77.5 28.5h12q62 -11 88.5 -49z" />
    <glyph glyph-name="uni044E" unicode="&#x44e;" horiz-adv-x="583" 
d="M525.5 419.5q24.5 -36.5 24.5 -113.5q0 -88 -27.5 -158.5t-76.5 -111.5t-111 -44l-9 1q-56 8 -81 46t-25 115q0 16 2 48h-87l-12 -93l-6 -106l-73 -7l49 363l5 97l71 6l-27 -203l41 -1l48 1q21 93 76 149t129 58h7q58 -10 82.5 -46.5zM417.5 78.5q30.5 31.5 47.5 89.5
t17 135q0 60 -13 83t-46 23q-41 0 -72 -31t-48 -88.5t-17 -134.5q0 -59 13.5 -83.5t46.5 -24.5q41 0 71.5 31.5z" />
    <glyph glyph-name="uni044F" unicode="&#x44f;" horiz-adv-x="419" 
d="M374 460l-46 -351l-7 -106l-72 -7l54 408l-64 9q-36 0 -66 -19t-47.5 -52t-17.5 -73q0 -32 11 -47.5t31 -15.5q30 0 77 33l7 -3l8 -27q-78 -113 -161 -211l-8 -4q-27 1 -59 14l-2 8q56 56 138 149q-14 -2 -21 -2q-39 0 -61 26t-22 74q0 51 25.5 95t70.5 72t103 35l85 -9
l38 8z" />
    <glyph glyph-name="uni0450" unicode="&#x450;" horiz-adv-x="368" 
d="M299 139l24 -31q-32 -49 -70 -77t-86 -38h-12q-64 8 -93.5 47t-29.5 116q0 88 28.5 158t78 110t113.5 42l8 -1q43 -5 65.5 -28t22.5 -61q0 -60 -62 -110.5t-184 -88.5q0 -63 16.5 -92t51.5 -29q30 0 57.5 20t59.5 64zM149.5 362.5q-35.5 -49.5 -44.5 -132.5
q86 28 130.5 63.5t44.5 77.5q0 41 -44 41q-51 0 -86.5 -49.5zM312 551l-21 -30l-9 -1q-68 48 -168 127l-2 9l28 39l9 1q71 -70 163 -145z" />
    </font>
</defs>
</svg>
