<?xml version="1.0" standalone="no"?>
<!DOCTYPE svg PUBLIC "-//W3C//DTD SVG 1.1//EN" "http://www.w3.org/Graphics/SVG/1.1/DTD/svg11.dtd" >
<svg xmlns="http://www.w3.org/2000/svg" xmlns:xlink="http://www.w3.org/1999/xlink" version="1.1">
<metadata>
Created by FontForge 20170731 at Thu Nov  9 17:49:34 2017
 By Aleksey,,,
Copyright 2013 The Alegreya Sans Project Authors (https://github.com/huertatipografica/Alegreya-Sans)
</metadata>
<defs>
<font id="AlegreyaSans-Medium" horiz-adv-x="0" >
  <font-face 
    font-family="Alegreya Sans Medium"
    font-weight="500"
    font-stretch="normal"
    units-per-em="1000"
    panose-1="0 0 6 0 0 0 0 0 0 0"
    ascent="800"
    descent="-200"
    x-height="463"
    cap-height="642"
    bbox="-434 -261 1189 1031.75"
    underline-thickness="42"
    underline-position="-223"
    unicode-range="U+000D-FB02"
  />
<missing-glyph horiz-adv-x="160" 
 />
    <glyph glyph-name="Idieresis" unicode="&#xa8;I" horiz-adv-x="279" 
d="M186 202l5 -202h-105l7 193l-7 449h106zM117.5 831q12.5 -13 12.5 -36q0 -25 -14 -39.5t-37 -14.5q-24 0 -36.5 13t-12.5 37t14 38.5t39 14.5q22 0 34.5 -13zM236 831q13 -13 13 -36q0 -25 -14 -39.5t-37 -14.5q-24 0 -37 13t-13 37t14 38.5t39 14.5q22 0 35 -13z" />
    <glyph glyph-name="Odieresis" unicode="&#xa8;O" horiz-adv-x="639" 
d="M533 568q72 -82 72 -234q0 -164 -77 -253.5t-219 -89.5q-132 0 -203.5 84.5t-71.5 239.5q0 161 76.5 248t217.5 87q133 0 205 -82zM184.5 507.5q-44.5 -58.5 -44.5 -180.5q0 -133 43.5 -194.5t134.5 -61.5q92 0 136 59t44 184q0 131 -43.5 191.5t-134.5 60.5
t-135.5 -58.5zM277.5 831.5q13.5 -13.5 13.5 -36.5q0 -25 -14.5 -40t-38.5 -15q-25 0 -38 13.5t-13 37.5q0 25 14.5 39.5t39.5 14.5q23 0 36.5 -13.5zM442 831.5q13 -13.5 13 -36.5q0 -25 -14.5 -40t-38.5 -15t-37.5 13.5t-13.5 37.5q0 25 14.5 39.5t39.5 14.5
q24 0 37 -13.5z" />
    <glyph glyph-name="Yacute" unicode="&#xb4;Y" horiz-adv-x="541" 
d="M309 184l4 -184h-103l5 184l-1 39l-203 419h110l13 -40l127 -269h8l141 267l16 42h107l-223 -414zM377 872l27 -61l-4 -10q-74 -32 -204 -82l-10 4l-17 44q130 67 197 107z" />
    <glyph glyph-name="idieresis" unicode="&#xa8;i" horiz-adv-x="250" 
d="M78 193l-3 261l100 9l-4 -261l3 -202h-100zM102.5 650q12.5 -13 12.5 -36q0 -25 -14 -39.5t-37 -14.5q-24 0 -36.5 13t-12.5 37t14 38.5t39 14.5q22 0 34.5 -13zM221 650q13 -13 13 -36q0 -25 -14 -39.5t-37 -14.5q-24 0 -37 13t-13 37t14 38.5t39 14.5q22 0 35 -13z" />
    <glyph glyph-name="odieresis" unicode="&#xa8;o" horiz-adv-x="492" 
d="M401.5 409.5q52.5 -60.5 52.5 -171.5q0 -119 -56 -183t-159 -64q-97 0 -149.5 60.5t-52.5 171.5q0 119 56 183t159 64q97 0 149.5 -60.5zM132 245q0 -94 28 -139t86 -45q57 0 85 38t28 116q0 94 -28 139t-85 45q-114 0 -114 -154zM204.5 650.5q13.5 -13.5 13.5 -36.5
q0 -25 -14.5 -40t-38.5 -15q-25 0 -38 13.5t-13 37.5q0 25 14.5 39.5t39.5 14.5q23 0 36.5 -13.5zM369 650.5q13 -13.5 13 -36.5q0 -25 -14.5 -40t-38.5 -15t-37.5 13.5t-13.5 37.5q0 25 14.5 39.5t39.5 14.5q24 0 37 -13.5z" />
    <glyph glyph-name="yacute" unicode="&#xb4;y" horiz-adv-x="435" 
d="M116 399l100 -293h7l100 284l17 71h88l-159 -438q-24 -68 -53 -108.5t-71.5 -64.5t-110.5 -41h-9q-24 24 -42 60l3 11q71 13 112 38t75 82l-168 459l96 5zM320 707l38 -54l-2 -10q-79 -58 -181 -124l-10 1l-26 40q105 85 171 148z" />
    <glyph glyph-name="Itilde" unicode="&#x7e;I" horiz-adv-x="279" 
d="M186 202l5 -202h-105l7 193l-7 449h106zM284 828v-9l-58 -77l-10 -3q-29 5 -72 20q-47 15 -59 15q-9 0 -18 -8.5t-19 -20.5l-15 -18h-9l-31 31v9l59 76l10 4q20 -3 73 -20q47 -15 58 -15q10 0 18.5 8.5t18.5 21t15 18.5h9z" />
    <glyph glyph-name="itilde" unicode="&#x7e;i" horiz-adv-x="250" 
d="M78 193l-3 261l100 9l-4 -261l3 -202h-100zM269 647v-9l-58 -77l-10 -3q-29 5 -72 20q-47 15 -59 15q-9 0 -18 -8.5t-19 -20.5l-15 -18h-9l-31 31v9l59 76l10 4q20 -3 73 -20q47 -15 58 -15q10 0 18.5 8.5t18.5 21t15 18.5h9z" />
    <glyph glyph-name="Utilde" unicode="&#x7e;U" horiz-adv-x="631" 
d="M560 316l-1 -76q2 -118 -64 -183t-187 -65q-117 0 -179 62.5t-60 177.5l2 89l-2 321h102l-4 -396q-1 -84 36 -125t112 -41q150 0 149 156l-5 406h104zM482 831v-9l-65 -77l-10 -5q-18 3 -81 20q-59 17 -74 17q-10 0 -19 -8t-25 -25l-15 -16h-10l-31 32v9l65 77l11 4
q27 -4 82 -19q59 -17 73 -17q10 0 20 8.5t22 21.5t17 19h10z" />
    <glyph glyph-name="utilde" unicode="&#x7e;u" horiz-adv-x="515" 
d="M496 71l-9 -56q-33 -19 -65 -22q-30 5 -47.5 21.5t-26.5 49.5h-7q-59 -53 -120 -70q-75 0 -115 35t-39 100l2 125l-4 200l101 9l-5 -306q-1 -37 16.5 -58t52.5 -21q53 0 109 50v326l97 9l-7 -356q0 -18 6 -25.5t21 -7.5q12 0 31 4zM420 650v-9l-65 -77l-10 -5
q-18 3 -81 20q-59 17 -74 17q-10 0 -19 -8t-25 -25l-15 -16h-10l-31 32v9l65 77l11 4q27 -4 82 -19q59 -17 73 -17q10 0 20 8.5t22 21.5t17 19h10z" />
    <glyph glyph-name="uni1EBC" unicode="&#x7e;E" horiz-adv-x="493" 
d="M466 88l6 -9l-7 -79h-379l7 193l-7 449h381l6 -9l-8 -79l-152 4l-122 -1l-3 -187l116 -2l106 3l7 -8l-8 -79l-113 3l-109 -2l-1 -83l3 -118l122 -1zM442 831v-9l-65 -77l-10 -5q-18 3 -81 20q-59 17 -74 17q-10 0 -19 -8t-25 -25l-15 -16h-10l-31 32v9l65 77l11 4
q27 -4 82 -19q59 -17 73 -17q10 0 20 8.5t22 21.5t17 19h10z" />
    <glyph glyph-name="uni1EBD" unicode="&#x7e;e" horiz-adv-x="465" 
d="M411 226l-281 -1q1 -76 37 -115.5t102 -39.5q69 0 135 41l10 -6l-15 -82q-73 -32 -142 -32q-103 0 -161.5 63.5t-58.5 173.5q0 111 58 176t157 65q84 0 129.5 -46t45.5 -130q0 -23 -5 -55zM335 305q0 47 -21.5 71t-62.5 24q-46 0 -76 -29.5t-40 -83.5l198 4zM405 650v-9
l-65 -77l-10 -5q-18 3 -81 20q-59 17 -74 17q-10 0 -19 -8t-25 -25l-15 -16h-10l-31 32v9l65 77l11 4q27 -4 82 -19q59 -17 73 -17q10 0 20 8.5t22 21.5t17 19h10z" />
    <glyph glyph-name="uni1EF8" unicode="&#x7e;Y" horiz-adv-x="541" 
d="M309 184l4 -184h-103l5 184l-1 39l-203 419h110l13 -40l127 -269h8l141 267l16 42h107l-223 -414zM430 831v-9l-65 -77l-10 -5q-18 3 -81 20q-59 17 -74 17q-10 0 -19 -8t-25 -25l-15 -16h-10l-31 32v9l65 77l11 4q27 -4 82 -19q59 -17 73 -17q10 0 20 8.5t22 21.5t17 19
h10z" />
    <glyph glyph-name="uni1EF9" unicode="&#x7e;y" horiz-adv-x="435" 
d="M116 399l100 -293h7l100 284l17 71h88l-159 -438q-24 -68 -53 -108.5t-71.5 -64.5t-110.5 -41h-9q-24 24 -42 60l3 11q71 13 112 38t75 82l-168 459l96 5zM386 650v-9l-65 -77l-10 -5q-18 3 -81 20q-59 17 -74 17q-10 0 -19 -8t-25 -25l-15 -16h-10l-31 32v9l65 77l11 4
q27 -4 82 -19q59 -17 73 -17q10 0 20 8.5t22 21.5t17 19h10z" />
    <glyph glyph-name="fi" unicode="fi" horiz-adv-x="574" 
d="M437 685l-12 -82l-11 -4q-36 17 -64 24.5t-55 7.5q-48 0 -71 -24.5t-23 -76.5l-1 -71h242l57 8l8 -4l-7 -261l6 -202h-102l7 193l-4 201h-208l-3 -191l7 -203h-102l6 194l-2 200h-69l-4 6l5 59h68l-1 51q0 100 49 147t153 47q61 0 131 -19z" />
    <glyph glyph-name="fl" unicode="fl" horiz-adv-x="588" 
d="M458 689l-21 -76l-7 -6q-74 31 -131 31q-98 0 -99 -101l-1 -78h118l4 -7l-6 -58h-117l-2 -193l7 -201h-102l6 193l-2 201h-69l-4 6l5 59h67l-1 63q-1 92 51.5 140.5t150.5 48.5q72 0 153 -22zM505 203l7 -203h-102l7 194l-6 500l102 8z" />
    <glyph glyph-name="f_j" unicode="fj" horiz-adv-x="583" 
d="M437 685l-12 -82l-11 -4q-36 17 -64 24.5t-55 7.5q-48 0 -71 -24.5t-23 -76.5l-1 -71h242l57 7l8 -3l-7 -261l5 -180q0 -78 -34.5 -127.5t-115.5 -88.5l-37 45v11q50 29 70.5 63.5t20.5 92.5l2 175l-4 201h-208l-3 -191l7 -203h-102l6 194l-2 200h-69l-4 6l5 59h68l-1 51
q0 100 49 147t153 47q61 0 131 -19z" />
    <glyph glyph-name="Gtilde" unicode="&#x7e;G" horiz-adv-x="599" 
d="M544 606l-21 -96l-11 -1q-49 29 -89 41.5t-84 12.5q-100 0 -149 -60.5t-49 -190.5q0 -124 46 -179.5t146 -55.5q25 0 49.5 4.5t61.5 15.5l3 65l-3 99l97 7l-2 -90l3 -147q-124 -39 -215 -39q-147 0 -220 81.5t-73 233.5q0 166 83.5 254t238.5 88q101 0 188 -43zM490 831
v-9l-65 -77l-10 -5q-18 3 -81 20q-59 17 -74 17q-10 0 -19 -8t-25 -25l-15 -16h-10l-31 32v9l65 77l11 4q27 -4 82 -19q59 -17 73 -17q10 0 20 8.5t22 21.5t17 19h10z" />
    <glyph glyph-name="gtilde" unicode="&#x7e;g" horiz-adv-x="492" 
d="M409 393l-2 -4q19 -32 19 -77q0 -74 -51 -117.5t-138 -43.5q-32 0 -61 6q-12 -10 -16.5 -17.5t-4.5 -15.5q0 -20 25.5 -28t80.5 -16q57 -7 95 -17t65.5 -34t27.5 -66q0 -44 -29 -80t-79.5 -56.5t-112.5 -20.5q-84 0 -130.5 37t-46.5 97q15 24 36 43t50 38v5
q-35 12 -54 31.5t-19 52.5q26 37 64 61v5q-34 19 -51.5 51.5t-17.5 76.5q0 76 50.5 119.5t136.5 43.5q52 0 92 -17q74 12 148 35l9 -6v-67q-28 -9 -86 -19zM311.5 241q24.5 25 24.5 71q0 43 -23 66t-68 23q-47 0 -71.5 -23.5t-24.5 -68.5t23.5 -69t68.5 -24q46 0 70.5 25z
M344 -22q-17 12 -41 17.5t-70 12.5q-22 2 -31 4q-32 -20 -48 -39t-16 -39q0 -27 26.5 -44.5t75.5 -17.5q53 0 87 20t34 52q0 22 -17 34zM413 641v-9l-65 -77l-10 -5q-18 3 -81 20q-59 17 -74 17q-10 0 -19 -8t-25 -25l-15 -16h-10l-31 32v9l65 77l11 4q27 -4 82 -19
q59 -17 73 -17q10 0 20 8.5t22 21.5t17 19h10z" />
    <glyph glyph-name=".notdef" horiz-adv-x="160" 
 />
    <glyph glyph-name=".null" 
 />
    <glyph glyph-name="nonmarkingreturn" unicode="&#xd;" horiz-adv-x="160" 
 />
    <glyph glyph-name="space" unicode=" " horiz-adv-x="160" 
 />
    <glyph glyph-name="exclam" unicode="!" horiz-adv-x="260" 
d="M190 650l-28 -424l-59 -8l-10 12l-4 416l10 12l79 5zM160 93.5q14 -14.5 14 -40.5q0 -27 -15 -43t-41 -16t-40.5 15t-14.5 41t16 42t42 16q25 0 39 -14.5z" />
    <glyph glyph-name="quotedbl" unicode="&#x22;" horiz-adv-x="310" 
d="M141 632l-28 -198l-50 -7l-8 7l1 200l78 6zM269 632l-29 -198l-50 -7l-8 7l2 200l78 6z" />
    <glyph glyph-name="numbersign" unicode="#" horiz-adv-x="529" 
d="M393 361l-24 -111h99l7 -7l-5 -54h-114l-33 -157h-59l-6 8l32 149h-106l-33 -157h-60l-5 8l32 149h-91l-7 7l5 54h105l24 111h-93l-7 7l5 54h108l32 152h58l7 -9l-30 -143h105l32 152h58l7 -9l-30 -143h97l6 -7l-5 -54h-111zM326 361h-105l-24 -111h105z" />
    <glyph glyph-name="dollar" unicode="$" horiz-adv-x="437" 
d="M347.5 47q-40.5 -42 -113.5 -51l-10 -128h-49l-9 9l9 118q-70 5 -131 31l11 86l11 5q23 -22 53.5 -36.5t60.5 -19.5l12 158q-64 26 -99 56t-35 84q0 57 42 97t114 47l10 140h50l10 -9l-10 -130q51 -5 100 -24l-14 -80l-14 -3q-37 28 -77 38l-12 -152q62 -26 96.5 -56.5
t34.5 -82.5q0 -55 -40.5 -97zM156.5 336q14.5 -15 42.5 -28l10 129q-31 -6 -49 -25t-18 -41q0 -20 14.5 -35zM286.5 87q17.5 19 17.5 42q0 20 -14.5 35.5t-40.5 28.5l-10 -132q30 7 47.5 26z" />
    <glyph glyph-name="percent" unicode="%" horiz-adv-x="836" 
d="M653 655l7 -15l-469 -731l-45 26l-5 13l469 733zM300 603q37 -45 37 -128q0 -90 -39.5 -137.5t-115.5 -47.5q-71 0 -108.5 44.5t-37.5 128.5q0 90 40.5 137.5t116.5 47.5q70 0 107 -45zM104 469q0 -113 83 -113t83 109q0 112 -84 112q-82 0 -82 -108zM762 308
q37 -45 37 -128q0 -90 -39.5 -137.5t-115.5 -47.5q-70 0 -108 45t-38 129q0 89 40.5 136.5t116.5 47.5q70 0 107 -45zM587 255.5q-20 -26.5 -20 -80.5q0 -58 20 -86t62 -28q83 0 83 109q0 112 -84 112q-41 0 -61 -26.5z" />
    <glyph glyph-name="ampersand" unicode="&#x26;" horiz-adv-x="701" 
d="M539 353l-3 -8q18 -54 18 -106q0 -63 -24 -114l132 -117v-7q-29 -31 -57 -46l-7 1l-115 104q-74 -68 -198 -68q-105 0 -169 48t-64 130q0 110 115 168v5q-35 35 -51.5 70.5t-16.5 75.5q0 74 51.5 116.5t146.5 42.5q88 0 160 -33l-23 -75h-14q-61 36 -125 36
q-53 0 -80.5 -24t-27.5 -69q0 -29 13.5 -53t47.5 -53l226 -201q12 33 12 75q0 54 -23 102h-67l-5 7l8 65h287l6 -7l-7 -65h-146zM428 108l-216 195q-34 -21 -53 -50.5t-19 -66.5q0 -58 42 -90t113 -32q83 0 133 44z" />
    <glyph glyph-name="quotesingle" unicode="'" horiz-adv-x="182" 
d="M141 632l-28 -198l-50 -7l-8 7l1 200l78 6z" />
    <glyph glyph-name="parenleft" unicode="(" horiz-adv-x="291" 
d="M286 629v-9q-67 -56 -96.5 -141t-30.5 -223q1 -134 30.5 -216.5t96.5 -138.5v-9l-36 -32h-10q-86 63 -124 155t-39 240q1 153 39 248t124 159h10z" />
    <glyph glyph-name="parenright" unicode=")" horiz-adv-x="303" 
d="M4 -108v9q67 56 96.5 141t30.5 223q-1 134 -30.5 216.5t-96.5 138.5v9l36 32h10q86 -63 124 -155t39 -240q-1 -153 -39 -248t-124 -159h-10z" />
    <glyph glyph-name="asterisk" unicode="*" horiz-adv-x="378" 
d="M233 730l-26 -121l-38 -4l-6 7l-3 114q29 11 68 11zM149 597l-5 -37l-9 -4l-103 33q0 42 10 69l7 2zM355 575l-5 -6l-115 -13l-17 34l4 9l101 38q21 -31 32 -62zM230 536l64 -91q-13 -22 -47 -50l-9 2l-45 116l27 24zM174 519l1 -10l-58 -94q-15 4 -31.5 13t-31.5 18v8
l87 82z" />
    <glyph glyph-name="plus" unicode="+" horiz-adv-x="480" 
d="M275 468v-170h170l7 -7l-5 -63h-172v-172l-62 -5l-8 7v170h-170l-7 7l5 63h172v172l63 6z" />
    <glyph glyph-name="comma" unicode="," horiz-adv-x="229" 
d="M177 31q0 -74 -106 -150l-33 30l-1 8q55 45 55 92q0 31 -31 53v9q37 24 73 33q43 -31 43 -75z" />
    <glyph glyph-name="hyphen" unicode="-" horiz-adv-x="306" 
d="M277 300v-64l-240 -36l-9 9v64l240 35z" />
    <glyph glyph-name="period" unicode="." horiz-adv-x="229" 
d="M155 93.5q14 -14.5 14 -40.5q0 -27 -15 -43t-41 -16t-40.5 15t-14.5 41t15.5 42t42.5 16q25 0 39 -14.5z" />
    <glyph glyph-name="slash" unicode="/" horiz-adv-x="286" 
d="M295 669l-205 -783h-71l-6 9l205 784h69z" />
    <glyph glyph-name="zero" unicode="0" horiz-adv-x="525" 
d="M426.5 442.5q55.5 -65.5 55.5 -186.5q0 -126 -58.5 -195t-166.5 -69q-102 0 -158 65.5t-56 184.5q0 127 59.5 196.5t167.5 69.5q101 0 156.5 -65.5zM123 249q0 -167 140 -167q69 0 104.5 40.5t35.5 121.5q0 85 -36 127.5t-105 42.5q-139 0 -139 -165z" />
    <glyph glyph-name="one" unicode="1" horiz-adv-x="351" 
d="M240 495l-6 -288l5 -207h-103l6 196l-1 194l-122 -34l-9 6v81l215 63z" />
    <glyph glyph-name="two" unicode="2" horiz-adv-x="462" 
d="M340 474.5q41 -31.5 41 -84.5q0 -40 -27.5 -89t-88.5 -117l-89 -101l2 -5h163l87 8l7 -7l-13 -84l-110 5h-226l-37 -2l-5 4v63l137 144q52 56 76 92t24 64q0 24 -18 39t-50 15q-34 0 -69.5 -17t-65.5 -47h-11l-17 79q92 72 185 72q64 0 105 -31.5z" />
    <glyph glyph-name="three" unicode="3" horiz-adv-x="420" 
d="M313.5 471q44.5 -36 44.5 -95q0 -42 -24 -81.5t-74 -65.5v-4q57 -15 86.5 -48.5t29.5 -83.5q0 -56 -29.5 -99t-83.5 -66.5t-124 -23.5q-47 0 -103 9l-5 84l7 7q51 -22 106 -22q62 0 98.5 27.5t36.5 75.5q0 41 -29 64.5t-84 25.5h-63l-6 7l3 70l44 1q26 0 52 13t42.5 36
t16.5 52q0 33 -21.5 51.5t-57.5 18.5q-30 0 -59 -13.5t-63 -41.5h-11l-15 77q79 61 168 61q73 0 117.5 -36z" />
    <glyph glyph-name="four" unicode="4" horiz-adv-x="490" 
d="M455 66l-90 2l4 -151l-6 -8l-78 -6l-6 7l3 158h-176l-75 -2l-7 9v66l249 360h94l-3 -354h90l6 -9zM113 147h170v235h-8z" />
    <glyph glyph-name="five" unicode="5" horiz-adv-x="423" 
d="M386 499l-11 -80l-7 -7l-82 7h-134l-3 -137l62 -13q91 -19 129.5 -57.5t38.5 -100.5q0 -61 -31 -108.5t-87 -74t-127 -26.5q-42 0 -101 11l-7 86l8 8q57 -25 114 -25q62 0 98.5 31t36.5 82q0 40 -27.5 64t-89.5 35l-89 17l-8 9l5 270l14 14l55 -3h139l98 5z" />
    <glyph glyph-name="six" unicode="6" horiz-adv-x="475" 
d="M393 306.5q43 -47.5 43 -123.5q0 -54 -24 -97.5t-69.5 -69t-108.5 -25.5q-95 0 -144 58t-49 163q0 126 76.5 225.5t216.5 157.5h6l76 -46v-10q-115 -41 -179 -92t-88 -122l7 -8q55 37 118 37q76 0 119 -47.5zM317.5 88q27.5 28 27.5 81q0 54 -26 83t-74 29
q-55 0 -111 -43q-1 -8 -1 -24q0 -78 25.5 -116t82.5 -38q49 0 76.5 28z" />
    <glyph glyph-name="seven" unicode="7" horiz-adv-x="424" 
d="M125 501h225l45 2l1 -75l-182 -398l-49 -131l-82 22l-6 17l223 479h-192l-83 -9l-6 10l7 87z" />
    <glyph glyph-name="eight" unicode="8" horiz-adv-x="482" 
d="M369.5 555q43.5 -38 43.5 -104q0 -48 -24.5 -81t-67.5 -60v-5q51 -25 80.5 -56.5t29.5 -87.5q0 -78 -55.5 -123.5t-147.5 -45.5q-86 0 -134.5 41.5t-48.5 109.5q0 54 31 89t82 60v5q-41 21 -66 54t-25 84q0 73 50.5 115.5t132.5 42.5q76 0 119.5 -38zM176 498.5
q-25 -22.5 -25 -60.5q0 -39 25 -61t72 -40q40 19 62.5 42.5t22.5 61.5q0 37 -23.5 58.5t-64.5 21.5q-44 0 -69 -22.5zM157 221q-26 -24 -26 -66t28.5 -67t77.5 -25q51 0 80 25.5t29 65.5q0 29 -15.5 48.5t-38 31.5t-62.5 28q-47 -17 -73 -41z" />
    <glyph glyph-name="nine" unicode="9" horiz-adv-x="475" 
d="M82 195.5q-43 47.5 -43 123.5q0 54 24 97.5t69.5 69t108.5 25.5q95 0 144 -58t49 -163q0 -126 -76.5 -225.5t-216.5 -157.5h-6l-76 46v10q115 41 179 92t88 122l-7 8q-55 -37 -118 -37q-76 0 -119 47.5zM157.5 414q-27.5 -28 -27.5 -81q0 -54 26 -83t74 -29q55 0 111 43
q1 8 1 24q0 78 -25.5 116t-82.5 38q-49 0 -76.5 -28z" />
    <glyph glyph-name="colon" unicode=":" horiz-adv-x="229" 
d="M151 93.5q14 -14.5 14 -40.5q0 -27 -15 -43t-41 -16t-40.5 15t-14.5 41t15.5 42t42.5 16q25 0 39 -14.5zM151 360.5q14 -14.5 14 -40.5q0 -27 -15 -43t-41 -16t-40.5 15t-14.5 41t15.5 42t42.5 16q25 0 39 -14.5z" />
    <glyph glyph-name="semicolon" unicode=";" horiz-adv-x="229" 
d="M173 31q0 -74 -106 -150l-33 30l-1 8q55 45 55 92q0 31 -31 53v9q37 24 73 33q43 -31 43 -75zM151 360.5q14 -14.5 14 -40.5q0 -27 -15 -43t-41 -16t-40.5 15t-14.5 41t15.5 42t42.5 16q25 0 39 -14.5z" />
    <glyph glyph-name="less" unicode="&#x3c;" horiz-adv-x="480" 
d="M443 408l-5 -9l-327 -131v-6l329 -124l-15 -58l-10 -7l-380 148v83l8 10l378 152z" />
    <glyph glyph-name="equal" unicode="=" horiz-adv-x="480" 
d="M452 378l-5 -63h-412l-7 7l5 63h412zM452 203l-5 -63h-412l-7 7l5 63h412z" />
    <glyph glyph-name="greater" unicode="&#x3e;" horiz-adv-x="480" 
d="M437 314l8 -10v-83l-380 -148l-10 7l-15 58l329 124v6l-327 131l-5 9l22 58z" />
    <glyph glyph-name="question" unicode="?" horiz-adv-x="335" 
d="M277.5 616q67.5 -41 67.5 -111q0 -40 -22.5 -74.5t-64.5 -60.5l-79 -50l-2 -4l6 -92l-71 -9l-8 8l-9 117l5 10l94 52q59 34 59 87q0 46 -46.5 71.5t-144.5 31.5l-7 10l19 57l11 5q125 -7 192.5 -48zM190.5 93.5q14.5 -14.5 14.5 -40.5q0 -27 -15.5 -43t-41.5 -16t-40 15
t-14 41t15.5 42t41.5 16q25 0 39.5 -14.5z" />
    <glyph glyph-name="at" unicode="@" horiz-adv-x="833" 
d="M714 81q-92 -79 -263 -84l26 185h-11q-70 -118 -143 -190h-16q-45 22 -66 61t-21 99q0 69 27 135.5t80.5 114.5t129.5 62h5l69 -22l57 23l11 -5l-50 -349l-2 -41q90 12 140.5 73t50.5 158q0 76 -33.5 134t-96 90t-145.5 32q-107 0 -189 -45.5t-127 -126.5t-45 -186
q0 -106 47.5 -183.5t133.5 -118.5t201 -41l4 -10l-30 -49q-128 2 -224 48.5t-148.5 133.5t-52.5 207q0 126 53.5 225.5t151.5 155.5t226 56q103 0 180 -39.5t119.5 -111.5t42.5 -168q0 -144 -92 -223zM372 121q27 30 61.5 87.5t67.5 137.5l1 8l1 13l-64 24q-62 0 -98 -59.5
t-36 -150.5q0 -48 8 -69t20 -21t39 30z" />
    <glyph glyph-name="A" unicode="A" horiz-adv-x="587" 
d="M568 0h-106l-15 72l-28 89l-136 3l-123 -3l-30 -84l-16 -77h-103l229 642h121zM393 245l-92 296h-7l-105 -296l101 -2z" />
    <glyph glyph-name="B" unicode="B" horiz-adv-x="554" 
d="M485.5 281.5q32.5 -38.5 32.5 -101.5q0 -184 -275 -184q-95 0 -156 4h-1l7 193l-7 449l200 1q93 0 144.5 -40.5t51.5 -117.5q0 -54 -25 -92.5t-71 -58.5q67 -14 99.5 -52.5zM349 542q-27 21 -91 21h-68l-3 -197l103 -3q44 11 65 37.5t21 72.5q0 48 -27 69zM374 104
q40 28 40 82q0 86 -111 101l-117 -1l-1 -84l3 -123q39 -3 72 -3q74 0 114 28z" />
    <glyph glyph-name="C" unicode="C" horiz-adv-x="519" 
d="M500 605l-19 -91l-10 -3q-67 52 -148 52q-88 0 -134.5 -59.5t-46.5 -177.5q0 -121 47 -184t134 -63q42 0 83.5 14.5t76.5 40.5l10 -6l-8 -94q-86 -42 -170 -42q-135 0 -208 84t-73 239q0 160 76.5 247t216.5 87q98 0 173 -44z" />
    <glyph glyph-name="D" unicode="D" horiz-adv-x="650" 
d="M542 568q74 -78 74 -224q0 -169 -81 -259.5t-233 -90.5q-43 0 -103 1.5t-112 4.5h-1l7 193l-7 449h1l243 4q138 0 212 -78zM460.5 137q48.5 61 48.5 184q0 124 -46.5 182.5t-140.5 58.5q-55 0 -131 -4l-5 -356l3 -119q36 -3 72 -5t59 -2q92 0 140.5 61z" />
    <glyph glyph-name="E" unicode="E" horiz-adv-x="493" 
d="M466 88l6 -9l-7 -79h-379l7 193l-7 449h381l6 -9l-8 -79l-152 4l-122 -1l-3 -187l116 -2l106 3l7 -8l-8 -79l-113 3l-109 -2l-1 -83l3 -118l122 -1z" />
    <glyph glyph-name="F" unicode="F" horiz-adv-x="443" 
d="M191 557l-3 -202l101 -2l106 3l7 -9l-8 -78l-114 3l-93 -1l-1 -69l5 -202h-105l7 193l-7 449h359l7 -9l-8 -81l-150 6z" />
    <glyph glyph-name="G" unicode="G" horiz-adv-x="599" 
d="M544 606l-21 -96l-11 -1q-49 29 -89 41.5t-84 12.5q-100 0 -149 -60.5t-49 -190.5q0 -124 46 -179.5t146 -55.5q25 0 49.5 4.5t61.5 15.5l3 65l-3 99l97 7l-2 -90l3 -147q-124 -39 -215 -39q-147 0 -220 81.5t-73 233.5q0 166 83.5 254t238.5 88q101 0 188 -43z" />
    <glyph glyph-name="H" unicode="H" horiz-adv-x="689" 
d="M598 202l3 -202h-103l5 193l-1 87l-164 1l-150 -1l-1 -78l4 -202h-102l4 193l-4 449h103l-3 -276l157 -2l155 2l-3 276h105z" />
    <glyph glyph-name="I" unicode="I" horiz-adv-x="279" 
d="M186 202l5 -202h-105l7 193l-7 449h106z" />
    <glyph glyph-name="J" unicode="J" horiz-adv-x="321" 
d="M229 212l2 -93q0 -78 -40.5 -128.5t-140.5 -94.5l-36 57v11q67 35 94.5 68.5t27.5 86.5v83l-4 360l-117 -1l-9 8l6 73h223z" />
    <glyph glyph-name="K" unicode="K" horiz-adv-x="563" 
d="M186 202l4 -202h-103l5 193l-5 449h104zM301 340q116 -156 265 -318l-1 -12q-44 -12 -99 -19l-13 6q-152 186 -258 338v7l200 242l40 58h113z" />
    <glyph glyph-name="L" unicode="L" horiz-adv-x="423" 
d="M421 77l-8 -77h-330l7 193l-7 449h106l-6 -440l2 -116h229z" />
    <glyph glyph-name="M" unicode="M" horiz-adv-x="792" 
d="M737 0h-92l-13 195l-30 290h-7l-165 -414h-82l-153 414h-9l-30 -281l-16 -204h-87l67 642h118l30 -96l123 -341h8l130 344l30 93h117z" />
    <glyph glyph-name="N" unicode="N" horiz-adv-x="688" 
d="M596 192l3 -192h-111l-302 481h-7l-1 -266l3 -215h-94l5 190l-4 452h109l303 -481h8l-2 476l96 7z" />
    <glyph glyph-name="O" unicode="O" horiz-adv-x="639" 
d="M533 568q72 -82 72 -234q0 -164 -77 -253.5t-219 -89.5q-132 0 -203.5 84.5t-71.5 239.5q0 161 76.5 248t217.5 87q133 0 205 -82zM184.5 507.5q-44.5 -58.5 -44.5 -180.5q0 -133 43.5 -194.5t134.5 -61.5q92 0 136 59t44 184q0 131 -43.5 191.5t-134.5 60.5
t-135.5 -58.5z" />
    <glyph glyph-name="P" unicode="P" horiz-adv-x="534" 
d="M453.5 593.5q52.5 -49.5 52.5 -142.5q0 -108 -66.5 -171t-182.5 -63h-71v-15l5 -202h-105l7 193l-7 449l218 1q97 0 149.5 -49.5zM370.5 344.5q28.5 36.5 28.5 97.5q0 60 -30.5 89t-92.5 31l-85 -3l-4 -260l100 -2q55 11 83.5 47.5z" />
    <glyph glyph-name="Q" unicode="Q" horiz-adv-x="643" 
d="M734 -126q-20 -41 -47 -66l-9 -4q-192 59 -344 188q-7 -1 -22 -1q-134 0 -206 84.5t-72 239.5q0 161 76.5 248t218.5 87q133 0 204.5 -82t71.5 -236q0 -124 -45.5 -206.5t-131.5 -114.5q141 -93 302 -125zM184 135q44 -61 136 -61q89 0 133.5 59.5t44.5 184.5
q0 127 -44 187t-135 60q-92 0 -135.5 -58t-43.5 -182q0 -129 44 -190z" />
    <glyph glyph-name="R" unicode="R" horiz-adv-x="570" 
d="M541 24l-1 -12q-48 -16 -99 -21l-12 8q-83 136 -134 230h-109v-27l5 -202h-105l7 193l-7 449l218 1q97 0 150 -48.5t53 -138.5q0 -64 -33.5 -115.5t-93.5 -83.5q68 -109 161 -233zM188 313l110 -3q101 31 101 138q0 56 -30.5 84t-92.5 30l-85 -3z" />
    <glyph glyph-name="S" unicode="S" horiz-adv-x="483" 
d="M426 617l-17 -94l-16 -6q-32 23 -66 36t-65 13q-49 0 -78 -27t-29 -63q0 -35 29 -57.5t91 -51.5q54 -26 87.5 -47t57.5 -55.5t24 -82.5q0 -52 -28.5 -95.5t-80 -69t-117.5 -25.5q-44 0 -91 11t-89 32l13 102l13 6q37 -35 81.5 -52.5t82.5 -17.5q52 0 83 27.5t31 65.5
t-30 61.5t-92 52.5q-53 25 -86 45.5t-56.5 54.5t-23.5 82q0 52 28 95t78 67.5t114 24.5q76 0 152 -32z" />
    <glyph glyph-name="T" unicode="T" horiz-adv-x="495" 
d="M477 633l-6 -78l-116 6h-54l-5 -359l5 -202h-104l6 193l-5 368h-54l-118 -6l-7 9l8 78h444z" />
    <glyph glyph-name="U" unicode="U" horiz-adv-x="631" 
d="M560 316l-1 -76q2 -118 -64 -183t-187 -65q-117 0 -179 62.5t-60 177.5l2 89l-2 321h102l-4 -396q-1 -84 36 -125t112 -41q150 0 149 156l-5 406h104z" />
    <glyph glyph-name="V" unicode="V" horiz-adv-x="573" 
d="M342 0h-122l-208 642h106l15 -73l147 -469h7l163 464l16 78h103z" />
    <glyph glyph-name="W" unicode="W" horiz-adv-x="897" 
d="M668 0h-108l-113 345h-7l-117 -345h-109l-194 642h102l11 -69l138 -463h8l126 372l-51 160h105l16 -79l140 -453h8l155 457l16 75h96z" />
    <glyph glyph-name="X" unicode="X" horiz-adv-x="606" 
d="M368 335l215 -335h-125l-29 57l-131 197l-137 -203l-27 -51h-108l212 321l-207 321h124l29 -56l122 -186l124 188l27 54h110z" />
    <glyph glyph-name="Y" unicode="Y" horiz-adv-x="541" 
d="M309 184l4 -184h-103l5 184l-1 39l-203 419h110l13 -40l127 -269h8l141 267l16 42h107l-223 -414z" />
    <glyph glyph-name="Z" unicode="Z" horiz-adv-x="536" 
d="M496 567l-342 -486h244l101 8l5 -6l-9 -85l-129 2h-270l-65 -3v75l344 488h-227l-103 -8l-6 6l8 85l395 -1l54 1v-76z" />
    <glyph glyph-name="bracketleft" unicode="[" horiz-adv-x="291" 
d="M287 641v-47l-113 -13v-644l113 -12v-47l-5 -6l-192 10l5 378l-5 377l192 10z" />
    <glyph glyph-name="backslash" unicode="\" horiz-adv-x="286" 
d="M-1 669l8 10h69l206 -784l-7 -9h-70z" />
    <glyph glyph-name="bracketright" unicode="]" horiz-adv-x="291" 
d="M4 -122v47l113 13v644l-113 12v47l5 6l192 -10l-5 -378l5 -377l-192 -10z" />
    <glyph glyph-name="asciicircum" unicode="^" horiz-adv-x="431" 
d="M413 139l-8 -9l-57 -14l-125 304h-6l-131 -303l-9 -5l-58 22l152 354l10 6h83z" />
    <glyph glyph-name="underscore" unicode="_" horiz-adv-x="447" 
d="M462 -96l-5 -58h-465l-7 8l6 58h464z" />
    <glyph glyph-name="grave" unicode="`" horiz-adv-x="389" 
d="M304 560l-26 -40l-10 -1q-102 66 -181 124l-2 10l38 54l10 1q66 -63 171 -148z" />
    <glyph glyph-name="a" unicode="a" horiz-adv-x="470" 
d="M346 437q40 -33 40 -92q0 -18 -6 -120q-6 -100 -6 -117q0 -19 6.5 -26.5t22.5 -7.5q10 0 30 4l9 -7l-10 -56q-29 -18 -63 -22q-31 3 -50 22.5t-23 51.5h-7q-51 -54 -104 -75q-69 1 -108.5 36t-39.5 95q0 89 97 111l158 35l1 54q0 37 -18.5 56t-53.5 19q-34 0 -68 -15.5
t-75 -48.5l-8 5l-13 71q88 60 180 60q69 0 109 -33zM162 179q-18 -4 -26 -13.5t-8 -29.5q0 -30 16.5 -47t44.5 -17q47 0 100 61l3 77z" />
    <glyph glyph-name="b" unicode="b" horiz-adv-x="518" 
d="M434 408q46 -58 46 -163q0 -122 -59 -188t-164 -66q-51 0 -102 23l-64 -26l-15 10l7 194l-6 502l102 8l-4 -305h6q31 27 58 42.5t62 26.5q87 0 133 -58zM352 102.5q33 41.5 33 125.5q0 75 -26 115.5t-75 40.5q-53 0 -110 -60l-2 -120l3 -116q45 -27 86 -27q58 0 91 41.5z
" />
    <glyph glyph-name="c" unicode="c" horiz-adv-x="385" 
d="M313 463q33 -7 58 -19l-17 -85l-10 -4q-53 31 -98 31q-53 0 -83 -40t-30 -112q0 -77 31 -119.5t88 -42.5q50 0 107 30l9 -6l-10 -82q-61 -23 -122 -23q-94 0 -146.5 62.5t-52.5 172.5q0 114 56 179t155 65q32 0 65 -7z" />
    <glyph glyph-name="d" unicode="d" horiz-adv-x="521" 
d="M434 203l3 -96q1 -19 6 -26t20 -7q11 0 31 4l9 -7l-10 -56q-29 -18 -63 -22q-31 3 -50.5 21.5t-24.5 48.5h-8q-29 -25 -52 -40.5t-51 -28.5q-100 0 -153.5 61.5t-53.5 173.5q0 115 60 177.5t167 62.5q35 0 78 -8l-2 233l101 8zM164.5 360q-32.5 -39 -32.5 -116
q0 -81 30 -124t84 -43q25 0 48 12t49 41l2 64l-3 182q-48 23 -88 23q-57 0 -89.5 -39z" />
    <glyph glyph-name="e" unicode="e" horiz-adv-x="465" 
d="M411 226l-281 -1q1 -76 37 -115.5t102 -39.5q69 0 135 41l10 -6l-15 -82q-73 -32 -142 -32q-103 0 -161.5 63.5t-58.5 173.5q0 111 58 176t157 65q84 0 129.5 -46t45.5 -130q0 -23 -5 -55zM335 305q0 47 -21.5 71t-62.5 24q-46 0 -76 -29.5t-40 -83.5l198 4z" />
    <glyph glyph-name="f" unicode="f" horiz-adv-x="314" 
d="M366 695l-6 -77l-7 -6q-43 19 -77 19q-36 0 -55 -21.5t-20 -64.5l-1 -86h118l3 -7l-6 -58h-116l-3 -191l7 -203h-102l6 194l-2 200h-69l-4 6l5 59h68l-1 69q-1 85 46.5 130.5t134.5 45.5q39 0 81 -9z" />
    <glyph glyph-name="g" unicode="g" horiz-adv-x="492" 
d="M409 393l-2 -4q19 -32 19 -77q0 -74 -51 -117.5t-138 -43.5q-32 0 -61 6q-12 -10 -16.5 -17.5t-4.5 -15.5q0 -20 25.5 -28t80.5 -16q57 -7 95 -17t65.5 -34t27.5 -66q0 -44 -29 -80t-79.5 -56.5t-112.5 -20.5q-84 0 -130.5 37t-46.5 97q15 24 36 43t50 38v5
q-35 12 -54 31.5t-19 52.5q26 37 64 61v5q-34 19 -51.5 51.5t-17.5 76.5q0 76 50.5 119.5t136.5 43.5q52 0 92 -17q74 12 148 35l9 -6v-67q-28 -9 -86 -19zM311.5 241q24.5 25 24.5 71q0 43 -23 66t-68 23q-47 0 -71.5 -23.5t-24.5 -68.5t23.5 -69t68.5 -24q46 0 70.5 25z
M344 -22q-17 12 -41 17.5t-70 12.5q-22 2 -31 4q-32 -20 -48 -39t-16 -39q0 -27 26.5 -44.5t75.5 -17.5q53 0 87 20t34 52q0 22 -17 34z" />
    <glyph glyph-name="h" unicode="h" horiz-adv-x="525" 
d="M364 303q1 38 -17.5 59.5t-53.5 21.5q-57 0 -120 -60l-2 -121l7 -203h-102l7 194l-6 500l102 8l-5 -306h6q59 52 123 71q77 0 116.5 -35t38.5 -100l-2 -130l4 -202h-102z" />
    <glyph glyph-name="i" unicode="i" horiz-adv-x="250" 
d="M78 193l-3 261l100 9l-4 -261l3 -202h-100zM165 661.5q14 -14.5 14 -40.5q0 -27 -15 -43t-41 -16t-40.5 15t-14.5 41t15.5 42t42.5 16q25 0 39 -14.5z" />
    <glyph glyph-name="j" unicode="j" horiz-adv-x="275" 
d="M199 461l-8 -259l6 -180q0 -78 -34.5 -127.5t-115.5 -88.5l-37 45v11q50 29 70.5 63.5t20.5 92.5l1 175l-4 201h-88l-7 7l6 58h91l95 4zM173 661.5q14 -14.5 14 -40.5q0 -27 -15 -43t-41 -16t-40.5 15t-14.5 41t15.5 42t42.5 16q25 0 39 -14.5z" />
    <glyph glyph-name="k" unicode="k" horiz-adv-x="472" 
d="M171 203l7 -203h-102l7 194l-6 500l102 8zM285 251q71 -101 179 -233v-12q-26 -7 -56 -10.5t-37 -4.5l-11 4q-103 130 -174 247v7l131 168l25 44h111z" />
    <glyph glyph-name="l" unicode="l" horiz-adv-x="254" 
d="M171 203l7 -203h-102l7 194l-6 500l102 8z" />
    <glyph glyph-name="m" unicode="m" horiz-adv-x="803" 
d="M642 303q1 38 -17.5 59.5t-53.5 21.5q-57 0 -118 -58l-2 -124l5 -202h-103l7 303q1 38 -17.5 59.5t-53.5 21.5q-58 0 -120 -60l-1 -122l6 -202h-102l6 193l-5 261l97 9l-1 -67h7q59 52 123 71q56 0 92.5 -19.5t51.5 -55.5h6q61 53 132 75q77 0 116.5 -35t38.5 -100
l-3 -130l5 -202h-102z" />
    <glyph glyph-name="n" unicode="n" horiz-adv-x="521" 
d="M360 303q1 38 -17.5 59.5t-53.5 21.5q-58 0 -120 -60l-1 -122l6 -202h-102l6 193l-5 261l97 9l-1 -67h7q59 52 123 71q77 0 116.5 -35t38.5 -100l-3 -130l5 -202h-103z" />
    <glyph glyph-name="o" unicode="o" horiz-adv-x="492" 
d="M401.5 409.5q52.5 -60.5 52.5 -171.5q0 -119 -56 -183t-159 -64q-97 0 -149.5 60.5t-52.5 171.5q0 119 56 183t159 64q97 0 149.5 -60.5zM132 245q0 -94 28 -139t86 -45q57 0 85 38t28 116q0 94 -28 139t-85 45q-114 0 -114 -154z" />
    <glyph glyph-name="p" unicode="p" horiz-adv-x="513" 
d="M428.5 408.5q46.5 -57.5 46.5 -164.5q0 -121 -59 -187t-168 -66q-35 0 -78 8l3 -184h-101l7 378l-7 261l98 9l-1 -66h7q32 28 59 43t61 26q86 0 132.5 -57.5zM348 104q32 43 32 123q0 76 -26 116.5t-75 40.5q-27 0 -53.5 -14.5t-57.5 -45.5l-1 -122l2 -119q47 -22 87 -22
q60 0 92 43z" />
    <glyph glyph-name="q" unicode="q" horiz-adv-x="514" 
d="M432 468l9 -6l-7 -260l6 -387h-100l4 216v21h-8q-25 -20 -46 -33t-50 -25q-98 0 -150.5 61.5t-52.5 170.5q0 117 59.5 180t164.5 63q53 0 120 -19zM164 359q-32 -39 -32 -119q0 -78 29 -120.5t81 -42.5q26 0 50 12t52 41l1 62l-3 181q-47 25 -89 25q-57 0 -89 -39z" />
    <glyph glyph-name="r" unicode="r" horiz-adv-x="334" 
d="M327 460v-97l-11 -3q-16 5 -37 5q-31 0 -58 -23t-52 -74l-1 -66l6 -202h-102l7 193l-6 261l97 9l-1 -92h7q27 48 60 69.5t66 21.5q11 0 25 -2z" />
    <glyph glyph-name="s" unicode="s" horiz-adv-x="376" 
d="M327 446l-14 -80l-13 -3q-52 35 -102 35q-30 0 -47.5 -16t-17.5 -39q0 -25 20.5 -40t63.5 -33q39 -17 63.5 -32t42 -40t17.5 -62q0 -38 -20 -71.5t-59 -53.5t-94 -20q-69 0 -140 31l12 85l11 7q29 -25 64 -39.5t64 -14.5q32 0 51.5 17.5t19.5 41.5q0 25 -20 39.5
t-63 34.5q-39 17 -64 32t-42.5 41t-17.5 64q0 61 45 100t123 39q60 0 117 -23z" />
    <glyph glyph-name="t" unicode="t" horiz-adv-x="327" 
d="M304 95l10 -7l-10 -64q-55 -26 -102 -30q-62 10 -90 41.5t-28 91.5l4 72l-1 195h-63l-4 6l5 59h61v73l90 34l9 -8l-2 -99h128l4 -7l-5 -58h-129l-5 -251q-1 -37 12.5 -51.5t45.5 -14.5q33 0 70 18z" />
    <glyph glyph-name="u" unicode="u" horiz-adv-x="515" 
d="M496 71l-9 -56q-33 -19 -65 -22q-30 5 -47.5 21.5t-26.5 49.5h-7q-59 -53 -120 -70q-75 0 -115 35t-39 100l2 125l-4 200l101 9l-5 -306q-1 -37 16.5 -58t52.5 -21q53 0 109 50v326l97 9l-7 -356q0 -18 6 -25.5t21 -7.5q12 0 31 4z" />
    <glyph glyph-name="v" unicode="v" horiz-adv-x="433" 
d="M125 396l86 -298h7l103 293l16 70h90l-163 -461h-109l-138 459l95 5z" />
    <glyph glyph-name="w" unicode="w" horiz-adv-x="685" 
d="M121 399l73 -293h7l85 288l17 67h98l11 -62l74 -293h6l85 288l16 67h87l-148 -461h-97l-85 332h-8l-99 -332h-100l-125 459l93 5z" />
    <glyph glyph-name="x" unicode="x" horiz-adv-x="446" 
d="M148 415l82 -124l77 126l24 44h91l-138 -226l147 -231l-107 -9l-22 52l-85 129l-85 -134l-21 -42h-91l141 233l-141 225l108 6z" />
    <glyph glyph-name="y" unicode="y" horiz-adv-x="435" 
d="M116 399l100 -293h7l100 284l17 71h88l-159 -438q-24 -68 -53 -108.5t-71.5 -64.5t-110.5 -41h-9q-24 24 -42 60l3 11q71 13 112 38t75 82l-168 459l96 5z" />
    <glyph glyph-name="z" unicode="z" horiz-adv-x="417" 
d="M134 461h202l44 1l2 -61l-244 -333h164l80 8l6 -8l-8 -70l-103 2h-192l-54 -2l-1 60l245 335h-156l-77 -8l-6 8l7 70z" />
    <glyph glyph-name="braceleft" unicode="{" horiz-adv-x="291" 
d="M278 648l4 -8l-9 -54q-23 5 -36 5q-59 0 -59 -68q0 -19 5 -45.5t6 -33.5q11 -49 11 -74q0 -74 -68 -103v-5q33 -14 50.5 -40.5t17.5 -61.5q0 -27 -11 -75q-1 -7 -6 -33t-5 -46q0 -70 59 -70q13 0 36 5l9 -52l-4 -8q-25 -8 -57 -8q-61 0 -92.5 29.5t-31.5 85.5q0 28 5 59
t6 36q9 49 9 73q0 34 -18.5 54.5t-57.5 28.5v50q76 16 76 83q0 24 -9 73q-11 68 -11 96q0 56 31.5 85.5t92.5 29.5q19 0 57 -8z" />
    <glyph glyph-name="bar" unicode="|" horiz-adv-x="311" 
d="M195 793l-1 -504v-545l-70 -5l-8 10v533l1 512l71 6z" />
    <glyph glyph-name="braceright" unicode="}" horiz-adv-x="291" 
d="M13 -119l-4 8l9 54q23 -5 36 -5q59 0 59 68q0 19 -5 45.5t-6 33.5q-11 50 -11 74q0 74 68 103v5q-33 14 -50.5 40.5t-17.5 61.5q0 27 11 75q1 7 6 33t5 46q0 70 -59 70q-13 0 -36 -5l-9 52l4 8q25 8 57 8q61 0 92.5 -29.5t31.5 -85.5q0 -28 -5 -59t-6 -36q-9 -49 -9 -73
q0 -34 18.5 -54.5t57.5 -28.5v-50q-76 -16 -76 -83q0 -24 9 -73q11 -68 11 -96q0 -56 -31.5 -85.5t-92.5 -29.5q-19 0 -57 8z" />
    <glyph glyph-name="asciitilde" unicode="~" horiz-adv-x="480" 
d="M125.5 238q-12.5 -10 -26.5 -24l-19 -19h-11l-27 34v10l76 81l11 6q31 -5 95 -25q34 -10 65.5 -18t43.5 -8t25 11t44 42h10l27 -34v-10l-76 -82l-11 -4q-22 3 -105 26q-8 2 -45.5 13t-52.5 11q-11 0 -23.5 -10z" />
    <glyph glyph-name="uni00A0" unicode="&#xa0;" horiz-adv-x="160" 
 />
    <glyph glyph-name="exclamdown" unicode="&#xa1;" horiz-adv-x="260" 
d="M73 -184l28 424l59 8l10 -12l4 -416l-10 -12l-79 -5zM103 372.5q-14 14.5 -14 40.5q0 27 15 43t41 16t40.5 -15t14.5 -41t-16 -42t-42 -16q-25 0 -39 14.5z" />
    <glyph glyph-name="cent" unicode="&#xa2;" horiz-adv-x="383" 
d="M358 69q-55 -31 -122 -34l-12 -156h-50l-8 9l11 153q-68 16 -105.5 75t-37.5 150q0 105 47 168.5t131 72.5l10 146h50l9 -9l-10 -137q53 -6 94 -31l-15 -65l-10 -2q-35 22 -73 29l-26 -335h3q57 0 113 32l9 -5zM131.5 177q17.5 -40 50.5 -59l24 318q-44 -12 -68 -54.5
t-24 -107.5q0 -57 17.5 -97z" />
    <glyph glyph-name="sterling" unicode="&#xa3;" horiz-adv-x="428" 
d="M399 67l-8 -69l-111 2h-253l-5 6l5 58q72 13 72 102v115h-71l-4 6l4 52h70v83q-1 83 46 127.5t135 44.5q53 0 110 -17l-7 -72l-7 -5q-55 26 -103 26q-85 0 -85 -90v-97h139l4 -6l-5 -52h-139v-98q0 -39 -9 -63.5t-31 -46.5v-4h160l88 4z" />
    <glyph glyph-name="currency" unicode="&#xa4;" horiz-adv-x="435" 
d="M410 506v-10l-68 -63q25 -36 25 -79q0 -40 -24 -75l69 -61l1 -10l-44 -47l-10 1l-62 68q-36 -26 -80 -26q-41 0 -75 24l-61 -68h-10l-47 44l1 10l68 61q-26 36 -26 79q0 42 24 77l-68 61v10l43 46l10 -1l63 -68q34 25 78 25q40 0 75 -23l62 68l10 1zM151.5 420.5
q-26.5 -26.5 -26.5 -66.5t26.5 -66t65.5 -26q40 0 66.5 26t26.5 66t-26.5 66.5t-66.5 26.5q-39 0 -65.5 -26.5z" />
    <glyph glyph-name="yen" unicode="&#xa5;" horiz-adv-x="500" 
d="M477 165l4 -5l-3 -43h-189l2 -117h-85l3 117h-181l-4 5l3 43h183v3l-45 83h-137l-4 6l3 43h112l-106 200h91l11 -31l113 -206h7l122 203l15 34h89l-116 -200h112l5 -5l-4 -44h-142l-47 -81v-5h188z" />
    <glyph glyph-name="brokenbar" unicode="&#xa6;" horiz-adv-x="311" 
d="M195 793l-1 -419l-70 -8l-8 7v421l72 6zM194 150v-406l-70 -5l-8 10v403l69 8z" />
    <glyph glyph-name="section" unicode="&#xa7;" horiz-adv-x="424" 
d="M344 43q0 -38 -22.5 -71t-63 -52.5t-90.5 -19.5q-32 0 -71 8.5t-69 22.5l12 84l11 7q30 -27 63 -41.5t65 -14.5q36 0 57 18.5t21 42.5q0 23 -21.5 42t-67.5 46q-43 25 -69 45t-45 48t-19 65q0 42 25 79t67 60q-47 44 -47 94q0 38 22.5 71t62 52.5t88.5 19.5q26 0 57 -6
t59 -17l-13 -82l-14 -3q-56 40 -104 40q-32 0 -52 -18.5t-20 -41.5q0 -24 21.5 -42t66.5 -44q43 -26 69.5 -45.5t45.5 -47.5t19 -65q0 -42 -25 -78.5t-68 -58.5q49 -44 49 -97zM144.5 245q23.5 -21 73.5 -52l22 -13q62 30 62 74q0 30 -23 51t-73 53q-13 6 -22 13
q-63 -33 -63 -77q0 -28 23.5 -49z" />
    <glyph glyph-name="dieresis" unicode="&#xa8;" horiz-adv-x="389" 
d="M151.5 650.5q13.5 -13.5 13.5 -36.5q0 -25 -14.5 -40t-38.5 -15q-25 0 -38 13.5t-13 37.5q0 25 14.5 39.5t39.5 14.5q23 0 36.5 -13.5zM316 650.5q13 -13.5 13 -36.5q0 -25 -14.5 -40t-38.5 -15t-37.5 13.5t-13.5 37.5q0 25 14.5 39.5t39.5 14.5q24 0 37 -13.5z" />
    <glyph glyph-name="copyright" unicode="&#xa9;" horiz-adv-x="686" 
d="M498.5 560q67.5 -38 104.5 -107t37 -160t-37 -160t-104.5 -107t-156.5 -38q-88 0 -155.5 38t-104.5 107t-37 160t37 160t104.5 107t155.5 38q89 0 156.5 -38zM206.5 526q-58.5 -33 -90.5 -93.5t-32 -139.5t32 -139.5t90.5 -93.5t135.5 -33t135.5 33t91 93.5t32.5 139.5
t-32.5 139.5t-91 93.5t-135.5 33t-135.5 -33zM452 445l-13 -56l-6 -3q-16 10 -36 15.5t-39 5.5q-92 0 -92 -107q0 -116 93 -116q19 0 41 5.5t39 14.5l7 -3l-6 -56q-43 -19 -86 -19q-79 0 -119.5 43t-40.5 125t43 126.5t123 44.5q45 0 92 -20z" />
    <glyph glyph-name="ordfeminine" unicode="&#xaa;" horiz-adv-x="328" 
d="M250 627q28 -23 28 -65l-3 -80q-3 -45 -3 -66q0 -24 15 -24q11 0 17 5l7 -5l-9 -47q-21 -15 -46 -15q-23 0 -34.5 10.5t-17.5 37.5h-4q-34 -40 -73 -49q-45 1 -71 25t-26 67q0 65 69 77l99 18l1 30q0 44 -43 44q-37 0 -93 -36l-7 3l-10 56q29 17 61.5 27t62.5 10
q52 0 80 -23zM135 462q-27 -4 -27 -33q0 -19 9.5 -29.5t26.5 -10.5q12 0 26.5 7.5t26.5 22.5l1 57z" />
    <glyph glyph-name="guillemotleft" unicode="&#xab;" horiz-adv-x="409" 
d="M217 216v19l141 175l49 -27l2 -11l-116 -145l116 -145l-2 -11l-49 -27zM43 216v19l141 175l49 -27l2 -11l-116 -145l116 -145l-2 -11l-49 -27z" />
    <glyph glyph-name="logicalnot" unicode="&#xac;" horiz-adv-x="480" 
d="M427 291v-235l-62 -5l-8 7v170h-324l-7 7l6 63h389z" />
    <glyph glyph-name="uni00AD" unicode="&#xad;" horiz-adv-x="306" 
d="M277 300v-64l-240 -36l-9 9v64l240 35z" />
    <glyph glyph-name="registered" unicode="&#xae;" horiz-adv-x="442" 
d="M354.5 652q50.5 -50 50.5 -133t-50.5 -133.5t-133.5 -50.5q-82 0 -132.5 50.5t-50.5 133.5t50.5 133t132.5 50q83 0 133.5 -50zM333.5 406.5q42.5 42.5 42.5 112.5t-42.5 112t-111.5 42q-70 0 -112 -42t-42 -112t42 -112.5t112 -42.5q69 0 111.5 42.5zM287 530.5
q-10 -15.5 -28 -25.5q24 -37 51 -68l-1 -4q-13 -6 -40 -8l-5 3q-21 32 -40 67h-32v-4l2 -63h-41l1 58l-1 137h78q32 0 49 -15.5t17 -43.5q0 -18 -10 -33.5zM193 528l34 -2q14 6 21 13.5t7 21.5q0 29 -38 31l-23 -1z" />
    <glyph glyph-name="macron" unicode="&#xaf;" horiz-adv-x="389" 
d="M342 638l-5 -59h-282l-7 8l4 58h282z" />
    <glyph glyph-name="degree" unicode="&#xb0;" horiz-adv-x="293" 
d="M237 613q37 -37 37 -90t-37 -89.5t-90 -36.5q-54 0 -91 36.5t-37 89.5t37 90t91 37q53 0 90 -37zM89 579.5q-24 -23.5 -24 -56.5t24 -56.5t57 -23.5q34 0 57.5 23.5t23.5 56.5t-23.5 56.5t-57.5 23.5q-33 0 -57 -23.5z" />
    <glyph glyph-name="plusminus" unicode="&#xb1;" horiz-adv-x="480" 
d="M275 468v-170h170l7 -7l-5 -63h-172v-172l-62 -5l-8 7v170h-170l-7 7l5 63h172v172l63 6zM452 -39l-5 -63h-412l-7 7l5 63h412z" />
    <glyph glyph-name="uni00B2" unicode="&#xb2;" horiz-adv-x="354" 
d="M260.5 682q31.5 -24 31.5 -66q0 -29 -19 -63t-64 -89l-59 -75l2 -2h108l66 3l3 -6l-9 -67l-86 3h-166l-27 -1l-4 3v51l96 109q39 46 55.5 70.5t16.5 44.5q0 17 -12 28t-34 11q-24 0 -49.5 -13t-46.5 -36h-10l-14 65q72 54 141 54q49 0 80.5 -24z" />
    <glyph glyph-name="uni00B3" unicode="&#xb3;" horiz-adv-x="313" 
d="M229.5 682.5q31.5 -24.5 31.5 -65.5q0 -26 -15 -51t-46 -40v-4q74 -20 74 -90q0 -52 -46 -84.5t-120 -32.5q-37 0 -72 8l-5 60l6 6q37 -10 72 -10q38 0 59.5 14.5t21.5 40.5q0 23 -15.5 35.5t-45.5 13.5h-47l-4 5l1 57h30q25 1 45 17t20 39q0 19 -12 29t-35 10
q-34 0 -78 -29h-9l-14 57q56 39 120 39q52 0 83.5 -24.5z" />
    <glyph glyph-name="acute" unicode="&#xb4;" horiz-adv-x="389" 
d="M267 707l38 -54l-2 -10q-79 -58 -181 -124l-10 1l-26 40q105 85 171 148z" />
    <glyph glyph-name="uni00B5" unicode="&#xb5;" horiz-adv-x="536" 
d="M507 71l-10 -56q-31 -19 -64 -22q-30 5 -47.5 21.5t-26.5 49.5h-7q-54 -50 -112 -70q-48 0 -81 19l13 -198h-96l4 378l-4 261l96 9v-306q-1 -37 16.5 -58t52.5 -21q53 0 109 51v325l97 9l-7 -356q0 -19 6 -26t21 -7q12 0 31 4z" />
    <glyph glyph-name="paragraph" unicode="&#xb6;" horiz-adv-x="500" 
d="M478 633l-8 -70h-71l-3 -375l1 -56q0 -71 -40 -121t-134 -92l-28 47v11q56 32 81 67.5t25 82.5v47l-3 390h-53q-50 -6 -77.5 -39.5t-27.5 -89.5t30.5 -96.5t87.5 -60.5l-35 -56q-92 20 -141 75t-49 141q0 98 59.5 151t169.5 53h208z" />
    <glyph glyph-name="periodcentered" unicode="&#xb7;" horiz-adv-x="229" 
d="M155 290.5q14 -14.5 14 -40.5q0 -27 -15 -43t-41 -16t-40.5 15t-14.5 41t15.5 42t42.5 16q25 0 39 -14.5z" />
    <glyph glyph-name="cedilla" unicode="&#xb8;" horiz-adv-x="389" 
d="M204 -50l34 -20q22 -12 31 -25.5t9 -31.5q0 -31 -24 -50.5t-63 -19.5q-43 0 -77 30l9 47l5 2q15 -15 28 -23t29 -8q13 0 21 6.5t8 18.5q0 13 -19 22l-49 29l24 95h54z" />
    <glyph glyph-name="uni00B9" unicode="&#xb9;" horiz-adv-x="265" 
d="M182 697l-3 -241l3 -136h-87l2 126v166l-78 -20l-7 4v68l158 43z" />
    <glyph glyph-name="ordmasculine" unicode="&#xba;" horiz-adv-x="342" 
d="M279.5 610q35.5 -40 35.5 -116q0 -80 -38 -123t-110 -43q-68 0 -103.5 40t-35.5 116q0 81 37.5 123.5t110.5 42.5q68 0 103.5 -40zM124 567q-15 -23 -15 -74q0 -56 15 -81.5t48 -25.5t48.5 23t15.5 75q0 56 -15.5 81t-48.5 25t-48 -23z" />
    <glyph glyph-name="guillemotright" unicode="&#xbb;" horiz-adv-x="409" 
d="M367 239v-19l-141 -175l-49 27l-2 11l116 145l-116 145l2 11l49 27zM193 239v-19l-141 -175l-49 27l-2 11l116 145l-116 145l2 11l49 27z" />
    <glyph glyph-name="onequarter" unicode="&#xbc;" horiz-adv-x="711" 
d="M182 639l-3 -241l3 -136h-87l2 126v166l-78 -20l-7 4v68l158 43zM544 655l6 -15l-468 -731l-45 26l-5 13l469 733zM675 92l-55 2l4 -88l-5 -6l-68 -3l-5 4l2 94h-108l-57 -3l-6 8v53l163 229h80l-2 -224h56l5 -7zM452 158h97v130h-6z" />
    <glyph glyph-name="onehalf" unicode="&#xbd;" horiz-adv-x="707" 
d="M182 639l-3 -241l3 -136h-87l2 126v166l-78 -20l-7 4v68l158 43zM544 655l6 -15l-468 -731l-45 26l-5 13l469 733zM613.5 362q31.5 -24 31.5 -66q0 -29 -19 -63t-64 -89l-59 -75l2 -2h108l66 3l3 -6l-9 -67l-86 3h-166l-27 -1l-4 3v51l96 109q39 46 55.5 70.5t16.5 44.5
q0 17 -12 28t-34 11q-24 0 -49.5 -13t-46.5 -36h-10l-14 65q72 54 141 54q49 0 80.5 -24z" />
    <glyph glyph-name="threequarters" unicode="&#xbe;" horiz-adv-x="759" 
d="M229.5 624.5q31.5 -24.5 31.5 -65.5q0 -26 -15 -51t-46 -40v-4q74 -20 74 -90q0 -52 -46 -84.5t-120 -32.5q-37 0 -72 8l-5 60l6 6q37 -10 72 -10q38 0 59.5 14.5t21.5 40.5q0 23 -15.5 35.5t-45.5 13.5h-47l-4 5l1 57h30q25 1 45 17t20 39q0 19 -12 29t-35 10
q-34 0 -78 -29h-9l-14 57q56 39 120 39q52 0 83.5 -24.5zM592 655l6 -15l-468 -731l-45 26l-5 13l469 733zM723 92l-55 2l4 -88l-5 -6l-68 -3l-5 4l2 94h-108l-57 -3l-6 8v53l163 229h80l-2 -224h56l5 -7zM500 158h97v130h-6z" />
    <glyph glyph-name="questiondown" unicode="&#xbf;" horiz-adv-x="335" 
d="M61.5 -150q-67.5 41 -67.5 111q0 40 22.5 74.5t64.5 60.5l79 50l2 4l-6 92l71 9l8 -8l9 -117l-5 -10l-94 -52q-59 -34 -59 -87q0 -46 46.5 -71.5t144.5 -31.5l7 -10l-19 -57l-11 -5q-125 7 -192.5 48zM148.5 372.5q-14.5 14.5 -14.5 40.5q0 27 15.5 43t41.5 16t40 -15
t14 -41t-15.5 -42t-41.5 -16q-25 0 -39.5 14.5z" />
    <glyph glyph-name="Agrave" unicode="&#xc0;" horiz-adv-x="587" 
d="M568 0h-106l-15 72l-28 89l-136 3l-123 -3l-30 -84l-16 -77h-103l229 642h121zM393 245l-92 296h-7l-105 -296l101 -2zM412 767l-17 -44l-10 -4q-130 50 -204 82l-4 10l26 61l11 2q81 -48 198 -107z" />
    <glyph glyph-name="Aacute" unicode="&#xc1;" horiz-adv-x="587" 
d="M568 0h-106l-15 72l-28 89l-136 3l-123 -3l-30 -84l-16 -77h-103l229 642h121zM393 245l-92 296h-7l-105 -296l101 -2zM406 872l27 -61l-4 -10q-74 -32 -204 -82l-10 4l-17 44q130 67 197 107z" />
    <glyph glyph-name="Acircumflex" unicode="&#xc2;" horiz-adv-x="587" 
d="M568 0h-106l-15 72l-28 89l-136 3l-123 -3l-30 -84l-16 -77h-103l229 642h121zM393 245l-92 296h-7l-105 -296l101 -2zM160 774q72 49 123 96h24q60 -53 124 -96l-18 -43h-12l-35 22l-70 44q-11 -7 -88 -55l-18 -11h-10z" />
    <glyph glyph-name="Atilde" unicode="&#xc3;" horiz-adv-x="587" 
d="M568 0h-106l-15 72l-28 89l-136 3l-123 -3l-30 -84l-16 -77h-103l229 642h121zM393 245l-92 296h-7l-105 -296l101 -2zM459 831v-9l-65 -77l-10 -5q-18 3 -81 20q-59 17 -74 17q-10 0 -19 -8t-25 -25l-15 -16h-10l-31 32v9l65 77l11 4q27 -4 82 -19q59 -17 73 -17
q10 0 20 8.5t22 21.5t17 19h10z" />
    <glyph glyph-name="Adieresis" unicode="&#xc4;" horiz-adv-x="587" 
d="M568 0h-106l-15 72l-28 89l-136 3l-123 -3l-30 -84l-16 -77h-103l229 642h121zM393 245l-92 296h-7l-105 -296l101 -2zM252.5 831.5q13.5 -13.5 13.5 -36.5q0 -25 -14.5 -40t-38.5 -15q-25 0 -38 13.5t-13 37.5q0 25 14.5 39.5t39.5 14.5q23 0 36.5 -13.5zM417 831.5
q13 -13.5 13 -36.5q0 -25 -14.5 -40t-38.5 -15t-37.5 13.5t-13.5 37.5q0 25 14.5 39.5t39.5 14.5q24 0 37 -13.5z" />
    <glyph glyph-name="Aring" unicode="&#xc5;" horiz-adv-x="587" 
d="M568 0h-106l-15 72l-28 89l-136 3l-123 -3l-30 -84l-16 -77h-103l229 642h121zM393 245l-92 296h-7l-105 -296l101 -2zM360 866q23 -23 23 -62q0 -43 -25 -66.5t-66 -23.5q-40 0 -63.5 23t-23.5 64t23.5 64.5t66.5 23.5q42 0 65 -23zM261.5 832.5
q-10.5 -10.5 -10.5 -29.5q0 -44 43 -44q20 0 31.5 10.5t11.5 31.5q0 19 -11 30.5t-33 11.5q-21 0 -31.5 -10.5z" />
    <glyph glyph-name="AE" unicode="&#xc6;" horiz-adv-x="814" 
d="M801 79l-8 -79h-365l-5 72l-24 172l-227 -56l-57 -111l-27 -77h-105l326 642h402l6 -9l-8 -79l-160 5h-92l29 -213l206 47l8 -7l7 -73l-211 -46l25 -185h109l164 6zM388 323l-30 218h-7l-131 -258z" />
    <glyph glyph-name="Ccedilla" unicode="&#xc7;" horiz-adv-x="519" 
d="M500 605l-19 -91l-10 -3q-67 52 -148 52q-88 0 -134.5 -59.5t-46.5 -177.5q0 -121 47 -184t134 -63q42 0 83.5 14.5t76.5 40.5l10 -6l-8 -94q-86 -42 -170 -42q-135 0 -208 84t-73 239q0 160 76.5 247t216.5 87q98 0 173 -44zM324 -50l34 -20q22 -12 31 -25.5t9 -31.5
q0 -31 -24 -50.5t-63 -19.5q-43 0 -77 30l9 47l5 2q15 -15 28 -23t29 -8q13 0 21 6.5t8 18.5q0 13 -19 22l-49 29l24 95h54z" />
    <glyph glyph-name="Egrave" unicode="&#xc8;" horiz-adv-x="493" 
d="M466 88l6 -9l-7 -79h-379l7 193l-7 449h381l6 -9l-8 -79l-152 4l-122 -1l-3 -187l116 -2l106 3l7 -8l-8 -79l-113 3l-109 -2l-1 -83l3 -118l122 -1zM395 767l-17 -44l-10 -4q-130 50 -204 82l-4 10l26 61l11 2q81 -48 198 -107z" />
    <glyph glyph-name="Eacute" unicode="&#xc9;" horiz-adv-x="493" 
d="M466 88l6 -9l-7 -79h-379l7 193l-7 449h381l6 -9l-8 -79l-152 4l-122 -1l-3 -187l116 -2l106 3l7 -8l-8 -79l-113 3l-109 -2l-1 -83l3 -118l122 -1zM389 872l27 -61l-4 -10q-74 -32 -204 -82l-10 4l-17 44q130 67 197 107z" />
    <glyph glyph-name="Ecircumflex" unicode="&#xca;" horiz-adv-x="493" 
d="M466 88l6 -9l-7 -79h-379l7 193l-7 449h381l6 -9l-8 -79l-152 4l-122 -1l-3 -187l116 -2l106 3l7 -8l-8 -79l-113 3l-109 -2l-1 -83l3 -118l122 -1zM143 774q72 49 123 96h24q60 -53 124 -96l-18 -43h-12l-35 22l-70 44q-11 -7 -88 -55l-18 -11h-10z" />
    <glyph glyph-name="Edieresis" unicode="&#xcb;" horiz-adv-x="493" 
d="M466 88l6 -9l-7 -79h-379l7 193l-7 449h381l6 -9l-8 -79l-152 4l-122 -1l-3 -187l116 -2l106 3l7 -8l-8 -79l-113 3l-109 -2l-1 -83l3 -118l122 -1zM235.5 831.5q13.5 -13.5 13.5 -36.5q0 -25 -14.5 -40t-38.5 -15q-25 0 -38 13.5t-13 37.5q0 25 14.5 39.5t39.5 14.5
q23 0 36.5 -13.5zM400 831.5q13 -13.5 13 -36.5q0 -25 -14.5 -40t-38.5 -15t-37.5 13.5t-13.5 37.5q0 25 14.5 39.5t39.5 14.5q24 0 37 -13.5z" />
    <glyph glyph-name="Igrave" unicode="&#xcc;" horiz-adv-x="279" 
d="M186 202l5 -202h-105l7 193l-7 449h106zM256 767l-17 -44l-10 -4q-130 50 -204 82l-4 10l26 61l11 2q81 -48 198 -107z" />
    <glyph glyph-name="Iacute" unicode="&#xcd;" horiz-adv-x="279" 
d="M186 202l5 -202h-105l7 193l-7 449h106zM250 872l27 -61l-4 -10q-74 -32 -204 -82l-10 4l-17 44q130 67 197 107z" />
    <glyph glyph-name="Icircumflex" unicode="&#xce;" horiz-adv-x="279" 
d="M186 202l5 -202h-105l7 193l-7 449h106zM4 774q72 49 123 96h24q60 -53 124 -96l-18 -43h-12l-35 22l-70 44q-11 -7 -88 -55l-18 -11h-10z" />
    <glyph glyph-name="Eth" unicode="&#xd0;" horiz-adv-x="673" 
d="M565 568q74 -78 74 -224q0 -169 -81 -259.5t-233 -90.5q-43 0 -103 1.5t-112 4.5h-1l7 193l-7 449h1l243 4q138 0 212 -78zM483.5 137q48.5 61 48.5 184q0 124 -46.5 182.5t-140.5 58.5q-55 0 -131 -4l-5 -356l3 -119q36 -3 72 -5t59 -2q92 0 140.5 61zM348.568 350
l-3.34277 -63h-328.911l-4.01074 8l3.34277 63h328.242z" />
    <glyph glyph-name="Ntilde" unicode="&#xd1;" horiz-adv-x="688" 
d="M596 192l3 -192h-111l-302 481h-7l-1 -266l3 -215h-94l5 190l-4 452h109l303 -481h8l-2 476l96 7zM506 831v-9l-65 -77l-10 -5q-18 3 -81 20q-59 17 -74 17q-10 0 -19 -8t-25 -25l-15 -16h-10l-31 32v9l65 77l11 4q27 -4 82 -19q59 -17 73 -17q10 0 20 8.5t22 21.5t17 19
h10z" />
    <glyph glyph-name="Ograve" unicode="&#xd2;" horiz-adv-x="639" 
d="M533 568q72 -82 72 -234q0 -164 -77 -253.5t-219 -89.5q-132 0 -203.5 84.5t-71.5 239.5q0 161 76.5 248t217.5 87q133 0 205 -82zM184.5 507.5q-44.5 -58.5 -44.5 -180.5q0 -133 43.5 -194.5t134.5 -61.5q92 0 136 59t44 184q0 131 -43.5 191.5t-134.5 60.5
t-135.5 -58.5zM437 767l-17 -44l-10 -4q-130 50 -204 82l-4 10l26 61l11 2q81 -48 198 -107z" />
    <glyph glyph-name="Oacute" unicode="&#xd3;" horiz-adv-x="639" 
d="M533 568q72 -82 72 -234q0 -164 -77 -253.5t-219 -89.5q-132 0 -203.5 84.5t-71.5 239.5q0 161 76.5 248t217.5 87q133 0 205 -82zM184.5 507.5q-44.5 -58.5 -44.5 -180.5q0 -133 43.5 -194.5t134.5 -61.5q92 0 136 59t44 184q0 131 -43.5 191.5t-134.5 60.5
t-135.5 -58.5zM431 872l27 -61l-4 -10q-74 -32 -204 -82l-10 4l-17 44q130 67 197 107z" />
    <glyph glyph-name="Ocircumflex" unicode="&#xd4;" horiz-adv-x="639" 
d="M533 568q72 -82 72 -234q0 -164 -77 -253.5t-219 -89.5q-132 0 -203.5 84.5t-71.5 239.5q0 161 76.5 248t217.5 87q133 0 205 -82zM184.5 507.5q-44.5 -58.5 -44.5 -180.5q0 -133 43.5 -194.5t134.5 -61.5q92 0 136 59t44 184q0 131 -43.5 191.5t-134.5 60.5
t-135.5 -58.5zM185 774q72 49 123 96h24q60 -53 124 -96l-18 -43h-12l-35 22l-70 44q-11 -7 -88 -55l-18 -11h-10z" />
    <glyph glyph-name="Otilde" unicode="&#xd5;" horiz-adv-x="639" 
d="M533 568q72 -82 72 -234q0 -164 -77 -253.5t-219 -89.5q-132 0 -203.5 84.5t-71.5 239.5q0 161 76.5 248t217.5 87q133 0 205 -82zM184.5 507.5q-44.5 -58.5 -44.5 -180.5q0 -133 43.5 -194.5t134.5 -61.5q92 0 136 59t44 184q0 131 -43.5 191.5t-134.5 60.5
t-135.5 -58.5zM484 831v-9l-65 -77l-10 -5q-18 3 -81 20q-59 17 -74 17q-10 0 -19 -8t-25 -25l-15 -16h-10l-31 32v9l65 77l11 4q27 -4 82 -19q59 -17 73 -17q10 0 20 8.5t22 21.5t17 19h10z" />
    <glyph glyph-name="multiply" unicode="&#xd7;" horiz-adv-x="480" 
d="M410 394v-11l-120 -120l120 -120v-10l-48 -41l-122 121l-122 -122l-48 42v9l121 121l-121 120v11l48 40l122 -121l122 121z" />
    <glyph glyph-name="Oslash" unicode="&#xd8;" horiz-adv-x="639" 
d="M576.5 498.5q28.5 -68.5 28.5 -164.5q0 -164 -77 -253.5t-219 -89.5q-54 0 -99 15l-54 -115l-60 24l-5 9l54 115q-54 40 -82.5 110t-28.5 166q0 161 76.5 248t217.5 87q51 0 98 -14l43 93l59 -23l6 -11l-42 -90q56 -38 84.5 -106.5zM187 128l201 428q-29 10 -68 10
q-91 0 -135.5 -58.5t-44.5 -180.5q0 -139 47 -199zM454 130q44 59 44 184q0 140 -49 199l-203 -430q32 -12 72 -12q92 0 136 59z" />
    <glyph glyph-name="Ugrave" unicode="&#xd9;" horiz-adv-x="631" 
d="M560 316l-1 -76q2 -118 -64 -183t-187 -65q-117 0 -179 62.5t-60 177.5l2 89l-2 321h102l-4 -396q-1 -84 36 -125t112 -41q150 0 149 156l-5 406h104zM435 767l-17 -44l-10 -4q-130 50 -204 82l-4 10l26 61l11 2q81 -48 198 -107z" />
    <glyph glyph-name="Uacute" unicode="&#xda;" horiz-adv-x="631" 
d="M560 316l-1 -76q2 -118 -64 -183t-187 -65q-117 0 -179 62.5t-60 177.5l2 89l-2 321h102l-4 -396q-1 -84 36 -125t112 -41q150 0 149 156l-5 406h104zM429 872l27 -61l-4 -10q-74 -32 -204 -82l-10 4l-17 44q130 67 197 107z" />
    <glyph glyph-name="Ucircumflex" unicode="&#xdb;" horiz-adv-x="631" 
d="M560 316l-1 -76q2 -118 -64 -183t-187 -65q-117 0 -179 62.5t-60 177.5l2 89l-2 321h102l-4 -396q-1 -84 36 -125t112 -41q150 0 149 156l-5 406h104zM183 774q72 49 123 96h24q60 -53 124 -96l-18 -43h-12l-35 22l-70 44q-11 -7 -88 -55l-18 -11h-10z" />
    <glyph glyph-name="Udieresis" unicode="&#xdc;" horiz-adv-x="631" 
d="M560 316l-1 -76q2 -118 -64 -183t-187 -65q-117 0 -179 62.5t-60 177.5l2 89l-2 321h102l-4 -396q-1 -84 36 -125t112 -41q150 0 149 156l-5 406h104zM275.5 831.5q13.5 -13.5 13.5 -36.5q0 -25 -14.5 -40t-38.5 -15q-25 0 -38 13.5t-13 37.5q0 25 14.5 39.5t39.5 14.5
q23 0 36.5 -13.5zM440 831.5q13 -13.5 13 -36.5q0 -25 -14.5 -40t-38.5 -15t-37.5 13.5t-13.5 37.5q0 25 14.5 39.5t39.5 14.5q24 0 37 -13.5z" />
    <glyph glyph-name="Thorn" unicode="&#xde;" horiz-adv-x="540" 
d="M457.5 487q52.5 -49 52.5 -144q0 -110 -65 -170t-185 -60l-71 -2l2 -111h-104l5 193l-4 342l-1 107h105l-1 -107l116 1q98 0 150.5 -49zM402 336q0 59 -31 88t-93 32l-88 -3l-3 -251v-7l101 -3q114 23 114 144z" />
    <glyph glyph-name="germandbls" unicode="&#xdf;" horiz-adv-x="583" 
d="M401.5 320.5q21.5 -19.5 65.5 -45.5q36 -21 57.5 -37.5t37 -41.5t15.5 -60q0 -39 -20 -72t-59.5 -53t-93.5 -20q-67 0 -137 31l13 85l10 7q29 -26 61.5 -40t61.5 -14q34 0 53.5 16.5t19.5 42.5q0 25 -19 42.5t-60 41.5q-38 23 -61 40.5t-39.5 45t-16.5 65.5q0 37 15 60.5
t45 50.5q26 24 39 43t13 48q0 36 -24 55.5t-66 19.5q-52 0 -81.5 -30.5t-30.5 -90.5l-4 -309l6 -201h-101l6 190l-2 204h-69l-4 6l5 59h67v39q0 98 57.5 152t155.5 54q82 0 126 -36.5t44 -97.5q0 -39 -15.5 -64t-45.5 -55q-23 -23 -34.5 -40t-11.5 -40q0 -31 21.5 -50.5z
" />
    <glyph glyph-name="agrave" unicode="&#xe0;" horiz-adv-x="470" 
d="M346 437q40 -33 40 -92q0 -18 -6 -120q-6 -100 -6 -117q0 -19 6.5 -26.5t22.5 -7.5q10 0 30 4l9 -7l-10 -56q-29 -18 -63 -22q-31 3 -50 22.5t-23 51.5h-7q-51 -54 -104 -75q-69 1 -108.5 36t-39.5 95q0 89 97 111l158 35l1 54q0 37 -18.5 56t-53.5 19q-34 0 -68 -15.5
t-75 -48.5l-8 5l-13 71q88 60 180 60q69 0 109 -33zM162 179q-18 -4 -26 -13.5t-8 -29.5q0 -30 16.5 -47t44.5 -17q47 0 100 61l3 77zM336 560l-26 -40l-10 -1q-102 66 -181 124l-2 10l38 54l10 1q66 -63 171 -148z" />
    <glyph glyph-name="aacute" unicode="&#xe1;" horiz-adv-x="470" 
d="M346 437q40 -33 40 -92q0 -18 -6 -120q-6 -100 -6 -117q0 -19 6.5 -26.5t22.5 -7.5q10 0 30 4l9 -7l-10 -56q-29 -18 -63 -22q-31 3 -50 22.5t-23 51.5h-7q-51 -54 -104 -75q-69 1 -108.5 36t-39.5 95q0 89 97 111l158 35l1 54q0 37 -18.5 56t-53.5 19q-34 0 -68 -15.5
t-75 -48.5l-8 5l-13 71q88 60 180 60q69 0 109 -33zM162 179q-18 -4 -26 -13.5t-8 -29.5q0 -30 16.5 -47t44.5 -17q47 0 100 61l3 77zM325 707l38 -54l-2 -10q-79 -58 -181 -124l-10 1l-26 40q105 85 171 148z" />
    <glyph glyph-name="acircumflex" unicode="&#xe2;" horiz-adv-x="470" 
d="M346 437q40 -33 40 -92q0 -18 -6 -120q-6 -100 -6 -117q0 -19 6.5 -26.5t22.5 -7.5q10 0 30 4l9 -7l-10 -56q-29 -18 -63 -22q-31 3 -50 22.5t-23 51.5h-7q-51 -54 -104 -75q-69 1 -108.5 36t-39.5 95q0 89 97 111l158 35l1 54q0 37 -18.5 56t-53.5 19q-34 0 -68 -15.5
t-75 -48.5l-8 5l-13 71q88 60 180 60q69 0 109 -33zM162 179q-18 -4 -26 -13.5t-8 -29.5q0 -30 16.5 -47t44.5 -17q47 0 100 61l3 77zM85 564q57 54 130 137h26q72 -83 129 -137l-27 -40h-10q-69 60 -105 100q-35 -37 -105 -100h-11z" />
    <glyph glyph-name="atilde" unicode="&#xe3;" horiz-adv-x="470" 
d="M346 437q40 -33 40 -92q0 -18 -6 -120q-6 -100 -6 -117q0 -19 6.5 -26.5t22.5 -7.5q10 0 30 4l9 -7l-10 -56q-29 -18 -63 -22q-31 3 -50 22.5t-23 51.5h-7q-51 -54 -104 -75q-69 1 -108.5 36t-39.5 95q0 89 97 111l158 35l1 54q0 37 -18.5 56t-53.5 19q-34 0 -68 -15.5
t-75 -48.5l-8 5l-13 71q88 60 180 60q69 0 109 -33zM162 179q-18 -4 -26 -13.5t-8 -29.5q0 -30 16.5 -47t44.5 -17q47 0 100 61l3 77zM391 650v-9l-65 -77l-10 -5q-18 3 -81 20q-59 17 -74 17q-10 0 -19 -8t-25 -25l-15 -16h-10l-31 32v9l65 77l11 4q27 -4 82 -19
q59 -17 73 -17q10 0 20 8.5t22 21.5t17 19h10z" />
    <glyph glyph-name="adieresis" unicode="&#xe4;" horiz-adv-x="470" 
d="M346 437q40 -33 40 -92q0 -18 -6 -120q-6 -100 -6 -117q0 -19 6.5 -26.5t22.5 -7.5q10 0 30 4l9 -7l-10 -56q-29 -18 -63 -22q-31 3 -50 22.5t-23 51.5h-7q-51 -54 -104 -75q-69 1 -108.5 36t-39.5 95q0 89 97 111l158 35l1 54q0 37 -18.5 56t-53.5 19q-34 0 -68 -15.5
t-75 -48.5l-8 5l-13 71q88 60 180 60q69 0 109 -33zM162 179q-18 -4 -26 -13.5t-8 -29.5q0 -30 16.5 -47t44.5 -17q47 0 100 61l3 77zM184.5 650.5q13.5 -13.5 13.5 -36.5q0 -25 -14.5 -40t-38.5 -15q-25 0 -38 13.5t-13 37.5q0 25 14.5 39.5t39.5 14.5q23 0 36.5 -13.5z
M349 650.5q13 -13.5 13 -36.5q0 -25 -14.5 -40t-38.5 -15t-37.5 13.5t-13.5 37.5q0 25 14.5 39.5t39.5 14.5q24 0 37 -13.5z" />
    <glyph glyph-name="aring" unicode="&#xe5;" horiz-adv-x="470" 
d="M346 437q40 -33 40 -92q0 -18 -6 -120q-6 -100 -6 -117q0 -19 6.5 -26.5t22.5 -7.5q10 0 30 4l9 -7l-10 -56q-29 -18 -63 -22q-31 3 -50 22.5t-23 51.5h-7q-51 -54 -104 -75q-69 1 -108.5 36t-39.5 95q0 89 97 111l158 35l1 54q0 37 -18.5 56t-53.5 19q-34 0 -68 -15.5
t-75 -48.5l-8 5l-13 71q88 60 180 60q69 0 109 -33zM162 179q-18 -4 -26 -13.5t-8 -29.5q0 -30 16.5 -47t44.5 -17q47 0 100 61l3 77zM292 685q23 -23 23 -62q0 -43 -25 -66.5t-66 -23.5q-40 0 -63.5 23t-23.5 64t23.5 64.5t66.5 23.5q42 0 65 -23zM193.5 651.5
q-10.5 -10.5 -10.5 -29.5q0 -44 43 -44q20 0 31.5 10.5t11.5 31.5q0 19 -11 30.5t-33 11.5q-21 0 -31.5 -10.5z" />
    <glyph glyph-name="ae" unicode="&#xe6;" horiz-adv-x="685" 
d="M615 417.5q45 -51.5 41 -147.5l-10 -14l-276 -40q8 -149 127 -149q31 0 65 11.5t64 31.5l10 -6l-14 -79q-29 -16 -64.5 -25t-68.5 -9q-56 0 -99 24t-68 70q-55 -64 -131 -93q-72 1 -114 35.5t-42 95.5q0 47 24.5 77t72.5 37l155 22v64q0 75 -71 75q-59 0 -140 -64l-8 5
l-14 71q86 60 174 60q46 0 76.5 -17t45.5 -46q26 30 63 46t79 16q78 0 123 -51.5zM401 363.5q-32 -36.5 -32 -88.5v-3l196 32q-1 46 -24 71t-62 25q-46 0 -78 -36.5zM237 87q23 14 59 50q-7 43 -8 66l-117 -21q-24 -4 -34.5 -16t-10.5 -33q0 -29 17 -44.5t46 -15.5
q25 0 48 14z" />
    <glyph glyph-name="ccedilla" unicode="&#xe7;" horiz-adv-x="385" 
d="M313 463q33 -7 58 -19l-17 -85l-10 -4q-53 31 -98 31q-53 0 -83 -40t-30 -112q0 -77 31 -119.5t88 -42.5q50 0 107 30l9 -6l-10 -82q-61 -23 -122 -23q-94 0 -146.5 62.5t-52.5 172.5q0 114 56 179t155 65q32 0 65 -7zM248 -50l34 -20q22 -12 31 -25.5t9 -31.5
q0 -31 -24 -50.5t-63 -19.5q-43 0 -77 30l9 47l5 2q15 -15 28 -23t29 -8q13 0 21 6.5t8 18.5q0 13 -19 22l-49 29l24 95h54z" />
    <glyph glyph-name="egrave" unicode="&#xe8;" horiz-adv-x="465" 
d="M411 226l-281 -1q1 -76 37 -115.5t102 -39.5q69 0 135 41l10 -6l-15 -82q-73 -32 -142 -32q-103 0 -161.5 63.5t-58.5 173.5q0 111 58 176t157 65q84 0 129.5 -46t45.5 -130q0 -23 -5 -55zM335 305q0 47 -21.5 71t-62.5 24q-46 0 -76 -29.5t-40 -83.5l198 4zM350 560
l-26 -40l-10 -1q-102 66 -181 124l-2 10l38 54l10 1q66 -63 171 -148z" />
    <glyph glyph-name="eacute" unicode="&#xe9;" horiz-adv-x="465" 
d="M411 226l-281 -1q1 -76 37 -115.5t102 -39.5q69 0 135 41l10 -6l-15 -82q-73 -32 -142 -32q-103 0 -161.5 63.5t-58.5 173.5q0 111 58 176t157 65q84 0 129.5 -46t45.5 -130q0 -23 -5 -55zM335 305q0 47 -21.5 71t-62.5 24q-46 0 -76 -29.5t-40 -83.5l198 4zM339 707
l38 -54l-2 -10q-79 -58 -181 -124l-10 1l-26 40q105 85 171 148z" />
    <glyph glyph-name="ecircumflex" unicode="&#xea;" horiz-adv-x="465" 
d="M411 226l-281 -1q1 -76 37 -115.5t102 -39.5q69 0 135 41l10 -6l-15 -82q-73 -32 -142 -32q-103 0 -161.5 63.5t-58.5 173.5q0 111 58 176t157 65q84 0 129.5 -46t45.5 -130q0 -23 -5 -55zM335 305q0 47 -21.5 71t-62.5 24q-46 0 -76 -29.5t-40 -83.5l198 4zM99 564
q57 54 130 137h26q72 -83 129 -137l-27 -40h-10q-69 60 -105 100q-35 -37 -105 -100h-11z" />
    <glyph glyph-name="edieresis" unicode="&#xeb;" horiz-adv-x="465" 
d="M411 226l-281 -1q1 -76 37 -115.5t102 -39.5q69 0 135 41l10 -6l-15 -82q-73 -32 -142 -32q-103 0 -161.5 63.5t-58.5 173.5q0 111 58 176t157 65q84 0 129.5 -46t45.5 -130q0 -23 -5 -55zM335 305q0 47 -21.5 71t-62.5 24q-46 0 -76 -29.5t-40 -83.5l198 4zM198.5 650.5
q13.5 -13.5 13.5 -36.5q0 -25 -14.5 -40t-38.5 -15q-25 0 -38 13.5t-13 37.5q0 25 14.5 39.5t39.5 14.5q23 0 36.5 -13.5zM363 650.5q13 -13.5 13 -36.5q0 -25 -14.5 -40t-38.5 -15t-37.5 13.5t-13.5 37.5q0 25 14.5 39.5t39.5 14.5q24 0 37 -13.5z" />
    <glyph glyph-name="igrave" unicode="&#xec;" horiz-adv-x="250" 
d="M78 193l-3 261l100 9l-4 -261l3 -202h-100zM233 560l-26 -40l-10 -1q-102 66 -181 124l-2 10l38 54l10 1q66 -63 171 -148z" />
    <glyph glyph-name="iacute" unicode="&#xed;" horiz-adv-x="250" 
d="M78 193l-3 261l100 9l-4 -261l3 -202h-100zM222 707l38 -54l-2 -10q-79 -58 -181 -124l-10 1l-26 40q105 85 171 148z" />
    <glyph glyph-name="icircumflex" unicode="&#xee;" horiz-adv-x="250" 
d="M78 193l-3 261l100 9l-4 -261l3 -202h-100zM-18 564q57 54 130 137h26q72 -83 129 -137l-27 -40h-10q-69 60 -105 100q-35 -37 -105 -100h-11z" />
    <glyph glyph-name="eth" unicode="&#xf0;" horiz-adv-x="492" 
d="M413.5 434.5q37.5 -87.5 37.5 -187.5q0 -123 -54.5 -189.5t-155.5 -66.5q-95 0 -148.5 61t-53.5 172q0 112 54 173.5t153 61.5q36 0 68 -9q-32 56 -86 102l-119 -64l-10 4l-21 44l99 53q-55 34 -115 59v13l61 46h6q72 -33 127 -76l114 61l9 -3l21 -45l-97 -52
q73 -70 110.5 -157.5zM334.5 102.5q27.5 43.5 27.5 136.5q0 59 -11 112q-44 39 -100 39q-123 0 -123 -166q0 -83 31 -124t89 -41q59 0 86.5 43.5z" />
    <glyph glyph-name="ntilde" unicode="&#xf1;" horiz-adv-x="521" 
d="M360 303q1 38 -17.5 59.5t-53.5 21.5q-58 0 -120 -60l-1 -122l6 -202h-102l6 193l-5 261l97 9l-1 -67h7q59 52 123 71q77 0 116.5 -35t38.5 -100l-3 -130l5 -202h-103zM441 650v-9l-65 -77l-10 -5q-18 3 -81 20q-59 17 -74 17q-10 0 -19 -8t-25 -25l-15 -16h-10l-31 32v9
l65 77l11 4q27 -4 82 -19q59 -17 73 -17q10 0 20 8.5t22 21.5t17 19h10z" />
    <glyph glyph-name="ograve" unicode="&#xf2;" horiz-adv-x="492" 
d="M401.5 409.5q52.5 -60.5 52.5 -171.5q0 -119 -56 -183t-159 -64q-97 0 -149.5 60.5t-52.5 171.5q0 119 56 183t159 64q97 0 149.5 -60.5zM132 245q0 -94 28 -139t86 -45q57 0 85 38t28 116q0 94 -28 139t-85 45q-114 0 -114 -154zM356 560l-26 -40l-10 -1
q-102 66 -181 124l-2 10l38 54l10 1q66 -63 171 -148z" />
    <glyph glyph-name="oacute" unicode="&#xf3;" horiz-adv-x="492" 
d="M401.5 409.5q52.5 -60.5 52.5 -171.5q0 -119 -56 -183t-159 -64q-97 0 -149.5 60.5t-52.5 171.5q0 119 56 183t159 64q97 0 149.5 -60.5zM132 245q0 -94 28 -139t86 -45q57 0 85 38t28 116q0 94 -28 139t-85 45q-114 0 -114 -154zM345 707l38 -54l-2 -10
q-79 -58 -181 -124l-10 1l-26 40q105 85 171 148z" />
    <glyph glyph-name="ocircumflex" unicode="&#xf4;" horiz-adv-x="492" 
d="M401.5 409.5q52.5 -60.5 52.5 -171.5q0 -119 -56 -183t-159 -64q-97 0 -149.5 60.5t-52.5 171.5q0 119 56 183t159 64q97 0 149.5 -60.5zM132 245q0 -94 28 -139t86 -45q57 0 85 38t28 116q0 94 -28 139t-85 45q-114 0 -114 -154zM105 564q57 54 130 137h26
q72 -83 129 -137l-27 -40h-10q-69 60 -105 100q-35 -37 -105 -100h-11z" />
    <glyph glyph-name="otilde" unicode="&#xf5;" horiz-adv-x="492" 
d="M401.5 409.5q52.5 -60.5 52.5 -171.5q0 -119 -56 -183t-159 -64q-97 0 -149.5 60.5t-52.5 171.5q0 119 56 183t159 64q97 0 149.5 -60.5zM132 245q0 -94 28 -139t86 -45q57 0 85 38t28 116q0 94 -28 139t-85 45q-114 0 -114 -154zM411 650v-9l-65 -77l-10 -5
q-18 3 -81 20q-59 17 -74 17q-10 0 -19 -8t-25 -25l-15 -16h-10l-31 32v9l65 77l11 4q27 -4 82 -19q59 -17 73 -17q10 0 20 8.5t22 21.5t17 19h10z" />
    <glyph glyph-name="divide" unicode="&#xf7;" horiz-adv-x="480" 
d="M460 291l-5 -63h-412l-7 7l5 63h412zM295.039 131.682q12.8291 -13.2871 12.8291 -37.1133q0 -24.7422 -13.7451 -39.4043q-13.7461 -14.6621 -37.5723 -14.6621q-23.8252 0 -37.1133 13.7451q-13.2871 13.7461 -13.2871 37.5723q0 23.8252 14.2041 38.4873
q14.2031 14.6621 38.9463 14.6621q22.9092 0 35.7383 -13.2871zM295.039 476.682q12.8291 -13.2871 12.8291 -37.1133q0 -24.7422 -13.7451 -39.4043q-13.7461 -14.6621 -37.5723 -14.6621q-23.8252 0 -37.1133 13.7451q-13.2871 13.7461 -13.2871 37.5723
q0 23.8252 14.2041 38.4873q14.2031 14.6621 38.9463 14.6621q22.9092 0 35.7383 -13.2871z" />
    <glyph glyph-name="oslash" unicode="&#xf8;" horiz-adv-x="492" 
d="M436.5 348.5q17.5 -47.5 17.5 -110.5q0 -119 -56 -183t-159 -64q-39 0 -74 11l-63 -121l-54 26l-3 10l62 118q-70 59 -70 188q0 119 56 183t159 64q43 0 76 -12l53 101l50 -25l6 -11l-51 -98q33 -29 50.5 -76.5zM152 121l140 268q-19 10 -46 10q-114 0 -114 -154
q0 -78 20 -124zM331 99q28 38 28 116t-19 122l-139 -267q20 -9 45 -9q57 0 85 38z" />
    <glyph glyph-name="ugrave" unicode="&#xf9;" horiz-adv-x="515" 
d="M496 71l-9 -56q-33 -19 -65 -22q-30 5 -47.5 21.5t-26.5 49.5h-7q-59 -53 -120 -70q-75 0 -115 35t-39 100l2 125l-4 200l101 9l-5 -306q-1 -37 16.5 -58t52.5 -21q53 0 109 50v326l97 9l-7 -356q0 -18 6 -25.5t21 -7.5q12 0 31 4zM365 560l-26 -40l-10 -1
q-102 66 -181 124l-2 10l38 54l10 1q66 -63 171 -148z" />
    <glyph glyph-name="uacute" unicode="&#xfa;" horiz-adv-x="515" 
d="M496 71l-9 -56q-33 -19 -65 -22q-30 5 -47.5 21.5t-26.5 49.5h-7q-59 -53 -120 -70q-75 0 -115 35t-39 100l2 125l-4 200l101 9l-5 -306q-1 -37 16.5 -58t52.5 -21q53 0 109 50v326l97 9l-7 -356q0 -18 6 -25.5t21 -7.5q12 0 31 4zM354 707l38 -54l-2 -10
q-79 -58 -181 -124l-10 1l-26 40q105 85 171 148z" />
    <glyph glyph-name="ucircumflex" unicode="&#xfb;" horiz-adv-x="515" 
d="M496 71l-9 -56q-33 -19 -65 -22q-30 5 -47.5 21.5t-26.5 49.5h-7q-59 -53 -120 -70q-75 0 -115 35t-39 100l2 125l-4 200l101 9l-5 -306q-1 -37 16.5 -58t52.5 -21q53 0 109 50v326l97 9l-7 -356q0 -18 6 -25.5t21 -7.5q12 0 31 4zM114 564q57 54 130 137h26
q72 -83 129 -137l-27 -40h-10q-69 60 -105 100q-35 -37 -105 -100h-11z" />
    <glyph glyph-name="udieresis" unicode="&#xfc;" horiz-adv-x="515" 
d="M496 71l-9 -56q-33 -19 -65 -22q-30 5 -47.5 21.5t-26.5 49.5h-7q-59 -53 -120 -70q-75 0 -115 35t-39 100l2 125l-4 200l101 9l-5 -306q-1 -37 16.5 -58t52.5 -21q53 0 109 50v326l97 9l-7 -356q0 -18 6 -25.5t21 -7.5q12 0 31 4zM213.5 650.5q13.5 -13.5 13.5 -36.5
q0 -25 -14.5 -40t-38.5 -15q-25 0 -38 13.5t-13 37.5q0 25 14.5 39.5t39.5 14.5q23 0 36.5 -13.5zM378 650.5q13 -13.5 13 -36.5q0 -25 -14.5 -40t-38.5 -15t-37.5 13.5t-13.5 37.5q0 25 14.5 39.5t39.5 14.5q24 0 37 -13.5z" />
    <glyph glyph-name="thorn" unicode="&#xfe;" horiz-adv-x="517" 
d="M433 408q46 -58 46 -163q0 -122 -59 -188t-164 -66q-41 0 -82 15l2 -191h-100l6 378l-6 501l102 8l-4 -305h6q31 27 58 42.5t62 26.5q87 0 133 -58zM351 103q33 42 33 126q0 74 -26 114.5t-74 40.5q-27 0 -53.5 -14.5t-57.5 -45.5l-2 -121l1 -114q46 -28 88 -28
q58 0 91 42z" />
    <glyph glyph-name="ydieresis" unicode="&#xff;" horiz-adv-x="435" 
d="M116 399l100 -293h7l100 284l17 71h88l-159 -438q-24 -68 -53 -108.5t-71.5 -64.5t-110.5 -41h-9q-24 24 -42 60l3 11q71 13 112 38t75 82l-168 459l96 5zM179.5 650.5q13.5 -13.5 13.5 -36.5q0 -25 -14.5 -40t-38.5 -15q-25 0 -38 13.5t-13 37.5q0 25 14.5 39.5
t39.5 14.5q23 0 36.5 -13.5zM344 650.5q13 -13.5 13 -36.5q0 -25 -14.5 -40t-38.5 -15t-37.5 13.5t-13.5 37.5q0 25 14.5 39.5t39.5 14.5q24 0 37 -13.5z" />
    <glyph glyph-name="Amacron" unicode="&#x100;" horiz-adv-x="587" 
d="M568 0h-106l-15 72l-28 89l-136 3l-123 -3l-30 -84l-16 -77h-103l229 642h121zM393 245l-92 296h-7l-105 -296l101 -2zM442 819l-5 -59h-282l-7 8l4 58h282z" />
    <glyph glyph-name="amacron" unicode="&#x101;" horiz-adv-x="470" 
d="M346 437q40 -33 40 -92q0 -18 -6 -120q-6 -100 -6 -117q0 -19 6.5 -26.5t22.5 -7.5q10 0 30 4l9 -7l-10 -56q-29 -18 -63 -22q-31 3 -50 22.5t-23 51.5h-7q-51 -54 -104 -75q-69 1 -108.5 36t-39.5 95q0 89 97 111l158 35l1 54q0 37 -18.5 56t-53.5 19q-34 0 -68 -15.5
t-75 -48.5l-8 5l-13 71q88 60 180 60q69 0 109 -33zM162 179q-18 -4 -26 -13.5t-8 -29.5q0 -30 16.5 -47t44.5 -17q47 0 100 61l3 77zM374 638l-5 -59h-282l-7 8l4 58h282z" />
    <glyph glyph-name="Abreve" unicode="&#x102;" horiz-adv-x="587" 
d="M568 0h-106l-15 72l-28 89l-136 3l-123 -3l-30 -84l-16 -77h-103l229 642h121zM393 245l-92 296h-7l-105 -296l101 -2zM431 820q-16 -46 -51.5 -71.5t-85.5 -25.5t-84.5 25t-50.5 72l26 33h15q11 -28 36 -43t60 -15t59.5 15t36.5 43h15z" />
    <glyph glyph-name="abreve" unicode="&#x103;" horiz-adv-x="470" 
d="M346 437q40 -33 40 -92q0 -18 -6 -120q-6 -100 -6 -117q0 -19 6.5 -26.5t22.5 -7.5q10 0 30 4l9 -7l-10 -56q-29 -18 -63 -22q-31 3 -50 22.5t-23 51.5h-7q-51 -54 -104 -75q-69 1 -108.5 36t-39.5 95q0 89 97 111l158 35l1 54q0 37 -18.5 56t-53.5 19q-34 0 -68 -15.5
t-75 -48.5l-8 5l-13 71q88 60 180 60q69 0 109 -33zM162 179q-18 -4 -26 -13.5t-8 -29.5q0 -30 16.5 -47t44.5 -17q47 0 100 61l3 77zM364 647q-13 -55 -48 -87t-91 -32q-55 0 -88 32t-46 87l27 36h15q10 -41 34.5 -62t60.5 -21t60.5 21t34.5 62h15z" />
    <glyph glyph-name="Aogonek" unicode="&#x104;" horiz-adv-x="587" 
d="M568 0h-106l-15 72l-28 89l-136 3l-123 -3l-30 -84l-16 -77h-103l229 642h121zM393 245l-92 296h-7l-105 -296l101 -2zM494 -76.5q-17 -20.5 -17 -34.5q0 -10 6.5 -16t17.5 -6q26 0 59 33l6 -1l17 -47q-42 -46 -95 -46q-34 0 -55 18.5t-21 48.5q0 28 20.5 56t70.5 71h65
q-57 -56 -74 -76.5z" />
    <glyph glyph-name="aogonek" unicode="&#x105;" horiz-adv-x="470" 
d="M346 437q40 -33 40 -92q0 -18 -6 -120q-6 -100 -6 -117q0 -19 6.5 -26.5t22.5 -7.5q10 0 30 4l9 -7l-10 -56q-29 -18 -63 -22q-31 3 -50 22.5t-23 51.5h-7q-51 -54 -104 -75q-69 1 -108.5 36t-39.5 95q0 89 97 111l158 35l1 54q0 37 -18.5 56t-53.5 19q-34 0 -68 -15.5
t-75 -48.5l-8 5l-13 71q88 60 180 60q69 0 109 -33zM162 179q-18 -4 -26 -13.5t-8 -29.5q0 -30 16.5 -47t44.5 -17q47 0 100 61l3 77zM285 -193q-25 21 -25 57q0 32 22.5 63.5t89.5 87.5h60q-66 -71 -85 -95.5t-19 -41.5q0 -29 33 -29q32 0 73 35l6 -1l15 -51
q-49 -46 -103 -46q-42 0 -67 21z" />
    <glyph glyph-name="Cacute" unicode="&#x106;" horiz-adv-x="519" 
d="M500 605l-19 -91l-10 -3q-67 52 -148 52q-88 0 -134.5 -59.5t-46.5 -177.5q0 -121 47 -184t134 -63q42 0 83.5 14.5t76.5 40.5l10 -6l-8 -94q-86 -42 -170 -42q-135 0 -208 84t-73 239q0 160 76.5 247t216.5 87q98 0 173 -44zM425 872l27 -61l-4 -10q-74 -32 -204 -82
l-10 4l-17 44q130 67 197 107z" />
    <glyph glyph-name="cacute" unicode="&#x107;" horiz-adv-x="385" 
d="M313 463q33 -7 58 -19l-17 -85l-10 -4q-53 31 -98 31q-53 0 -83 -40t-30 -112q0 -77 31 -119.5t88 -42.5q50 0 107 30l9 -6l-10 -82q-61 -23 -122 -23q-94 0 -146.5 62.5t-52.5 172.5q0 114 56 179t155 65q32 0 65 -7zM335 707l38 -54l-2 -10q-79 -58 -181 -124l-10 1
l-26 40q105 85 171 148z" />
    <glyph glyph-name="Ccircumflex" unicode="&#x108;" horiz-adv-x="519" 
d="M500 605l-19 -91l-10 -3q-67 52 -148 52q-88 0 -134.5 -59.5t-46.5 -177.5q0 -121 47 -184t134 -63q42 0 83.5 14.5t76.5 40.5l10 -6l-8 -94q-86 -42 -170 -42q-135 0 -208 84t-73 239q0 160 76.5 247t216.5 87q98 0 173 -44zM179 774q72 49 123 96h24q60 -53 124 -96
l-18 -43h-12l-35 22l-70 44q-11 -7 -88 -55l-18 -11h-10z" />
    <glyph glyph-name="ccircumflex" unicode="&#x109;" horiz-adv-x="385" 
d="M313 463q33 -7 58 -19l-17 -85l-10 -4q-53 31 -98 31q-53 0 -83 -40t-30 -112q0 -77 31 -119.5t88 -42.5q50 0 107 30l9 -6l-10 -82q-61 -23 -122 -23q-94 0 -146.5 62.5t-52.5 172.5q0 114 56 179t155 65q32 0 65 -7zM95 564q57 54 130 137h26q72 -83 129 -137l-27 -40
h-10q-69 60 -105 100q-35 -37 -105 -100h-11z" />
    <glyph glyph-name="Cdotaccent" unicode="&#x10a;" horiz-adv-x="519" 
d="M500 605l-19 -91l-10 -3q-67 52 -148 52q-88 0 -134.5 -59.5t-46.5 -177.5q0 -121 47 -184t134 -63q42 0 83.5 14.5t76.5 40.5l10 -6l-8 -94q-86 -42 -170 -42q-135 0 -208 84t-73 239q0 160 76.5 247t216.5 87q98 0 173 -44zM355 842.5q14 -14.5 14 -40.5q0 -27 -15 -43
t-41 -16t-40.5 15t-14.5 41t15.5 42t42.5 16q25 0 39 -14.5z" />
    <glyph glyph-name="cdotaccent" unicode="&#x10b;" horiz-adv-x="385" 
d="M313 463q33 -7 58 -19l-17 -85l-10 -4q-53 31 -98 31q-53 0 -83 -40t-30 -112q0 -77 31 -119.5t88 -42.5q50 0 107 30l9 -6l-10 -82q-61 -23 -122 -23q-94 0 -146.5 62.5t-52.5 172.5q0 114 56 179t155 65q32 0 65 -7zM278 661.5q14 -14.5 14 -40.5q0 -27 -15 -43
t-41 -16t-40.5 15t-14.5 41t15.5 42t42.5 16q25 0 39 -14.5z" />
    <glyph glyph-name="Ccaron" unicode="&#x10c;" horiz-adv-x="519" 
d="M500 605l-19 -91l-10 -3q-67 52 -148 52q-88 0 -134.5 -59.5t-46.5 -177.5q0 -121 47 -184t134 -63q42 0 83.5 14.5t76.5 40.5l10 -6l-8 -94q-86 -42 -170 -42q-135 0 -208 84t-73 239q0 160 76.5 247t216.5 87q98 0 173 -44zM450 817q-72 -49 -123 -96h-24
q-60 53 -124 96l18 43h12l35 -22l70 -44q11 7 88 55l18 11h10z" />
    <glyph glyph-name="ccaron" unicode="&#x10d;" horiz-adv-x="385" 
d="M313 463q33 -7 58 -19l-17 -85l-10 -4q-53 31 -98 31q-53 0 -83 -40t-30 -112q0 -77 31 -119.5t88 -42.5q50 0 107 30l9 -6l-10 -82q-61 -23 -122 -23q-94 0 -146.5 62.5t-52.5 172.5q0 114 56 179t155 65q32 0 65 -7zM380 660q-57 -54 -130 -137h-26q-72 83 -129 137
l27 40h10q69 -60 105 -100q35 37 105 100h11z" />
    <glyph glyph-name="Dcaron" unicode="&#x10e;" horiz-adv-x="650" 
d="M542 568q74 -78 74 -224q0 -169 -81 -259.5t-233 -90.5q-43 0 -103 1.5t-112 4.5h-1l7 193l-7 449h1l243 4q138 0 212 -78zM460.5 137q48.5 61 48.5 184q0 124 -46.5 182.5t-140.5 58.5q-55 0 -131 -4l-5 -356l3 -119q36 -3 72 -5t59 -2q92 0 140.5 61zM461 817
q-72 -49 -123 -96h-24q-60 53 -124 96l18 43h12l35 -22l70 -44q11 7 88 55l18 11h10z" />
    <glyph glyph-name="dcaron" unicode="&#x10f;" horiz-adv-x="582" 
d="M434 203l3 -96q1 -19 6 -26t20 -7q11 0 31 4l9 -7l-10 -56q-29 -18 -63 -22q-31 3 -50.5 21.5t-24.5 48.5h-8q-29 -25 -52 -40.5t-51 -28.5q-100 0 -153.5 61.5t-53.5 173.5q0 115 60 177.5t167 62.5q35 0 78 -8l-2 233l101 8zM589 640l-27 -184l-47 -7l-8 7l2 187l73 4z
M164.5 360q-32.5 -39 -32.5 -116q0 -81 30 -124t84 -43q25 0 48 12t49 41l2 64l-3 182q-48 23 -88 23q-57 0 -89.5 -39z" />
    <glyph glyph-name="Dcroat" unicode="&#x110;" horiz-adv-x="673" 
d="M565 568q74 -78 74 -224q0 -169 -81 -259.5t-233 -90.5q-43 0 -103 1.5t-112 4.5h-1l7 193l-7 449h1l243 4q138 0 212 -78zM483.5 137q48.5 61 48.5 184q0 124 -46.5 182.5t-140.5 58.5q-55 0 -131 -4l-5 -356l3 -119q36 -3 72 -5t59 -2q92 0 140.5 61zM348.568 350
l-3.34277 -63h-328.911l-4.01074 8l3.34277 63h328.242z" />
    <glyph glyph-name="dcroat" unicode="&#x111;" horiz-adv-x="524" 
d="M439 551l-5 -348l3 -96q1 -19 6 -26t20 -7q11 0 31 4l9 -7l-10 -56q-29 -18 -63 -22q-31 3 -50.5 21.5t-24.5 48.5h-8q-29 -25 -52 -40.5t-51 -28.5q-100 0 -153.5 61.5t-53.5 173.5q0 115 60 177.5t167 62.5q35 0 78 -8l-1 90h-120l-7 7l5 52h122l-1 84l101 8l-1 -92h67
l8 -8l-5 -51h-71zM345 194l-3 182q-48 23 -88 23q-57 0 -89.5 -39t-32.5 -116q0 -81 30 -124t84 -43q25 0 48 12t49 41z" />
    <glyph glyph-name="Emacron" unicode="&#x112;" horiz-adv-x="493" 
d="M466 88l6 -9l-7 -79h-379l7 193l-7 449h381l6 -9l-8 -79l-152 4l-122 -1l-3 -187l116 -2l106 3l7 -8l-8 -79l-113 3l-109 -2l-1 -83l3 -118l122 -1zM425 819l-5 -59h-282l-7 8l4 58h282z" />
    <glyph glyph-name="emacron" unicode="&#x113;" horiz-adv-x="465" 
d="M411 226l-281 -1q1 -76 37 -115.5t102 -39.5q69 0 135 41l10 -6l-15 -82q-73 -32 -142 -32q-103 0 -161.5 63.5t-58.5 173.5q0 111 58 176t157 65q84 0 129.5 -46t45.5 -130q0 -23 -5 -55zM335 305q0 47 -21.5 71t-62.5 24q-46 0 -76 -29.5t-40 -83.5l198 4zM388 638
l-5 -59h-282l-7 8l4 58h282z" />
    <glyph glyph-name="Ebreve" unicode="&#x114;" horiz-adv-x="493" 
d="M466 88l6 -9l-7 -79h-379l7 193l-7 449h381l6 -9l-8 -79l-152 4l-122 -1l-3 -187l116 -2l106 3l7 -8l-8 -79l-113 3l-109 -2l-1 -83l3 -118l122 -1zM414 820q-16 -46 -51.5 -71.5t-85.5 -25.5t-84.5 25t-50.5 72l26 33h15q11 -28 36 -43t60 -15t59.5 15t36.5 43h15z" />
    <glyph glyph-name="ebreve" unicode="&#x115;" horiz-adv-x="465" 
d="M411 226l-281 -1q1 -76 37 -115.5t102 -39.5q69 0 135 41l10 -6l-15 -82q-73 -32 -142 -32q-103 0 -161.5 63.5t-58.5 173.5q0 111 58 176t157 65q84 0 129.5 -46t45.5 -130q0 -23 -5 -55zM335 305q0 47 -21.5 71t-62.5 24q-46 0 -76 -29.5t-40 -83.5l198 4zM378 647
q-13 -55 -48 -87t-91 -32q-55 0 -88 32t-46 87l27 36h15q10 -41 34.5 -62t60.5 -21t60.5 21t34.5 62h15z" />
    <glyph glyph-name="Edotaccent" unicode="&#x116;" horiz-adv-x="493" 
d="M466 88l6 -9l-7 -79h-379l7 193l-7 449h381l6 -9l-8 -79l-152 4l-122 -1l-3 -187l116 -2l106 3l7 -8l-8 -79l-113 3l-109 -2l-1 -83l3 -118l122 -1zM319 842.5q14 -14.5 14 -40.5q0 -27 -15 -43t-41 -16t-40.5 15t-14.5 41t15.5 42t42.5 16q25 0 39 -14.5z" />
    <glyph glyph-name="edotaccent" unicode="&#x117;" horiz-adv-x="465" 
d="M411 226l-281 -1q1 -76 37 -115.5t102 -39.5q69 0 135 41l10 -6l-15 -82q-73 -32 -142 -32q-103 0 -161.5 63.5t-58.5 173.5q0 111 58 176t157 65q84 0 129.5 -46t45.5 -130q0 -23 -5 -55zM335 305q0 47 -21.5 71t-62.5 24q-46 0 -76 -29.5t-40 -83.5l198 4zM282 661.5
q14 -14.5 14 -40.5q0 -27 -15 -43t-41 -16t-40.5 15t-14.5 41t15.5 42t42.5 16q25 0 39 -14.5z" />
    <glyph glyph-name="Eogonek" unicode="&#x118;" horiz-adv-x="493" 
d="M466 88l6 -9l-7 -79h-379l7 193l-7 449h381l6 -9l-8 -79l-152 4l-122 -1l-3 -187l116 -2l106 3l7 -8l-8 -79l-113 3l-109 -2l-1 -83l3 -118l122 -1zM287 -193q-25 21 -25 57q0 32 22.5 63.5t89.5 87.5h60q-66 -71 -85 -95.5t-19 -41.5q0 -29 33 -29q32 0 73 35l6 -1
l15 -51q-49 -46 -103 -46q-42 0 -67 21z" />
    <glyph glyph-name="eogonek" unicode="&#x119;" horiz-adv-x="465" 
d="M411 226l-281 -1q1 -76 37 -115.5t102 -39.5q69 0 135 41l10 -6l-15 -82q-73 -32 -142 -32q-103 0 -161.5 63.5t-58.5 173.5q0 111 58 176t157 65q84 0 129.5 -46t45.5 -130q0 -23 -5 -55zM335 305q0 47 -21.5 71t-62.5 24q-46 0 -76 -29.5t-40 -83.5l198 4zM252 -185
q-25 21 -25 57q0 32 22.5 63.5t89.5 87.5h60q-66 -71 -85 -95.5t-19 -41.5q0 -29 33 -29q32 0 73 35l6 -1l15 -51q-49 -46 -103 -46q-42 0 -67 21z" />
    <glyph glyph-name="Ecaron" unicode="&#x11a;" horiz-adv-x="493" 
d="M466 88l6 -9l-7 -79h-379l7 193l-7 449h381l6 -9l-8 -79l-152 4l-122 -1l-3 -187l116 -2l106 3l7 -8l-8 -79l-113 3l-109 -2l-1 -83l3 -118l122 -1zM414 817q-72 -49 -123 -96h-24q-60 53 -124 96l18 43h12l35 -22l70 -44q11 7 88 55l18 11h10z" />
    <glyph glyph-name="ecaron" unicode="&#x11b;" horiz-adv-x="465" 
d="M411 226l-281 -1q1 -76 37 -115.5t102 -39.5q69 0 135 41l10 -6l-15 -82q-73 -32 -142 -32q-103 0 -161.5 63.5t-58.5 173.5q0 111 58 176t157 65q84 0 129.5 -46t45.5 -130q0 -23 -5 -55zM335 305q0 47 -21.5 71t-62.5 24q-46 0 -76 -29.5t-40 -83.5l198 4zM384 660
q-57 -54 -130 -137h-26q-72 83 -129 137l27 40h10q69 -60 105 -100q35 37 105 100h11z" />
    <glyph glyph-name="Gcircumflex" unicode="&#x11c;" horiz-adv-x="599" 
d="M544 606l-21 -96l-11 -1q-49 29 -89 41.5t-84 12.5q-100 0 -149 -60.5t-49 -190.5q0 -124 46 -179.5t146 -55.5q25 0 49.5 4.5t61.5 15.5l3 65l-3 99l97 7l-2 -90l3 -147q-124 -39 -215 -39q-147 0 -220 81.5t-73 233.5q0 166 83.5 254t238.5 88q101 0 188 -43zM191 774
q72 49 123 96h24q60 -53 124 -96l-18 -43h-12l-35 22l-70 44q-11 -7 -88 -55l-18 -11h-10z" />
    <glyph glyph-name="gcircumflex" unicode="&#x11d;" horiz-adv-x="492" 
d="M409 393l-2 -4q19 -32 19 -77q0 -74 -51 -117.5t-138 -43.5q-32 0 -61 6q-12 -10 -16.5 -17.5t-4.5 -15.5q0 -20 25.5 -28t80.5 -16q57 -7 95 -17t65.5 -34t27.5 -66q0 -44 -29 -80t-79.5 -56.5t-112.5 -20.5q-84 0 -130.5 37t-46.5 97q15 24 36 43t50 38v5
q-35 12 -54 31.5t-19 52.5q26 37 64 61v5q-34 19 -51.5 51.5t-17.5 76.5q0 76 50.5 119.5t136.5 43.5q52 0 92 -17q74 12 148 35l9 -6v-67q-28 -9 -86 -19zM311.5 241q24.5 25 24.5 71q0 43 -23 66t-68 23q-47 0 -71.5 -23.5t-24.5 -68.5t23.5 -69t68.5 -24q46 0 70.5 25z
M344 -22q-17 12 -41 17.5t-70 12.5q-22 2 -31 4q-32 -20 -48 -39t-16 -39q0 -27 26.5 -44.5t75.5 -17.5q53 0 87 20t34 52q0 22 -17 34zM107 555q57 54 130 137h26q72 -83 129 -137l-27 -40h-10q-69 60 -105 100q-35 -37 -105 -100h-11z" />
    <glyph glyph-name="Gbreve" unicode="&#x11e;" horiz-adv-x="599" 
d="M544 606l-21 -96l-11 -1q-49 29 -89 41.5t-84 12.5q-100 0 -149 -60.5t-49 -190.5q0 -124 46 -179.5t146 -55.5q25 0 49.5 4.5t61.5 15.5l3 65l-3 99l97 7l-2 -90l3 -147q-124 -39 -215 -39q-147 0 -220 81.5t-73 233.5q0 166 83.5 254t238.5 88q101 0 188 -43zM462 820
q-16 -46 -51.5 -71.5t-85.5 -25.5t-84.5 25t-50.5 72l26 33h15q11 -28 36 -43t60 -15t59.5 15t36.5 43h15z" />
    <glyph glyph-name="gbreve" unicode="&#x11f;" horiz-adv-x="492" 
d="M409 393l-2 -4q19 -32 19 -77q0 -74 -51 -117.5t-138 -43.5q-32 0 -61 6q-12 -10 -16.5 -17.5t-4.5 -15.5q0 -20 25.5 -28t80.5 -16q57 -7 95 -17t65.5 -34t27.5 -66q0 -44 -29 -80t-79.5 -56.5t-112.5 -20.5q-84 0 -130.5 37t-46.5 97q15 24 36 43t50 38v5
q-35 12 -54 31.5t-19 52.5q26 37 64 61v5q-34 19 -51.5 51.5t-17.5 76.5q0 76 50.5 119.5t136.5 43.5q52 0 92 -17q74 12 148 35l9 -6v-67q-28 -9 -86 -19zM311.5 241q24.5 25 24.5 71q0 43 -23 66t-68 23q-47 0 -71.5 -23.5t-24.5 -68.5t23.5 -69t68.5 -24q46 0 70.5 25z
M344 -22q-17 12 -41 17.5t-70 12.5q-22 2 -31 4q-32 -20 -48 -39t-16 -39q0 -27 26.5 -44.5t75.5 -17.5q53 0 87 20t34 52q0 22 -17 34zM386 638q-13 -55 -48 -87t-91 -32q-55 0 -88 32t-46 87l27 36h15q10 -41 34.5 -62t60.5 -21t60.5 21t34.5 62h15z" />
    <glyph glyph-name="Gdotaccent" unicode="&#x120;" horiz-adv-x="599" 
d="M544 606l-21 -96l-11 -1q-49 29 -89 41.5t-84 12.5q-100 0 -149 -60.5t-49 -190.5q0 -124 46 -179.5t146 -55.5q25 0 49.5 4.5t61.5 15.5l3 65l-3 99l97 7l-2 -90l3 -147q-124 -39 -215 -39q-147 0 -220 81.5t-73 233.5q0 166 83.5 254t238.5 88q101 0 188 -43z
M367 842.5q14 -14.5 14 -40.5q0 -27 -15 -43t-41 -16t-40.5 15t-14.5 41t15.5 42t42.5 16q25 0 39 -14.5z" />
    <glyph glyph-name="gdotaccent" unicode="&#x121;" horiz-adv-x="492" 
d="M409 393l-2 -4q19 -32 19 -77q0 -74 -51 -117.5t-138 -43.5q-32 0 -61 6q-12 -10 -16.5 -17.5t-4.5 -15.5q0 -20 25.5 -28t80.5 -16q57 -7 95 -17t65.5 -34t27.5 -66q0 -44 -29 -80t-79.5 -56.5t-112.5 -20.5q-84 0 -130.5 37t-46.5 97q15 24 36 43t50 38v5
q-35 12 -54 31.5t-19 52.5q26 37 64 61v5q-34 19 -51.5 51.5t-17.5 76.5q0 76 50.5 119.5t136.5 43.5q52 0 92 -17q74 12 148 35l9 -6v-67q-28 -9 -86 -19zM311.5 241q24.5 25 24.5 71q0 43 -23 66t-68 23q-47 0 -71.5 -23.5t-24.5 -68.5t23.5 -69t68.5 -24q46 0 70.5 25z
M344 -22q-17 12 -41 17.5t-70 12.5q-22 2 -31 4q-32 -20 -48 -39t-16 -39q0 -27 26.5 -44.5t75.5 -17.5q53 0 87 20t34 52q0 22 -17 34zM290 652.5q14 -14.5 14 -40.5q0 -27 -15 -43t-41 -16t-40.5 15t-14.5 41t15.5 42t42.5 16q25 0 39 -14.5z" />
    <glyph glyph-name="Gcommaaccent" unicode="&#x122;" horiz-adv-x="599" 
d="M544 606l-21 -96l-11 -1q-49 29 -89 41.5t-84 12.5q-100 0 -149 -60.5t-49 -190.5q0 -124 46 -179.5t146 -55.5q25 0 49.5 4.5t61.5 15.5l3 65l-3 99l97 7l-2 -90l3 -147q-124 -39 -215 -39q-147 0 -220 81.5t-73 233.5q0 166 83.5 254t238.5 88q101 0 188 -43zM370 -118
q0 -67 -97 -137l-30 28l-1 7q50 40 50 84q0 28 -28 49v8q34 22 67 30q39 -28 39 -69z" />
    <glyph glyph-name="gcommaaccent" unicode="&#x123;" horiz-adv-x="492" 
d="M203 548.5q-12 18.5 -12 45.5q0 64 75 136l34 -23l1 -7q-38 -41 -38 -78q0 -40 36 -58v-8q-28 -24 -58 -38q-26 12 -38 30.5zM409 393l-2 -4q19 -32 19 -77q0 -74 -51 -117.5t-138 -43.5q-32 0 -61 6q-12 -10 -16.5 -17.5t-4.5 -15.5q0 -20 25.5 -28t80.5 -16
q57 -7 95 -17t65.5 -34t27.5 -66q0 -44 -29 -80t-79.5 -56.5t-112.5 -20.5q-84 0 -130.5 37t-46.5 97q15 24 36 43t50 38v5q-35 12 -54 31.5t-19 52.5q26 37 64 61v5q-34 19 -51.5 51.5t-17.5 76.5q0 76 50.5 119.5t136.5 43.5q52 0 92 -17q74 12 148 35l9 -6v-67
q-28 -9 -86 -19zM311.5 241q24.5 25 24.5 71q0 43 -23 66t-68 23q-47 0 -71.5 -23.5t-24.5 -68.5t23.5 -69t68.5 -24q46 0 70.5 25zM344 -22q-17 12 -41 17.5t-70 12.5q-22 2 -31 4q-32 -20 -48 -39t-16 -39q0 -27 26.5 -44.5t75.5 -17.5q53 0 87 20t34 52q0 22 -17 34z" />
    <glyph glyph-name="Hcircumflex" unicode="&#x124;" horiz-adv-x="689" 
d="M598 202l3 -202h-103l5 193l-1 87l-164 1l-150 -1l-1 -78l4 -202h-102l4 193l-4 449h103l-3 -276l157 -2l155 2l-3 276h105zM210 774q72 49 123 96h24q60 -53 124 -96l-18 -43h-12l-35 22l-70 44q-11 -7 -88 -55l-18 -11h-10z" />
    <glyph glyph-name="hcircumflex" unicode="&#x125;" horiz-adv-x="525" 
d="M364 303q1 38 -17.5 59.5t-53.5 21.5q-57 0 -120 -60l-2 -121l7 -203h-102l7 194l-6 500l102 8l-5 -306h6q59 52 123 71q77 0 116.5 -35t38.5 -100l-2 -130l4 -202h-102zM-10 781q72 49 123 96h24q60 -53 124 -96l-18 -43h-12l-35 22l-70 44q-11 -7 -88 -55l-18 -11h-10z
" />
    <glyph glyph-name="Hbar" unicode="&#x126;" horiz-adv-x="720" 
d="M613 476l-3 -274l3 -202h-102l5 193l-1 87l-164 1l-150 -1l-1 -78l4 -202h-103l5 193l-3 283h-63l-5 6l4 60h63l-1 100h104l-1 -100h308l-1 100h104l-1 -100h67l5 -6l-4 -60h-69zM513 476h-310l-1 -110l156 -2l156 2z" />
    <glyph glyph-name="hbar" unicode="&#x127;" horiz-adv-x="521" 
d="M362 303q1 38 -17.5 59.5t-53.5 21.5q-58 0 -120 -60l-2 -121l7 -203h-102l6 194l-3 342h-67l-7 7l4 49h69l-1 102l102 8l-2 -110h134l7 -7l-3 -49h-139l-2 -140h6q59 52 123 71q77 0 116.5 -35t38.5 -100l-3 -130l5 -202h-103z" />
    <glyph glyph-name="Imacron" unicode="&#x12a;" horiz-adv-x="279" 
d="M186 202l5 -202h-105l7 193l-7 449h106zM255 819l-5 -59h-220l-7 8l4 58h221z" />
    <glyph glyph-name="imacron" unicode="&#x12b;" horiz-adv-x="250" 
d="M78 193l-3 261l100 9l-4 -261l3 -202h-100zM240 638l-5 -59h-220l-7 8l4 58h221z" />
    <glyph glyph-name="Ibreve" unicode="&#x12c;" horiz-adv-x="279" 
d="M186 202l5 -202h-105l7 193l-7 449h106zM275 820q-16 -46 -51.5 -71.5t-85.5 -25.5t-84.5 25t-50.5 72l26 33h15q11 -28 36 -43t60 -15t59.5 15t36.5 43h15z" />
    <glyph glyph-name="ibreve" unicode="&#x12d;" horiz-adv-x="250" 
d="M78 193l-3 261l100 9l-4 -261l3 -202h-100zM261 647q-13 -55 -48 -87t-91 -32q-55 0 -88 32t-46 87l27 36h15q10 -41 34.5 -62t60.5 -21t60.5 21t34.5 62h15z" />
    <glyph glyph-name="Iogonek" unicode="&#x12e;" horiz-adv-x="279" 
d="M186 202l5 -202h-105l7 193l-7 449h106zM117 -76.5q-17 -20.5 -17 -34.5q0 -10 6.5 -16t17.5 -6q26 0 59 33l6 -1l17 -47q-42 -46 -95 -46q-34 0 -55 18.5t-21 48.5q0 28 20.5 56t70.5 71h65q-57 -56 -74 -76.5z" />
    <glyph glyph-name="iogonek" unicode="&#x12f;" horiz-adv-x="250" 
d="M78 193l-3 261l100 9l-4 -261l3 -202h-100zM165 661.5q14 -14.5 14 -40.5q0 -27 -15 -43t-41 -16t-40.5 15t-14.5 41t15.5 42t42.5 16q25 0 39 -14.5zM100 -76.5q-17 -20.5 -17 -34.5q0 -10 6.5 -16t17.5 -6q26 0 59 33l6 -1l17 -47q-42 -46 -95 -46q-34 0 -55 18.5
t-21 48.5q0 28 20.5 56t70.5 71h65q-57 -56 -74 -76.5z" />
    <glyph glyph-name="Idotaccent" unicode="&#x130;" horiz-adv-x="279" 
d="M186 202l5 -202h-105l7 193l-7 449h106zM180 842.5q14 -14.5 14 -40.5q0 -27 -15 -43t-41 -16t-40.5 15t-14.5 41t15.5 42t42.5 16q25 0 39 -14.5z" />
    <glyph glyph-name="dotlessi" unicode="&#x131;" horiz-adv-x="250" 
d="M78 193l-3 261l100 9l-4 -261l3 -202h-100z" />
    <glyph glyph-name="IJ" unicode="&#x132;" horiz-adv-x="600" 
d="M186 202l5 -202h-105l7 193l-7 449h106zM508 212l2 -93q0 -78 -40.5 -128.5t-140.5 -94.5l-36 57v11q67 35 94.5 68.5t27.5 86.5v83l-4 360l-117 -1l-9 8l6 73h223z" />
    <glyph glyph-name="ij" unicode="&#x133;" horiz-adv-x="525" 
d="M78 193l-3 261l100 9l-4 -261l3 -202h-100zM165 661.5q14 -14.5 14 -40.5q0 -27 -15 -43t-41 -16t-40.5 15t-14.5 41t15.5 42t42.5 16q25 0 39 -14.5zM449 461l-8 -259l6 -180q0 -78 -34.5 -127.5t-115.5 -88.5l-37 45v11q50 29 70.5 63.5t20.5 92.5l1 175l-4 201h-88
l-7 7l6 58h91l95 4zM423 661.5q14 -14.5 14 -40.5q0 -27 -15 -43t-41 -16t-40.5 15t-14.5 41t15.5 42t42.5 16q25 0 39 -14.5z" />
    <glyph glyph-name="Jcircumflex" unicode="&#x134;" horiz-adv-x="321" 
d="M229 212l2 -93q0 -78 -40.5 -128.5t-140.5 -94.5l-36 57v11q67 35 94.5 68.5t27.5 86.5v83l-4 360l-117 -1l-9 8l6 73h223zM4 774q72 49 123 96h24q60 -53 124 -96l-18 -43h-12l-35 22l-70 44q-11 -7 -88 -55l-18 -11h-10z" />
    <glyph glyph-name="jcircumflex" unicode="&#x135;" horiz-adv-x="275" 
d="M199 461l-8 -259l6 -180q0 -78 -34.5 -127.5t-115.5 -88.5l-37 45v11q50 29 70.5 63.5t20.5 92.5l1 175l-4 201h-88l-7 7l6 58h91l95 4zM-10 564q57 54 130 137h26q72 -83 129 -137l-27 -40h-10q-69 60 -105 100q-35 -37 -105 -100h-11z" />
    <glyph glyph-name="Kcommaaccent" unicode="&#x136;" horiz-adv-x="563" 
d="M186 202l4 -202h-103l5 193l-5 449h104zM301 340q116 -156 265 -318l-1 -12q-44 -12 -99 -19l-13 6q-152 186 -258 338v7l200 242l40 58h113zM356 -118q0 -67 -97 -137l-30 28l-1 7q50 40 50 84q0 28 -28 49v8q34 22 67 30q39 -28 39 -69z" />
    <glyph glyph-name="kcommaaccent" unicode="&#x137;" horiz-adv-x="472" 
d="M171 203l7 -203h-102l7 194l-6 500l102 8zM285 251q71 -101 179 -233v-12q-26 -7 -56 -10.5t-37 -4.5l-11 4q-103 130 -174 247v7l131 168l25 44h111zM321 -118q0 -67 -97 -137l-30 28l-1 7q50 40 50 84q0 28 -28 49v8q34 22 67 30q39 -28 39 -69z" />
    <glyph glyph-name="kgreenlandic" unicode="&#x138;" horiz-adv-x="469" 
d="M76 193l-3 261l100 9l-4 -261l3 -202h-100zM280 251q84 -116 182 -233l-1 -12q-26 -7 -56 -10.5t-36 -4.5l-10 4q-109 138 -177 247v7l135 168l25 44h107z" />
    <glyph glyph-name="Lacute" unicode="&#x139;" horiz-adv-x="423" 
d="M421 77l-8 -77h-330l7 193l-7 449h106l-6 -440l2 -116h229zM250 872l27 -61l-4 -10q-74 -32 -204 -82l-10 4l-17 44q130 67 197 107z" />
    <glyph glyph-name="lacute" unicode="&#x13a;" horiz-adv-x="254" 
d="M171 203l7 -203h-102l7 194l-6 500l102 8zM238 910l27 -61l-4 -10q-74 -32 -204 -82l-10 4l-17 44q130 67 197 107z" />
    <glyph glyph-name="Lcommaaccent" unicode="&#x13b;" horiz-adv-x="423" 
d="M421 77l-8 -77h-330l7 193l-7 449h106l-6 -440l2 -116h229zM299 -118q0 -67 -97 -137l-30 28l-1 7q50 40 50 84q0 28 -28 49v8q34 22 67 30q39 -28 39 -69z" />
    <glyph glyph-name="lcommaaccent" unicode="&#x13c;" horiz-adv-x="254" 
d="M171 203l7 -203h-102l7 194l-6 500l102 8zM191 -118q0 -67 -97 -137l-30 28l-1 7q50 40 50 84q0 28 -28 49v8q34 22 67 30q39 -28 39 -69z" />
    <glyph glyph-name="Lcaron" unicode="&#x13d;" horiz-adv-x="460" 
d="M421 77l-8 -77h-330l7 193l-7 449h106l-6 -440l2 -116h229zM326 387l-8 7l2 187l73 5l7 -8l-27 -184z" />
    <glyph glyph-name="lcaron" unicode="&#x13e;" horiz-adv-x="309" 
d="M171 203l7 -203h-102l7 194l-6 500l102 8zM322 640l-27 -183l-46 -8l-8 7l2 187l73 5z" />
    <glyph glyph-name="Ldot" unicode="&#x13f;" horiz-adv-x="431" 
d="M421 77l-8 -77h-330l7 193l-7 449h106l-6 -440l2 -116h229zM390 424.5q14 -14.5 14 -40.5q0 -27 -15 -43t-41 -16t-40.5 15t-14.5 41t15.5 42t42.5 16q25 0 39 -14.5z" />
    <glyph glyph-name="ldot" unicode="&#x140;" horiz-adv-x="272" 
d="M171 203l7 -203h-102l7 194l-6 500l102 8zM301 327.5q14 -14.5 14 -40.5q0 -27 -15.5 -43t-41.5 -16t-40 14.5t-14 40.5q0 27 15.5 43t42.5 16q25 0 39 -14.5z" />
    <glyph glyph-name="Lslash" unicode="&#x141;" horiz-adv-x="437" 
d="M436 77l-8 -77h-330l7 193l-1 79l-69 -36l-11 6l-18 61l96 50l-4 289h105l-3 -237l118 61l11 -5l19 -61l-149 -78l-1 -120l2 -116h229z" />
    <glyph glyph-name="lslash" unicode="&#x142;" horiz-adv-x="272" 
d="M180 203l7 -203h-102l7 194l-1 119l-61 -31l-6 3l-21 63l87 45l-4 301l102 8l-4 -267l59 31l6 -2l21 -62l-88 -47z" />
    <glyph glyph-name="Nacute" unicode="&#x143;" horiz-adv-x="688" 
d="M596 192l3 -192h-111l-302 481h-7l-1 -266l3 -215h-94l5 190l-4 452h109l303 -481h8l-2 476l96 7zM453 872l27 -61l-4 -10q-74 -32 -204 -82l-10 4l-17 44q130 67 197 107z" />
    <glyph glyph-name="nacute" unicode="&#x144;" horiz-adv-x="521" 
d="M360 303q1 38 -17.5 59.5t-53.5 21.5q-58 0 -120 -60l-1 -122l6 -202h-102l6 193l-5 261l97 9l-1 -67h7q59 52 123 71q77 0 116.5 -35t38.5 -100l-3 -130l5 -202h-103zM375 707l38 -54l-2 -10q-79 -58 -181 -124l-10 1l-26 40q105 85 171 148z" />
    <glyph glyph-name="Ncommaaccent" unicode="&#x145;" horiz-adv-x="688" 
d="M596 192l3 -192h-111l-302 481h-7l-1 -266l3 -215h-94l5 190l-4 452h109l303 -481h8l-2 476l96 7zM405 -118q0 -67 -97 -137l-30 28l-1 7q50 40 50 84q0 28 -28 49v8q34 22 67 30q39 -28 39 -69z" />
    <glyph glyph-name="ncommaaccent" unicode="&#x146;" horiz-adv-x="521" 
d="M360 303q1 38 -17.5 59.5t-53.5 21.5q-58 0 -120 -60l-1 -122l6 -202h-102l6 193l-5 261l97 9l-1 -67h7q59 52 123 71q77 0 116.5 -35t38.5 -100l-3 -130l5 -202h-103zM328 -118q0 -67 -97 -137l-30 28l-1 7q50 40 50 84q0 28 -28 49v8q34 22 67 30q39 -28 39 -69z" />
    <glyph glyph-name="Ncaron" unicode="&#x147;" horiz-adv-x="688" 
d="M596 192l3 -192h-111l-302 481h-7l-1 -266l3 -215h-94l5 190l-4 452h109l303 -481h8l-2 476l96 7zM478 817q-72 -49 -123 -96h-24q-60 53 -124 96l18 43h12l35 -22l70 -44q11 7 88 55l18 11h10z" />
    <glyph glyph-name="ncaron" unicode="&#x148;" horiz-adv-x="521" 
d="M360 303q1 38 -17.5 59.5t-53.5 21.5q-58 0 -120 -60l-1 -122l6 -202h-102l6 193l-5 261l97 9l-1 -67h7q59 52 123 71q77 0 116.5 -35t38.5 -100l-3 -130l5 -202h-103zM420 660q-57 -54 -130 -137h-26q-72 83 -129 137l27 40h10q69 -60 105 -100q35 37 105 100h11z" />
    <glyph glyph-name="Eng" unicode="&#x14a;" horiz-adv-x="688" 
d="M595 192l2 -135q0 -78 -40.5 -128.5t-140.5 -93.5l-36 56v11q46 25 73 48t39 51l-305 480h-8l-1 -266l5 -215h-97l7 190l-5 452h110l302 -476h8l-3 471l97 7z" />
    <glyph glyph-name="eng" unicode="&#x14b;" horiz-adv-x="533" 
d="M457 22q0 -78 -34.5 -127.5t-115.5 -88.5l-37 45v11q50 29 70.5 63.5t20.5 92.5l-1 285q0 38 -18 59.5t-53 21.5q-58 0 -120 -60l-1 -122l6 -202h-102l6 193l-5 261l97 9l-1 -67h7q59 52 123 71q77 0 116.5 -35t38.5 -100l-3 -130z" />
    <glyph glyph-name="Omacron" unicode="&#x14c;" horiz-adv-x="639" 
d="M533 568q72 -82 72 -234q0 -164 -77 -253.5t-219 -89.5q-132 0 -203.5 84.5t-71.5 239.5q0 161 76.5 248t217.5 87q133 0 205 -82zM184.5 507.5q-44.5 -58.5 -44.5 -180.5q0 -133 43.5 -194.5t134.5 -61.5q92 0 136 59t44 184q0 131 -43.5 191.5t-134.5 60.5
t-135.5 -58.5zM467 819l-5 -59h-282l-7 8l4 58h282z" />
    <glyph glyph-name="omacron" unicode="&#x14d;" horiz-adv-x="492" 
d="M401.5 409.5q52.5 -60.5 52.5 -171.5q0 -119 -56 -183t-159 -64q-97 0 -149.5 60.5t-52.5 171.5q0 119 56 183t159 64q97 0 149.5 -60.5zM132 245q0 -94 28 -139t86 -45q57 0 85 38t28 116q0 94 -28 139t-85 45q-114 0 -114 -154zM394 638l-5 -59h-282l-7 8l4 58h282z
" />
    <glyph glyph-name="Obreve" unicode="&#x14e;" horiz-adv-x="639" 
d="M533 568q72 -82 72 -234q0 -164 -77 -253.5t-219 -89.5q-132 0 -203.5 84.5t-71.5 239.5q0 161 76.5 248t217.5 87q133 0 205 -82zM184.5 507.5q-44.5 -58.5 -44.5 -180.5q0 -133 43.5 -194.5t134.5 -61.5q92 0 136 59t44 184q0 131 -43.5 191.5t-134.5 60.5
t-135.5 -58.5zM456 820q-16 -46 -51.5 -71.5t-85.5 -25.5t-84.5 25t-50.5 72l26 33h15q11 -28 36 -43t60 -15t59.5 15t36.5 43h15z" />
    <glyph glyph-name="obreve" unicode="&#x14f;" horiz-adv-x="492" 
d="M401.5 409.5q52.5 -60.5 52.5 -171.5q0 -119 -56 -183t-159 -64q-97 0 -149.5 60.5t-52.5 171.5q0 119 56 183t159 64q97 0 149.5 -60.5zM132 245q0 -94 28 -139t86 -45q57 0 85 38t28 116q0 94 -28 139t-85 45q-114 0 -114 -154zM384 647q-13 -55 -48 -87t-91 -32
q-55 0 -88 32t-46 87l27 36h15q10 -41 34.5 -62t60.5 -21t60.5 21t34.5 62h15z" />
    <glyph glyph-name="Ohungarumlaut" unicode="&#x150;" horiz-adv-x="639" 
d="M533 568q72 -82 72 -234q0 -164 -77 -253.5t-219 -89.5q-132 0 -203.5 84.5t-71.5 239.5q0 161 76.5 248t217.5 87q133 0 205 -82zM184.5 507.5q-44.5 -58.5 -44.5 -180.5q0 -133 43.5 -194.5t134.5 -61.5q92 0 136 59t44 184q0 131 -43.5 191.5t-134.5 60.5
t-135.5 -58.5zM306 871l10 2l46 -32l1 -10q-78 -74 -121 -112l-10 -2l-33 28q58 66 107 126zM373 775l81 96l8 2l48 -32l1 -10q-2 -2 -82 -76l-39 -36l-10 -2l-33 28z" />
    <glyph glyph-name="ohungarumlaut" unicode="&#x151;" horiz-adv-x="492" 
d="M401.5 409.5q52.5 -60.5 52.5 -171.5q0 -119 -56 -183t-159 -64q-97 0 -149.5 60.5t-52.5 171.5q0 119 56 183t159 64q97 0 149.5 -60.5zM132 245q0 -94 28 -139t86 -45q57 0 85 38t28 116q0 94 -28 139t-85 45q-114 0 -114 -154zM236 709l9 1l47 -34v-9
q-59 -62 -144 -146l-10 -2l-32 29q60 69 130 161zM383 709l8 1l47 -34l1 -9q-47 -50 -145 -146l-10 -2l-32 29q59 67 131 161z" />
    <glyph glyph-name="OE" unicode="&#x152;" horiz-adv-x="858" 
d="M447 648q56 -6 82 -6h302l7 -9l-8 -79l-146 4h-129l-2 -188l111 -2l112 3l6 -8l-8 -79l-117 3l-106 -2v-87l1 -114l120 -1l158 5l7 -9l-8 -79h-300q-25 1 -56 -2t-40 -4q-64 -6 -97 -6q-144 0 -223 86t-79 242q0 161 84 249.5t236 88.5q35 0 93 -6zM190.5 508
q-50.5 -61 -50.5 -186q0 -127 50.5 -189t155.5 -62q26 0 51.5 3t37.5 7q12 5 17.5 14t5.5 25l-4 396q-1 18 -4 27t-10 13q-10 5 -37 9t-58 4q-104 0 -154.5 -61z" />
    <glyph glyph-name="oe" unicode="&#x153;" horiz-adv-x="772" 
d="M717 226h-278q2 -76 35.5 -116t100.5 -40q31 0 66.5 11t68.5 31l10 -6l-12 -81q-70 -34 -140 -34q-116 0 -169 87q-52 -87 -167 -87q-95 0 -147 61t-52 173q0 117 55.5 180.5t154.5 63.5q111 0 160 -85q27 41 70 63t98 22q79 0 123 -47t44 -130q0 -32 -3 -50zM331 99
q28 38 28 116q0 94 -28 139t-85 45q-114 0 -114 -154q0 -94 28 -139t86 -45q57 0 85 38zM648 305q0 47 -22.5 70.5t-60.5 23.5q-48 0 -79 -29t-42 -83l202 6z" />
    <glyph glyph-name="Racute" unicode="&#x154;" horiz-adv-x="570" 
d="M541 24l-1 -12q-48 -16 -99 -21l-12 8q-83 136 -134 230h-109v-27l5 -202h-105l7 193l-7 449l218 1q97 0 150 -48.5t53 -138.5q0 -64 -33.5 -115.5t-93.5 -83.5q68 -109 161 -233zM188 313l110 -3q101 31 101 138q0 56 -30.5 84t-92.5 30l-85 -3zM383 888l38 -54l-2 -10
q-79 -58 -181 -124l-10 1l-26 40q105 85 171 148z" />
    <glyph glyph-name="racute" unicode="&#x155;" horiz-adv-x="334" 
d="M327 460v-97l-11 -3q-16 5 -37 5q-31 0 -58 -23t-52 -74l-1 -66l6 -202h-102l7 193l-6 261l97 9l-1 -92h7q27 48 60 69.5t66 21.5q11 0 25 -2zM296 707l38 -54l-2 -10q-79 -58 -181 -124l-10 1l-26 40q105 85 171 148z" />
    <glyph glyph-name="Rcommaaccent" unicode="&#x156;" horiz-adv-x="570" 
d="M541 24l-1 -12q-48 -16 -99 -21l-12 8q-83 136 -134 230h-109v-27l5 -202h-105l7 193l-7 449l218 1q97 0 150 -48.5t53 -138.5q0 -64 -33.5 -115.5t-93.5 -83.5q68 -109 161 -233zM188 313l110 -3q101 31 101 138q0 56 -30.5 84t-92.5 30l-85 -3zM349 -118
q0 -67 -97 -137l-30 28l-1 7q50 40 50 84q0 28 -28 49v8q34 22 67 30q39 -28 39 -69z" />
    <glyph glyph-name="rcommaaccent" unicode="&#x157;" horiz-adv-x="334" 
d="M327 460v-97l-11 -3q-16 5 -37 5q-31 0 -58 -23t-52 -74l-1 -66l6 -202h-102l7 193l-6 261l97 9l-1 -92h7q27 48 60 69.5t66 21.5q11 0 25 -2zM187 -118q0 -67 -97 -137l-30 28l-1 7q50 40 50 84q0 28 -28 49v8q34 22 67 30q39 -28 39 -69z" />
    <glyph glyph-name="Rcaron" unicode="&#x158;" horiz-adv-x="570" 
d="M541 24l-1 -12q-48 -16 -99 -21l-12 8q-83 136 -134 230h-109v-27l5 -202h-105l7 193l-7 449l218 1q97 0 150 -48.5t53 -138.5q0 -64 -33.5 -115.5t-93.5 -83.5q68 -109 161 -233zM188 313l110 -3q101 31 101 138q0 56 -30.5 84t-92.5 30l-85 -3zM421 817
q-72 -49 -123 -96h-24q-60 53 -124 96l18 43h12l35 -22l70 -44q11 7 88 55l18 11h10z" />
    <glyph glyph-name="rcaron" unicode="&#x159;" horiz-adv-x="334" 
d="M327 460v-97l-11 -3q-16 5 -37 5q-31 0 -58 -23t-52 -74l-1 -66l6 -202h-102l7 193l-6 261l97 9l-1 -92h7q27 48 60 69.5t66 21.5q11 0 25 -2zM341 660q-57 -54 -130 -137h-26q-72 83 -129 137l27 40h10q69 -60 105 -100q35 37 105 100h11z" />
    <glyph glyph-name="Sacute" unicode="&#x15a;" horiz-adv-x="483" 
d="M426 617l-17 -94l-16 -6q-32 23 -66 36t-65 13q-49 0 -78 -27t-29 -63q0 -35 29 -57.5t91 -51.5q54 -26 87.5 -47t57.5 -55.5t24 -82.5q0 -52 -28.5 -95.5t-80 -69t-117.5 -25.5q-44 0 -91 11t-89 32l13 102l13 6q37 -35 81.5 -52.5t82.5 -17.5q52 0 83 27.5t31 65.5
t-30 61.5t-92 52.5q-53 25 -86 45.5t-56.5 54.5t-23.5 82q0 52 28 95t78 67.5t114 24.5q76 0 152 -32zM351 888l38 -54l-2 -10q-79 -58 -181 -124l-10 1l-26 40q105 85 171 148z" />
    <glyph glyph-name="sacute" unicode="&#x15b;" horiz-adv-x="376" 
d="M327 446l-14 -80l-13 -3q-52 35 -102 35q-30 0 -47.5 -16t-17.5 -39q0 -25 20.5 -40t63.5 -33q39 -17 63.5 -32t42 -40t17.5 -62q0 -38 -20 -71.5t-59 -53.5t-94 -20q-69 0 -140 31l12 85l11 7q29 -25 64 -39.5t64 -14.5q32 0 51.5 17.5t19.5 41.5q0 25 -20 39.5
t-63 34.5q-39 17 -64 32t-42.5 41t-17.5 64q0 61 45 100t123 39q60 0 117 -23zM286 707l38 -54l-2 -10q-79 -58 -181 -124l-10 1l-26 40q105 85 171 148z" />
    <glyph glyph-name="Scircumflex" unicode="&#x15c;" horiz-adv-x="483" 
d="M426 617l-17 -94l-16 -6q-32 23 -66 36t-65 13q-49 0 -78 -27t-29 -63q0 -35 29 -57.5t91 -51.5q54 -26 87.5 -47t57.5 -55.5t24 -82.5q0 -52 -28.5 -95.5t-80 -69t-117.5 -25.5q-44 0 -91 11t-89 32l13 102l13 6q37 -35 81.5 -52.5t82.5 -17.5q52 0 83 27.5t31 65.5
t-30 61.5t-92 52.5q-53 25 -86 45.5t-56.5 54.5t-23.5 82q0 52 28 95t78 67.5t114 24.5q76 0 152 -32zM111 745q57 54 130 137h26q72 -83 129 -137l-27 -40h-10q-69 60 -105 100q-35 -37 -105 -100h-11z" />
    <glyph glyph-name="scircumflex" unicode="&#x15d;" horiz-adv-x="376" 
d="M327 446l-14 -80l-13 -3q-52 35 -102 35q-30 0 -47.5 -16t-17.5 -39q0 -25 20.5 -40t63.5 -33q39 -17 63.5 -32t42 -40t17.5 -62q0 -38 -20 -71.5t-59 -53.5t-94 -20q-69 0 -140 31l12 85l11 7q29 -25 64 -39.5t64 -14.5q32 0 51.5 17.5t19.5 41.5q0 25 -20 39.5
t-63 34.5q-39 17 -64 32t-42.5 41t-17.5 64q0 61 45 100t123 39q60 0 117 -23zM46 564q57 54 130 137h26q72 -83 129 -137l-27 -40h-10q-69 60 -105 100q-35 -37 -105 -100h-11z" />
    <glyph glyph-name="Scedilla" unicode="&#x15e;" horiz-adv-x="483" 
d="M426 617l-17 -94l-16 -6q-32 23 -66 36t-65 13q-49 0 -78 -27t-29 -63q0 -35 29 -57.5t91 -51.5q54 -26 87.5 -47t57.5 -55.5t24 -82.5q0 -52 -28.5 -95.5t-80 -69t-117.5 -25.5q-44 0 -91 11t-89 32l13 102l13 6q37 -35 81.5 -52.5t82.5 -17.5q52 0 83 27.5t31 65.5
t-30 61.5t-92 52.5q-53 25 -86 45.5t-56.5 54.5t-23.5 82q0 52 28 95t78 67.5t114 24.5q76 0 152 -32zM248 -50l34 -20q22 -12 31 -25.5t9 -31.5q0 -31 -24 -50.5t-63 -19.5q-43 0 -77 30l9 47l5 2q15 -15 28 -23t29 -8q13 0 21 6.5t8 18.5q0 13 -19 22l-49 29l24 95h54z
" />
    <glyph glyph-name="scedilla" unicode="&#x15f;" horiz-adv-x="376" 
d="M327 446l-14 -80l-13 -3q-52 35 -102 35q-30 0 -47.5 -16t-17.5 -39q0 -25 20.5 -40t63.5 -33q39 -17 63.5 -32t42 -40t17.5 -62q0 -38 -20 -71.5t-59 -53.5t-94 -20q-69 0 -140 31l12 85l11 7q29 -25 64 -39.5t64 -14.5q32 0 51.5 17.5t19.5 41.5q0 25 -20 39.5
t-63 34.5q-39 17 -64 32t-42.5 41t-17.5 64q0 61 45 100t123 39q60 0 117 -23zM193 -50l34 -20q22 -12 31 -25.5t9 -31.5q0 -31 -24 -50.5t-63 -19.5q-43 0 -77 30l9 47l5 2q15 -15 28 -23t29 -8q13 0 21 6.5t8 18.5q0 13 -19 22l-49 29l24 95h54z" />
    <glyph glyph-name="Scaron" unicode="&#x160;" horiz-adv-x="483" 
d="M426 617l-17 -94l-16 -6q-32 23 -66 36t-65 13q-49 0 -78 -27t-29 -63q0 -35 29 -57.5t91 -51.5q54 -26 87.5 -47t57.5 -55.5t24 -82.5q0 -52 -28.5 -95.5t-80 -69t-117.5 -25.5q-44 0 -91 11t-89 32l13 102l13 6q37 -35 81.5 -52.5t82.5 -17.5q52 0 83 27.5t31 65.5
t-30 61.5t-92 52.5q-53 25 -86 45.5t-56.5 54.5t-23.5 82q0 52 28 95t78 67.5t114 24.5q76 0 152 -32zM389 817q-72 -49 -123 -96h-24q-60 53 -124 96l18 43h12l35 -22l70 -44q11 7 88 55l18 11h10z" />
    <glyph glyph-name="scaron" unicode="&#x161;" horiz-adv-x="376" 
d="M327 446l-14 -80l-13 -3q-52 35 -102 35q-30 0 -47.5 -16t-17.5 -39q0 -25 20.5 -40t63.5 -33q39 -17 63.5 -32t42 -40t17.5 -62q0 -38 -20 -71.5t-59 -53.5t-94 -20q-69 0 -140 31l12 85l11 7q29 -25 64 -39.5t64 -14.5q32 0 51.5 17.5t19.5 41.5q0 25 -20 39.5
t-63 34.5q-39 17 -64 32t-42.5 41t-17.5 64q0 61 45 100t123 39q60 0 117 -23zM331 660q-57 -54 -130 -137h-26q-72 83 -129 137l27 40h10q69 -60 105 -100q35 37 105 100h11z" />
    <glyph glyph-name="uni0162" unicode="&#x162;" horiz-adv-x="495" 
d="M477 633l-6 -78l-116 6h-54l-5 -359l5 -202h-29l-14 -50l34 -19q22 -12 31 -26t9 -32q0 -31 -24 -50.5t-63 -19.5q-43 0 -77 30l9 47l5 2q14 -15 28 -22.5t30 -7.5q13 0 20.5 6t7.5 18q0 13 -19 22l-49 29l18 73h-21l6 193l-5 368h-54l-118 -6l-7 9l8 78h444z" />
    <glyph glyph-name="uni0163" unicode="&#x163;" horiz-adv-x="327" 
d="M304 95l10 -7l-10 -64q-55 -26 -102 -30q-62 10 -90 41.5t-28 91.5l4 72l-1 195h-63l-4 6l5 59h61v73l90 34l9 -8l-2 -99h128l4 -7l-5 -58h-129l-5 -251q-1 -37 12.5 -51.5t45.5 -14.5q33 0 70 18zM217 -50l34 -20q22 -12 31 -25.5t9 -31.5q0 -31 -24 -50.5t-63 -19.5
q-43 0 -77 30l9 47l5 2q15 -15 28 -23t29 -8q13 0 21 6.5t8 18.5q0 13 -19 22l-49 29l24 95h54z" />
    <glyph glyph-name="Tcaron" unicode="&#x164;" horiz-adv-x="495" 
d="M477 633l-6 -78l-116 6h-54l-5 -359l5 -202h-104l6 193l-5 368h-54l-118 -6l-7 9l8 78h444zM387 817q-72 -49 -123 -96h-24q-60 53 -124 96l18 43h12l35 -22l70 -44q11 7 88 55l18 11h10z" />
    <glyph glyph-name="tcaron" unicode="&#x165;" horiz-adv-x="352" 
d="M304 95l10 -7l-10 -64q-55 -26 -102 -30q-62 10 -90 41.5t-28 91.5l4 72l-1 195h-63l-4 6l5 59h61v73l90 34l9 -8l-2 -99h128l4 -7l-5 -58h-129l-5 -251q-1 -37 12.5 -51.5t45.5 -14.5q33 0 70 18zM350 694l-27 -183l-47 -7l-8 6l2 187l73 5z" />
    <glyph glyph-name="Tbar" unicode="&#x166;" horiz-adv-x="495" 
d="M301 561l-3 -218h102l8 -7l-5 -53h-106l-1 -81l5 -202h-104l6 193l-1 90h-93l-7 7l4 53h95l-3 218h-54l-118 -6l-7 9l8 78h444l6 -9l-6 -78l-116 6h-54z" />
    <glyph glyph-name="tbar" unicode="&#x167;" horiz-adv-x="331" 
d="M307 95l9 -7l-10 -64q-55 -26 -102 -30q-62 10 -90 41.5t-28 91.5l4 72v34h-61l-6 7l4 53h62v101h-63l-4 6l6 59h60v73l90 34l9 -8l-2 -99h128l4 -7l-5 -58h-129l-2 -101h117l7 -7l-4 -53h-121l-2 -90q-1 -37 12.5 -51.5t45.5 -14.5t71 18z" />
    <glyph glyph-name="Umacron" unicode="&#x16a;" horiz-adv-x="631" 
d="M560 316l-1 -76q2 -118 -64 -183t-187 -65q-117 0 -179 62.5t-60 177.5l2 89l-2 321h102l-4 -396q-1 -84 36 -125t112 -41q150 0 149 156l-5 406h104zM465 819l-5 -59h-282l-7 8l4 58h282z" />
    <glyph glyph-name="umacron" unicode="&#x16b;" horiz-adv-x="515" 
d="M496 71l-9 -56q-33 -19 -65 -22q-30 5 -47.5 21.5t-26.5 49.5h-7q-59 -53 -120 -70q-75 0 -115 35t-39 100l2 125l-4 200l101 9l-5 -306q-1 -37 16.5 -58t52.5 -21q53 0 109 50v326l97 9l-7 -356q0 -18 6 -25.5t21 -7.5q12 0 31 4zM403 638l-5 -59h-282l-7 8l4 58h282z
" />
    <glyph glyph-name="Ubreve" unicode="&#x16c;" horiz-adv-x="631" 
d="M560 316l-1 -76q2 -118 -64 -183t-187 -65q-117 0 -179 62.5t-60 177.5l2 89l-2 321h102l-4 -396q-1 -84 36 -125t112 -41q150 0 149 156l-5 406h104zM455 828q-13 -55 -48 -87t-91 -32q-55 0 -88 32t-46 87l27 36h15q10 -41 34.5 -62t60.5 -21t60.5 21t34.5 62h15z" />
    <glyph glyph-name="ubreve" unicode="&#x16d;" horiz-adv-x="515" 
d="M496 71l-9 -56q-33 -19 -65 -22q-30 5 -47.5 21.5t-26.5 49.5h-7q-59 -53 -120 -70q-75 0 -115 35t-39 100l2 125l-4 200l101 9l-5 -306q-1 -37 16.5 -58t52.5 -21q53 0 109 50v326l97 9l-7 -356q0 -18 6 -25.5t21 -7.5q12 0 31 4zM393 647q-13 -55 -48 -87t-91 -32
q-55 0 -88 32t-46 87l27 36h15q10 -41 34.5 -62t60.5 -21t60.5 21t34.5 62h15z" />
    <glyph glyph-name="Uring" unicode="&#x16e;" horiz-adv-x="631" 
d="M560 316l-1 -76q2 -118 -64 -183t-187 -65q-117 0 -179 62.5t-60 177.5l2 89l-2 321h102l-4 -396q-1 -84 36 -125t112 -41q150 0 149 156l-5 406h104zM383 866q23 -23 23 -62q0 -43 -25 -66.5t-66 -23.5q-40 0 -63.5 23t-23.5 64t23.5 64.5t66.5 23.5q42 0 65 -23z
M284.5 832.5q-10.5 -10.5 -10.5 -29.5q0 -44 43 -44q20 0 31.5 10.5t11.5 31.5q0 19 -11 30.5t-33 11.5q-21 0 -31.5 -10.5z" />
    <glyph glyph-name="uring" unicode="&#x16f;" horiz-adv-x="515" 
d="M496 71l-9 -56q-33 -19 -65 -22q-30 5 -47.5 21.5t-26.5 49.5h-7q-59 -53 -120 -70q-75 0 -115 35t-39 100l2 125l-4 200l101 9l-5 -306q-1 -37 16.5 -58t52.5 -21q53 0 109 50v326l97 9l-7 -356q0 -18 6 -25.5t21 -7.5q12 0 31 4zM321 685q23 -23 23 -62
q0 -43 -25 -66.5t-66 -23.5q-40 0 -63.5 23t-23.5 64t23.5 64.5t66.5 23.5q42 0 65 -23zM222.5 651.5q-10.5 -10.5 -10.5 -29.5q0 -44 43 -44q20 0 31.5 10.5t11.5 31.5q0 19 -11 30.5t-33 11.5q-21 0 -31.5 -10.5z" />
    <glyph glyph-name="Uhungarumlaut" unicode="&#x170;" horiz-adv-x="631" 
d="M560 316l-1 -76q2 -118 -64 -183t-187 -65q-117 0 -179 62.5t-60 177.5l2 89l-2 321h102l-4 -396q-1 -84 36 -125t112 -41q150 0 149 156l-5 406h104zM304 871l10 2l46 -32l1 -10q-78 -74 -121 -112l-10 -2l-33 28q58 66 107 126zM371 775l81 96l8 2l48 -32l1 -10
q-2 -2 -82 -76l-39 -36l-10 -2l-33 28z" />
    <glyph glyph-name="uhungarumlaut" unicode="&#x171;" horiz-adv-x="515" 
d="M496 71l-9 -56q-33 -19 -65 -22q-30 5 -47.5 21.5t-26.5 49.5h-7q-59 -53 -120 -70q-75 0 -115 35t-39 100l2 125l-4 200l101 9l-5 -306q-1 -37 16.5 -58t52.5 -21q53 0 109 50v326l97 9l-7 -356q0 -18 6 -25.5t21 -7.5q12 0 31 4zM245 709l9 1l47 -34v-9
q-59 -62 -144 -146l-10 -2l-32 29q60 69 130 161zM392 709l8 1l47 -34l1 -9q-47 -50 -145 -146l-10 -2l-32 29q59 67 131 161z" />
    <glyph glyph-name="Uogonek" unicode="&#x172;" horiz-adv-x="631" 
d="M560 316l-1 -76q2 -118 -64 -183t-187 -65q-117 0 -179 62.5t-60 177.5l2 89l-2 321h102l-4 -396q-1 -84 36 -125t112 -41q150 0 149 156l-5 406h104zM322 -172q-25 21 -25 57q0 32 22.5 63.5t89.5 87.5h60q-66 -71 -85 -95.5t-19 -41.5q0 -29 33 -29q32 0 73 35l6 -1
l15 -51q-49 -46 -103 -46q-42 0 -67 21z" />
    <glyph glyph-name="uogonek" unicode="&#x173;" horiz-adv-x="515" 
d="M496 71l-9 -56q-33 -19 -65 -22q-30 5 -47.5 21.5t-26.5 49.5h-7q-59 -53 -120 -70q-75 0 -115 35t-39 100l2 125l-4 200l101 9l-5 -306q-1 -37 16.5 -58t52.5 -21q53 0 109 50v326l97 9l-7 -356q0 -18 6 -25.5t21 -7.5q12 0 31 4zM340 -193q-25 21 -25 57
q0 32 22.5 63.5t89.5 87.5h60q-66 -71 -85 -95.5t-19 -41.5q0 -29 33 -29q32 0 73 35l6 -1l15 -51q-49 -46 -103 -46q-42 0 -67 21z" />
    <glyph glyph-name="Wcircumflex" unicode="&#x174;" horiz-adv-x="897" 
d="M668 0h-108l-113 345h-7l-117 -345h-109l-194 642h102l11 -69l138 -463h8l126 372l-51 160h105l16 -79l140 -453h8l155 457l16 75h96zM307 774q72 49 123 96h24q60 -53 124 -96l-18 -43h-12l-35 22l-70 44q-11 -7 -88 -55l-18 -11h-10z" />
    <glyph glyph-name="wcircumflex" unicode="&#x175;" horiz-adv-x="685" 
d="M121 399l73 -293h7l85 288l17 67h98l11 -62l74 -293h6l85 288l16 67h87l-148 -461h-97l-85 332h-8l-99 -332h-100l-125 459l93 5zM205 564q57 54 130 137h26q72 -83 129 -137l-27 -40h-10q-69 60 -105 100q-35 -37 -105 -100h-11z" />
    <glyph glyph-name="Ycircumflex" unicode="&#x176;" horiz-adv-x="541" 
d="M309 184l4 -184h-103l5 184l-1 39l-203 419h110l13 -40l127 -269h8l141 267l16 42h107l-223 -414zM131 774q72 49 123 96h24q60 -53 124 -96l-18 -43h-12l-35 22l-70 44q-11 -7 -88 -55l-18 -11h-10z" />
    <glyph glyph-name="ycircumflex" unicode="&#x177;" horiz-adv-x="435" 
d="M116 399l100 -293h7l100 284l17 71h88l-159 -438q-24 -68 -53 -108.5t-71.5 -64.5t-110.5 -41h-9q-24 24 -42 60l3 11q71 13 112 38t75 82l-168 459l96 5zM80 564q57 54 130 137h26q72 -83 129 -137l-27 -40h-10q-69 60 -105 100q-35 -37 -105 -100h-11z" />
    <glyph glyph-name="Ydieresis" unicode="&#x178;" horiz-adv-x="541" 
d="M309 184l4 -184h-103l5 184l-1 39l-203 419h110l13 -40l127 -269h8l141 267l16 42h107l-223 -414zM223.5 831.5q13.5 -13.5 13.5 -36.5q0 -25 -14.5 -40t-38.5 -15q-25 0 -38 13.5t-13 37.5q0 25 14.5 39.5t39.5 14.5q23 0 36.5 -13.5zM388 831.5q13 -13.5 13 -36.5
q0 -25 -14.5 -40t-38.5 -15t-37.5 13.5t-13.5 37.5q0 25 14.5 39.5t39.5 14.5q24 0 37 -13.5z" />
    <glyph glyph-name="Zacute" unicode="&#x179;" horiz-adv-x="536" 
d="M496 567l-342 -486h244l101 8l5 -6l-9 -85l-129 2h-270l-65 -3v75l344 488h-227l-103 -8l-6 6l8 85l395 -1l54 1v-76zM379 872l27 -61l-4 -10q-74 -32 -204 -82l-10 4l-17 44q130 67 197 107z" />
    <glyph glyph-name="zacute" unicode="&#x17a;" horiz-adv-x="417" 
d="M134 461h202l44 1l2 -61l-244 -333h164l80 8l6 -8l-8 -70l-103 2h-192l-54 -2l-1 60l245 335h-156l-77 -8l-6 8l7 70zM307 707l38 -54l-2 -10q-79 -58 -181 -124l-10 1l-26 40q105 85 171 148z" />
    <glyph glyph-name="Zdotaccent" unicode="&#x17b;" horiz-adv-x="536" 
d="M496 567l-342 -486h244l101 8l5 -6l-9 -85l-129 2h-270l-65 -3v75l344 488h-227l-103 -8l-6 6l8 85l395 -1l54 1v-76zM309 842.5q14 -14.5 14 -40.5q0 -27 -15 -43t-41 -16t-40.5 15t-14.5 41t15.5 42t42.5 16q25 0 39 -14.5z" />
    <glyph glyph-name="zdotaccent" unicode="&#x17c;" horiz-adv-x="417" 
d="M134 461h202l44 1l2 -61l-244 -333h164l80 8l6 -8l-8 -70l-103 2h-192l-54 -2l-1 60l245 335h-156l-77 -8l-6 8l7 70zM250 661.5q14 -14.5 14 -40.5q0 -27 -15 -43t-41 -16t-40.5 15t-14.5 41t15.5 42t42.5 16q25 0 39 -14.5z" />
    <glyph glyph-name="Zcaron" unicode="&#x17d;" horiz-adv-x="536" 
d="M496 567l-342 -486h244l101 8l5 -6l-9 -85l-129 2h-270l-65 -3v75l344 488h-227l-103 -8l-6 6l8 85l395 -1l54 1v-76zM404 817q-72 -49 -123 -96h-24q-60 53 -124 96l18 43h12l35 -22l70 -44q11 7 88 55l18 11h10z" />
    <glyph glyph-name="zcaron" unicode="&#x17e;" horiz-adv-x="417" 
d="M134 461h202l44 1l2 -61l-244 -333h164l80 8l6 -8l-8 -70l-103 2h-192l-54 -2l-1 60l245 335h-156l-77 -8l-6 8l7 70zM352 660q-57 -54 -130 -137h-26q-72 83 -129 137l27 40h10q69 -60 105 -100q35 37 105 100h11z" />
    <glyph glyph-name="uni018F" unicode="&#x18f;" horiz-adv-x="625" 
d="M454.5 609q66.5 -39 102 -112t35.5 -173q0 -101 -35.5 -176t-101 -115.5t-153.5 -40.5q-75 0 -132 29t-89 83t-32 126q0 28 7 70l15 16l416 2q0 117 -52 179t-150 62q-49 0 -98.5 -15t-92.5 -43l-12 9l18 92q95 46 197 46q91 0 157.5 -39zM419.5 117q46.5 45 61.5 126
l-325 -3l-2 -22q0 -68 40.5 -107t107.5 -39q71 0 117.5 45z" />
    <glyph glyph-name="florin" unicode="&#x192;" horiz-adv-x="293" 
d="M387 609l-15 -67l-7 -4q-37 15 -67 15q-41 0 -62.5 -21.5t-27.5 -62.5l-12 -91h107l3 -6l-5 -50h-112l-20 -137l-16 -135q-7 -69 -35 -112.5t-93 -87.5l-41 40l1 8q42 35 60.5 67t25.5 83l16 129l17 145h-65l-5 6l6 50h71l10 78q10 78 59.5 120t130.5 42q33 0 76 -9z" />
    <glyph glyph-name="Ohorn" unicode="&#x1a0;" horiz-adv-x="664" 
d="M602.5 602.5q-24.5 -26.5 -65.5 -36.5q71 -80 71 -234q0 -163 -77 -252t-217 -89q-132 0 -204 84.5t-72 238.5q0 106 34.5 181.5t98 115t149.5 39.5q37 0 64.5 -5.5t63.5 -15.5q37 -11 52 -11q22 0 35.5 11.5t13.5 31.5q0 36 -35 68l1 10q29 19 49 19q24 0 43.5 -27.5
t19.5 -63.5q0 -38 -24.5 -64.5zM457.5 130q44.5 59 44.5 183q0 132 -43 192.5t-136 60.5q-91 0 -135 -58.5t-44 -181.5q0 -133 43.5 -194t134.5 -61t135.5 59z" />
    <glyph glyph-name="ohorn" unicode="&#x1a1;" horiz-adv-x="526" 
d="M477 441.5q-31 -31.5 -76 -35.5q53 -61 53 -169q0 -118 -55.5 -182t-158.5 -64q-98 0 -150.5 60.5t-52.5 173.5q0 117 55.5 181t158.5 64q19 0 38 -3.5t35 -7.5q34 -8 48 -8q26 0 41 14.5t15 38.5q0 32 -32 63l3 9q25 22 50 22q23 0 41 -25t18 -56q0 -44 -31 -75.5z
M331 100.5q28 39.5 28 120.5q0 92 -28.5 135t-86.5 43q-113 0 -113 -161q0 -92 28.5 -134.5t86.5 -42.5q57 0 85 39.5z" />
    <glyph glyph-name="Uhorn" unicode="&#x1af;" horiz-adv-x="641" 
d="M627.5 637.5q-23.5 -27.5 -64.5 -40.5l-3 -281l-1 -76q2 -118 -64 -183t-187 -65q-117 0 -179 62.5t-60 177.5l2 89l-2 321h102l-4 -396q-1 -84 36 -125t112 -41q150 0 149 156l-5 406h48q64 0 64 50q0 32 -32 60l3 9q27 20 49 20t41 -23.5t19 -57.5q0 -35 -23.5 -62.5z
" />
    <glyph glyph-name="uhorn" unicode="&#x1b0;" horiz-adv-x="540" 
d="M509.5 587.5q18.5 -23.5 18.5 -56.5q0 -38 -24.5 -66.5t-68.5 -42.5l-6 -314q0 -19 6 -26.5t21 -7.5q12 0 32 4l8 -7l-10 -56q-32 -20 -62 -21q-63 4 -76 69h-8q-58 -52 -119 -69q-75 0 -115 35t-39 100l2 125l-4 200l101 9l-5 -306q-1 -37 16.5 -58t52.5 -21
q55 0 109 51v325l37 6q37 5 54.5 19t17.5 37q0 32 -31 63l2 9q28 23 51 23q21 0 39.5 -23.5z" />
    <glyph glyph-name="uni01C4" unicode="&#x1c4;" horiz-adv-x="1186" 
d="M542 568q74 -78 74 -224q0 -169 -81 -259.5t-233 -90.5q-43 0 -103 1.5t-112 4.5h-1l7 193l-7 449h1l243 4q138 0 212 -78zM460.5 137q48.5 61 48.5 184q0 124 -46.5 182.5t-140.5 58.5q-55 0 -131 -4l-5 -356l3 -119q36 -3 72 -5t59 -2q92 0 140.5 61zM1146 567
l-342 -486h244l101 8l5 -6l-9 -85l-129 2h-270l-65 -3v75l344 488h-227l-103 -8l-6 6l8 85l395 -1l54 1v-76zM1054 817q-72 -49 -123 -96h-24q-60 53 -124 96l18 43h12l35 -22l70 -44q11 7 88 55l18 11h10z" />
    <glyph glyph-name="uni01C5" unicode="&#x1c5;" horiz-adv-x="1067" 
d="M542 568q74 -78 74 -224q0 -169 -81 -259.5t-233 -90.5q-43 0 -103 1.5t-112 4.5h-1l7 193l-7 449h1l243 4q138 0 212 -78zM460.5 137q48.5 61 48.5 184q0 124 -46.5 182.5t-140.5 58.5q-55 0 -131 -4l-5 -356l3 -119q36 -3 72 -5t59 -2q92 0 140.5 61zM784 461h202l44 1
l2 -61l-244 -333h164l80 8l6 -8l-8 -70l-103 2h-192l-54 -2l-1 60l245 335h-156l-77 -8l-6 8l7 70zM1002 660q-57 -54 -130 -137h-26q-72 83 -129 137l27 40h10q69 -60 105 -100q35 37 105 100h11z" />
    <glyph glyph-name="uni01C6" unicode="&#x1c6;" horiz-adv-x="938" 
d="M434 203l3 -96q1 -19 6 -26t20 -7q11 0 31 4l9 -7l-10 -56q-29 -18 -63 -22q-31 3 -50.5 21.5t-24.5 48.5h-8q-29 -25 -52 -40.5t-51 -28.5q-100 0 -153.5 61.5t-53.5 173.5q0 115 60 177.5t167 62.5q35 0 78 -8l-2 233l101 8zM164.5 360q-32.5 -39 -32.5 -116
q0 -81 30 -124t84 -43q25 0 48 12t49 41l2 64l-3 182q-48 23 -88 23q-57 0 -89.5 -39zM655 461h202l44 1l2 -61l-244 -333h164l80 8l6 -8l-8 -70l-103 2h-192l-54 -2l-1 60l245 335h-156l-77 -8l-6 8l7 70zM873 660q-57 -54 -130 -137h-26q-72 83 -129 137l27 40h10
q69 -60 105 -100q35 37 105 100h11z" />
    <glyph glyph-name="uni01C7" unicode="&#x1c7;" horiz-adv-x="741" 
d="M421 77l-8 -77h-330l7 193l-7 449h106l-6 -440l2 -116h229zM649 212l2 -93q0 -78 -40.5 -128.5t-140.5 -94.5l-36 57v11q67 35 94.5 68.5t27.5 86.5v83l-4 360l-117 -1l-9 8l6 73h223z" />
    <glyph glyph-name="uni01C8" unicode="&#x1c8;" horiz-adv-x="698" 
d="M421 77l-8 -77h-330l7 193l-7 449h106l-6 -440l2 -116h229zM622 461l-8 -259l6 -180q0 -78 -34.5 -127.5t-115.5 -88.5l-37 45v11q50 29 70.5 63.5t20.5 92.5l1 175l-4 201h-88l-7 7l6 58h91l95 4zM596 661.5q14 -14.5 14 -40.5q0 -27 -15 -43t-41 -16t-40.5 15t-14.5 41
t15.5 42t42.5 16q25 0 39 -14.5z" />
    <glyph glyph-name="uni01C9" unicode="&#x1c9;" horiz-adv-x="529" 
d="M171 203l7 -203h-102l7 194l-6 500l102 8zM453 461l-8 -259l6 -180q0 -78 -34.5 -127.5t-115.5 -88.5l-37 45v11q50 29 70.5 63.5t20.5 92.5l1 175l-4 201h-88l-7 7l6 58h91l95 4zM427 661.5q14 -14.5 14 -40.5q0 -27 -15 -43t-41 -16t-40.5 15t-14.5 41t15.5 42t42.5 16
q25 0 39 -14.5z" />
    <glyph glyph-name="uni01CA" unicode="&#x1ca;" horiz-adv-x="1009" 
d="M596 192l3 -192h-111l-302 481h-7l-1 -266l3 -215h-94l5 190l-4 452h109l303 -481h8l-2 476l96 7zM917 212l2 -93q0 -78 -40.5 -128.5t-140.5 -94.5l-36 57v11q67 35 94.5 68.5t27.5 86.5v83l-4 360l-117 -1l-9 8l6 73h223z" />
    <glyph glyph-name="uni01CB" unicode="&#x1cb;" horiz-adv-x="963" 
d="M596 192l3 -192h-111l-302 481h-7l-1 -266l3 -215h-94l5 190l-4 452h109l303 -481h8l-2 476l96 7zM887 461l-8 -259l6 -180q0 -78 -34.5 -127.5t-115.5 -88.5l-37 45v11q50 29 70.5 63.5t20.5 92.5l1 175l-4 201h-88l-7 7l6 58h91l95 4zM861 661.5q14 -14.5 14 -40.5
q0 -27 -15 -43t-41 -16t-40.5 15t-14.5 41t15.5 42t42.5 16q25 0 39 -14.5z" />
    <glyph glyph-name="uni01CC" unicode="&#x1cc;" horiz-adv-x="796" 
d="M360 303q1 38 -17.5 59.5t-53.5 21.5q-58 0 -120 -60l-1 -122l6 -202h-102l6 193l-5 261l97 9l-1 -67h7q59 52 123 71q77 0 116.5 -35t38.5 -100l-3 -130l5 -202h-103zM720 461l-8 -259l6 -180q0 -78 -34.5 -127.5t-115.5 -88.5l-37 45v11q50 29 70.5 63.5t20.5 92.5
l1 175l-4 201h-88l-7 7l6 58h91l95 4zM694 661.5q14 -14.5 14 -40.5q0 -27 -15 -43t-41 -16t-40.5 15t-14.5 41t15.5 42t42.5 16q25 0 39 -14.5z" />
    <glyph glyph-name="uni01CD" unicode="&#x1cd;" horiz-adv-x="587" 
d="M568 0h-106l-15 72l-28 89l-136 3l-123 -3l-30 -84l-16 -77h-103l229 642h121zM393 245l-92 296h-7l-105 -296l101 -2zM431 817q-72 -49 -123 -96h-24q-60 53 -124 96l18 43h12l35 -22l70 -44q11 7 88 55l18 11h10z" />
    <glyph glyph-name="uni01CE" unicode="&#x1ce;" horiz-adv-x="470" 
d="M346 437q40 -33 40 -92q0 -18 -6 -120q-6 -100 -6 -117q0 -19 6.5 -26.5t22.5 -7.5q10 0 30 4l9 -7l-10 -56q-29 -18 -63 -22q-31 3 -50 22.5t-23 51.5h-7q-51 -54 -104 -75q-69 1 -108.5 36t-39.5 95q0 89 97 111l158 35l1 54q0 37 -18.5 56t-53.5 19q-34 0 -68 -15.5
t-75 -48.5l-8 5l-13 71q88 60 180 60q69 0 109 -33zM162 179q-18 -4 -26 -13.5t-8 -29.5q0 -30 16.5 -47t44.5 -17q47 0 100 61l3 77zM370 660q-57 -54 -130 -137h-26q-72 83 -129 137l27 40h10q69 -60 105 -100q35 37 105 100h11z" />
    <glyph glyph-name="uni01CF" unicode="&#x1cf;" horiz-adv-x="279" 
d="M186 202l5 -202h-105l7 193l-7 449h106zM275 817q-72 -49 -123 -96h-24q-60 53 -124 96l18 43h12l35 -22l70 -44q11 7 88 55l18 11h10z" />
    <glyph glyph-name="uni01D0" unicode="&#x1d0;" horiz-adv-x="250" 
d="M78 193l-3 261l100 9l-4 -261l3 -202h-100zM267 660q-57 -54 -130 -137h-26q-72 83 -129 137l27 40h10q69 -60 105 -100q35 37 105 100h11z" />
    <glyph glyph-name="uni01D1" unicode="&#x1d1;" horiz-adv-x="639" 
d="M533 568q72 -82 72 -234q0 -164 -77 -253.5t-219 -89.5q-132 0 -203.5 84.5t-71.5 239.5q0 161 76.5 248t217.5 87q133 0 205 -82zM184.5 507.5q-44.5 -58.5 -44.5 -180.5q0 -133 43.5 -194.5t134.5 -61.5q92 0 136 59t44 184q0 131 -43.5 191.5t-134.5 60.5
t-135.5 -58.5zM456 817q-72 -49 -123 -96h-24q-60 53 -124 96l18 43h12l35 -22l70 -44q11 7 88 55l18 11h10z" />
    <glyph glyph-name="uni01D2" unicode="&#x1d2;" horiz-adv-x="492" 
d="M401.5 409.5q52.5 -60.5 52.5 -171.5q0 -119 -56 -183t-159 -64q-97 0 -149.5 60.5t-52.5 171.5q0 119 56 183t159 64q97 0 149.5 -60.5zM132 245q0 -94 28 -139t86 -45q57 0 85 38t28 116q0 94 -28 139t-85 45q-114 0 -114 -154zM390 660q-57 -54 -130 -137h-26
q-72 83 -129 137l27 40h10q69 -60 105 -100q35 37 105 100h11z" />
    <glyph glyph-name="uni01D3" unicode="&#x1d3;" horiz-adv-x="631" 
d="M560 316l-1 -76q2 -118 -64 -183t-187 -65q-117 0 -179 62.5t-60 177.5l2 89l-2 321h102l-4 -396q-1 -84 36 -125t112 -41q150 0 149 156l-5 406h104zM454 817q-72 -49 -123 -96h-24q-60 53 -124 96l18 43h12l35 -22l70 -44q11 7 88 55l18 11h10z" />
    <glyph glyph-name="uni01D4" unicode="&#x1d4;" horiz-adv-x="515" 
d="M496 71l-9 -56q-33 -19 -65 -22q-30 5 -47.5 21.5t-26.5 49.5h-7q-59 -53 -120 -70q-75 0 -115 35t-39 100l2 125l-4 200l101 9l-5 -306q-1 -37 16.5 -58t52.5 -21q53 0 109 50v326l97 9l-7 -356q0 -18 6 -25.5t21 -7.5q12 0 31 4zM399 660q-57 -54 -130 -137h-26
q-72 83 -129 137l27 40h10q69 -60 105 -100q35 37 105 100h11z" />
    <glyph glyph-name="uni01D5" unicode="&#x1d5;" horiz-adv-x="631" 
d="M560 316l-1 -76q2 -118 -64 -183t-187 -65q-117 0 -179 62.5t-60 177.5l2 89l-2 321h102l-4 -396q-1 -84 36 -125t112 -41q150 0 149 156l-5 406h104zM449 944l-6 -59h-247l-7 8l5 59h248zM272.5 810q12.5 -13 12.5 -36t-14 -37.5t-37 -14.5t-36 13t-13 36t14.5 37.5
t37.5 14.5t35.5 -13zM436.5 810q12.5 -13 12.5 -36t-14 -37.5t-37 -14.5t-36 13t-13 36t14.5 37.5t37.5 14.5t35.5 -13z" />
    <glyph glyph-name="uni01D6" unicode="&#x1d6;" horiz-adv-x="515" 
d="M496 71l-9 -56q-33 -19 -65 -22q-30 5 -47.5 21.5t-26.5 49.5h-7q-59 -53 -120 -70q-75 0 -115 35t-39 100l2 125l-4 200l101 9l-5 -306q-1 -37 16.5 -58t52.5 -21q53 0 109 50v326l97 9l-7 -356q0 -18 6 -25.5t21 -7.5q12 0 31 4zM387 763l-6 -59h-247l-7 8l5 59h248z
M210.5 629q12.5 -13 12.5 -36t-14 -37.5t-37 -14.5t-36 13t-13 36t14.5 37.5t37.5 14.5t35.5 -13zM374.5 629q12.5 -13 12.5 -36t-14 -37.5t-37 -14.5t-36 13t-13 36t14.5 37.5t37.5 14.5t35.5 -13z" />
    <glyph glyph-name="uni01D7" unicode="&#x1d7;" horiz-adv-x="631" 
d="M560 316l-1 -76q2 -118 -64 -183t-187 -65q-117 0 -179 62.5t-60 177.5l2 89l-2 321h102l-4 -396q-1 -84 36 -125t112 -41q150 0 149 156l-5 406h104zM420 991l15 -64l-5 -9q-103 -24 -214 -45l-10 5l-10 47q121 35 214 71zM272.5 810q12.5 -13 12.5 -36t-14 -37.5
t-37 -14.5t-36 13t-13 36t14.5 37.5t37.5 14.5t35.5 -13zM436.5 810q12.5 -13 12.5 -36t-14 -37.5t-37 -14.5t-36 13t-13 36t14.5 37.5t37.5 14.5t35.5 -13z" />
    <glyph glyph-name="uni01D8" unicode="&#x1d8;" horiz-adv-x="515" 
d="M496 71l-9 -56q-33 -19 -65 -22q-30 5 -47.5 21.5t-26.5 49.5h-7q-59 -53 -120 -70q-75 0 -115 35t-39 100l2 125l-4 200l101 9l-5 -306q-1 -37 16.5 -58t52.5 -21q53 0 109 50v326l97 9l-7 -356q0 -18 6 -25.5t21 -7.5q12 0 31 4zM357 804l15 -63l-5 -10
q-93 -21 -214 -45l-10 5l-10 48q123 35 215 71zM208.5 629q12.5 -13 12.5 -36t-13.5 -37.5t-36.5 -14.5t-36 13t-13 36t14 37.5t38 14.5q22 0 34.5 -13zM373.5 629q12.5 -13 12.5 -36t-14 -37.5t-37 -14.5t-35.5 13t-12.5 36t14 37.5t37 14.5t35.5 -13z" />
    <glyph glyph-name="uni01D9" unicode="&#x1d9;" horiz-adv-x="631" 
d="M560 316l-1 -76q2 -118 -64 -183t-187 -65q-117 0 -179 62.5t-60 177.5l2 89l-2 321h102l-4 -396q-1 -84 36 -125t112 -41q150 0 149 156l-5 406h104zM453 938q-65 -46 -123 -96h-24q-74 61 -124 96l18 42h12l105 -65l106 65h10zM272.5 810q12.5 -13 12.5 -36t-14 -37.5
t-37 -14.5t-36 13t-13 36t14.5 37.5t37.5 14.5t35.5 -13zM436.5 810q12.5 -13 12.5 -36t-14 -37.5t-37 -14.5t-36 13t-13 36t14.5 37.5t37.5 14.5t35.5 -13z" />
    <glyph glyph-name="uni01DA" unicode="&#x1da;" horiz-adv-x="515" 
d="M496 71l-9 -56q-33 -19 -65 -22q-30 5 -47.5 21.5t-26.5 49.5h-7q-59 -53 -120 -70q-75 0 -115 35t-39 100l2 125l-4 200l101 9l-5 -306q-1 -37 16.5 -58t52.5 -21q53 0 109 50v326l97 9l-7 -356q0 -18 6 -25.5t21 -7.5q12 0 31 4zM391 757q-65 -46 -123 -96h-24
q-74 61 -124 96l18 42h12l105 -65l106 65h10zM210.5 629q12.5 -13 12.5 -36t-14 -37.5t-37 -14.5t-36 13t-13 36t14.5 37.5t37.5 14.5t35.5 -13zM374.5 629q12.5 -13 12.5 -36t-14 -37.5t-37 -14.5t-36 13t-13 36t14.5 37.5t37.5 14.5t35.5 -13z" />
    <glyph glyph-name="uni01DB" unicode="&#x1db;" horiz-adv-x="631" 
d="M560 316l-1 -76q2 -118 -64 -183t-187 -65q-117 0 -179 62.5t-60 177.5l2 89l-2 321h102l-4 -396q-1 -84 36 -125t112 -41q150 0 149 156l-5 406h104zM435 925l-9 -47l-10 -5q-117 22 -214 45l-6 9l16 64l9 5q105 -39 214 -71zM272.5 810q12.5 -13 12.5 -36t-14 -37.5
t-37 -14.5t-36 13t-13 36t14.5 37.5t37.5 14.5t35.5 -13zM436.5 810q12.5 -13 12.5 -36t-14 -37.5t-37 -14.5t-36 13t-13 36t14.5 37.5t37.5 14.5t35.5 -13z" />
    <glyph glyph-name="uni01DC" unicode="&#x1dc;" horiz-adv-x="515" 
d="M496 71l-9 -56q-33 -19 -65 -22q-30 5 -47.5 21.5t-26.5 49.5h-7q-59 -53 -120 -70q-75 0 -115 35t-39 100l2 125l-4 200l101 9l-5 -306q-1 -37 16.5 -58t52.5 -21q53 0 109 50v326l97 9l-7 -356q0 -18 6 -25.5t21 -7.5q12 0 31 4zM140 731l-6 10l16 63l9 6
q90 -35 214 -71l-9 -48l-10 -5q-131 26 -214 45zM136 554q-13 13 -13 36t14.5 37.5t37.5 14.5t35.5 -13t12.5 -36t-14 -37.5t-37 -14.5t-36 13zM300 554q-13 13 -13 36t14.5 37.5t37.5 14.5t35.5 -13t12.5 -36t-14 -37.5t-37 -14.5t-36 13z" />
    <glyph glyph-name="Gcaron" unicode="&#x1e6;" horiz-adv-x="599" 
d="M544 606l-21 -96l-11 -1q-49 29 -89 41.5t-84 12.5q-100 0 -149 -60.5t-49 -190.5q0 -124 46 -179.5t146 -55.5q25 0 49.5 4.5t61.5 15.5l3 65l-3 99l97 7l-2 -90l3 -147q-124 -39 -215 -39q-147 0 -220 81.5t-73 233.5q0 166 83.5 254t238.5 88q101 0 188 -43zM462 817
q-72 -49 -123 -96h-24q-60 53 -124 96l18 43h12l35 -22l70 -44q11 7 88 55l18 11h10z" />
    <glyph glyph-name="gcaron" unicode="&#x1e7;" horiz-adv-x="492" 
d="M409 393l-2 -4q19 -32 19 -77q0 -74 -51 -117.5t-138 -43.5q-32 0 -61 6q-12 -10 -16.5 -17.5t-4.5 -15.5q0 -20 25.5 -28t80.5 -16q57 -7 95 -17t65.5 -34t27.5 -66q0 -44 -29 -80t-79.5 -56.5t-112.5 -20.5q-84 0 -130.5 37t-46.5 97q15 24 36 43t50 38v5
q-35 12 -54 31.5t-19 52.5q26 37 64 61v5q-34 19 -51.5 51.5t-17.5 76.5q0 76 50.5 119.5t136.5 43.5q52 0 92 -17q74 12 148 35l9 -6v-67q-28 -9 -86 -19zM311.5 241q24.5 25 24.5 71q0 43 -23 66t-68 23q-47 0 -71.5 -23.5t-24.5 -68.5t23.5 -69t68.5 -24q46 0 70.5 25z
M344 -22q-17 12 -41 17.5t-70 12.5q-22 2 -31 4q-32 -20 -48 -39t-16 -39q0 -27 26.5 -44.5t75.5 -17.5q53 0 87 20t34 52q0 22 -17 34zM392 651q-57 -54 -130 -137h-26q-72 83 -129 137l27 40h10q69 -60 105 -100q35 37 105 100h11z" />
    <glyph glyph-name="uni01EA" unicode="&#x1ea;" horiz-adv-x="639" 
d="M533 568q72 -82 72 -234q0 -164 -77 -253.5t-219 -89.5q-132 0 -203.5 84.5t-71.5 239.5q0 161 76.5 248t217.5 87q133 0 205 -82zM184.5 507.5q-44.5 -58.5 -44.5 -180.5q0 -133 43.5 -194.5t134.5 -61.5q92 0 136 59t44 184q0 131 -43.5 191.5t-134.5 60.5
t-135.5 -58.5zM313 -177q-25 21 -25 57q0 32 22.5 63.5t89.5 87.5h60q-66 -71 -85 -95.5t-19 -41.5q0 -29 33 -29q32 0 73 35l6 -1l15 -51q-49 -46 -103 -46q-42 0 -67 21z" />
    <glyph glyph-name="uni01EB" unicode="&#x1eb;" horiz-adv-x="492" 
d="M401.5 409.5q52.5 -60.5 52.5 -171.5q0 -119 -56 -183t-159 -64q-97 0 -149.5 60.5t-52.5 171.5q0 119 56 183t159 64q97 0 149.5 -60.5zM132 245q0 -94 28 -139t86 -45q57 0 85 38t28 116q0 94 -28 139t-85 45q-114 0 -114 -154zM220 -174q-25 21 -25 57q0 32 22.5 63.5
t89.5 87.5h60q-66 -71 -85 -95.5t-19 -41.5q0 -29 33 -29q32 0 73 35l6 -1l15 -51q-49 -46 -103 -46q-42 0 -67 21z" />
    <glyph glyph-name="Aringacute" unicode="&#x1fa;" horiz-adv-x="587" 
d="M214 791l-10 47q117 36 212 74l10 -4l17 -63l-5 -10q-69 -18 -215 -49zM568 0h-106l-15 71l-28 88l-136 2l-123 -3l-30 -82l-16 -76h-103l227 616q-26 24 -26 67q0 41 24 64.5t66 23.5t64.5 -23t22.5 -62q0 -44 -28 -69zM257 684q0 -21 11.5 -32t32.5 -11q20 0 31.5 10.5
t11.5 30.5t-11 31.5t-34 11.5q-42 0 -42 -41zM393 242l-92 291h-7l-104 -291l100 -2z" />
    <glyph glyph-name="aringacute" unicode="&#x1fb;" horiz-adv-x="470" 
d="M346 437q40 -33 40 -92q0 -18 -6 -120q-6 -100 -6 -117q0 -19 6.5 -26.5t22.5 -7.5q10 0 30 4l9 -7l-10 -56q-29 -18 -63 -22q-31 3 -50 22.5t-23 51.5h-7q-51 -54 -104 -75q-69 1 -108.5 36t-39.5 95q0 89 97 111l158 35l1 54q0 37 -18.5 56t-53.5 19q-34 0 -68 -15.5
t-75 -48.5l-8 5l-13 71q88 60 180 60q69 0 109 -33zM162 179q-18 -4 -26 -13.5t-8 -29.5q0 -30 16.5 -47t44.5 -17q47 0 100 61l3 77zM292 685q23 -23 23 -62q0 -43 -25 -66.5t-66 -23.5q-40 0 -63.5 23t-23.5 64t23.5 64.5t66.5 23.5q42 0 65 -23zM193.5 651.5
q-10.5 -10.5 -10.5 -29.5q0 -44 43 -44q20 0 31.5 10.5t11.5 31.5q0 19 -11 30.5t-33 11.5q-21 0 -31.5 -10.5zM351.289 845.714l17.0391 -64.4912l-5.52637 -9.24316q-78.1162 -19.9268 -214.368 -48.7949l-9.24316 5.52637l-9.84668 46.1279
q138.933 45.6553 211.398 74.585z" />
    <glyph glyph-name="AEacute" unicode="&#x1fc;" horiz-adv-x="814" 
d="M801 79l-8 -79h-365l-5 72l-24 172l-227 -56l-57 -111l-27 -77h-105l326 642h402l6 -9l-8 -79l-160 5h-92l29 -213l206 47l8 -7l7 -73l-211 -46l25 -185h109l164 6zM388 323l-30 218h-7l-131 -258zM610 872l27 -61l-4 -10q-74 -32 -204 -82l-10 4l-17 44q130 67 197 107z
" />
    <glyph glyph-name="aeacute" unicode="&#x1fd;" horiz-adv-x="685" 
d="M615 417.5q45 -51.5 41 -147.5l-10 -14l-276 -40q8 -149 127 -149q31 0 65 11.5t64 31.5l10 -6l-14 -79q-29 -16 -64.5 -25t-68.5 -9q-56 0 -99 24t-68 70q-55 -64 -131 -93q-72 1 -114 35.5t-42 95.5q0 47 24.5 77t72.5 37l155 22v64q0 75 -71 75q-59 0 -140 -64l-8 5
l-14 71q86 60 174 60q46 0 76.5 -17t45.5 -46q26 30 63 46t79 16q78 0 123 -51.5zM401 363.5q-32 -36.5 -32 -88.5v-3l196 32q-1 46 -24 71t-62 25q-46 0 -78 -36.5zM237 87q23 14 59 50q-7 43 -8 66l-117 -21q-24 -4 -34.5 -16t-10.5 -33q0 -29 17 -44.5t46 -15.5
q25 0 48 14zM444 707l38 -54l-2 -10q-79 -58 -181 -124l-10 1l-26 40q105 85 171 148z" />
    <glyph glyph-name="Oslashacute" unicode="&#x1fe;" horiz-adv-x="639" 
d="M576.5 498.5q28.5 -68.5 28.5 -164.5q0 -164 -77 -253.5t-219 -89.5q-54 0 -99 15l-54 -115l-60 24l-5 9l54 115q-54 40 -82.5 110t-28.5 166q0 161 76.5 248t217.5 87q51 0 98 -14l43 93l59 -23l6 -11l-42 -90q56 -38 84.5 -106.5zM187 128l201 428q-29 10 -68 10
q-91 0 -135.5 -58.5t-44.5 -180.5q0 -139 47 -199zM454 130q44 59 44 184q0 140 -49 199l-203 -430q32 -12 72 -12q92 0 136 59zM430 873l27 -61l-4 -10q-74 -32 -204 -82l-10 4l-17 44q130 67 197 107z" />
    <glyph glyph-name="oslashacute" unicode="&#x1ff;" horiz-adv-x="492" 
d="M436.5 348.5q17.5 -47.5 17.5 -110.5q0 -119 -56 -183t-159 -64q-39 0 -74 11l-63 -121l-54 26l-3 10l62 118q-70 59 -70 188q0 119 56 183t159 64q43 0 76 -12l53 101l50 -25l6 -11l-51 -98q33 -29 50.5 -76.5zM152 121l140 268q-19 10 -46 10q-114 0 -114 -154
q0 -78 20 -124zM331 99q28 38 28 116t-19 122l-139 -267q20 -9 45 -9q57 0 85 38zM344 707l38 -54l-2 -10q-79 -58 -181 -124l-10 1l-26 40q105 85 171 148z" />
    <glyph glyph-name="uni0200" unicode="&#x200;" horiz-adv-x="587" 
d="M568 0h-106l-15 72l-28 89l-136 3l-123 -3l-30 -84l-16 -77h-103l229 642h121zM393 245l-92 296h-7l-105 -296l101 -2zM235 717l-9 2q-56 50 -122 112l2 10l46 32l9 -2q36 -45 108 -126zM383 717l-10 2q-82 74 -121 112l1 10l47 32l9 -2q35 -44 107 -126z" />
    <glyph glyph-name="uni0201" unicode="&#x201;" horiz-adv-x="470" 
d="M346 437q40 -33 40 -92q0 -18 -6 -120q-6 -100 -6 -117q0 -19 6.5 -26.5t22.5 -7.5q10 0 30 4l9 -7l-10 -56q-29 -18 -63 -22q-31 3 -50 22.5t-23 51.5h-7q-51 -54 -104 -75q-69 1 -108.5 36t-39.5 95q0 89 97 111l158 35l1 54q0 37 -18.5 56t-53.5 19q-34 0 -68 -15.5
t-75 -48.5l-8 5l-13 71q88 60 180 60q69 0 109 -33zM162 179q-18 -4 -26 -13.5t-8 -29.5q0 -30 16.5 -47t44.5 -17q47 0 100 61l3 77zM101 709l-9 1l-46 -34l-2 -9q47 -50 145 -146l9 -2l33 29q-60 69 -130 161zM247 709l-9 1l-47 -34v-9q59 -62 144 -146l10 -2l32 29
q-52 58 -130 161z" />
    <glyph glyph-name="uni0202" unicode="&#x202;" horiz-adv-x="587" 
d="M568 0h-106l-15 72l-28 89l-136 3l-123 -3l-30 -84l-16 -77h-103l229 642h121zM393 245l-92 296h-7l-105 -296l101 -2zM158 759q13 55 48 87t91 32q55 0 88 -32t46 -87l-27 -36h-15q-10 41 -34.5 62t-60.5 21t-60.5 -21t-34.5 -62h-15z" />
    <glyph glyph-name="uni0203" unicode="&#x203;" horiz-adv-x="470" 
d="M346 437q40 -33 40 -92q0 -18 -6 -120q-6 -100 -6 -117q0 -19 6.5 -26.5t22.5 -7.5q10 0 30 4l9 -7l-10 -56q-29 -18 -63 -22q-31 3 -50 22.5t-23 51.5h-7q-51 -54 -104 -75q-69 1 -108.5 36t-39.5 95q0 89 97 111l158 35l1 54q0 37 -18.5 56t-53.5 19q-34 0 -68 -15.5
t-75 -48.5l-8 5l-13 71q88 60 180 60q69 0 109 -33zM162 179q-18 -4 -26 -13.5t-8 -29.5q0 -30 16.5 -47t44.5 -17q47 0 100 61l3 77zM90 578q13 55 48 87t91 32q55 0 88 -32t46 -87l-27 -36h-15q-10 41 -34.5 62t-60.5 21t-60.5 -21t-34.5 -62h-15z" />
    <glyph glyph-name="uni0204" unicode="&#x204;" horiz-adv-x="493" 
d="M466 88l6 -9l-7 -79h-379l7 193l-7 449h381l6 -9l-8 -79l-152 4l-122 -1l-3 -187l116 -2l106 3l7 -8l-8 -79l-113 3l-109 -2l-1 -83l3 -118l122 -1zM218 717l-9 2q-56 50 -122 112l2 10l46 32l9 -2q36 -45 108 -126zM366 717l-10 2q-82 74 -121 112l1 10l47 32l9 -2
q35 -44 107 -126z" />
    <glyph glyph-name="uni0205" unicode="&#x205;" horiz-adv-x="465" 
d="M411 226l-281 -1q1 -76 37 -115.5t102 -39.5q69 0 135 41l10 -6l-15 -82q-73 -32 -142 -32q-103 0 -161.5 63.5t-58.5 173.5q0 111 58 176t157 65q84 0 129.5 -46t45.5 -130q0 -23 -5 -55zM335 305q0 47 -21.5 71t-62.5 24q-46 0 -76 -29.5t-40 -83.5l198 4zM115 709
l-9 1l-46 -34l-2 -9q47 -50 145 -146l9 -2l33 29q-60 69 -130 161zM261 709l-9 1l-47 -34v-9q59 -62 144 -146l10 -2l32 29q-52 58 -130 161z" />
    <glyph glyph-name="uni0206" unicode="&#x206;" horiz-adv-x="493" 
d="M466 88l6 -9l-7 -79h-379l7 193l-7 449h381l6 -9l-8 -79l-152 4l-122 -1l-3 -187l116 -2l106 3l7 -8l-8 -79l-113 3l-109 -2l-1 -83l3 -118l122 -1zM141 759q13 55 48 87t91 32q55 0 88 -32t46 -87l-27 -36h-15q-10 41 -34.5 62t-60.5 21t-60.5 -21t-34.5 -62h-15z" />
    <glyph glyph-name="uni0207" unicode="&#x207;" horiz-adv-x="465" 
d="M411 226l-281 -1q1 -76 37 -115.5t102 -39.5q69 0 135 41l10 -6l-15 -82q-73 -32 -142 -32q-103 0 -161.5 63.5t-58.5 173.5q0 111 58 176t157 65q84 0 129.5 -46t45.5 -130q0 -23 -5 -55zM335 305q0 47 -21.5 71t-62.5 24q-46 0 -76 -29.5t-40 -83.5l198 4zM104 578
q13 55 48 87t91 32q55 0 88 -32t46 -87l-27 -36h-15q-10 41 -34.5 62t-60.5 21t-60.5 -21t-34.5 -62h-15z" />
    <glyph glyph-name="uni0208" unicode="&#x208;" horiz-adv-x="279" 
d="M186 202l5 -202h-105l7 193l-7 449h106zM79 717l-9 2q-56 50 -122 112l2 10l46 32l9 -2q36 -45 108 -126zM227 717l-10 2q-82 74 -121 112l1 10l47 32l9 -2q35 -44 107 -126z" />
    <glyph glyph-name="uni0209" unicode="&#x209;" horiz-adv-x="250" 
d="M78 193l-3 261l100 9l-4 -261l3 -202h-100zM-2 709l-9 1l-46 -34l-2 -9q47 -50 145 -146l9 -2l33 29q-60 69 -130 161zM144 709l-9 1l-47 -34v-9q59 -62 144 -146l10 -2l32 29q-52 58 -130 161z" />
    <glyph glyph-name="uni020A" unicode="&#x20a;" horiz-adv-x="279" 
d="M186 202l5 -202h-105l7 193l-7 449h106zM2 759q13 55 48 87t91 32q55 0 88 -32t46 -87l-27 -36h-15q-10 41 -34.5 62t-60.5 21t-60.5 -21t-34.5 -62h-15z" />
    <glyph glyph-name="uni020B" unicode="&#x20b;" horiz-adv-x="250" 
d="M78 193l-3 261l100 9l-4 -261l3 -202h-100zM-13 578q13 55 48 87t91 32q55 0 88 -32t46 -87l-27 -36h-15q-10 41 -34.5 62t-60.5 21t-60.5 -21t-34.5 -62h-15z" />
    <glyph glyph-name="uni020C" unicode="&#x20c;" horiz-adv-x="639" 
d="M533 568q72 -82 72 -234q0 -164 -77 -253.5t-219 -89.5q-132 0 -203.5 84.5t-71.5 239.5q0 161 76.5 248t217.5 87q133 0 205 -82zM184.5 507.5q-44.5 -58.5 -44.5 -180.5q0 -133 43.5 -194.5t134.5 -61.5q92 0 136 59t44 184q0 131 -43.5 191.5t-134.5 60.5
t-135.5 -58.5zM260 717l-9 2q-56 50 -122 112l2 10l46 32l9 -2q36 -45 108 -126zM408 717l-10 2q-82 74 -121 112l1 10l47 32l9 -2q35 -44 107 -126z" />
    <glyph glyph-name="uni020D" unicode="&#x20d;" horiz-adv-x="492" 
d="M401.5 409.5q52.5 -60.5 52.5 -171.5q0 -119 -56 -183t-159 -64q-97 0 -149.5 60.5t-52.5 171.5q0 119 56 183t159 64q97 0 149.5 -60.5zM132 245q0 -94 28 -139t86 -45q57 0 85 38t28 116q0 94 -28 139t-85 45q-114 0 -114 -154zM121 709l-9 1l-46 -34l-2 -9
q47 -50 145 -146l9 -2l33 29q-60 69 -130 161zM267 709l-9 1l-47 -34v-9q59 -62 144 -146l10 -2l32 29q-52 58 -130 161z" />
    <glyph glyph-name="uni020E" unicode="&#x20e;" horiz-adv-x="639" 
d="M533 568q72 -82 72 -234q0 -164 -77 -253.5t-219 -89.5q-132 0 -203.5 84.5t-71.5 239.5q0 161 76.5 248t217.5 87q133 0 205 -82zM184.5 507.5q-44.5 -58.5 -44.5 -180.5q0 -133 43.5 -194.5t134.5 -61.5q92 0 136 59t44 184q0 131 -43.5 191.5t-134.5 60.5
t-135.5 -58.5zM183 759q13 55 48 87t91 32q55 0 88 -32t46 -87l-27 -36h-15q-10 41 -34.5 62t-60.5 21t-60.5 -21t-34.5 -62h-15z" />
    <glyph glyph-name="uni020F" unicode="&#x20f;" horiz-adv-x="492" 
d="M401.5 409.5q52.5 -60.5 52.5 -171.5q0 -119 -56 -183t-159 -64q-97 0 -149.5 60.5t-52.5 171.5q0 119 56 183t159 64q97 0 149.5 -60.5zM132 245q0 -94 28 -139t86 -45q57 0 85 38t28 116q0 94 -28 139t-85 45q-114 0 -114 -154zM110 578q13 55 48 87t91 32q55 0 88 -32
t46 -87l-27 -36h-15q-10 41 -34.5 62t-60.5 21t-60.5 -21t-34.5 -62h-15z" />
    <glyph glyph-name="uni0210" unicode="&#x210;" horiz-adv-x="570" 
d="M541 24l-1 -12q-48 -16 -99 -21l-12 8q-83 136 -134 230h-109v-27l5 -202h-105l7 193l-7 449l218 1q97 0 150 -48.5t53 -138.5q0 -64 -33.5 -115.5t-93.5 -83.5q68 -109 161 -233zM188 313l110 -3q101 31 101 138q0 56 -30.5 84t-92.5 30l-85 -3zM225 717l-9 2
q-56 50 -122 112l2 10l46 32l9 -2q36 -45 108 -126zM373 717l-10 2q-82 74 -121 112l1 10l47 32l9 -2q35 -44 107 -126z" />
    <glyph glyph-name="uni0211" unicode="&#x211;" horiz-adv-x="334" 
d="M327 460v-97l-11 -3q-16 5 -37 5q-31 0 -58 -23t-52 -74l-1 -66l6 -202h-102l7 193l-6 261l97 9l-1 -92h7q27 48 60 69.5t66 21.5q11 0 25 -2zM72 709l-9 1l-46 -34l-2 -9q47 -50 145 -146l9 -2l33 29q-60 69 -130 161zM218 709l-9 1l-47 -34v-9q59 -62 144 -146l10 -2
l32 29q-52 58 -130 161z" />
    <glyph glyph-name="uni0212" unicode="&#x212;" horiz-adv-x="570" 
d="M541 24l-1 -12q-48 -16 -99 -21l-12 8q-83 136 -134 230h-109v-27l5 -202h-105l7 193l-7 449l218 1q97 0 150 -48.5t53 -138.5q0 -64 -33.5 -115.5t-93.5 -83.5q68 -109 161 -233zM188 313l110 -3q101 31 101 138q0 56 -30.5 84t-92.5 30l-85 -3zM148 759q13 55 48 87
t91 32q55 0 88 -32t46 -87l-27 -36h-15q-10 41 -34.5 62t-60.5 21t-60.5 -21t-34.5 -62h-15z" />
    <glyph glyph-name="uni0213" unicode="&#x213;" horiz-adv-x="334" 
d="M327 460v-97l-11 -3q-16 5 -37 5q-31 0 -58 -23t-52 -74l-1 -66l6 -202h-102l7 193l-6 261l97 9l-1 -92h7q27 48 60 69.5t66 21.5q11 0 25 -2zM61 578q13 55 48 87t91 32q55 0 88 -32t46 -87l-27 -36h-15q-10 41 -34.5 62t-60.5 21t-60.5 -21t-34.5 -62h-15z" />
    <glyph glyph-name="uni0214" unicode="&#x214;" horiz-adv-x="631" 
d="M560 316l-1 -76q2 -118 -64 -183t-187 -65q-117 0 -179 62.5t-60 177.5l2 89l-2 321h102l-4 -396q-1 -84 36 -125t112 -41q150 0 149 156l-5 406h104zM258 717l-9 2q-56 50 -122 112l2 10l46 32l9 -2q36 -45 108 -126zM406 717l-10 2q-82 74 -121 112l1 10l47 32l9 -2
q35 -44 107 -126z" />
    <glyph glyph-name="uni0215" unicode="&#x215;" horiz-adv-x="515" 
d="M496 71l-9 -56q-33 -19 -65 -22q-30 5 -47.5 21.5t-26.5 49.5h-7q-59 -53 -120 -70q-75 0 -115 35t-39 100l2 125l-4 200l101 9l-5 -306q-1 -37 16.5 -58t52.5 -21q53 0 109 50v326l97 9l-7 -356q0 -18 6 -25.5t21 -7.5q12 0 31 4zM130 709l-9 1l-46 -34l-2 -9
q47 -50 145 -146l9 -2l33 29q-60 69 -130 161zM276 709l-9 1l-47 -34v-9q59 -62 144 -146l10 -2l32 29q-52 58 -130 161z" />
    <glyph glyph-name="uni0216" unicode="&#x216;" horiz-adv-x="631" 
d="M560 316l-1 -76q2 -118 -64 -183t-187 -65q-117 0 -179 62.5t-60 177.5l2 89l-2 321h102l-4 -396q-1 -84 36 -125t112 -41q150 0 149 156l-5 406h104zM181 759q13 55 48 87t91 32q55 0 88 -32t46 -87l-27 -36h-15q-10 41 -34.5 62t-60.5 21t-60.5 -21t-34.5 -62h-15z" />
    <glyph glyph-name="uni0217" unicode="&#x217;" horiz-adv-x="515" 
d="M496 71l-9 -56q-33 -19 -65 -22q-30 5 -47.5 21.5t-26.5 49.5h-7q-59 -53 -120 -70q-75 0 -115 35t-39 100l2 125l-4 200l101 9l-5 -306q-1 -37 16.5 -58t52.5 -21q53 0 109 50v326l97 9l-7 -356q0 -18 6 -25.5t21 -7.5q12 0 31 4zM119 578q13 55 48 87t91 32
q55 0 88 -32t46 -87l-27 -36h-15q-10 41 -34.5 62t-60.5 21t-60.5 -21t-34.5 -62h-15z" />
    <glyph glyph-name="Scommaaccent" unicode="&#x218;" horiz-adv-x="483" 
d="M426 617l-17 -94l-16 -6q-32 23 -66 36t-65 13q-49 0 -78 -27t-29 -63q0 -35 29 -57.5t91 -51.5q54 -26 87.5 -47t57.5 -55.5t24 -82.5q0 -52 -28.5 -95.5t-80 -69t-117.5 -25.5q-44 0 -91 11t-89 32l13 102l13 6q37 -35 81.5 -52.5t82.5 -17.5q52 0 83 27.5t31 65.5
t-30 61.5t-92 52.5q-53 25 -86 45.5t-56.5 54.5t-23.5 82q0 52 28 95t78 67.5t114 24.5q76 0 152 -32zM298 -118q0 -67 -97 -137l-30 28l-1 7q50 40 50 84q0 28 -28 49v8q34 22 67 30q39 -28 39 -69z" />
    <glyph glyph-name="scommaaccent" unicode="&#x219;" horiz-adv-x="376" 
d="M327 446l-14 -80l-13 -3q-52 35 -102 35q-30 0 -47.5 -16t-17.5 -39q0 -25 20.5 -40t63.5 -33q39 -17 63.5 -32t42 -40t17.5 -62q0 -38 -20 -71.5t-59 -53.5t-94 -20q-69 0 -140 31l12 85l11 7q29 -25 64 -39.5t64 -14.5q32 0 51.5 17.5t19.5 41.5q0 25 -20 39.5
t-63 34.5q-39 17 -64 32t-42.5 41t-17.5 64q0 61 45 100t123 39q60 0 117 -23zM243 -118q0 -67 -97 -137l-30 28l-1 7q50 40 50 84q0 28 -28 49v8q34 22 67 30q39 -28 39 -69z" />
    <glyph glyph-name="uni021A" unicode="&#x21a;" horiz-adv-x="495" 
d="M477 633l-6 -78l-116 6h-54l-5 -359l5 -202h-104l6 193l-5 368h-54l-118 -6l-7 9l8 78h444zM308 -118q0 -67 -97 -137l-30 28l-1 7q50 40 50 84q0 28 -28 49v8q34 22 67 30q39 -28 39 -69z" />
    <glyph glyph-name="uni021B" unicode="&#x21b;" horiz-adv-x="327" 
d="M304 95l10 -7l-10 -64q-55 -26 -102 -30q-62 10 -90 41.5t-28 91.5l4 72l-1 195h-63l-4 6l5 59h61v73l90 34l9 -8l-2 -99h128l4 -7l-5 -58h-129l-5 -251q-1 -37 12.5 -51.5t45.5 -14.5q33 0 70 18zM267 -118q0 -67 -97 -137l-30 28l-1 7q50 40 50 84q0 28 -28 49v8
q34 22 67 30q39 -28 39 -69z" />
    <glyph glyph-name="uni022A" unicode="&#x22a;" horiz-adv-x="639" 
d="M533 568q72 -82 72 -234q0 -164 -77 -253.5t-219 -89.5q-132 0 -203.5 84.5t-71.5 239.5q0 161 76.5 248t217.5 87q133 0 205 -82zM184.5 507.5q-44.5 -58.5 -44.5 -180.5q0 -133 43.5 -194.5t134.5 -61.5q92 0 136 59t44 184q0 131 -43.5 191.5t-134.5 60.5
t-135.5 -58.5zM451 944l-6 -59h-247l-7 8l5 59h248zM274.5 810q12.5 -13 12.5 -36t-14 -37.5t-37 -14.5t-36 13t-13 36t14.5 37.5t37.5 14.5t35.5 -13zM438.5 810q12.5 -13 12.5 -36t-14 -37.5t-37 -14.5t-36 13t-13 36t14.5 37.5t37.5 14.5t35.5 -13z" />
    <glyph glyph-name="uni022B" unicode="&#x22b;" horiz-adv-x="492" 
d="M401.5 409.5q52.5 -60.5 52.5 -171.5q0 -119 -56 -183t-159 -64q-97 0 -149.5 60.5t-52.5 171.5q0 119 56 183t159 64q97 0 149.5 -60.5zM132 245q0 -94 28 -139t86 -45q57 0 85 38t28 116q0 94 -28 139t-85 45q-114 0 -114 -154zM378 763l-6 -59h-247l-7 8l5 59h248z
M201.5 629q12.5 -13 12.5 -36t-14 -37.5t-37 -14.5t-36 13t-13 36t14.5 37.5t37.5 14.5t35.5 -13zM365.5 629q12.5 -13 12.5 -36t-14 -37.5t-37 -14.5t-36 13t-13 36t14.5 37.5t37.5 14.5t35.5 -13z" />
    <glyph glyph-name="uni022C" unicode="&#x22c;" horiz-adv-x="639" 
d="M533 568q72 -82 72 -234q0 -164 -77 -253.5t-219 -89.5q-132 0 -203.5 84.5t-71.5 239.5q0 161 76.5 248t217.5 87q133 0 205 -82zM184.5 507.5q-44.5 -58.5 -44.5 -180.5q0 -133 43.5 -194.5t134.5 -61.5q92 0 136 59t44 184q0 131 -43.5 191.5t-134.5 60.5
t-135.5 -58.5zM465 813v-9l-58 -77l-10 -3q-29 5 -72 20q-47 15 -59 15q-9 0 -18 -8.5t-19 -20.5l-15 -18h-9l-31 31v9l59 76l10 4q20 -3 73 -20q47 -15 58 -15q10 0 18.5 8.5t18.5 21t15 18.5h9zM436 960l-5 -59h-220l-7 8l4 58h221z" />
    <glyph glyph-name="uni022D" unicode="&#x22d;" horiz-adv-x="492" 
d="M401.5 409.5q52.5 -60.5 52.5 -171.5q0 -119 -56 -183t-159 -64q-97 0 -149.5 60.5t-52.5 171.5q0 119 56 183t159 64q97 0 149.5 -60.5zM132 245q0 -94 28 -139t86 -45q57 0 85 38t28 116q0 94 -28 139t-85 45q-114 0 -114 -154zM392 632v-9l-58 -77l-10 -3
q-29 5 -72 20q-47 15 -59 15q-9 0 -18 -8.5t-19 -20.5l-15 -18h-9l-31 31v9l59 76l10 4q20 -3 73 -20q47 -15 58 -15q10 0 18.5 8.5t18.5 21t15 18.5h9zM363 779l-5 -59h-220l-7 8l4 58h221z" />
    <glyph glyph-name="uni0230" unicode="&#x230;" horiz-adv-x="639" 
d="M533 568q72 -82 72 -234q0 -164 -77 -253.5t-219 -89.5q-132 0 -203.5 84.5t-71.5 239.5q0 161 76.5 248t217.5 87q133 0 205 -82zM184.5 507.5q-44.5 -58.5 -44.5 -180.5q0 -133 43.5 -194.5t134.5 -61.5q92 0 136 59t44 184q0 131 -43.5 191.5t-134.5 60.5
t-135.5 -58.5zM361 819.5q14 -14.5 14 -40.5q0 -27 -15 -43t-41 -16t-40.5 15t-14.5 41t15.5 42t42.5 16q25 0 39 -14.5zM436 935l-5 -59h-220l-7 8l4 58h221z" />
    <glyph glyph-name="uni0231" unicode="&#x231;" horiz-adv-x="492" 
d="M401.5 409.5q52.5 -60.5 52.5 -171.5q0 -119 -56 -183t-159 -64q-97 0 -149.5 60.5t-52.5 171.5q0 119 56 183t159 64q97 0 149.5 -60.5zM132 245q0 -94 28 -139t86 -45q57 0 85 38t28 116q0 94 -28 139t-85 45q-114 0 -114 -154zM288 638.5q14 -14.5 14 -40.5
q0 -27 -15 -43t-41 -16t-40.5 15t-14.5 41t15.5 42t42.5 16q25 0 39 -14.5zM363 754l-5 -59h-220l-7 8l4 58h221z" />
    <glyph glyph-name="uni0232" unicode="&#x232;" horiz-adv-x="541" 
d="M309 184l4 -184h-103l5 184l-1 39l-203 419h110l13 -40l127 -269h8l141 267l16 42h107l-223 -414zM413 819l-5 -59h-282l-7 8l4 58h282z" />
    <glyph glyph-name="uni0233" unicode="&#x233;" horiz-adv-x="435" 
d="M116 399l100 -293h7l100 284l17 71h88l-159 -438q-24 -68 -53 -108.5t-71.5 -64.5t-110.5 -41h-9q-24 24 -42 60l3 11q71 13 112 38t75 82l-168 459l96 5zM369 638l-5 -59h-282l-7 8l4 58h282z" />
    <glyph glyph-name="uni0237" unicode="&#x237;" horiz-adv-x="275" 
d="M199 461l-8 -259l6 -180q0 -78 -34.5 -127.5t-115.5 -88.5l-37 45v11q50 29 70.5 63.5t20.5 92.5l1 175l-4 201h-88l-7 7l6 58h91l95 4z" />
    <glyph glyph-name="uni0259" unicode="&#x259;" horiz-adv-x="465" 
d="M369.5 406.5q58.5 -63.5 58.5 -173.5q0 -111 -58 -176t-157 -65q-84 0 -129.5 46t-45.5 130q0 23 5 55l11 12l281 1q-1 76 -37 115.5t-102 39.5q-69 0 -135 -41l-10 6l15 82q73 32 142 32q103 0 161.5 -63.5zM290 90.5q30 29.5 40 83.5l-198 -4l-2 -14q0 -47 21.5 -71
t62.5 -24q46 0 76 29.5z" />
    <glyph glyph-name="uni02B0" unicode="&#x2b0;" horiz-adv-x="350" 
d="M287 623.5q25 -22.5 24 -65.5l-2 -88l2 -135h-85l5 189q0 26 -12 40t-34 14q-27 0 -56 -24l-1 -84l3 -135h-86l4 127l-3 334l85 5l-2 -204h3q45 47 84 49q46 0 71 -22.5z" />
    <glyph glyph-name="uni02B2" unicode="&#x2b2;" horiz-adv-x="197" 
d="M114.5 783q11.5 -12 11.5 -33q0 -22 -12 -34.5t-33 -12.5q-20 0 -32 12t-12 33t12.5 34t33.5 13q20 0 31.5 -12zM130 644l-5 -174l4 -118q0 -52 -21.5 -86t-69.5 -61l-29 39v7q21 17 30 39.5t9 58.5v113l-1 115l-38 -2l-4 7l4 59h39l79 5z" />
    <glyph glyph-name="uni02B7" unicode="&#x2b7;" horiz-adv-x="463" 
d="M98 598l39 -175h5l46 170l10 51h86l6 -46l40 -173h5l45 168l12 51h72l-95 -309h-82l-48 200h-7l-55 -200h-85l-80 307l78 4z" />
    <glyph glyph-name="uni02B8" unicode="&#x2b8;" horiz-adv-x="282" 
d="M82 598l56 -176h5l55 168l12 54h73l-99 -289q-23 -65 -56 -95.5t-102 -52.5h-7q-22 20 -37 51l2 9q41 8 67.5 22.5t50.5 45.5l-112 307l82 4z" />
    <glyph glyph-name="uni02B9" unicode="&#x2b9;" horiz-adv-x="182" 
d="M141 632l-28 -198l-50 -7l-8 7l1 200l78 6z" />
    <glyph glyph-name="uni02BB" unicode="&#x2bb;" horiz-adv-x="183" 
d="M46.5 450q-13.5 20 -13.5 50q0 68 81 146l37 -25l2 -8q-42 -43 -42 -84q0 -21 9 -36.5t30 -25.5v-9q-24 -21 -62 -41q-28 13 -41.5 33z" />
    <glyph glyph-name="uni02BC" unicode="&#x2bc;" horiz-adv-x="183" 
d="M139.5 612q13.5 -20 13.5 -49q0 -69 -81 -147l-37 25l-1 8q41 44 41 84q0 21 -9 36.5t-30 25.5v9q28 25 62 41q28 -13 41.5 -33z" />
    <glyph glyph-name="uni02BE" unicode="&#x2be;" horiz-adv-x="295" 
d="M96 498q26 -2 39.5 9t13.5 33q0 44 -53 44v53q103 0 103 -94q0 -47 -27 -72t-76 -25v52z" />
    <glyph glyph-name="uni02BF" unicode="&#x2bf;" horiz-adv-x="229" 
d="M165 585q-25 1 -39.5 -10t-14.5 -32q0 -45 54 -45v-52q-103 0 -103 93q0 46 27 72t76 26v-52z" />
    <glyph glyph-name="circumflex" unicode="&#x2c6;" horiz-adv-x="389" 
d="M52 564q57 54 130 137h26q72 -83 129 -137l-27 -40h-10q-69 60 -105 100q-35 -37 -105 -100h-11z" />
    <glyph glyph-name="caron" unicode="&#x2c7;" horiz-adv-x="389" 
d="M337 660q-57 -54 -130 -137h-26q-72 83 -129 137l27 40h10q69 -60 105 -100q35 37 105 100h11z" />
    <glyph glyph-name="uni02C8" unicode="&#x2c8;" horiz-adv-x="251" 
d="M77 643h74v-175h-74v175z" />
    <glyph glyph-name="uni02C9" unicode="&#x2c9;" horiz-adv-x="389" 
d="M342 638l-5 -59h-282l-7 8l4 58h282z" />
    <glyph glyph-name="uni02CA" unicode="&#x2ca;" horiz-adv-x="389" 
d="M267 707l38 -54l-2 -10q-79 -58 -181 -124l-10 1l-26 40q105 85 171 148z" />
    <glyph glyph-name="uni02CB" unicode="&#x2cb;" horiz-adv-x="389" 
d="M304 560l-26 -40l-10 -1q-102 66 -181 124l-2 10l38 54l10 1q66 -63 171 -148z" />
    <glyph glyph-name="uni02CC" unicode="&#x2cc;" horiz-adv-x="229" 
d="M77 -54h74v-176h-74v176z" />
    <glyph glyph-name="breve" unicode="&#x2d8;" horiz-adv-x="389" 
d="M331 647q-13 -55 -48 -87t-91 -32q-55 0 -88 32t-46 87l27 36h15q10 -41 34.5 -62t60.5 -21t60.5 21t34.5 62h15z" />
    <glyph glyph-name="dotaccent" unicode="&#x2d9;" horiz-adv-x="249" 
d="M165 661.5q14 -14.5 14 -40.5q0 -27 -15 -43t-41 -16t-40.5 15t-14.5 41t15.5 42t42.5 16q25 0 39 -14.5z" />
    <glyph glyph-name="ring" unicode="&#x2da;" horiz-adv-x="389" 
d="M260 685q23 -23 23 -62q0 -43 -25 -66.5t-66 -23.5q-40 0 -63.5 23t-23.5 64t23.5 64.5t66.5 23.5q42 0 65 -23zM161.5 651.5q-10.5 -10.5 -10.5 -29.5q0 -44 43 -44q20 0 31.5 10.5t11.5 31.5q0 19 -11 30.5t-33 11.5q-21 0 -31.5 -10.5z" />
    <glyph glyph-name="ogonek" unicode="&#x2db;" horiz-adv-x="285" 
d="M73 -176q-25 21 -25 57q0 32 22.5 63.5t89.5 87.5h60q-66 -71 -85 -95.5t-19 -41.5q0 -29 33 -29q32 0 73 35l6 -1l15 -51q-49 -46 -103 -46q-42 0 -67 21z" />
    <glyph glyph-name="tilde" unicode="&#x2dc;" horiz-adv-x="389" 
d="M359 650v-9l-65 -77l-10 -5q-18 3 -81 20q-59 17 -74 17q-10 0 -19 -8t-25 -25l-15 -16h-10l-31 32v9l65 77l11 4q27 -4 82 -19q59 -17 73 -17q10 0 20 8.5t22 21.5t17 19h10z" />
    <glyph glyph-name="hungarumlaut" unicode="&#x2dd;" horiz-adv-x="389" 
d="M158 709l9 1l47 -34v-9q-59 -62 -144 -146l-10 -2l-32 29q60 69 130 161zM305 709l8 1l47 -34l1 -9q-47 -50 -145 -146l-10 -2l-32 29q59 67 131 161z" />
    <glyph glyph-name="uni02E1" unicode="&#x2e1;" horiz-adv-x="172" 
d="M127 470l3 -135h-85l4 127l-3 334l84 5z" />
    <glyph glyph-name="uni02E2" unicode="&#x2e2;" horiz-adv-x="265" 
d="M229 634l-11 -61l-10 -5q-20 12 -39 18.5t-32 6.5q-16 0 -25.5 -9t-9.5 -23q0 -13 11 -20.5t38 -19.5q40 -17 62.5 -36.5t22.5 -57.5q0 -41 -30.5 -70.5t-88.5 -29.5q-48 0 -97 20l10 66l8 5q20 -17 44 -26t43 -9q18 0 28.5 9.5t10.5 22.5t-12.5 22t-38.5 21
q-40 18 -62 37t-22 55q0 44 32 71.5t86 27.5q42 0 82 -15z" />
    <glyph glyph-name="uni02E3" unicode="&#x2e3;" horiz-adv-x="304" 
d="M116 610l42 -70l42 71l16 32h75l-88 -152l91 -153l-91 -7l-15 39l-43 72l-46 -77l-14 -30h-77l89 156l-86 150l92 5z" />
    <glyph glyph-name="gravecomb" unicode="&#x300;" 
d="M-85 560l-26 -40l-10 -1q-102 66 -181 124l-2 10l38 54l10 1q66 -63 171 -148z" />
    <glyph glyph-name="acutecomb" unicode="&#x301;" 
d="M-122 707l38 -54l-2 -10q-79 -58 -181 -124l-10 1l-26 40q105 85 171 148z" />
    <glyph glyph-name="uni0302" unicode="&#x302;" 
d="M-337 564q57 54 130 137h26q72 -83 129 -137l-27 -40h-10q-69 60 -105 100q-35 -37 -105 -100h-11z" />
    <glyph glyph-name="tildecomb" unicode="&#x303;" 
d="M-31 650v-10l-65 -77l-10 -4q-16 2 -83 20q-57 17 -72 17q-10 0 -19 -8t-25 -25l-15 -16h-10l-30 32v9l66 77l10 4q18 -3 81 -20q59 -17 74 -17q9 0 18.5 8t21.5 21t19 20h9z" />
    <glyph glyph-name="uni0304" unicode="&#x304;" 
d="M-47 638l-5 -59h-282l-7 8l4 58h282z" />
    <glyph glyph-name="uni0306" unicode="&#x306;" 
d="M-58 647q-13 -55 -48 -87t-91 -32q-55 0 -88 32t-46 87l27 36h15q10 -41 34.5 -62t60.5 -21t60.5 21t34.5 62h15z" />
    <glyph glyph-name="uni0307" unicode="&#x307;" 
d="M-84 661.5q14 -14.5 14 -40.5q0 -27 -15 -43t-41 -16t-40.5 15t-14.5 41t15.5 42t42.5 16q25 0 39 -14.5z" />
    <glyph glyph-name="uni0308" unicode="&#x308;" 
d="M-237.5 650.5q13.5 -13.5 13.5 -36.5q0 -25 -14.5 -40t-38.5 -15q-25 0 -38 13.5t-13 37.5q0 25 14.5 39.5t39.5 14.5q23 0 36.5 -13.5zM-73 650.5q13 -13.5 13 -36.5q0 -25 -14.5 -40t-38.5 -15t-37.5 13.5t-13.5 37.5q0 25 14.5 39.5t39.5 14.5q24 0 37 -13.5z" />
    <glyph glyph-name="hookabovecomb" unicode="&#x309;" 
d="M-168 569q25 18 39.5 36.5t14.5 32.5q0 11 -8 16.5t-21 5.5q-14 0 -31 -6.5t-32 -18.5l-19 31q22 23 47.5 35t50.5 12q32 0 52.5 -18t20.5 -46q0 -19 -12 -37t-42 -43l21 -37l-42 -23z" />
    <glyph glyph-name="uni030A" unicode="&#x30a;" 
d="M-129 685q23 -23 23 -62q0 -43 -25 -66.5t-66 -23.5q-40 0 -63.5 23t-23.5 64t23.5 64.5t66.5 23.5q42 0 65 -23zM-227.5 651.5q-10.5 -10.5 -10.5 -29.5q0 -44 43 -44q20 0 31.5 10.5t11.5 31.5q0 19 -11 30.5t-33 11.5q-21 0 -31.5 -10.5z" />
    <glyph glyph-name="uni030B" unicode="&#x30b;" 
d="M-231 709l9 1l47 -34v-9q-59 -62 -144 -146l-10 -2l-32 29q60 69 130 161zM-84 709l8 1l47 -34l1 -9q-47 -50 -145 -146l-10 -2l-32 29q59 67 131 161z" />
    <glyph glyph-name="uni030C" unicode="&#x30c;" 
d="M-52 660q-57 -54 -130 -137h-26q-72 83 -129 137l27 40h10q69 -60 105 -100q35 37 105 100h11z" />
    <glyph glyph-name="uni030F" unicode="&#x30f;" 
d="M-304 709l-9 1l-46 -34l-2 -9q47 -50 145 -146l9 -2l33 29q-60 69 -130 161zM-158 709l-9 1l-47 -34v-9q59 -62 144 -146l10 -2l32 29q-52 58 -130 161z" />
    <glyph glyph-name="uni0311" unicode="&#x311;" 
d="M-331 578q13 55 48 87t91 32q55 0 88 -32t46 -87l-27 -36h-15q-10 41 -34.5 62t-60.5 21t-60.5 -21t-34.5 -62h-15z" />
    <glyph glyph-name="uni0312" unicode="&#x312;" 
d="M-136.5 450q-13.5 20 -13.5 49q0 69 81 147l37 -25l1 -8q-41 -44 -41 -84q0 -21 9 -36.5t30 -25.5v-9q-28 -25 -62 -41q-28 13 -41.5 33z" />
    <glyph glyph-name="uni031B" unicode="&#x31b;" 
d="M-206 461q29 0 48.5 15t19.5 42q0 17 -8.5 35t-24.5 32l3 9q30 20 50 20q23 0 41 -26t18 -64q0 -53 -40.5 -84.5t-106.5 -32.5v54z" />
    <glyph glyph-name="dotbelowcomb" unicode="&#x323;" 
d="M-76 -76.5q14 -14.5 14 -40.5q0 -27 -15 -43t-41 -16t-40.5 15t-14.5 41t15.5 42t42.5 16q25 0 39 -14.5z" />
    <glyph glyph-name="uni0324" unicode="&#x324;" 
d="M-237.5 -102.5q13.5 -13.5 13.5 -36.5q0 -25 -14.5 -40t-38.5 -15q-25 0 -38 13.5t-13 37.5q0 25 14.5 39.5t39.5 14.5q23 0 36.5 -13.5zM-73 -102.5q13 -13.5 13 -36.5q0 -25 -14.5 -40t-38.5 -15t-37.5 13.5t-13.5 37.5q0 25 14.5 39.5t39.5 14.5q24 0 37 -13.5z" />
    <glyph glyph-name="uni0326" unicode="&#x326;" 
d="M-52 -118q0 -67 -97 -137l-30 28l-1 7q50 40 50 84q0 28 -28 49v8q34 22 67 30q39 -28 39 -69z" />
    <glyph glyph-name="uni0327" unicode="&#x327;" 
d="M-185 -50l34 -20q22 -12 31 -25.5t9 -31.5q0 -31 -24 -50.5t-63 -19.5q-43 0 -77 30l9 47l5 2q15 -15 28 -23t29 -8q13 0 21 6.5t8 18.5q0 13 -19 22l-49 29l24 95h54z" />
    <glyph glyph-name="uni0328" unicode="&#x328;" 
d="M-212 -176q-25 21 -25 57q0 32 22.5 63.5t89.5 87.5h60q-66 -71 -85 -95.5t-19 -41.5q0 -29 33 -29q32 0 73 35l6 -1l15 -51q-49 -46 -103 -46q-42 0 -67 21z" />
    <glyph glyph-name="uni032E" unicode="&#x32e;" 
d="M-50 -92q-13 -55 -48 -87t-91 -32q-55 0 -88 32t-46 87l27 36h15q10 -41 34.5 -62t60.5 -21t60.5 21t34.5 62h15z" />
    <glyph glyph-name="uni0331" unicode="&#x331;" 
d="M-47 -106l-5 -58h-240l-7 7l4 58h241z" />
    <glyph glyph-name="uni0335" unicode="&#x335;" 
d="M-60 283l-3 -60h-365l-6 7l4 59h364z" />
    <glyph glyph-name="uni0342" unicode="&#x342;" 
d="M-30 650v-9l-57 -77l-9 -5q-15 2 -40 10t-34 11q-48 16 -57 16t-17.5 -7.5t-21.5 -24.5l-14 -17h-8l-31 32v9l58 76l10 5q12 -2 34 -9t33 -10q5 -2 29.5 -10t34.5 -8t19.5 9.5t19.5 22.5t13 17h9z" />
    <glyph glyph-name="uni0343" unicode="&#x343;" 
d="M-56 698q12 -18 12 -44q0 -60 -71 -130l-35 21l-1 7q36 42 36 80q0 35 -34 53v6q29 24 56 36q25 -11 37 -29z" />
    <glyph glyph-name="uni0344" unicode="&#x344;" 
d="M-238 557q23 63 51 156l9 6l58 -23l4 -11l-74 -139l-10 -4zM-334.5 565.5q-11.5 11.5 -11.5 32.5t12.5 34t34.5 13q20 0 32 -11.5t12 -32.5q0 -22 -12.5 -34.5t-34.5 -12.5q-21 0 -32.5 11.5zM-112 565.5q-11 11.5 -11 32.5t12.5 34t33.5 13q20 0 31.5 -11.5t11.5 -32.5
q0 -22 -12 -34.5t-33 -12.5q-22 0 -33 11.5z" />
    <glyph glyph-name="uni0345" unicode="&#x345;" 
d="M-147 -218l11 179l51 4l8 -7l13 -177l-76 -5z" />
    <glyph glyph-name="uni0374" unicode="&#x374;" horiz-adv-x="182" 
d="M141 632l-28 -198l-50 -7l-8 7l1 200l78 6z" />
    <glyph glyph-name="uni0375" unicode="&#x375;" horiz-adv-x="182" 
d="M41 -144l29 198l49 7l9 -7l-2 -201l-78 -5z" />
    <glyph glyph-name="uni037A" unicode="&#x37a;" horiz-adv-x="212" 
d="M65 -218l11 179l51 4l8 -7l13 -177l-76 -5z" />
    <glyph glyph-name="uni037E" unicode="&#x37e;" horiz-adv-x="229" 
d="M173 31q0 -74 -106 -150l-33 30l-1 8q55 45 55 92q0 31 -31 53v9q37 24 73 33q43 -31 43 -75zM151 360.5q14 -14.5 14 -40.5q0 -27 -15 -43t-41 -16t-40.5 15t-14.5 41t15.5 42t42.5 16q25 0 39 -14.5z" />
    <glyph glyph-name="tonos" unicode="&#x384;" horiz-adv-x="222" 
d="M113 722l63 -25l4 -10l-76 -159l-9 -5l-52 21q32 81 60 173z" />
    <glyph glyph-name="dieresistonos" unicode="&#x385;" horiz-adv-x="375" 
d="M137 557q23 63 51 156l9 6l58 -23l4 -11l-74 -139l-10 -4zM40.5 565.5q-11.5 11.5 -11.5 32.5t12.5 34t34.5 13q20 0 32 -11.5t12 -32.5q0 -22 -12.5 -34.5t-34.5 -12.5q-21 0 -32.5 11.5zM263 565.5q-11 11.5 -11 32.5t12.5 34t33.5 13q20 0 31.5 -11.5t11.5 -32.5
q0 -22 -12 -34.5t-33 -12.5q-22 0 -33 11.5z" />
    <glyph glyph-name="Alphatonos" unicode="&#x386;" horiz-adv-x="639" 
d="M620 0h-106l-15 72l-28 89l-136 3l-123 -3l-30 -84l-16 -77h-103l229 642h121zM445 245l-92 296h-7l-105 -296l101 -2zM111 670l63 -25l4 -10l-76 -159l-9 -5l-52 21q32 81 60 173z" />
    <glyph glyph-name="anoteleia" unicode="&#x387;" horiz-adv-x="229" 
d="M155 351.5q14 -14.5 14 -40.5q0 -27 -15 -43t-41 -16t-40.5 15t-14.5 41t15.5 42t42.5 16q25 0 39 -14.5z" />
    <glyph glyph-name="Epsilontonos" unicode="&#x388;" horiz-adv-x="626" 
d="M599 88l6 -9l-7 -79h-379l7 193l-7 449h381l6 -9l-8 -79l-152 4l-122 -1l-3 -187l116 -2l106 3l7 -8l-8 -79l-113 3l-109 -2l-1 -83l3 -118l122 -1zM87 670l63 -25l4 -10l-76 -159l-9 -5l-52 21q32 81 60 173z" />
    <glyph glyph-name="Etatonos" unicode="&#x389;" horiz-adv-x="822" 
d="M731 202l3 -202h-103l5 193l-1 87l-164 1l-150 -1l-1 -78l4 -202h-102l4 193l-4 449h103l-3 -276l157 -2l155 2l-3 276h105zM87 670l63 -25l4 -10l-76 -159l-9 -5l-52 21q32 81 60 173z" />
    <glyph glyph-name="Iotatonos" unicode="&#x38a;" horiz-adv-x="412" 
d="M319 202l5 -202h-105l7 193l-7 449h106zM87 670l63 -25l4 -10l-76 -159l-9 -5l-52 21q32 81 60 173z" />
    <glyph glyph-name="Omicrontonos" unicode="&#x38c;" horiz-adv-x="736" 
d="M630 568q72 -82 72 -234q0 -164 -77 -253.5t-219 -89.5q-132 0 -203.5 84.5t-71.5 239.5q0 161 76.5 248t217.5 87q133 0 205 -82zM281.5 507.5q-44.5 -58.5 -44.5 -180.5q0 -133 43.5 -194.5t134.5 -61.5q92 0 136 59t44 184q0 131 -43.5 191.5t-134.5 60.5
t-135.5 -58.5zM65 670l63 -25l4 -10l-76 -159l-9 -5l-52 21q32 81 60 173z" />
    <glyph glyph-name="Upsilontonos" unicode="&#x38e;" horiz-adv-x="707" 
d="M475 184l4 -184h-103l5 184l-1 39l-203 419h110l13 -40l127 -269h8l141 267l16 42h107l-223 -414zM64 670l63 -25l4 -10l-76 -159l-9 -5l-52 21q32 81 60 173z" />
    <glyph glyph-name="Omegatonos" unicode="&#x38f;" horiz-adv-x="791" 
d="M148 4l11 79l73 -5h77v6q-78 46 -115 111.5t-37 158.5q0 91 34.5 158t99 102.5t152.5 35.5q85 0 148 -34.5t96.5 -99.5t33.5 -153q0 -92 -37.5 -160.5t-115.5 -118.5v-6h79l76 6l5 -8l-10 -77l-72 1h-117l-41 -2l-5 4l2 97q69 45 99.5 103t30.5 143q0 109 -45.5 165
t-133.5 56q-86 0 -130.5 -55.5t-44.5 -162.5q0 -85 30.5 -143t101.5 -106l1 -97l-6 -4l-39 2h-118l-76 -3zM82 670l63 -25l4 -10l-76 -159l-9 -5l-52 21q32 81 60 173z" />
    <glyph glyph-name="iotadieresistonos" unicode="&#x390;" horiz-adv-x="257" 
d="M93 21q-24 26 -24 73l3 141l-4 219l100 9l-5 -355q1 -20 6.5 -27t20.5 -7q11 0 30 4l9 -7l-9 -56q-33 -17 -62 -20q-41 0 -65 26zM81 557q23 63 51 156l9 6l58 -23l4 -11l-74 -139l-10 -4zM-15.5 565.5q-11.5 11.5 -11.5 32.5t12.5 34t34.5 13q20 0 32 -11.5t12 -32.5
q0 -22 -12.5 -34.5t-34.5 -12.5q-21 0 -32.5 11.5zM207 565.5q-11 11.5 -11 32.5t12.5 34t33.5 13q20 0 31.5 -11.5t11.5 -32.5q0 -22 -12 -34.5t-33 -12.5q-22 0 -33 11.5z" />
    <glyph glyph-name="Alpha" unicode="&#x391;" horiz-adv-x="587" 
d="M568 0h-106l-15 72l-28 89l-136 3l-123 -3l-30 -84l-16 -77h-103l229 642h121zM393 245l-92 296h-7l-105 -296l101 -2z" />
    <glyph glyph-name="Beta" unicode="&#x392;" horiz-adv-x="554" 
d="M485.5 281.5q32.5 -38.5 32.5 -101.5q0 -184 -275 -184q-95 0 -156 4h-1l7 193l-7 449l200 1q93 0 144.5 -40.5t51.5 -117.5q0 -54 -25 -92.5t-71 -58.5q67 -14 99.5 -52.5zM349 542q-27 21 -91 21h-68l-3 -197l103 -3q44 11 65 37.5t21 72.5q0 48 -27 69zM374 104
q40 28 40 82q0 86 -111 101l-117 -1l-1 -84l3 -123q39 -3 72 -3q74 0 114 28z" />
    <glyph glyph-name="Gamma" unicode="&#x393;" horiz-adv-x="445" 
d="M434 633l-8 -76l-137 3h-97l-4 -358l4 -202h-103l4 193l-4 449h338z" />
    <glyph glyph-name="uni0394" unicode="&#x394;" horiz-adv-x="585" 
d="M28 68l212 574h121l194 -574v-68h-527v68zM453 81l-151 460h-8l-169 -460h328z" />
    <glyph glyph-name="Epsilon" unicode="&#x395;" horiz-adv-x="493" 
d="M466 88l6 -9l-7 -79h-379l7 193l-7 449h381l6 -9l-8 -79l-152 4l-122 -1l-3 -187l116 -2l106 3l7 -8l-8 -79l-113 3l-109 -2l-1 -83l3 -118l122 -1z" />
    <glyph glyph-name="Zeta" unicode="&#x396;" horiz-adv-x="536" 
d="M496 567l-342 -486h244l101 8l5 -6l-9 -85l-129 2h-270l-65 -3v75l344 488h-227l-103 -8l-6 6l8 85l395 -1l54 1v-76z" />
    <glyph glyph-name="Eta" unicode="&#x397;" horiz-adv-x="689" 
d="M598 202l3 -202h-103l5 193l-1 87l-164 1l-150 -1l-1 -78l4 -202h-102l4 193l-4 449h103l-3 -276l157 -2l155 2l-3 276h105z" />
    <glyph glyph-name="Theta" unicode="&#x398;" horiz-adv-x="652" 
d="M544 567q74 -83 74 -233q0 -163 -79 -253t-222 -90q-135 0 -209 85t-74 239q0 159 79 247t223 88q134 0 208 -83zM185 507q-47 -59 -47 -180q0 -132 45.5 -194t141.5 -62q190 0 190 243q0 129 -46 190.5t-142 61.5q-95 0 -142 -59zM206 286l4 66l228 8l8 -7l-4 -67
l-229 -8z" />
    <glyph glyph-name="Iota" unicode="&#x399;" horiz-adv-x="279" 
d="M186 202l5 -202h-105l7 193l-7 449h106z" />
    <glyph glyph-name="Kappa" unicode="&#x39a;" horiz-adv-x="563" 
d="M186 202l4 -202h-103l5 193l-5 449h104zM301 340q116 -156 265 -318l-1 -12q-44 -12 -99 -19l-13 6q-152 186 -258 338v7l200 242l40 58h113z" />
    <glyph glyph-name="Lambda" unicode="&#x39b;" horiz-adv-x="580" 
d="M561 0h-108l-15 73l-140 467h-8l-157 -461l-16 -79h-106l223 642h125z" />
    <glyph glyph-name="Mu" unicode="&#x39c;" horiz-adv-x="792" 
d="M737 0h-92l-13 195l-30 290h-7l-165 -414h-82l-153 414h-9l-30 -281l-16 -204h-87l67 642h118l30 -96l123 -341h8l130 344l30 93h117z" />
    <glyph glyph-name="Nu" unicode="&#x39d;" horiz-adv-x="688" 
d="M596 192l3 -192h-111l-302 481h-7l-1 -266l3 -215h-94l5 190l-4 452h109l303 -481h8l-2 476l96 7z" />
    <glyph glyph-name="Xi" unicode="&#x39e;" horiz-adv-x="572" 
d="M60 557l9 85h438l7 -9l-9 -86l-218 4l-219 -4zM104 289l9 86l175 -3l168 3l7 -9l-8 -86l-173 2l-170 -2zM58 85l7 10l216 -4l226 4l8 -10l-9 -85h-440z" />
    <glyph glyph-name="Omicron" unicode="&#x39f;" horiz-adv-x="639" 
d="M533 568q72 -82 72 -234q0 -164 -77 -253.5t-219 -89.5q-132 0 -203.5 84.5t-71.5 239.5q0 161 76.5 248t217.5 87q133 0 205 -82zM184.5 507.5q-44.5 -58.5 -44.5 -180.5q0 -133 43.5 -194.5t134.5 -61.5q92 0 136 59t44 184q0 131 -43.5 191.5t-134.5 60.5
t-135.5 -58.5z" />
    <glyph glyph-name="Pi" unicode="&#x3a0;" horiz-adv-x="645" 
d="M553 202l3 -202h-102l4 193l-3 368h-266l-4 -359l4 -202h-103l5 193l-5 449h472z" />
    <glyph glyph-name="Rho" unicode="&#x3a1;" horiz-adv-x="534" 
d="M453.5 593.5q52.5 -49.5 52.5 -142.5q0 -108 -66.5 -171t-182.5 -63h-71v-15l5 -202h-105l7 193l-7 449l218 1q97 0 149.5 -49.5zM370.5 344.5q28.5 36.5 28.5 97.5q0 60 -30.5 89t-92.5 31l-85 -3l-4 -260l100 -2q55 11 83.5 47.5z" />
    <glyph glyph-name="Sigma" unicode="&#x3a3;" horiz-adv-x="527" 
d="M488 634l-8 -79l-85 4h-217l164 -211v-18l-182 -248h224l97 5l7 -10l-7 -78l-352 1l-86 -1v74l190 258l-182 232v79h335l93 1z" />
    <glyph glyph-name="Tau" unicode="&#x3a4;" horiz-adv-x="495" 
d="M477 633l-6 -78l-116 6h-54l-5 -359l5 -202h-104l6 193l-5 368h-54l-118 -6l-7 9l8 78h444z" />
    <glyph glyph-name="Upsilon" unicode="&#x3a5;" horiz-adv-x="541" 
d="M309 184l4 -184h-103l5 184l-1 39l-203 419h110l13 -40l127 -269h8l141 267l16 42h107l-223 -414z" />
    <glyph glyph-name="Phi" unicode="&#x3a6;" horiz-adv-x="766" 
d="M429 66l1 -88h-95l2 87q-147 8 -223 73t-76 188q0 128 75 194t223 76l-1 71h96l-1 -70q297 -15 297 -258q0 -253 -298 -273zM578 196.5q50 45.5 50 135.5t-48 134.5t-150 52.5l-3 -316l1 -60q100 8 150 53.5zM185.5 195q49.5 -45 152.5 -53l1 52l-3 325
q-101 -8 -150.5 -54t-49.5 -135q0 -90 49.5 -135z" />
    <glyph glyph-name="Chi" unicode="&#x3a7;" horiz-adv-x="606" 
d="M368 335l215 -335h-125l-29 57l-131 197l-137 -203l-27 -51h-108l212 321l-207 321h124l29 -56l122 -186l124 188l27 54h110z" />
    <glyph glyph-name="Psi" unicode="&#x3a8;" horiz-adv-x="738" 
d="M677 449l-1 -90q1 -107 -65.5 -168t-193.5 -71l2 -120h-99l3 119q-129 9 -195.5 70.5t-66.5 169.5v97l-2 186h100l-2 -269q-2 -78 39.5 -121t128.5 -51l-5 441h100l-5 -441q86 8 127.5 51t40.5 121l-4 269h100z" />
    <glyph glyph-name="uni03A9" unicode="&#x3a9;" horiz-adv-x="703" 
d="M61 4l11 79l73 -5h77v6q-78 46 -115 111.5t-37 158.5q0 91 34.5 158t99 102.5t152.5 35.5q85 0 148 -34.5t96.5 -99.5t33.5 -153q0 -92 -37.5 -160.5t-115.5 -118.5v-6h79l76 6l5 -8l-10 -77l-72 1h-117l-41 -2l-5 4l2 97q69 45 99.5 103t30.5 143q0 109 -45.5 165
t-133.5 56q-86 0 -130.5 -55.5t-44.5 -162.5q0 -85 30.5 -143t101.5 -106l1 -97l-6 -4l-39 2h-118l-76 -3z" />
    <glyph glyph-name="Iotadieresis" unicode="&#x3aa;" horiz-adv-x="279" 
d="M186 202l5 -202h-105l7 193l-7 449h106zM97.5 831.5q13.5 -13.5 13.5 -36.5q0 -25 -14.5 -40t-38.5 -15q-25 0 -38 13.5t-13 37.5q0 25 14.5 39.5t39.5 14.5q23 0 36.5 -13.5zM262 831.5q13 -13.5 13 -36.5q0 -25 -14.5 -40t-38.5 -15t-37.5 13.5t-13.5 37.5
q0 25 14.5 39.5t39.5 14.5q24 0 37 -13.5z" />
    <glyph glyph-name="Upsilondieresis" unicode="&#x3ab;" horiz-adv-x="541" 
d="M309 184l4 -184h-103l5 184l-1 39l-203 419h110l13 -40l127 -269h8l141 267l16 42h107l-223 -414zM228.5 831.5q13.5 -13.5 13.5 -36.5q0 -25 -14.5 -40t-38.5 -15q-25 0 -38 13.5t-13 37.5q0 25 14.5 39.5t39.5 14.5q23 0 36.5 -13.5zM393 831.5q13 -13.5 13 -36.5
q0 -25 -14.5 -40t-38.5 -15t-37.5 13.5t-13.5 37.5q0 25 14.5 39.5t39.5 14.5q24 0 37 -13.5z" />
    <glyph glyph-name="alphatonos" unicode="&#x3ac;" horiz-adv-x="528" 
d="M499 71l-10 -56q-30 -18 -65 -21q-30 4 -49 18.5t-29 42.5h-9q-47 -41 -111 -61q-91 0 -142 61.5t-51 166.5q0 73 25 128.5t72 86.5t111 31q52 -12 98 -52l5 1v40l95 8l-6 -358q0 -19 6.5 -26t24.5 -7q15 0 26 4zM339 120l5 114v108q-53 49 -107 49q-50 0 -79.5 -43
t-29.5 -116q0 -75 27.5 -115.5t74.5 -40.5q48 0 109 44zM294 722l63 -25l4 -10l-76 -159l-9 -5l-52 21q32 81 60 173z" />
    <glyph glyph-name="epsilontonos" unicode="&#x3ad;" horiz-adv-x="444" 
d="M401 98l-8 -73q-37 -16 -81.5 -24.5t-84.5 -8.5q-90 0 -140.5 33.5t-50.5 97.5q0 44 25 74.5t73 44.5q-78 34 -78 104q0 57 49.5 90t132.5 33q42 0 86 -9t76 -25l-16 -77l-8 -4q-33 21 -68.5 32t-68.5 11q-40 0 -65 -16.5t-25 -46.5q0 -45 51 -64l140 1l4 -7l-6 -63h-117
q-44 0 -67.5 -17.5t-23.5 -48.5q0 -34 29.5 -52.5t79.5 -18.5q36 0 75.5 10t77.5 29zM256 722l63 -25l4 -10l-76 -159l-9 -5l-52 21q32 81 60 173z" />
    <glyph glyph-name="etatonos" unicode="&#x3ae;" horiz-adv-x="523" 
d="M361 303q1 38 -17 59.5t-53 21.5q-56 0 -121 -60v-122l5 -202h-101l5 193l-4 261l96 9v-67h7q58 52 123 71q76 0 115.5 -35t38.5 -100l-2 -130l4 -387h-102zM296 722l63 -25l4 -10l-76 -159l-9 -5l-52 21q32 81 60 173z" />
    <glyph glyph-name="iotatonos" unicode="&#x3af;" horiz-adv-x="257" 
d="M93 21q-24 26 -24 73l3 141l-4 219l100 9l-5 -355q1 -20 6.5 -27t20.5 -7q11 0 30 4l9 -7l-9 -56q-33 -17 -62 -20q-41 0 -65 26zM163 722l63 -25l4 -10l-76 -159l-9 -5l-52 21q32 81 60 173z" />
    <glyph glyph-name="upsilondieresistonos" unicode="&#x3b0;" horiz-adv-x="496" 
d="M106.5 40q-48.5 47 -46.5 131l2 68l-2 216l96 8l-5 -280q-1 -54 23.5 -83t72.5 -29t72.5 28.5t23.5 83.5l-1 272l96 8l-5 -292q1 -83 -48.5 -130.5t-139.5 -47.5t-138.5 47zM200 557q23 63 51 156l9 6l58 -23l4 -11l-74 -139l-10 -4zM103.5 565.5q-11.5 11.5 -11.5 32.5
t12.5 34t34.5 13q20 0 32 -11.5t12 -32.5q0 -22 -12.5 -34.5t-34.5 -12.5q-21 0 -32.5 11.5zM326 565.5q-11 11.5 -11 32.5t12.5 34t33.5 13q20 0 31.5 -11.5t11.5 -32.5q0 -22 -12 -34.5t-33 -12.5q-22 0 -33 11.5z" />
    <glyph glyph-name="alpha" unicode="&#x3b1;" horiz-adv-x="528" 
d="M499 71l-10 -56q-30 -18 -65 -21q-30 4 -49 18.5t-29 42.5h-9q-47 -41 -111 -61q-91 0 -142 61.5t-51 166.5q0 73 25 128.5t72 86.5t111 31q52 -12 98 -52l5 1v40l95 8l-6 -358q0 -19 6.5 -26t24.5 -7q15 0 26 4zM339 120l5 114v108q-53 49 -107 49q-50 0 -79.5 -43
t-29.5 -116q0 -75 27.5 -115.5t74.5 -40.5q48 0 109 44z" />
    <glyph glyph-name="beta" unicode="&#x3b2;" horiz-adv-x="519" 
d="M448.5 316.5q35.5 -45.5 35.5 -115.5q0 -62 -28 -109.5t-80 -73t-121 -25.5q-35 0 -78 8l1 -186h-98l4 378v261q0 122 51.5 186t149.5 64q80 0 125.5 -40.5t45.5 -113.5q0 -55 -27.5 -99.5t-80.5 -74.5q65 -14 100.5 -59.5zM355 99.5q36 35.5 36 98.5q0 58 -31 93t-83 35
h-41l-6 8l3 65h43q88 49 88 135q0 45 -23 69.5t-65 24.5q-51 0 -76 -37.5t-25 -113.5l2 -394q42 -19 85 -19q57 0 93 35.5z" />
    <glyph glyph-name="gamma" unicode="&#x3b3;" horiz-adv-x="425" 
d="M404 429q0 -40 -14.5 -89.5t-53.5 -141.5l-83 -198l2 -185h-100l2 186l-144 458l95 5l13 -68l87 -293h6l51 123q29 72 41 119t12 85q0 18 -1 27l5 5l80 -1q2 -22 2 -32z" />
    <glyph glyph-name="delta" unicode="&#x3b4;" horiz-adv-x="467" 
d="M198 524q23 -23 73 -58q52 -36 85.5 -66t58 -77.5t24.5 -112.5t-25.5 -114.5t-72.5 -77t-109 -27.5q-93 0 -147.5 59.5t-54.5 160.5q0 80 37 133.5t117 88.5l1 4q-48 36 -72.5 67.5t-24.5 76.5q0 58 47.5 91.5t130.5 33.5q34 0 70 -5.5t63 -14.5l-17 -82l-14 -3
q-68 35 -119 35q-35 0 -54.5 -15.5t-19.5 -43.5q0 -30 23 -53zM319 98q30 37 30 101q0 68 -29.5 113.5t-82.5 86.5q-61 -31 -87.5 -73.5t-26.5 -109.5q0 -74 30 -114.5t84 -40.5q52 0 82 37z" />
    <glyph glyph-name="epsilon" unicode="&#x3b5;" horiz-adv-x="444" 
d="M401 98l-8 -73q-37 -16 -81.5 -24.5t-84.5 -8.5q-90 0 -140.5 33.5t-50.5 97.5q0 44 25 74.5t73 44.5q-78 34 -78 104q0 57 49.5 90t132.5 33q42 0 86 -9t76 -25l-16 -77l-8 -4q-33 21 -68.5 32t-68.5 11q-40 0 -65 -16.5t-25 -46.5q0 -45 51 -64l140 1l4 -7l-6 -63h-117
q-44 0 -67.5 -17.5t-23.5 -48.5q0 -34 29.5 -52.5t79.5 -18.5q36 0 75.5 10t77.5 29z" />
    <glyph glyph-name="zeta" unicode="&#x3b6;" horiz-adv-x="380" 
d="M167 -112l5 12q73 30 99 47t26 36q0 22 -36 28l-82 16q-78 15 -116.5 57t-38.5 112q0 75 61.5 175t207.5 259h-153l-79 -4l-5 5l8 70l94 -1h192l51 1v-67q-155 -178 -218.5 -272.5t-63.5 -150.5q0 -42 22 -66.5t71 -34.5l81 -17q45 -9 68.5 -33.5t23.5 -60.5
q0 -55 -42 -94.5t-139 -78.5z" />
    <glyph glyph-name="eta" unicode="&#x3b7;" horiz-adv-x="523" 
d="M361 303q1 38 -17 59.5t-53 21.5q-56 0 -121 -60v-122l5 -202h-101l5 193l-4 261l96 9v-67h7q58 52 123 71q76 0 115.5 -35t38.5 -100l-2 -130l4 -387h-102z" />
    <glyph glyph-name="theta" unicode="&#x3b8;" horiz-adv-x="502" 
d="M401.5 618q50.5 -89 50.5 -259q0 -179 -54 -273t-152 -94q-94 0 -144.5 89t-50.5 259q0 179 54 273t153 94q93 0 143.5 -89zM138 377l225 8q-6 249 -111 249q-108 0 -114 -257zM364 315l-225 -8q4 -124 32 -184t81 -60q106 0 112 252z" />
    <glyph glyph-name="iota" unicode="&#x3b9;" horiz-adv-x="257" 
d="M93 21q-24 26 -24 73l3 141l-4 219l100 9l-5 -355q1 -20 6.5 -27t20.5 -7q11 0 30 4l9 -7l-9 -56q-33 -17 -62 -20q-41 0 -65 26z" />
    <glyph glyph-name="kappa" unicode="&#x3ba;" horiz-adv-x="472" 
d="M335.5 164.5q42.5 -49.5 83.5 -95.5l45 -51l-1 -12q-28 -7 -92 -15l-11 4l-39 48q-101 120 -149 192l-1 -33l3 -202h-100l4 193l-2 261l99 9l-3 -209l143 163l28 44h109l-187 -210q28 -37 70.5 -86.5z" />
    <glyph glyph-name="lambda" unicode="&#x3bb;" horiz-adv-x="451" 
d="M451 70l-11 -62q-36 -14 -56 -14q-30 1 -45 16t-26 54l-85 279h-7l-111 -280l-20 -69l-86 10l188 460l-5 16q-16 53 -28.5 80t-30.5 39.5t-48 12.5q-9 0 -39 -4l-4 9l17 84q24 2 33 2q44 0 75 -17.5t54.5 -58t46.5 -113.5l126 -414q5 -15 11.5 -21t19.5 -6q10 0 23 3z
" />
    <glyph glyph-name="uni03BC" unicode="&#x3bc;" horiz-adv-x="536" 
d="M507 71l-10 -56q-31 -19 -64 -22q-30 5 -47.5 21.5t-26.5 49.5h-7q-54 -50 -112 -70q-48 0 -81 19l13 -198h-96l4 378l-4 261l96 9v-306q-1 -37 16.5 -58t52.5 -21q53 0 109 51v325l97 9l-7 -356q0 -19 6 -26t21 -7q12 0 31 4z" />
    <glyph glyph-name="nu" unicode="&#x3bd;" horiz-adv-x="427" 
d="M404 433q0 -39 -14 -89t-53 -150l-76 -194h-109l-138 459l95 5l13 -68l86 -298h7l51 126q29 74 41 121.5t12 84.5q0 18 -1 27l5 5l80 -1q1 -9 1 -28z" />
    <glyph glyph-name="xi" unicode="&#x3be;" horiz-adv-x="412" 
d="M184 595q-33 -24 -33 -64q0 -48 26.5 -77t84.5 -50h100l5 -9l-7 -65h-81q-71 0 -111.5 -30t-40.5 -81q0 -85 105 -112l74 -19q89 -21 89 -98q0 -54 -45.5 -95.5t-141.5 -77.5l-36 62l5 11q72 28 101 47.5t29 39.5q0 12 -8 19t-27 11l-68 16q-89 20 -130 64t-41 117
q0 67 38.5 110t111.5 60q-63 21 -96 60.5t-33 93.5q0 81 60 128t162 47q77 0 137 -27l-14 -89l-14 -4q-58 36 -116 36q-52 0 -85 -24z" />
    <glyph glyph-name="omicron" unicode="&#x3bf;" horiz-adv-x="485" 
d="M398.5 409.5q52.5 -60.5 52.5 -171.5q0 -119 -55.5 -183t-158.5 -64q-98 0 -150 60t-52 171q0 119 55.5 183.5t158.5 64.5q97 0 149.5 -60.5zM128 238q0 -91 28.5 -134t86.5 -43q57 0 85 39.5t28 120.5q0 91 -28 134.5t-86 43.5q-114 0 -114 -161z" />
    <glyph glyph-name="pi" unicode="&#x3c0;" horiz-adv-x="614" 
d="M474 389l-4 -258q0 -54 38 -54q25 0 56 15l9 -8l-11 -62q-33 -20 -66 -27q-118 0 -118 108l4 108l-3 178h-158l1 -389h-98l7 193l-2 196q-54 -4 -104 -35l-10 2l-21 40l1 11q28 28 60 41t76 13h452l4 -7l-7 -65h-106z" />
    <glyph glyph-name="rho" unicode="&#x3c1;" horiz-adv-x="498" 
d="M412.5 410q50.5 -57 50.5 -166q0 -122 -60 -187.5t-172 -65.5q-37 0 -77 8l1 -184h-99l3 407q0 119 54 182t157 63q92 0 142.5 -57zM335 105.5q33 42.5 33 125.5q0 79 -28 119t-82 40q-51 0 -78.5 -36t-27.5 -106l1 -160q49 -25 92 -25q57 0 90 42.5z" />
    <glyph glyph-name="uni03C2" unicode="&#x3c2;" horiz-adv-x="392" 
d="M151 -121l6 11q64 26 91.5 46.5t27.5 41.5q0 10 -9 17.5t-24 12.5l-59 19q-80 25 -117.5 75t-37.5 135q0 70 25.5 123t72 81.5t106.5 28.5q67 0 131 -35l-19 -76l-9 -4q-48 31 -97 31q-53 0 -83 -38.5t-30 -108.5q0 -57 21.5 -87t69.5 -44l57 -17q89 -24 89 -98
q0 -51 -42 -94t-131 -82z" />
    <glyph glyph-name="sigma" unicode="&#x3c3;" horiz-adv-x="520" 
d="M388 387l-2 -6q56 -77 56 -164q0 -105 -57 -165.5t-155 -60.5q-95 0 -145.5 61t-50.5 175q0 234 233 234h232l4 -7l-6 -67h-109zM315 387h-55q-69 0 -100 -35.5t-31 -118.5q0 -172 108 -172q55 0 83.5 40t28.5 116q0 87 -34 170z" />
    <glyph glyph-name="tau" unicode="&#x3c4;" horiz-adv-x="393" 
d="M236 389l-4 -258q0 -54 43 -54q24 0 60 15l8 -8l-10 -62q-39 -20 -75 -27q-118 0 -118 108l4 108l-3 178q-61 -1 -116 -35l-10 2l-21 40l1 11q28 28 60 41t76 13h239l4 -7l-6 -65h-132z" />
    <glyph glyph-name="upsilon" unicode="&#x3c5;" horiz-adv-x="496" 
d="M106.5 40q-48.5 47 -46.5 131l2 68l-2 216l96 8l-5 -280q-1 -54 23.5 -83t72.5 -29t72.5 28.5t23.5 83.5l-1 272l96 8l-5 -292q1 -83 -48.5 -130.5t-139.5 -47.5t-138.5 47z" />
    <glyph glyph-name="phi" unicode="&#x3c6;" horiz-adv-x="651" 
d="M554 65.5q-64 -64.5 -188 -74.5l1 -176h-95l2 175q-243 18 -243 239q0 175 159 240l34 -50v-12q-54 -28 -77 -67.5t-23 -102.5q0 -81 36.5 -123.5t114.5 -52.5l3 257q1 70 42.5 111t113.5 41q87 0 135.5 -58t48.5 -163q0 -119 -64 -183.5zM486.5 112.5
q39.5 44.5 39.5 132.5q0 73 -25.5 113.5t-70.5 40.5q-33 0 -50 -24t-16 -66l2 -249q81 8 120.5 52.5z" />
    <glyph glyph-name="chi" unicode="&#x3c7;" horiz-adv-x="454" 
d="M465 -116l-10 -61q-22 -11 -45 -15q-33 1 -49.5 15t-32.5 50l-100 217l-99 -223l-19 -52h-95l158 329l-98 197q-14 28 -24 37.5t-24 9.5q-5 0 -21 -2l-5 10l12 65q21 3 38 3q37 0 59 -18t42 -62l87 -189l94 214l19 52h94l-152 -320l113 -230q6 -13 13 -18.5t17 -5.5
q4 0 20 4z" />
    <glyph glyph-name="psi" unicode="&#x3c8;" horiz-adv-x="655" 
d="M594 178q1 -84 -56.5 -132.5t-165.5 -50.5l1 -180h-94l2 180q-111 1 -168.5 49t-55.5 134l1 61l-1 215l89 8l-4 -272q-2 -119 140 -122l2 125l-4 350l94 7l-4 -348l1 -134q139 3 139 122l-1 264l89 8z" />
    <glyph glyph-name="omega" unicode="&#x3c9;" horiz-adv-x="665" 
d="M594 375.5q32 -62.5 32 -162.5q0 -111 -42 -167t-120 -56q-100 0 -136 101q-35 -101 -134 -101q-76 0 -116 56.5t-40 166.5q0 98 34.5 160.5t115.5 94.5l42 -52v-15q-56 -28 -76.5 -70t-20.5 -116q0 -79 19.5 -117.5t59.5 -38.5q36 0 55.5 34t19.5 105v101l87 8l4 -4
v-101q0 -72 19 -107.5t54 -35.5q80 0 80 155q0 78 -20.5 120.5t-76.5 67.5l-1 14l44 52q85 -30 117 -92.5z" />
    <glyph glyph-name="iotadieresis" unicode="&#x3ca;" horiz-adv-x="257" 
d="M93 21q-24 26 -24 73l3 141l-4 219l100 9l-5 -355q1 -20 6.5 -27t20.5 -7q11 0 30 4l9 -7l-9 -56q-33 -17 -62 -20q-41 0 -65 26zM86.5 650.5q13.5 -13.5 13.5 -36.5q0 -25 -14.5 -40t-38.5 -15q-25 0 -38 13.5t-13 37.5q0 25 14.5 39.5t39.5 14.5q23 0 36.5 -13.5z
M251 650.5q13 -13.5 13 -36.5q0 -25 -14.5 -40t-38.5 -15t-37.5 13.5t-13.5 37.5q0 25 14.5 39.5t39.5 14.5q24 0 37 -13.5z" />
    <glyph glyph-name="upsilondieresis" unicode="&#x3cb;" horiz-adv-x="496" 
d="M106.5 40q-48.5 47 -46.5 131l2 68l-2 216l96 8l-5 -280q-1 -54 23.5 -83t72.5 -29t72.5 28.5t23.5 83.5l-1 272l96 8l-5 -292q1 -83 -48.5 -130.5t-139.5 -47.5t-138.5 47zM205.5 650.5q13.5 -13.5 13.5 -36.5q0 -25 -14.5 -40t-38.5 -15q-25 0 -38 13.5t-13 37.5
q0 25 14.5 39.5t39.5 14.5q23 0 36.5 -13.5zM370 650.5q13 -13.5 13 -36.5q0 -25 -14.5 -40t-38.5 -15t-37.5 13.5t-13.5 37.5q0 25 14.5 39.5t39.5 14.5q24 0 37 -13.5z" />
    <glyph glyph-name="omicrontonos" unicode="&#x3cc;" horiz-adv-x="485" 
d="M398.5 409.5q52.5 -60.5 52.5 -171.5q0 -119 -55.5 -183t-158.5 -64q-98 0 -150 60t-52 171q0 119 55.5 183.5t158.5 64.5q97 0 149.5 -60.5zM128 238q0 -91 28.5 -134t86.5 -43q57 0 85 39.5t28 120.5q0 91 -28 134.5t-86 43.5q-114 0 -114 -161zM277 722l63 -25l4 -10
l-76 -159l-9 -5l-52 21q32 81 60 173z" />
    <glyph glyph-name="upsilontonos" unicode="&#x3cd;" horiz-adv-x="496" 
d="M106.5 40q-48.5 47 -46.5 131l2 68l-2 216l96 8l-5 -280q-1 -54 23.5 -83t72.5 -29t72.5 28.5t23.5 83.5l-1 272l96 8l-5 -292q1 -83 -48.5 -130.5t-139.5 -47.5t-138.5 47zM282 722l63 -25l4 -10l-76 -159l-9 -5l-52 21q32 81 60 173z" />
    <glyph glyph-name="omegatonos" unicode="&#x3ce;" horiz-adv-x="665" 
d="M594 375.5q32 -62.5 32 -162.5q0 -111 -42 -167t-120 -56q-100 0 -136 101q-35 -101 -134 -101q-76 0 -116 56.5t-40 166.5q0 98 34.5 160.5t115.5 94.5l42 -52v-15q-56 -28 -76.5 -70t-20.5 -116q0 -79 19.5 -117.5t59.5 -38.5q36 0 55.5 34t19.5 105v101l87 8l4 -4
v-101q0 -72 19 -107.5t54 -35.5q80 0 80 155q0 78 -20.5 120.5t-76.5 67.5l-1 14l44 52q85 -30 117 -92.5zM369 708l63 -25l4 -10l-76 -159l-9 -5l-52 21q32 81 60 173z" />
    <glyph glyph-name="uni03CF" unicode="&#x3cf;" horiz-adv-x="598" 
d="M202 642l-5 -440l4 -202h-104l5 193l-5 449h105zM576 22v-11q-39 -119 -93.5 -174t-133.5 -55q-17 0 -37 3q-33 33 -40 80l8 7q30 -5 50 -5q53 0 88 29.5t64 96.5l-23 11q-151 183 -254 331v7l201 242l39 58h114l-248 -302q119 -158 265 -318z" />
    <glyph glyph-name="uni03D1" unicode="&#x3d1;" horiz-adv-x="502" 
d="M401.5 618q50.5 -89 50.5 -259q0 -179 -54 -273t-152 -94q-94 0 -144.5 89t-50.5 259q0 179 54 273t153 94q93 0 143.5 -89zM138 377l225 8q-6 249 -111 249q-108 0 -114 -257zM364 315l-225 -8q4 -124 32 -184t81 -60q106 0 112 252z" />
    <glyph glyph-name="uni03D5" unicode="&#x3d5;" horiz-adv-x="651" 
d="M554 65.5q-64 -64.5 -188 -74.5l1 -176h-95l2 175q-243 18 -243 239q0 175 159 240l34 -50v-12q-54 -28 -77 -67.5t-23 -102.5q0 -81 36.5 -123.5t114.5 -52.5l3 257q1 70 42.5 111t113.5 41q87 0 135.5 -58t48.5 -163q0 -119 -64 -183.5zM486.5 112.5
q39.5 44.5 39.5 132.5q0 73 -25.5 113.5t-70.5 40.5q-33 0 -50 -24t-16 -66l2 -249q81 8 120.5 52.5z" />
    <glyph glyph-name="uni03D6" unicode="&#x3d6;" horiz-adv-x="614" 
d="M474 389l-4 -258q0 -54 38 -54q25 0 56 15l9 -8l-11 -62q-33 -20 -66 -27q-118 0 -118 108l4 108l-3 178h-158l1 -389h-98l7 193l-2 196q-54 -4 -104 -35l-10 2l-21 40l1 11q28 28 60 41t76 13h452l4 -7l-7 -65h-106z" />
    <glyph glyph-name="uni03D7" unicode="&#x3d7;" horiz-adv-x="477" 
d="M428 58l36 -40l-1 -12q-34 -96 -81 -140.5t-115 -44.5q-16 0 -25 1q-34 27 -44 76l7 8q21 -3 40 -3q46 0 76.5 21.5t54.5 71.5l-22 9q-11 14 -22 27.5t-22 26.5q-37 44 -74.5 91t-63.5 85l-1 -33l3 -202h-100l4 193l-2 261l99 9l-3 -209l143 163l28 44h109l-187 -210
q42 -55 163 -193z" />
    <glyph glyph-name="uni03F0" unicode="&#x3f0;" horiz-adv-x="472" 
d="M335.5 164.5q42.5 -49.5 83.5 -95.5l45 -51l-1 -12q-28 -7 -92 -15l-11 4l-39 48q-101 120 -149 192l-1 -33l3 -202h-100l4 193l-2 261l99 9l-3 -209l143 163l28 44h109l-187 -210q28 -37 70.5 -86.5z" />
    <glyph glyph-name="uni0400" unicode="&#x400;" horiz-adv-x="534" 
d="M477 88l6 -9l-7 -79h-379l7 193l-7 449h381l6 -9l-8 -79l-152 4l-122 -1l-3 -187l116 -2l106 3l7 -8l-8 -79l-113 3l-109 -2l-1 -83l3 -118l122 -1zM406 767l-17 -44l-10 -4q-130 50 -204 82l-4 10l26 61l11 2q81 -48 198 -107z" />
    <glyph glyph-name="uni0401" unicode="&#x401;" horiz-adv-x="534" 
d="M477 88l6 -9l-7 -79h-379l7 193l-7 449h381l6 -9l-8 -79l-152 4l-122 -1l-3 -187l116 -2l106 3l7 -8l-8 -79l-113 3l-109 -2l-1 -83l3 -118l122 -1zM246.5 831.5q13.5 -13.5 13.5 -36.5q0 -25 -14.5 -40t-38.5 -15q-25 0 -38 13.5t-13 37.5q0 25 14.5 39.5t39.5 14.5
q23 0 36.5 -13.5zM411 831.5q13 -13.5 13 -36.5q0 -25 -14.5 -40t-38.5 -15t-37.5 13.5t-13.5 37.5q0 25 14.5 39.5t39.5 14.5q24 0 37 -13.5z" />
    <glyph glyph-name="uni0402" unicode="&#x402;" horiz-adv-x="661" 
d="M532 404.5q42 -22.5 60.5 -73t18.5 -140.5q0 -131 -38 -222.5t-121 -161.5l-40 40v11q53 56 79 132.5t26 178.5q0 92 -22 129.5t-75 37.5q-77 0 -148 -72l-1 -62l3 -202h-102l5 193l-4 367h-48l-108 -3l-6 9l6 76h471l6 -9l-7 -76l-120 3h-92l-2 -209h7q61 55 137 76
q73 0 115 -22.5z" />
    <glyph glyph-name="uni0403" unicode="&#x403;" horiz-adv-x="454" 
d="M444 633l-8 -76l-137 3h-97l-4 -358l4 -202h-103l4 193l-4 449h338zM385 872l27 -61l-4 -10q-74 -32 -204 -82l-10 4l-17 44q130 67 197 107z" />
    <glyph glyph-name="uni0404" unicode="&#x404;" horiz-adv-x="582" 
d="M434.5 94q43.5 14 81.5 40l11 -6l-8 -94q-88 -42 -185 -42q-138 0 -211 81t-73 236q0 161 80 250.5t225 89.5q100 0 179 -44l-19 -91l-10 -3q-72 52 -157 52q-82 0 -130 -49t-58 -144l118 -2l169 3l8 -8l-8 -79l-176 3l-112 -2q12 -205 189 -205q43 0 86.5 14z" />
    <glyph glyph-name="uni0405" unicode="&#x405;" horiz-adv-x="498" 
d="M435 617l-17 -94l-16 -6q-32 23 -66 36t-65 13q-49 0 -78 -27t-29 -63q0 -35 29 -57.5t91 -51.5q54 -26 87.5 -47t57.5 -55.5t24 -82.5q0 -52 -28.5 -95.5t-80 -69t-117.5 -25.5q-44 0 -91 11t-89 32l13 102l13 6q37 -35 81.5 -52.5t82.5 -17.5q52 0 83 27.5t31 65.5
t-30 61.5t-92 52.5q-53 25 -86 45.5t-56.5 54.5t-23.5 82q0 52 28 95t78 67.5t114 24.5q76 0 152 -32z" />
    <glyph glyph-name="uni0406" unicode="&#x406;" horiz-adv-x="300" 
d="M197 202l5 -202h-105l7 193l-7 449h106z" />
    <glyph glyph-name="uni0407" unicode="&#x407;" horiz-adv-x="279" 
d="M186 202l5 -202h-105l7 193l-7 449h106zM96.5 831.5q13.5 -13.5 13.5 -36.5q0 -25 -14.5 -40t-38.5 -15q-25 0 -38 13.5t-13 37.5q0 25 14.5 39.5t39.5 14.5q23 0 36.5 -13.5zM261 831.5q13 -13.5 13 -36.5q0 -25 -14.5 -40t-38.5 -15t-37.5 13.5t-13.5 37.5
q0 25 14.5 39.5t39.5 14.5q24 0 37 -13.5z" />
    <glyph glyph-name="uni0408" unicode="&#x408;" horiz-adv-x="344" 
d="M245 212l2 -93q0 -78 -40.5 -128.5t-140.5 -94.5l-36 57v11q67 35 94.5 68.5t27.5 86.5v83l-4 360l-117 -1l-9 8l6 73h223z" />
    <glyph glyph-name="uni0409" unicode="&#x409;" horiz-adv-x="868" 
d="M791 339.5q49 -44.5 49 -128.5q0 -100 -68.5 -155.5t-193.5 -55.5h-168l5 193l-4 370h-151l-5 -51q-18 -195 -41.5 -303.5t-60 -158.5t-94.5 -62l-29 -2l-19 83q49 16 77 60t46 136.5t33 264.5l11 110l-1 2h337l-3 -258h136q95 0 144 -44.5zM702.5 113q30.5 32 30.5 85
q0 54 -30.5 83t-88.5 28l-104 -1l-1 -106l2 -125l102 -4q59 8 89.5 40z" />
    <glyph glyph-name="uni040A" unicode="&#x40a;" horiz-adv-x="965" 
d="M888.5 336q49.5 -43 49.5 -126q0 -100 -69 -155t-194 -55h-167l5 192l-1 104l-314 -1l-1 -93l4 -202h-103l5 193l-5 449h104l-3 -266l156 -2l156 2l-3 266h104l-4 -263h136q95 0 144.5 -43zM830 195q0 53 -30.5 80.5t-88.5 26.5l-104 -1l-1 -100l2 -124l102 -4
q120 17 120 122z" />
    <glyph glyph-name="uni040B" unicode="&#x40b;" horiz-adv-x="667" 
d="M514 0l4 217q0 58 -26 88.5t-75 30.5q-36 0 -73.5 -19t-70.5 -53l-1 -62l3 -202h-102l5 193l-4 367h-48l-108 -3l-6 9l6 76h471l6 -9l-7 -76l-120 3h-92l-2 -209h7q61 55 136 76q99 0 146.5 -46t47.5 -142l5 -239h-102z" />
    <glyph glyph-name="uni040C" unicode="&#x40c;" horiz-adv-x="595" 
d="M197 202l4 -202h-103l5 193l-5 449h104zM312 340q116 -156 265 -318l-1 -12q-44 -12 -99 -19l-13 6q-152 186 -258 338v7l200 242l40 58h113zM404 872l27 -61l-4 -10q-74 -32 -204 -82l-10 4l-17 44q130 67 197 107z" />
    <glyph glyph-name="uni040D" unicode="&#x40d;" horiz-adv-x="710" 
d="M102 193l-5 446l104 5l-6 -484h8l301 482h109l-5 -440l4 -202h-104l5 193v289h-8l-301 -482h-107zM473 767l-17 -44l-10 -4q-130 50 -204 82l-4 10l26 61l11 2q81 -48 198 -107z" />
    <glyph glyph-name="uni040E" unicode="&#x40e;" horiz-adv-x="573" 
d="M559 641l-186 -443q-38 -84 -69.5 -125t-74 -58.5t-116.5 -22.5l-9 1q-11 35 -18 80l5 10q77 9 113 23.5t59 47.5l-244 487l111 1l23 -63l149 -315h11l125 320l19 57h102zM438 784q-20 -43 -64 -67t-103 -24t-101 23.5t-62 67.5l52 36h12q12 -34 36 -49.5t65 -15.5
q42 0 65.5 15t36.5 50h12z" />
    <glyph glyph-name="uni040F" unicode="&#x40f;" horiz-adv-x="679" 
d="M576 202l4 -202h-193l-9 -143l-77 -7l-10 150h-193l5 193l-5 449h104l-5 -440l2 -121h281l2 112l-4 449h103z" />
    <glyph glyph-name="uni0410" unicode="&#x410;" horiz-adv-x="595" 
d="M574 0h-106l-15 72l-28 89l-136 3l-123 -3l-30 -84l-16 -77h-103l229 642h121zM399 245l-92 296h-7l-105 -296l101 -2z" />
    <glyph glyph-name="uni0411" unicode="&#x411;" horiz-adv-x="583" 
d="M485.5 333.5q50.5 -43.5 50.5 -125.5q0 -100 -70 -154t-198 -54h-170l5 192l-5 450h408l6 -9l-7 -76l-158 3h-146l-2 -183h139q97 0 147.5 -43.5zM397 110.5q32 31.5 32 84.5t-31.5 81t-91.5 28l-108 -1l-1 -102l2 -125l105 -4q61 7 93 38.5z" />
    <glyph glyph-name="uni0412" unicode="&#x412;" horiz-adv-x="577" 
d="M496.5 281.5q32.5 -38.5 32.5 -101.5q0 -184 -275 -184q-95 0 -156 4h-1l7 193l-7 449l200 1q93 0 144.5 -40.5t51.5 -117.5q0 -54 -25 -92.5t-71 -58.5q67 -14 99.5 -52.5zM360 542q-27 21 -91 21h-68l-3 -197l103 -3q44 11 65 37.5t21 72.5q0 48 -27 69zM385 104
q40 28 40 82q0 86 -111 101l-117 -1l-1 -84l3 -123q39 -3 72 -3q74 0 114 28z" />
    <glyph glyph-name="uni0413" unicode="&#x413;" horiz-adv-x="454" 
d="M444 633l-8 -76l-137 3h-97l-4 -358l4 -202h-103l4 193l-4 449h338z" />
    <glyph glyph-name="uni0414" unicode="&#x414;" horiz-adv-x="666" 
d="M628 85v-208l-77 -7l-15 130h-429l-14 -123l-78 -7v215h53q42 23 66 70t39 133t29 242l11 112h331l-4 -440l2 -117h86zM445 193l-4 370h-144l-5 -51q-17 -192 -43 -287.5t-74 -139.5h267z" />
    <glyph glyph-name="uni0415" unicode="&#x415;" horiz-adv-x="534" 
d="M477 88l6 -9l-7 -79h-379l7 193l-7 449h381l6 -9l-8 -79l-152 4l-122 -1l-3 -187l116 -2l106 3l7 -8l-8 -79l-113 3l-109 -2l-1 -83l3 -118l122 -1z" />
    <glyph glyph-name="uni0416" unicode="&#x416;" horiz-adv-x="847" 
d="M21 10l-2 11q143 168 247 319l-229 302h111l36 -58l186 -242v-7q-95 -149 -239 -338l-13 -6q-53 7 -97 19zM376 193l-3 449h102l-5 -440l4 -202h-101zM716 -3q-146 191 -238 338v7l185 242l36 58h112l-230 -302q111 -160 247 -319l-1 -11q-44 -13 -98 -19z" />
    <glyph glyph-name="uni0417" unicode="&#x417;" horiz-adv-x="519" 
d="M468 181q0 -88 -67 -139t-182 -51q-52 0 -99 12t-80 34l19 90l9 3q31 -25 70.5 -39t79.5 -14q65 0 105.5 31t40.5 81q0 40 -25 66t-70 35h-135l-8 8l7 71l129 -2q32 14 51.5 43t19.5 64q0 86 -112 86q-78 0 -161 -51l-12 5l9 91q79 44 168 44q99 0 156 -42.5t57 -116.5
q0 -51 -26.5 -92t-74.5 -63q131 -33 131 -154z" />
    <glyph glyph-name="uni0418" unicode="&#x418;" horiz-adv-x="710" 
d="M102 193l-5 446l104 5l-6 -484h8l301 482h109l-5 -440l4 -202h-104l5 193v289h-8l-301 -482h-107z" />
    <glyph glyph-name="uni0419" unicode="&#x419;" horiz-adv-x="710" 
d="M102 193l-5 446l104 5l-6 -484h8l301 482h109l-5 -440l4 -202h-104l5 193v289h-8l-301 -482h-107zM506 784q-20 -43 -64 -67t-103 -24t-101 23.5t-62 67.5l52 36h12q12 -34 36 -49.5t65 -15.5q42 0 65.5 15t36.5 50h12z" />
    <glyph glyph-name="uni041A" unicode="&#x41a;" horiz-adv-x="595" 
d="M197 202l4 -202h-103l5 193l-5 449h104zM312 340q116 -156 265 -318l-1 -12q-44 -12 -99 -19l-13 6q-152 186 -258 338v7l200 242l40 58h113z" />
    <glyph glyph-name="uni041B" unicode="&#x41b;" horiz-adv-x="607" 
d="M505 202l3 -202h-103l5 193l-4 370h-148l-5 -51q-18 -196 -41.5 -304t-59 -158t-92.5 -62l-29 -2l-19 83q48 16 75.5 60t45 136t32.5 265l11 110l-1 2h335z" />
    <glyph glyph-name="uni041C" unicode="&#x41c;" horiz-adv-x="820" 
d="M751 0h-92l-13 195l-30 290h-7l-165 -414h-82l-153 414h-9l-30 -281l-16 -204h-87l67 642h118l30 -96l123 -341h8l130 344l30 93h117z" />
    <glyph glyph-name="uni041D" unicode="&#x41d;" horiz-adv-x="710" 
d="M608 202l3 -202h-103l5 193l-1 87l-164 1l-150 -1l-1 -78l4 -202h-102l4 193l-4 449h103l-3 -276l157 -2l155 2l-3 276h105z" />
    <glyph glyph-name="uni041E" unicode="&#x41e;" horiz-adv-x="672" 
d="M549 568q72 -82 72 -234q0 -164 -77 -253.5t-219 -89.5q-132 0 -203.5 84.5t-71.5 239.5q0 161 76.5 248t217.5 87q133 0 205 -82zM200.5 507.5q-44.5 -58.5 -44.5 -180.5q0 -133 43.5 -194.5t134.5 -61.5q92 0 136 59t44 184q0 131 -43.5 191.5t-134.5 60.5
t-135.5 -58.5z" />
    <glyph glyph-name="uni041F" unicode="&#x41f;" horiz-adv-x="666" 
d="M565 202l3 -202h-102l4 193l-3 368h-266l-4 -359l4 -202h-103l5 193l-5 449h472z" />
    <glyph glyph-name="uni0420" unicode="&#x420;" horiz-adv-x="548" 
d="M464.5 593.5q52.5 -49.5 52.5 -142.5q0 -108 -66.5 -171t-182.5 -63h-71v-15l5 -202h-105l7 193l-7 449l218 1q97 0 149.5 -49.5zM381.5 344.5q28.5 36.5 28.5 97.5q0 60 -30.5 89t-92.5 31l-85 -3l-4 -260l100 -2q55 11 83.5 47.5z" />
    <glyph glyph-name="uni0421" unicode="&#x421;" horiz-adv-x="558" 
d="M516 605l-19 -91l-10 -3q-67 52 -148 52q-88 0 -134.5 -59.5t-46.5 -177.5q0 -121 47 -184t134 -63q42 0 83.5 14.5t76.5 40.5l10 -6l-8 -94q-86 -42 -170 -42q-135 0 -208 84t-73 239q0 160 76.5 247t216.5 87q98 0 173 -44z" />
    <glyph glyph-name="uni0422" unicode="&#x422;" horiz-adv-x="481" 
d="M470 633l-6 -78l-116 6h-54l-5 -359l5 -202h-104l6 193l-5 368h-54l-118 -6l-7 9l8 78h444z" />
    <glyph glyph-name="uni0423" unicode="&#x423;" horiz-adv-x="573" 
d="M559 641l-186 -443q-38 -84 -69.5 -125t-74 -58.5t-116.5 -22.5l-9 1q-11 35 -18 80l5 10q77 9 113 23.5t59 47.5l-244 487l111 1l23 -63l149 -315h11l125 320l19 57h102z" />
    <glyph glyph-name="uni0424" unicode="&#x424;" horiz-adv-x="762" 
d="M427 66l1 -88h-95l2 87q-147 8 -223 73t-76 188q0 128 75 194t223 76l-1 71h96l-1 -70q297 -15 297 -258q0 -253 -298 -273zM576 196.5q50 45.5 50 135.5t-48 134.5t-150 52.5l-3 -316l1 -60q100 8 150 53.5zM183.5 195q49.5 -45 152.5 -53l1 52l-3 325
q-101 -8 -150.5 -54t-49.5 -135q0 -90 49.5 -135z" />
    <glyph glyph-name="uni0425" unicode="&#x425;" horiz-adv-x="606" 
d="M368 335l215 -335h-125l-29 57l-131 197l-137 -203l-27 -51h-108l212 321l-207 321h124l29 -56l122 -186l124 188l27 54h110z" />
    <glyph glyph-name="uni0426" unicode="&#x426;" horiz-adv-x="698" 
d="M665 85v-208l-77 -7l-15 130h-475l5 193l-5 449h104l-5 -440l2 -117h271l3 108l-5 449h104l-5 -440l2 -117h96z" />
    <glyph glyph-name="uni0427" unicode="&#x427;" horiz-adv-x="597" 
d="M495 202l4 -202h-104l5 193l-1 84h-9q-61 -55 -137 -76q-100 0 -147.5 44t-49.5 138l-2 259h104l-2 -231q0 -55 26.5 -87t71.5 -32q34 0 72 19t72 53l-3 278h105z" />
    <glyph glyph-name="uni0428" unicode="&#x428;" horiz-adv-x="937" 
d="M834 202l4 -202h-740l5 193l-5 449h104l-5 -440l2 -117h219l3 108l-5 449h105l-5 -440l2 -117h220l2 108l-4 449h104z" />
    <glyph glyph-name="uni0429" unicode="&#x429;" horiz-adv-x="952" 
d="M923 85v-208l-77 -7l-15 130h-734l5 193l-5 449h104l-5 -440l2 -117h219l3 108l-5 449h105l-5 -440l2 -117h220l2 108l-4 449h104l-6 -440l2 -117h88z" />
    <glyph glyph-name="uni042A" unicode="&#x42a;" horiz-adv-x="633" 
d="M555 339q49 -45 49 -128q0 -100 -67.5 -155.5t-190.5 -55.5h-161l5 192l-4 368h-70l-98 -3l-7 9l6 76h271l-3 -258h129q92 0 141 -45zM466.5 113q29.5 32 29.5 85q0 54 -29.5 83t-85.5 28l-97 -1l-1 -107l2 -124l95 -4q57 8 86.5 40z" />
    <glyph glyph-name="uni042B" unicode="&#x42b;" horiz-adv-x="770" 
d="M435.5 339.5q46.5 -44.5 46.5 -128.5q0 -100 -65 -155.5t-183 -55.5h-157l5 192l-5 450h104l-3 -258h124q87 0 133.5 -44.5zM667 202l5 -202h-105l7 193l-7 449h106zM348 113q28 32 28 85q0 54 -28 83t-79 28l-92 -1l-1 -107l2 -124l90 -4q52 8 80 40z" />
    <glyph glyph-name="uni042C" unicode="&#x42c;" horiz-adv-x="556" 
d="M477 339.5q49 -44.5 49 -128.5q0 -100 -68.5 -155.5t-192.5 -55.5h-167l5 192l-5 450h104l-3 -258h134q95 0 144 -44.5zM388.5 113q30.5 32 30.5 85q0 54 -30.5 83t-88.5 28l-102 -1l-1 -107l2 -124l100 -4q59 8 89.5 40z" />
    <glyph glyph-name="uni042D" unicode="&#x42d;" horiz-adv-x="582" 
d="M458.5 568q72.5 -81 72.5 -236q0 -162 -79.5 -251t-224.5 -89q-100 0 -180 44l20 91l10 3q70 -52 157 -52q85 0 133.5 52.5t55.5 153.5l-119 2l-167 -3l-8 8l8 79l174 -3l111 2q-18 192 -188 192q-89 0 -169 -54l-11 6l9 94q88 42 184 42q139 0 211.5 -81z" />
    <glyph glyph-name="uni042E" unicode="&#x42e;" horiz-adv-x="888" 
d="M768 567.5q67 -82.5 67 -233.5q0 -164 -71.5 -253.5t-203.5 -89.5q-115 0 -181 75.5t-74 213.5l-56 1l-51 -1l-1 -78l4 -202h-104l5 193l-5 449h105l-3 -277l55 -1l52 1q11 138 81 211.5t191 73.5q123 0 190 -82.5zM689 129.5q39 58.5 39 184.5q0 131 -38.5 191.5
t-119.5 60.5t-119.5 -58t-38.5 -181q0 -133 38 -194.5t119 -61.5t120 58.5z" />
    <glyph glyph-name="uni042F" unicode="&#x42f;" horiz-adv-x="584" 
d="M481 193l5 -193h-103l4 202v27h-108q-57 -108 -135 -230l-12 -8q-54 4 -98 21l-1 12q87 110 167 228q-131 58 -131 187q0 60 28 106.5t79 72.5t117 26l193 -2zM386 314l-3 245l-84 3q-58 -1 -90.5 -32t-32.5 -90q0 -52 25.5 -84t78.5 -46z" />
    <glyph glyph-name="uni0430" unicode="&#x430;" horiz-adv-x="464" 
d="M344 437q40 -33 40 -92q0 -18 -6 -120q-6 -100 -6 -117q0 -19 6.5 -26.5t22.5 -7.5q10 0 30 4l9 -7l-10 -56q-29 -18 -63 -22q-31 3 -50 22.5t-23 51.5h-7q-51 -54 -104 -75q-69 1 -108.5 36t-39.5 95q0 89 97 111l158 35l1 54q0 37 -18.5 56t-53.5 19q-34 0 -68 -15.5
t-75 -48.5l-8 5l-13 71q88 60 180 60q69 0 109 -33zM160 179q-18 -4 -26 -13.5t-8 -29.5q0 -30 16.5 -47t44.5 -17q47 0 100 61l3 77z" />
    <glyph glyph-name="uni0431" unicode="&#x431;" horiz-adv-x="502" 
d="M421.5 395q46.5 -55 46.5 -162q0 -118 -54.5 -180t-158.5 -62q-72 0 -116 32t-64.5 100.5t-20.5 179.5q0 98 16.5 159.5t53 99.5t100.5 60l93 34q32 11 56 23t51 31l10 -5l6 -82q-42 -27 -106 -46l-92 -28q-49 -15 -71 -55t-22 -111v-17l6 -1q55 64 129 85
q91 0 137.5 -55zM345.5 98.5q27.5 37.5 27.5 114.5q0 76 -26 114t-76 38q-33 0 -62 -17t-60 -55q1 -86 12 -136.5t35.5 -73t65.5 -22.5q56 0 83.5 37.5z" />
    <glyph glyph-name="uni0432" unicode="&#x432;" horiz-adv-x="473" 
d="M437 131q0 -69 -54.5 -101.5t-161.5 -32.5q-69 0 -146 3l4 193l-3 268l179 1q78 0 120 -29.5t42 -84.5q0 -36 -20 -64t-58 -45q98 -22 98 -108zM299 384q-25 16 -77 16q-33 0 -51 -1l-3 -135l86 -3q34 7 52 26t18 49q0 32 -25 48zM315 77q29 20 29 58q0 57 -78 67l-99 -1
l2 -141q32 -3 63 -3q54 0 83 20z" />
    <glyph glyph-name="uni0433" unicode="&#x433;" horiz-adv-x="354" 
d="M358 454l-7 -67l-105 3h-71l-3 -188l3 -202h-100l4 193l-3 268h276z" />
    <glyph glyph-name="uni0434" unicode="&#x434;" horiz-adv-x="520" 
d="M486 73v-183l-67 -6l-12 116h-319l-12 -110l-67 -6v189h37q30 19 47 51t27.5 89.5t21.5 163.5l9 84h273l-4 -259l2 -129h64zM330 193l-3 201h-104l-4 -33q-12 -127 -30.5 -191.5t-52.5 -96.5h192z" />
    <glyph glyph-name="uni0435" unicode="&#x435;" horiz-adv-x="464" 
d="M406 226l-281 -1q1 -76 37 -115.5t102 -39.5q69 0 135 41l10 -6l-15 -82q-73 -32 -142 -32q-103 0 -161.5 63.5t-58.5 173.5q0 111 58 176t157 65q84 0 129.5 -46t45.5 -130q0 -23 -5 -55zM330 305q0 47 -21.5 71t-62.5 24q-46 0 -76 -29.5t-40 -83.5l198 4z" />
    <glyph glyph-name="uni0436" unicode="&#x436;" horiz-adv-x="674" 
d="M67 -4.5q-29 3.5 -55 10.5v12q95 117 177 233l-166 210h107l25 -44l133 -168v-7q-63 -100 -173 -247l-12 -4q-7 1 -36 4.5zM291 193l-4 268h100l-4 -259l4 -202h-100zM558 -5q-102 134 -173 247v7l132 168l26 44h107l-166 -210q75 -109 178 -233l-1 -12q-26 -7 -55 -10.5
t-36 -4.5z" />
    <glyph glyph-name="uni0437" unicode="&#x437;" horiz-adv-x="404" 
d="M367 131q0 -65 -51 -101.5t-141 -36.5q-39 0 -75 8t-61 22l17 76l7 3q22 -15 52 -23.5t59 -8.5q45 0 72.5 19t27.5 50q0 23 -15.5 39t-44.5 22h-103l-7 7l6 63l97 -1q21 9 33.5 26.5t12.5 39.5q0 53 -79 53q-54 0 -117 -29l-10 4l7 77q58 26 125 26q79 0 123.5 -31
t44.5 -85q0 -37 -19.5 -66t-54.5 -45q94 -24 94 -108z" />
    <glyph glyph-name="uni0438" unicode="&#x438;" horiz-adv-x="538" 
d="M79 193l-4 266l99 4l-2 -322h6l185 320h100l-4 -256l4 -205h-99l3 186l1 140h-7l-188 -326h-98z" />
    <glyph glyph-name="uni0439" unicode="&#x439;" horiz-adv-x="538" 
d="M79 193l-4 266l99 4l-2 -322h6l185 320h100l-4 -256l4 -205h-99l3 186l1 140h-7l-188 -326h-98zM421 623q-18 -43 -58.5 -67t-94.5 -24t-92.5 23.5t-58.5 67.5l52 36h12q10 -34 31.5 -49.5t57.5 -15.5t56 14.5t32 50.5h11z" />
    <glyph glyph-name="uni043A" unicode="&#x43a;" horiz-adv-x="474" 
d="M78 193l-3 261l100 9l-4 -261l3 -202h-100zM282 251q84 -116 182 -233l-1 -12q-26 -7 -56 -10.5t-36 -4.5l-10 4q-109 138 -177 247v7l135 168l25 44h107z" />
    <glyph glyph-name="uni043B" unicode="&#x43b;" horiz-adv-x="479" 
d="M400 202l4 -202h-100l3 193l-1 200h-105l-4 -33q-15 -140 -33.5 -216t-46 -110.5t-72.5 -42.5l-24 -1l-16 78q37 12 58 41.5t34 90.5t24 177l9 82l-1 2h276z" />
    <glyph glyph-name="uni043C" unicode="&#x43c;" horiz-adv-x="622" 
d="M102 461h101l22 -69l81 -227h7l88 227l23 69h99l43 -461h-81l-8 144l-17 184h-7l-113 -279h-70l-104 279h-6l-19 -171l-12 -157h-77z" />
    <glyph glyph-name="uni043D" unicode="&#x43d;" horiz-adv-x="542" 
d="M463 202l3 -202h-100l4 193l-102 1l-96 -2l3 -192h-100l4 193l-3 268h100l-3 -192l99 -1h97l-1 193h99z" />
    <glyph glyph-name="uni043E" unicode="&#x43e;" horiz-adv-x="486" 
d="M399.5 409.5q52.5 -60.5 52.5 -171.5q0 -119 -56 -183t-159 -64q-97 0 -149.5 60.5t-52.5 171.5q0 119 56 183t159 64q97 0 149.5 -60.5zM130 245q0 -94 28 -139t86 -45q57 0 85 38t28 116q0 94 -28 139t-85 45q-114 0 -114 -154z" />
    <glyph glyph-name="uni043F" unicode="&#x43f;" horiz-adv-x="529" 
d="M450 172l4 -172h-101l5 162l-3 227h-180l-3 -217l3 -172h-100l4 162l-3 299h378z" />
    <glyph glyph-name="uni0440" unicode="&#x440;" horiz-adv-x="513" 
d="M430.5 408.5q46.5 -57.5 46.5 -164.5q0 -121 -59 -187t-168 -66q-35 0 -78 8l3 -184h-101l7 378l-7 261l98 9l-1 -66h7q32 28 59 43t61 26q86 0 132.5 -57.5zM350 104q32 43 32 123q0 76 -26 116.5t-75 40.5q-27 0 -53.5 -14.5t-57.5 -45.5l-1 -122l2 -119q47 -22 87 -22
q60 0 92 43z" />
    <glyph glyph-name="uni0441" unicode="&#x441;" horiz-adv-x="403" 
d="M310 463q33 -7 58 -19l-17 -85l-10 -4q-53 31 -98 31q-53 0 -83 -40t-30 -112q0 -77 31 -119.5t88 -42.5q50 0 107 30l9 -6l-10 -82q-61 -23 -122 -23q-94 0 -146.5 62.5t-52.5 172.5q0 114 56 179t155 65q32 0 65 -7z" />
    <glyph glyph-name="uni0442" unicode="&#x442;" horiz-adv-x="373" 
d="M376 454l-6 -66l-88 2h-46l-3 -188l3 -202h-99l3 193l-2 197h-47l-89 -2l-5 7l5 66h368z" />
    <glyph glyph-name="uni0443" unicode="&#x443;" horiz-adv-x="436" 
d="M117 399l100 -293h7l100 284l17 71h88l-159 -438q-24 -68 -53 -108.5t-71.5 -64.5t-110.5 -41h-9q-24 24 -42 60l3 11q71 13 112 38t75 82l-168 459l96 5z" />
    <glyph glyph-name="uni0444" unicode="&#x444;" horiz-adv-x="626" 
d="M537.5 64.5q-59.5 -61.5 -176.5 -72.5l1 -177h-97l1 176q-117 9 -176.5 68t-59.5 167q0 109 59 170t176 72l-1 169l99 9l-2 -178q117 -9 176.5 -68t59.5 -166q0 -108 -59.5 -169.5zM467.5 113q34.5 42 34.5 119q0 75 -34 115t-107 48l-2 -190l1 -144q73 10 107.5 52z
M158.5 112q34.5 -42 107.5 -51l1 132l-1 202q-74 -9 -108 -48.5t-34 -115.5q0 -77 34.5 -119z" />
    <glyph glyph-name="uni0445" unicode="&#x445;" horiz-adv-x="453" 
d="M151 415l82 -124l77 126l24 44h91l-138 -226l147 -231l-107 -9l-22 52l-85 129l-85 -134l-21 -42h-91l141 233l-141 225l108 6z" />
    <glyph glyph-name="uni0446" unicode="&#x446;" horiz-adv-x="549" 
d="M517 75v-185l-68 -6l-12 116h-362l4 193l-3 268h100l-4 -259l2 -127h178l2 118l-3 268h99l-4 -259l3 -127h68z" />
    <glyph glyph-name="uni0447" unicode="&#x447;" horiz-adv-x="473" 
d="M394 202l4 -202h-100l4 193v2h-7q-44 -35 -101 -54q-83 0 -119.5 32t-37.5 105l-3 183h100l-3 -161q0 -41 17 -60t53 -19q51 0 100 42l-2 198h100z" />
    <glyph glyph-name="uni0448" unicode="&#x448;" horiz-adv-x="721" 
d="M643 202l2 -202h-569l3 193l-3 268h93l-5 -259l3 -128h149l2 119l-3 268h93l-4 -259l2 -128h149l2 119l-3 268h92z" />
    <glyph glyph-name="uni0449" unicode="&#x449;" horiz-adv-x="750" 
d="M725 75v-185l-68 -6l-12 116h-569l3 193l-3 268h93l-5 -259l3 -128h149l2 119l-3 268h93l-4 -259l2 -128h149l2 119l-3 268h92l-3 -259l1 -127h81z" />
    <glyph glyph-name="uni044A" unicode="&#x44a;" horiz-adv-x="480" 
d="M429.5 251q38.5 -32 38.5 -93q0 -75 -54 -116.5t-150 -41.5h-140l4 193l-2 197h-46l-77 -3l-6 7l6 67h217l-3 -178h101q73 0 111.5 -32zM351 90.5q21 21.5 21 56.5q0 36 -21.5 56t-60.5 19l-74 -1v-19l2 -137l72 -2q40 6 61 27.5z" />
    <glyph glyph-name="uni044B" unicode="&#x44b;" horiz-adv-x="646" 
d="M567 202l3 -202h-100l4 193l-3 261l100 9zM376.5 251q37.5 -32 37.5 -93q0 -75 -52 -116.5t-145 -41.5h-142l4 193l-3 268h100l-3 -178h95q71 0 108.5 -32zM298 90.5q19 21.5 19 56.5q0 36 -20 56t-56 19l-69 -1v-19l2 -137l69 -2q36 6 55 27.5z" />
    <glyph glyph-name="uni044C" unicode="&#x44c;" horiz-adv-x="441" 
d="M390.5 251q39.5 -32 39.5 -93q0 -75 -55 -116.5t-153 -41.5h-147l4 193l-3 268h100l-3 -178h103q75 0 114.5 -32zM312 90.5q22 21.5 22 56.5q0 36 -22.5 56t-63.5 19l-76 -1v-19l2 -137l75 -2q41 6 63 27.5z" />
    <glyph glyph-name="uni044D" unicode="&#x44d;" horiz-adv-x="435" 
d="M345 408q56 -62 56 -170q0 -115 -59 -181t-162 -66q-37 0 -73.5 7t-64.5 19l19 80l11 3q60 -31 109 -31q55 0 87.5 33.5t38.5 95.5l-84 1l-116 -2l-5 7l5 67l122 -2l77 1q-9 58 -43.5 90t-90.5 32q-28 0 -59 -7.5t-58 -21.5l-11 6l10 79q28 10 64 16t71 6q100 0 156 -62z
" />
    <glyph glyph-name="uni044E" unicode="&#x44e;" horiz-adv-x="687" 
d="M601 409.5q50 -60.5 50 -171.5q0 -119 -53 -183t-151 -64q-87 0 -136 52.5t-55 149.5l-44 1l-40 -1l3 -193h-100l4 193l-3 268h100l-3 -192l42 -1h42q10 98 61.5 150t139.5 52q93 0 143 -60.5zM530.5 100.5q25.5 39.5 25.5 120.5q0 92 -25.5 135t-79.5 43
q-52 0 -77.5 -39.5t-25.5 -121.5q0 -91 26 -134t79 -43q52 0 77.5 39.5z" />
    <glyph glyph-name="uni044F" unicode="&#x44f;" horiz-adv-x="468" 
d="M389 202l3 -202h-95l3 164h-79q-38 -72 -97 -163l-10 -7q-54 1 -88 17l-2 10q67 78 123 158q-48 19 -71 51t-23 83q0 66 48 107.5t125 41.5l167 -1zM170.5 375q-22.5 -22 -22.5 -61q0 -37 19.5 -60.5t57.5 -31.5l76 4v169l-67 3q-41 -1 -63.5 -23z" />
    <glyph glyph-name="uni0450" unicode="&#x450;" horiz-adv-x="464" 
d="M406 226l-281 -1q1 -76 37 -115.5t102 -39.5q69 0 135 41l10 -6l-15 -82q-73 -32 -142 -32q-103 0 -161.5 63.5t-58.5 173.5q0 111 58 176t157 65q84 0 129.5 -46t45.5 -130q0 -23 -5 -55zM330 305q0 47 -21.5 71t-62.5 24q-46 0 -76 -29.5t-40 -83.5l198 4zM345 560
l-26 -40l-10 -1q-102 66 -181 124l-2 10l38 54l10 1q66 -63 171 -148z" />
    <glyph glyph-name="uni0451" unicode="&#x451;" horiz-adv-x="464" 
d="M406 226l-281 -1q1 -76 37 -115.5t102 -39.5q69 0 135 41l10 -6l-15 -82q-73 -32 -142 -32q-103 0 -161.5 63.5t-58.5 173.5q0 111 58 176t157 65q84 0 129.5 -46t45.5 -130q0 -23 -5 -55zM330 305q0 47 -21.5 71t-62.5 24q-46 0 -76 -29.5t-40 -83.5l198 4zM193.5 650.5
q13.5 -13.5 13.5 -36.5q0 -25 -14.5 -40t-38.5 -15q-25 0 -38 13.5t-13 37.5q0 25 14.5 39.5t39.5 14.5q23 0 36.5 -13.5zM358 650.5q13 -13.5 13 -36.5q0 -25 -14.5 -40t-38.5 -15t-37.5 13.5t-13.5 37.5q0 25 14.5 39.5t39.5 14.5q24 0 37 -13.5z" />
    <glyph glyph-name="uni0452" unicode="&#x452;" horiz-adv-x="523" 
d="M401.5 448q33.5 -19 47 -66t13.5 -135q0 -127 -12.5 -201.5t-44 -126t-94.5 -102.5l-43 35v11q41 38 62 81t29.5 108.5t8.5 177.5q0 61 -6.5 93.5t-22 46.5t-44.5 14q-58 0 -120 -59l-2 -122l6 -203h-102l7 194l-4 342h-66l-8 7l5 49h68l-1 102l102 8l-2 -110h135l7 -7
l-4 -49h-138l-2 -140h6q58 52 123 71q63 0 96.5 -19z" />
    <glyph glyph-name="uni0453" unicode="&#x453;" horiz-adv-x="354" 
d="M358 454l-7 -67l-105 3h-71l-3 -188l3 -202h-100l4 193l-3 268h276zM296 707l38 -54l-2 -10q-79 -58 -181 -124l-10 1l-26 40q105 85 171 148z" />
    <glyph glyph-name="uni0454" unicode="&#x454;" horiz-adv-x="436" 
d="M381 97l11 -5l-11 -79q-64 -22 -134 -22q-101 0 -157.5 61.5t-56.5 170.5q0 115 59.5 181t163.5 66q36 0 72.5 -7t64.5 -19l-18 -80l-11 -4q-59 31 -110 31q-61 0 -94 -40t-35 -115l9 35l93 -3l101 -15l-12 -5l-22 -50l-107 20l-62 -1q4 -71 39.5 -110t97.5 -39
q59 0 119 29z" />
    <glyph glyph-name="uni0455" unicode="&#x455;" horiz-adv-x="388" 
d="M337 446l-14 -80l-13 -3q-52 35 -102 35q-30 0 -47.5 -16t-17.5 -39q0 -25 20.5 -40t63.5 -33q39 -17 63.5 -32t42 -40t17.5 -62q0 -38 -20 -71.5t-59 -53.5t-94 -20q-69 0 -140 31l12 85l11 7q29 -25 64 -39.5t64 -14.5q32 0 51.5 17.5t19.5 41.5q0 25 -20 39.5
t-63 34.5q-39 17 -64 32t-42.5 41t-17.5 64q0 61 45 100t123 39q60 0 117 -23z" />
    <glyph glyph-name="uni0456" unicode="&#x456;" horiz-adv-x="250" 
d="M79 193l-3 261l100 9l-4 -261l3 -202h-100zM166 661.5q14 -14.5 14 -40.5q0 -27 -15 -43t-41 -16t-40.5 15t-14.5 41t15.5 42t42.5 16q25 0 39 -14.5z" />
    <glyph glyph-name="uni0457" unicode="&#x457;" horiz-adv-x="250" 
d="M78 193l-3 261l100 9l-4 -261l3 -202h-100zM102.5 650q12.5 -13 12.5 -36q0 -25 -14 -39.5t-37 -14.5q-24 0 -36.5 13t-12.5 37t14 38.5t39 14.5q22 0 34.5 -13zM221 650q13 -13 13 -36q0 -25 -14 -39.5t-37 -14.5q-24 0 -37 13t-13 37t14 38.5t39 14.5q22 0 35 -13z" />
    <glyph glyph-name="uni0458" unicode="&#x458;" horiz-adv-x="283" 
d="M207 461l-8 -259l6 -180q0 -78 -34.5 -127.5t-115.5 -88.5l-37 45v11q50 29 70.5 63.5t20.5 92.5l1 175l-4 201h-88l-7 7l6 58h91l95 4zM181 661.5q14 -14.5 14 -40.5q0 -27 -15 -43t-41 -16t-40.5 15t-14.5 41t15.5 42t42.5 16q25 0 39 -14.5z" />
    <glyph glyph-name="uni0459" unicode="&#x459;" horiz-adv-x="667" 
d="M616.5 251q39.5 -32 39.5 -93q0 -75 -55 -116.5t-154 -41.5h-146l4 193l-2 200h-105l-4 -33q-15 -141 -32.5 -217t-43.5 -110t-70 -42l-24 -1l-15 78q34 12 54 41.5t32 90.5t23 177l8 82l-1 2h277l-3 -178h103q75 0 114.5 -32zM539 90.5q22 21.5 22 56.5q0 36 -22.5 56
t-64.5 19l-76 -1v-19l2 -137l75 -2q42 6 64 27.5z" />
    <glyph glyph-name="uni045A" unicode="&#x45a;" horiz-adv-x="732" 
d="M682.5 244.5q39.5 -31.5 39.5 -90.5q0 -73 -55 -113.5t-154 -40.5h-147l4 193v6l-102 1l-96 -2l3 -198h-100l4 193l-3 268h100l-3 -188l99 -1h97l-1 189h99l-3 -185h103q76 0 115.5 -31.5zM603.5 86q21.5 20 21.5 54q0 35 -22 53t-63 18l-77 -1v-8l2 -139l76 -2
q41 5 62.5 25z" />
    <glyph glyph-name="uni045B" unicode="&#x45b;" horiz-adv-x="525" 
d="M365 303q1 38 -17.5 59.5t-53.5 21.5q-58 0 -120 -60l-2 -121l7 -203h-102l6 194l-3 342h-67l-7 7l4 49h69l-1 102l102 8l-2 -110h134l7 -7l-3 -49h-139l-2 -140h6q59 52 123 71q77 0 116.5 -35t38.5 -100l-3 -130l5 -202h-103z" />
    </font>
</defs>
</svg>
