<?xml version="1.0" standalone="no"?>
<!DOCTYPE svg PUBLIC "-//W3C//DTD SVG 1.1//EN" "http://www.w3.org/Graphics/SVG/1.1/DTD/svg11.dtd" >
<svg xmlns="http://www.w3.org/2000/svg" xmlns:xlink="http://www.w3.org/1999/xlink" version="1.1">
<metadata>
Created by FontForge 20170731 at Thu Nov  9 17:49:04 2017
 By Aleksey,,,
Copyright 2013 The Alegreya Sans Project Authors (https://github.com/huertatipografica/Alegreya-Sans)
</metadata>
<defs>
<font id="AlegreyaSans-MediumItalic" horiz-adv-x="0" >
  <font-face 
    font-family="Alegreya Sans Medium"
    font-weight="500"
    font-style="italic"
    font-stretch="normal"
    units-per-em="1000"
    panose-1="0 0 6 0 0 0 0 0 0 0"
    ascent="800"
    descent="-200"
    x-height="467"
    cap-height="642"
    bbox="-401 -261 1172 1028"
    underline-thickness="42"
    underline-position="-224"
    slope="-7"
    unicode-range="U+000D-FB02"
  />
<missing-glyph horiz-adv-x="161" 
 />
    <glyph glyph-name="Idieresis" unicode="&#xa8;I" horiz-adv-x="270" 
d="M175 201l-19 -201h-99l29 193l51 449h99zM174.5 829q12.5 -13 12.5 -35q0 -25 -14 -39t-37 -14t-35.5 13t-12.5 36q0 24 13.5 38t38.5 14q22 0 34.5 -13zM307.5 829q12.5 -13 12.5 -35q0 -25 -13.5 -39t-36.5 -14t-36 13t-13 36q0 24 14 38t38 14q22 0 34.5 -13z" />
    <glyph glyph-name="Odieresis" unicode="&#xa8;O" horiz-adv-x="618" 
d="M538.5 581.5q62.5 -67.5 62.5 -192.5q0 -122 -37.5 -211t-110 -137.5t-174.5 -48.5q-111 0 -173.5 69.5t-62.5 195.5q0 184 83 288t237 104q113 0 175.5 -67.5zM195.5 491.5q-51.5 -76.5 -51.5 -229.5q0 -97 35.5 -144t109.5 -47q208 0 208 308q0 97 -35.5 143t-109.5 46
q-105 0 -156.5 -76.5zM330 829q12 -12 12 -34q0 -23 -13.5 -37t-36.5 -14q-22 0 -34 12t-12 35t13.5 36.5t36.5 13.5q22 0 34 -12zM498.5 829q12.5 -12 12.5 -34q0 -23 -13.5 -37t-36.5 -14q-22 0 -34 12.5t-12 34.5q0 23 13 36.5t36 13.5q22 0 34.5 -12z" />
    <glyph glyph-name="Yacute" unicode="&#xb4;Y" horiz-adv-x="518" 
d="M295 226l-6 -42l-19 -184h-99l30 184l4 44l-143 414h102l7 -39l89 -273h9l167 270l21 42h105zM422 870l25 -57l-4 -10q-78 -35 -201 -83l-11 4l-17 42q130 66 198 107z" />
    <glyph glyph-name="idieresis" unicode="&#xa8;i" horiz-adv-x="225" 
d="M138 111l-5 -108l-95 -7l52 361l4 101l93 7zM127.5 647q12.5 -13 12.5 -35q0 -25 -14 -39t-37 -14t-35.5 13t-12.5 36q0 24 13.5 38t38.5 14q22 0 34.5 -13zM260.5 647q12.5 -13 12.5 -35q0 -25 -13.5 -39t-36.5 -14t-36 13t-13 36q0 24 14 38t38 14q22 0 34.5 -13z" />
    <glyph glyph-name="odieresis" unicode="&#xa8;o" horiz-adv-x="420" 
d="M273 469q57 -11 86.5 -49t29.5 -108q0 -141 -60.5 -227t-168.5 -94l-10 1q-59 12 -88.5 51t-29.5 112q0 90 28 159.5t80 110t123 44.5h10zM151 330.5q-31 -62.5 -31 -175.5q0 -48 12.5 -69t42.5 -21q62 0 93 63.5t31 176.5q0 48 -12.5 68t-41.5 20q-63 0 -94 -62.5z
M218 647q12 -12 12 -34q0 -23 -13.5 -37t-36.5 -14q-22 0 -34 12t-12 35t13.5 36.5t36.5 13.5q22 0 34 -12zM386.5 647q12.5 -12 12.5 -34q0 -23 -13.5 -37t-36.5 -14q-22 0 -34 12.5t-12 34.5q0 23 13 36.5t36 13.5q22 0 34.5 -12z" />
    <glyph glyph-name="yacute" unicode="&#xb4;y" horiz-adv-x="425" 
d="M418 386q0 -32 -10 -64t-31 -70l-134 -240q-61 -111 -115.5 -159t-119.5 -48q-36 0 -81 14l4 82l9 8q36 -9 65 -9q44 0 77.5 21t65.5 68l-96 468l95 8l10 -82l43 -275h13l84 161q32 58 32 109q0 34 -21 65l4 11l84 13q22 -48 22 -81zM333 706l36 -52l-2 -10
q-119 -85 -179 -124l-10 1l-25 38q109 91 170 148z" />
    <glyph glyph-name="Itilde" unicode="&#x7e;I" horiz-adv-x="270" 
d="M175 201l-19 -201h-99l29 193l51 449h99zM348 828v-9l-58 -76l-9 -3q-25 4 -75 21q-45 15 -56 15q-10 0 -18.5 -8.5t-18.5 -21t-15 -18.5h-9l-29 31v8l57 75l10 4q22 -3 74 -20q47 -15 57 -15t19 8.5t19 21l14 17.5h9z" />
    <glyph glyph-name="itilde" unicode="&#x7e;i" horiz-adv-x="225" 
d="M138 111l-5 -108l-95 -7l52 361l4 101l93 7zM301 646v-9l-58 -76l-9 -3q-25 4 -75 21q-45 15 -56 15q-10 0 -18.5 -8.5t-18.5 -21t-15 -18.5h-9l-29 31v8l57 75l10 4q22 -3 74 -20q47 -15 57 -15t19 8.5t19 21l14 17.5h9z" />
    <glyph glyph-name="Utilde" unicode="&#x7e;U" horiz-adv-x="606" 
d="M547 315l-9 -74q-14 -120 -80.5 -184.5t-181.5 -64.5q-99 0 -155 49t-56 139q0 25 3 53l13 88l37 321h97l-53 -396q-3 -24 -3 -43q0 -126 124 -126q146 0 164 159l45 406h98zM536 831v-9l-64 -76l-11 -4q-16 2 -44.5 9.5t-38.5 10.5q-59 17 -72 17q-9 0 -18 -7.5
t-25 -24.5q-4 -6 -15 -17h-10l-29 30v9l64 76l11 3q34 -5 85 -20q54 -15 69 -15q10 0 20.5 8.5t22.5 21t17 18.5h8z" />
    <glyph glyph-name="utilde" unicode="&#x7e;u" horiz-adv-x="478" 
d="M436 465l-51 -354l-3 -108l-96 -7l29 204h-8q-45 -75 -82 -122t-78 -81h-11q-40 8 -65 31t-24 58l1 14l41 253l7 106l94 8l-50 -322l-2 -21v-3q0 -21 18 -21q28 0 75 64.5t105 187.5l1 5l4 101zM451 649v-9l-65 -77l-11 -3q-26 4 -84 21q-6 2 -33 9t-37 7q-9 0 -17.5 -7
t-23.5 -23l-18 -19h-9l-30 30v9l66 76l9 4q20 -3 85 -20q8 -2 33.5 -9t35.5 -7t20 8t22 20.5t18 19.5h8z" />
    <glyph glyph-name="uni1EBC" unicode="&#x7e;E" horiz-adv-x="475" 
d="M226 560l-27 -192l112 -2l101 3l5 -7l-16 -76l-108 3l-105 -2l-12 -86l-12 -120l119 -2l147 5l3 -8l-15 -76h-361l30 193l51 449h362l5 -9l-17 -76l-145 4zM494 831v-9l-64 -76l-11 -4q-16 2 -44.5 9.5t-38.5 10.5q-59 17 -72 17q-9 0 -18 -7.5t-25 -24.5q-4 -6 -15 -17
h-10l-29 30v9l64 76l11 3q34 -5 85 -20q54 -15 69 -15q10 0 20.5 8.5t22.5 21t17 18.5h8z" />
    <glyph glyph-name="uni1EBD" unicode="&#x7e;e" horiz-adv-x="389" 
d="M310 147l30 -39q-64 -94 -161 -115h-13q-70 8 -102.5 48.5t-32.5 120.5q0 88 29 156.5t81 108.5t119 43l10 -1q46 -7 70.5 -32t24.5 -65q0 -122 -246 -195q1 -56 17 -81t48 -25q27 0 53.5 17.5t59.5 59.5zM161.5 359q-31.5 -44 -39.5 -119q157 48 157 125q0 38 -41 38
q-45 0 -76.5 -44zM416 650v-9l-64 -76l-11 -4q-16 2 -44.5 9.5t-38.5 10.5q-59 17 -72 17q-9 0 -18 -7.5t-25 -24.5q-4 -6 -15 -17h-10l-29 30v9l64 76l11 3q34 -5 85 -20q54 -15 69 -15q10 0 20.5 8.5t22.5 21t17 18.5h8z" />
    <glyph glyph-name="uni1EF8" unicode="&#x7e;Y" horiz-adv-x="518" 
d="M295 226l-6 -42l-19 -184h-99l30 184l4 44l-143 414h102l7 -39l89 -273h9l167 270l21 42h105zM491 831v-9l-64 -76l-11 -4q-16 2 -44.5 9.5t-38.5 10.5q-59 17 -72 17q-9 0 -18 -7.5t-25 -24.5q-4 -6 -15 -17h-10l-29 30v9l64 76l11 3q34 -5 85 -20q54 -15 69 -15
q10 0 20.5 8.5t22.5 21t17 18.5h8z" />
    <glyph glyph-name="uni1EF9" unicode="&#x7e;y" horiz-adv-x="425" 
d="M418 386q0 -32 -10 -64t-31 -70l-134 -240q-61 -111 -115.5 -159t-119.5 -48q-36 0 -81 14l4 82l9 8q36 -9 65 -9q44 0 77.5 21t65.5 68l-96 468l95 8l10 -82l43 -275h13l84 161q32 58 32 109q0 34 -21 65l4 11l84 13q22 -48 22 -81zM422 650v-9l-64 -76l-11 -4
q-16 2 -44.5 9.5t-38.5 10.5q-59 17 -72 17q-9 0 -18 -7.5t-25 -24.5q-4 -6 -15 -17h-10l-29 30v9l64 76l11 3q34 -5 85 -20q54 -15 69 -15q10 0 20.5 8.5t22.5 21t17 18.5h8z" />
    <glyph glyph-name="fi" unicode="fi" horiz-adv-x="509" 
d="M474 461l-49 -350l-4 -108l-96 -7l52 361l1 33h-171l-26 -189l-29 -210l-4 -108l-97 -7l46 314l26 200h-68l-5 7l7 54h75l7 56q14 97 61 147t134 50l115 -23l3 -8l-22 -73l-14 -3q-57 37 -100 37q-35 0 -58.5 -26.5t-30.5 -76.5l-11 -80h175l76 16z" />
    <glyph glyph-name="fl" unicode="fl" horiz-adv-x="540" 
d="M471 689l-21 -68l-13 -3q-63 23 -112 23q-39 0 -64 -26t-33 -77l-12 -87h105l7 -8l-8 -53h-113l-26 -189l-29 -210l-4 -108l-96 -7l45 314l27 200h-69l-5 7l7 54h75l9 64q15 97 64 147t140 50l122 -17zM437 111l-4 -108l-95 -7l85 600l2 101l96 7z" />
    <glyph glyph-name="f_j" unicode="fj" horiz-adv-x="514" 
d="M473 461l-50 -349l-9 -92q-10 -78 -44.5 -126t-106.5 -88l-30 42l1 11q45 30 66 65t28 92l48 341l1 33h-170l-26 -189l-29 -210l-4 -108l-97 -7l46 314l26 200h-68l-5 7l7 54h75l7 56q14 97 61 147t134 50l114 -23l4 -8l-23 -73l-14 -3q-57 37 -100 37q-35 0 -58 -26.5
t-30 -76.5l-11 -80h174l77 16z" />
    <glyph glyph-name="Gtilde" unicode="&#x7e;G" horiz-adv-x="578" 
d="M570 605l-33 -92l-10 -2q-44 30 -80 42.5t-79 12.5q-226 0 -226 -310q0 -94 39.5 -138t122.5 -44q23 0 46.5 4.5t60.5 16.5l11 67l11 102l92 7l-13 -95l-15 -145q-58 -20 -104 -29.5t-97 -9.5q-125 0 -190 67.5t-65 189.5q0 191 90 295t256 104q100 0 183 -43zM535 831
v-9l-64 -76l-11 -4q-16 2 -44.5 9.5t-38.5 10.5q-59 17 -72 17q-9 0 -18 -7.5t-25 -24.5q-4 -6 -15 -17h-10l-29 30v9l64 76l11 3q34 -5 85 -20q54 -15 69 -15q10 0 20.5 8.5t22.5 21t17 18.5h8z" />
    <glyph glyph-name="gtilde" unicode="&#x7e;g" horiz-adv-x="450" 
d="M408 463l-50 -351l-7 -72q-10 -73 -44.5 -127t-85 -82.5t-109.5 -28.5q-68 0 -112 38.5t-56 109.5l4 10l139 78l1 9q-23 19 -33.5 48.5t-10.5 72.5q0 70 25.5 133.5t76 108t121.5 57.5h5l67 -24l58 26zM159.5 340q-31.5 -54 -31.5 -138q0 -47 8.5 -70.5t18.5 -23.5
t34 28.5t56 81.5t64 124l2 15l1 12l-63 25q-58 0 -89.5 -54zM287 189h-12q-55 -103 -133 -167l-86 -63q-6 -6 -8.5 -9.5t-2.5 -9.5q0 -26 24.5 -46.5t63.5 -20.5q50 0 85 36.5t45 104.5zM441 649v-9l-64 -76l-11 -4q-16 2 -44.5 9.5t-38.5 10.5q-59 17 -72 17q-9 0 -18 -7.5
t-25 -24.5q-4 -6 -15 -17h-10l-29 30v9l64 76l11 3q34 -5 85 -20q54 -15 69 -15q10 0 20.5 8.5t22.5 21t17 18.5h8z" />
    <glyph glyph-name=".notdef" horiz-adv-x="161" 
 />
    <glyph glyph-name=".null" 
 />
    <glyph glyph-name="nonmarkingreturn" unicode="&#xd;" horiz-adv-x="141" 
 />
    <glyph glyph-name="space" unicode=" " horiz-adv-x="141" 
 />
    <glyph glyph-name="exclam" unicode="!" horiz-adv-x="265" 
d="M247 650l-79 -426l-56 -7l-10 11l48 418l11 11l77 5zM154.5 90q13.5 -14 13.5 -39q0 -26 -14.5 -41t-39.5 -15t-39 14t-14 39q0 26 15.5 41t40.5 15q24 0 37.5 -14z" />
    <glyph glyph-name="quotedbl" unicode="&#x22;" horiz-adv-x="306" 
d="M187 632l-52 -195l-49 -7l-7 7l27 197l75 6zM314 632l-52 -195l-49 -7l-7 7l27 197l76 6z" />
    <glyph glyph-name="numbersign" unicode="#" horiz-adv-x="526" 
d="M389 362l-24 -112h101l6 -7l-5 -52h-115l-34 -159h-56l-6 7l32 152h-106l-34 -159h-57l-5 7l32 152h-91l-7 7l4 52h107l24 112h-94l-7 7l5 51h108l33 154h56l6 -9l-31 -145h106l33 154h56l7 -9l-31 -145h98l7 -6l-6 -52h-112zM325 362h-106l-24 -112h106z" />
    <glyph glyph-name="dollar" unicode="$" horiz-adv-x="426" 
d="M278 439l-21 -159q54 -25 84 -53t30 -76q0 -53 -40 -97t-110 -56l-16 -129h-48l-8 9l15 116q-36 2 -73.5 10t-67.5 23l18 81l11 5q23 -24 56 -39t63 -17l21 162q-57 26 -88.5 54t-31.5 78q0 56 42.5 99t114.5 52l16 139h48l9 -9l-17 -129q61 -3 107 -23l-21 -77l-14 -4
q-38 32 -79 40zM166 332q13 -14 38 -27l17 132q-32 -7 -50 -27t-18 -44q0 -20 13 -34zM246 193l-17 -130q28 10 44.5 29t16.5 42q0 34 -44 59z" />
    <glyph glyph-name="percent" unicode="%" horiz-adv-x="841" 
d="M705 656l5 -15l-560 -732l-39 25l-4 12l561 735zM337.5 611q32.5 -36 32.5 -103q0 -103 -46.5 -160.5t-133.5 -57.5q-61 0 -93.5 36.5t-32.5 103.5q0 102 47 159.5t133 57.5q61 0 93.5 -36zM154 545q-26 -36 -26 -103q0 -90 73 -90q53 0 78.5 36.5t25.5 103.5
q0 89 -75 89q-50 0 -76 -36zM765.5 315.5q32.5 -35.5 32.5 -103.5q0 -102 -46.5 -159.5t-133.5 -57.5q-61 0 -93.5 36.5t-32.5 103.5q0 101 47 158.5t133 57.5q61 0 93.5 -35.5zM582 250q-26 -36 -26 -103q0 -90 73 -90q53 0 78.5 36.5t25.5 102.5q0 90 -75 90
q-50 0 -76 -36z" />
    <glyph glyph-name="ampersand" unicode="&#x26;" horiz-adv-x="642" 
d="M416.5 643q37.5 -8 81.5 -26l-25 -79l-14 -4q-73 44 -138 44q-56 0 -87.5 -27.5t-31.5 -79.5q0 -49 25.5 -76.5t71.5 -29.5l265 14l103 14l9 -14l-18 -66l-163 -8l-2 -5q26 -40 26 -98t-28 -106t-84.5 -76.5t-137.5 -28.5q-101 0 -158.5 43t-57.5 116q0 56 36.5 101
t108.5 76v4q-39 21 -60 56.5t-21 83.5q0 82 59 131t163 49q40 0 77.5 -8zM256 296q-108 -50 -108 -134q0 -48 35.5 -75.5t97.5 -27.5q76 0 116 39t40 104q0 31 -10.5 57t-30.5 42z" />
    <glyph glyph-name="quotesingle" unicode="'" horiz-adv-x="179" 
d="M187 632l-52 -195l-49 -7l-7 7l27 197l75 6z" />
    <glyph glyph-name="parenleft" unicode="(" horiz-adv-x="290" 
d="M323 630l-1 -8q-102 -75 -141.5 -207t-39.5 -263q0 -89 20.5 -147.5t71.5 -105.5l-1 -8l-40 -32h-9q-66 54 -93.5 121.5t-27.5 172.5q0 148 49 288.5t171 220.5h9z" />
    <glyph glyph-name="parenright" unicode=")" horiz-adv-x="306" 
d="M-28 -109l1 8q102 75 141.5 207t39.5 263q0 89 -20.5 147.5t-71.5 105.5l1 8l40 32h9q66 -54 93.5 -121.5t27.5 -172.5q0 -148 -49 -288.5t-171 -220.5h-9z" />
    <glyph glyph-name="asterisk" unicode="*" horiz-adv-x="378" 
d="M281 729l-25 -120l-37 -5l-6 8l-2 114q31 11 66 11zM199 597l-5 -37l-9 -4l-102 34q0 40 9 67l9 2zM402 575l-4 -5l-114 -14l-16 34l4 9l100 37q22 -32 30 -61zM279 537l63 -92q-16 -25 -47 -48l-8 1l-44 115l26 25zM223 520l1 -10l-58 -94q-24 7 -62 30v8l87 83z" />
    <glyph glyph-name="plus" unicode="+" horiz-adv-x="477" 
d="M302 468l-22 -171h170l8 -7l-14 -60h-172l-21 -173l-61 -5l-6 7l20 171h-171l-5 7l13 60h171l22 173l61 6z" />
    <glyph glyph-name="comma" unicode="," horiz-adv-x="229" 
d="M149 29q0 -72 -103 -147l-33 29v8q55 44 55 91q0 29 -31 52v9q34 21 69 31q43 -29 43 -73z" />
    <glyph glyph-name="hyphen" unicode="-" horiz-adv-x="306" 
d="M286 298l-8 -61l-244 -35l-8 8l8 62l244 34z" />
    <glyph glyph-name="period" unicode="." horiz-adv-x="230" 
d="M132.5 90q13.5 -14 13.5 -39q0 -26 -15 -41t-40 -15t-38.5 14t-13.5 39q0 26 15 41t41 15q24 0 37.5 -14z" />
    <glyph glyph-name="slash" unicode="/" horiz-adv-x="286" 
d="M321 669l-260 -783h-68l-5 9l260 784h66z" />
    <glyph glyph-name="zero" unicode="0" horiz-adv-x="529" 
d="M441 453q49 -54 49 -166q0 -87 -29.5 -153.5t-87 -104t-136.5 -37.5q-94 0 -143.5 54.5t-49.5 164.5q0 86 30.5 153t88 105t137.5 38q92 0 141 -54zM164 366q-42 -52 -42 -143q0 -74 29.5 -109.5t94.5 -35.5q81 0 123.5 51t42.5 142q0 75 -30.5 111t-95.5 36
q-80 0 -122 -52z" />
    <glyph glyph-name="one" unicode="1" horiz-adv-x="349" 
d="M269 495l-41 -288l-20 -207h-98l29 196l24 198l-128 -34l-8 5l9 77l221 63z" />
    <glyph glyph-name="two" unicode="2" horiz-adv-x="461" 
d="M358 475q38 -30 38 -80q0 -41 -32.5 -86.5t-119.5 -135.5l-90 -94l2 -4h165l87 7l6 -6l-22 -80l-108 4h-225l-37 -2l-6 4l8 60l153 149q65 63 92.5 98t27.5 63q0 23 -16 36.5t-47 13.5q-33 0 -71 -17.5t-72 -47.5h-12l-6 75q97 73 187 73q60 0 98 -30z" />
    <glyph glyph-name="three" unicode="3" horiz-adv-x="419" 
d="M331.5 472.5q42.5 -33.5 42.5 -87.5q0 -43 -30.5 -86t-88.5 -70v-4q51 -15 77 -45t26 -79q0 -56 -33.5 -101t-91.5 -71t-130 -26q-52 0 -105 11l4 84l9 8q49 -26 102 -26q67 0 108.5 31t41.5 84q0 37 -26.5 58.5t-78.5 23.5h-62l-5 6l11 68l46 1q27 0 56 14.5t48.5 40.5
t19.5 57q0 29 -19 45.5t-53 16.5q-31 0 -62 -14t-68 -42h-11l-4 75q43 31 82 46t80 15q72 0 114.5 -33.5z" />
    <glyph glyph-name="four" unicode="4" horiz-adv-x="488" 
d="M433 68l-91 2l-15 -154l-7 -7l-75 -6l-5 7l23 160h-178l-73 -2l-6 9l7 64l292 360h91l-45 -356h90l5 -9zM100 145h174l30 241h-7z" />
    <glyph glyph-name="five" unicode="5" horiz-adv-x="422" 
d="M412 498l-19 -76l-8 -7l-79 7h-136l-19 -141l62 -13q152 -32 152 -152q0 -59 -34.5 -108t-95 -77.5t-133.5 -28.5q-44 0 -103 11l4 83l8 8q56 -26 111 -26q67 0 108.5 35.5t41.5 90.5q0 71 -98 91l-98 18l-7 8l33 269l16 13l55 -2h137l97 4z" />
    <glyph glyph-name="six" unicode="6" horiz-adv-x="474" 
d="M153 322l6 -8q32 20 59 29.5t57 9.5q45 0 80.5 -21t55.5 -56.5t20 -78.5q0 -45 -20.5 -92t-67 -80t-120.5 -33q-90 0 -138 51t-48 140q0 76 35 152.5t112 145t197 113.5h5l72 -44l-1 -10q-238 -74 -304 -218zM190.5 269.5q-32.5 -13.5 -62.5 -39.5q-2 -28 -2 -42
q0 -60 22 -93.5t79 -33.5q61 0 87.5 36.5t26.5 89.5q0 46 -22.5 71t-65.5 25q-30 0 -62.5 -13.5z" />
    <glyph glyph-name="seven" unicode="7" horiz-adv-x="423" 
d="M157 501h226l44 2l-7 -72l-235 -403l-64 -129l-77 24l-4 16l284 481h-193l-82 -9l-6 10l17 83z" />
    <glyph glyph-name="eight" unicode="8" horiz-adv-x="482" 
d="M394.5 557q43.5 -36 43.5 -99q0 -53 -30.5 -88.5t-80.5 -60.5l-1 -5q47 -24 72.5 -54.5t25.5 -83.5q0 -50 -25.5 -89.5t-72 -62t-107.5 -22.5q-84 0 -133.5 40.5t-49.5 106.5q0 56 35 91t98 63l1 5q-38 22 -59 50.5t-21 76.5q0 49 23.5 87t66.5 59.5t98 21.5
q73 0 116.5 -36zM199.5 499.5q-29.5 -25.5 -29.5 -66.5q0 -38 22 -58.5t67 -39.5q47 21 73.5 46.5t26.5 67.5q0 36 -21.5 56t-61.5 20q-47 0 -76.5 -25.5zM149 220q-30 -24 -30 -69q0 -43 26.5 -67.5t75.5 -24.5q54 0 88 29t34 72q0 39 -26 60.5t-82 44.5q-56 -21 -86 -45z
" />
    <glyph glyph-name="nine" unicode="9" horiz-adv-x="474" 
d="M326 179l-6 8q-32 -20 -59 -29.5t-57 -9.5q-45 0 -80.5 21t-55.5 56.5t-20 78.5q0 45 20.5 92t67 80t120.5 33q90 0 138 -51t48 -140q0 -76 -35 -152.5t-112 -145t-197 -113.5h-5l-72 44l1 10q238 74 304 218zM288.5 231.5q32.5 13.5 62.5 39.5q2 28 2 42q0 60 -22 93.5
t-79 33.5q-61 0 -87.5 -36.5t-26.5 -89.5q0 -46 22.5 -71t65.5 -25q30 0 62.5 13.5z" />
    <glyph glyph-name="colon" unicode=":" horiz-adv-x="229" 
d="M131.5 90q13.5 -14 13.5 -39q0 -26 -15 -41t-40 -15t-38.5 14t-13.5 39q0 26 15 41t41 15q24 0 37.5 -14zM164.5 357q13.5 -14 13.5 -39q0 -26 -15 -41t-40 -15t-38.5 14t-13.5 39q0 26 15 41t41 15q24 0 37.5 -14z" />
    <glyph glyph-name="semicolon" unicode=";" horiz-adv-x="229" 
d="M147 29q0 -72 -103 -147l-33 29v8q55 44 55 91q0 29 -31 52v9q34 21 69 31q43 -29 43 -73zM162.5 357q13.5 -14 13.5 -39q0 -26 -15 -41t-40 -15t-38.5 14t-13.5 39q0 26 15 41t41 15q24 0 37.5 -14z" />
    <glyph glyph-name="less" unicode="&#x3c;" horiz-adv-x="497" 
d="M463 410l-5 -9l-347 -133v-6l315 -126l-21 -55l-11 -7l-360 149l9 80l9 10l397 153z" />
    <glyph glyph-name="equal" unicode="=" horiz-adv-x="478" 
d="M469 376l-6 -60h-411l-7 7l6 60h410zM447 203l-6 -60h-411l-7 7l6 60h410z" />
    <glyph glyph-name="greater" unicode="&#x3e;" horiz-adv-x="503" 
d="M469 313l6 -10l-9 -80l-399 -149l-9 7l-7 55l347 126v6l-314 133l-3 9l28 56z" />
    <glyph glyph-name="question" unicode="?" horiz-adv-x="335" 
d="M316.5 619q62.5 -38 62.5 -101q0 -43 -27 -81.5t-77 -66.5l-86 -51l-3 -4l-5 -92l-70 -9l-5 8l5 123l7 9l100 54q71 38 71 95q0 84 -179 96l-6 9l24 50l12 6q114 -7 176.5 -45zM173.5 90q13.5 -14 13.5 -39q0 -26 -15 -41t-40 -15t-38.5 14t-13.5 39q0 26 15 41t41 15
q24 0 37.5 -14z" />
    <glyph glyph-name="at" unicode="@" horiz-adv-x="831" 
d="M712.5 81q-91.5 -79 -260.5 -84l27 189h-11q-69 -118 -147 -194h-16q-85 43 -85 160q0 70 27 136.5t81 114.5t130 62h5l67 -23l56 24l10 -6l-49 -349l-2 -44q91 12 142 73.5t51 159.5q0 77 -34 135.5t-97 90.5t-148 32q-106 0 -187.5 -46t-126.5 -127.5t-45 -185.5
q0 -107 47.5 -184.5t133.5 -118.5t201 -41l4 -10l-29 -47q-127 1 -223 48t-148.5 134.5t-52.5 206.5q0 125 53.5 224t151.5 154.5t225 55.5q102 0 179.5 -39t119.5 -111t42 -168q0 -143 -91.5 -222zM369.5 118.5q27.5 30.5 63 89.5t69.5 139l1 8l1 15l-63 23q-64 0 -102 -61
t-38 -153q0 -49 8.5 -70t20.5 -21t39.5 30.5z" />
    <glyph glyph-name="A" unicode="A" horiz-adv-x="561" 
d="M515 0h-99l-7 71l-16 92l-129 3l-117 -2l-40 -89l-26 -75h-97l298 642h115zM380 244l-51 300h-8l-136 -299l96 -2z" />
    <glyph glyph-name="B" unicode="B" horiz-adv-x="532" 
d="M467 283q27 -32 27 -83q0 -100 -71.5 -152t-214.5 -52q-95 0 -150 4h-1l30 193l51 449l185 1q81 0 127 -35t46 -102q0 -60 -29.5 -104.5t-83.5 -67.5q57 -19 84 -51zM371 548q-24 18 -78 18h-68l-27 -201l98 -3q99 24 99 127q0 41 -24 59zM351.5 105.5
q42.5 32.5 42.5 91.5q0 78 -94 92l-113 -1l-12 -87l-12 -124q48 -4 69 -4q77 0 119.5 32.5z" />
    <glyph glyph-name="C" unicode="C" horiz-adv-x="503" 
d="M530 603l-30 -87l-9 -3q-58 53 -137 53q-99 0 -153 -76.5t-54 -217.5q0 -96 38 -146t109 -50q41 0 82.5 14.5t78.5 41.5l9 -6l-20 -90q-42 -23 -81 -33t-84 -10q-113 0 -174.5 69t-61.5 195q0 121 38 209t111 135t174 47q97 0 164 -45z" />
    <glyph glyph-name="D" unicode="D" horiz-adv-x="627" 
d="M545.5 580.5q64.5 -65.5 64.5 -185.5q0 -124 -39.5 -214t-116 -138.5t-185.5 -48.5q-42 0 -101 1.5t-110 4.5h-1l30 193l51 449h1l224 4q118 0 182.5 -65.5zM449.5 150.5q56.5 77.5 56.5 227.5q0 95 -38 141t-116 46q-54 0 -126 -4l-51 -360l-11 -121q35 -3 69.5 -5
t55.5 -2q104 0 160.5 77.5z" />
    <glyph glyph-name="E" unicode="E" horiz-adv-x="475" 
d="M226 560l-27 -192l112 -2l101 3l5 -7l-16 -76l-108 3l-105 -2l-12 -86l-12 -120l119 -2l147 5l3 -8l-15 -76h-361l30 193l51 449h362l5 -9l-17 -76l-145 4z" />
    <glyph glyph-name="F" unicode="F" horiz-adv-x="426" 
d="M226 560l-29 -206l96 -2l103 3l5 -9l-17 -74l-109 3l-89 -1l-10 -73l-20 -201h-99l30 193l51 449h342l5 -9l-18 -78l-141 6z" />
    <glyph glyph-name="G" unicode="G" horiz-adv-x="578" 
d="M570 605l-33 -92l-10 -2q-44 30 -80 42.5t-79 12.5q-226 0 -226 -310q0 -94 39.5 -138t122.5 -44q23 0 46.5 4.5t60.5 16.5l11 67l11 102l92 7l-13 -95l-15 -145q-58 -20 -104 -29.5t-97 -9.5q-125 0 -190 67.5t-65 189.5q0 191 90 295t256 104q100 0 183 -43z" />
    <glyph glyph-name="H" unicode="H" horiz-adv-x="662" 
d="M629 642l-61 -441l-20 -201h-98l29 193l10 89l-159 3l-144 -3l-11 -81l-19 -201h-99l29 193l51 449h99l-38 -276l150 -3l150 3l31 276h100z" />
    <glyph glyph-name="I" unicode="I" horiz-adv-x="270" 
d="M175 201l-19 -201h-99l29 193l51 449h99z" />
    <glyph glyph-name="J" unicode="J" horiz-adv-x="311" 
d="M212 212l-9 -93q-10 -78 -56 -128t-149 -94l-28 54l1 11q71 36 102.5 70.5t38.5 87.5l11 83l40 362l-113 -2l-8 8l14 71h216z" />
    <glyph glyph-name="K" unicode="K" horiz-adv-x="539" 
d="M175 201l-20 -201h-99l30 193l51 449h99zM303 337q89 -151 214 -316l-3 -12q-51 -12 -97 -18l-10 5q-122 185 -207 340l1 6l223 242l45 58h108z" />
    <glyph glyph-name="L" unicode="L" horiz-adv-x="409" 
d="M388 74l-17 -74h-315l31 193l50 449h99l-60 -441l-12 -119h219z" />
    <glyph glyph-name="M" unicode="M" horiz-adv-x="761" 
d="M678 0h-88l13 195l8 296h-7l-210 -419h-79l-95 419h-8l-64 -288l-41 -203h-82l143 642h112l17 -97l75 -346h8l169 350l41 93h111z" />
    <glyph glyph-name="N" unicode="N" horiz-adv-x="662" 
d="M567 191l-20 -191h-104l-230 488h-7l-35 -274l-23 -214h-91l29 190l53 452h103l230 -489h7l58 484l93 7z" />
    <glyph glyph-name="O" unicode="O" horiz-adv-x="618" 
d="M538.5 581.5q62.5 -67.5 62.5 -192.5q0 -122 -37.5 -211t-110 -137.5t-174.5 -48.5q-111 0 -173.5 69.5t-62.5 195.5q0 184 83 288t237 104q113 0 175.5 -67.5zM195.5 491.5q-51.5 -76.5 -51.5 -229.5q0 -97 35.5 -144t109.5 -47q208 0 208 308q0 97 -35.5 143t-109.5 46
q-105 0 -156.5 -76.5z" />
    <glyph glyph-name="P" unicode="P" horiz-adv-x="514" 
d="M467 600q48 -43 48 -126q0 -73 -32.5 -131t-93 -91t-140.5 -33h-71l-2 -18l-20 -201h-99l30 193l51 449l197 1q84 0 132 -43zM380.5 349.5q32.5 44.5 32.5 109.5q0 52 -24.5 77.5t-80.5 28.5l-82 -3l-37 -264l105 -3q54 10 86.5 54.5z" />
    <glyph glyph-name="Q" unicode="Q" horiz-adv-x="617" 
d="M680 -129q-19 -35 -45 -63l-8 -3q-94 25 -179 73t-154 114h-15q-111 0 -173.5 69.5t-62.5 195.5q0 184 83.5 288t236.5 104q113 0 175.5 -67.5t62.5 -192.5q0 -148 -55 -247t-158 -133q128 -94 290 -126zM179.5 118q35.5 -47 109.5 -47q208 0 208 308q0 97 -35.5 143
t-109.5 46q-105 0 -156.5 -76.5t-51.5 -229.5q0 -97 35.5 -144z" />
    <glyph glyph-name="R" unicode="R" horiz-adv-x="547" 
d="M476.5 349.5q-39.5 -59.5 -109.5 -92.5q57 -119 126 -234l-2 -11q-49 -17 -96 -21l-10 8q-64 135 -102 232h-104l-4 -30l-19 -201h-99l29 193l52 449l200 1q83 0 130.5 -41.5t47.5 -117.5q0 -75 -39.5 -134.5zM191 311l107 -3q115 36 115 160q0 92 -105 97l-82 -3z" />
    <glyph glyph-name="S" unicode="S" horiz-adv-x="464" 
d="M457 617l-27 -90l-17 -6q-26 23 -57.5 35.5t-63.5 12.5q-51 0 -82 -27t-31 -65q0 -33 24.5 -56t76.5 -54q45 -27 73.5 -49t48.5 -54.5t20 -77.5q0 -54 -29.5 -98t-82.5 -70t-119 -26q-43 0 -90 11.5t-86 32.5l25 97l12 6q31 -34 72 -51.5t79 -17.5q53 0 86 28t33 69
q0 35 -25 58t-77 55q-44 26 -71.5 47.5t-47 54t-19.5 76.5q0 53 29.5 96.5t80.5 68.5t115 25q76 0 150 -31z" />
    <glyph glyph-name="T" unicode="T" horiz-adv-x="475" 
d="M508 633l-17 -75l-109 6h-52l-50 -363l-20 -201h-99l31 193l40 371h-52l-113 -6l-6 9l18 75h424z" />
    <glyph glyph-name="U" unicode="U" horiz-adv-x="606" 
d="M547 315l-9 -74q-14 -120 -80.5 -184.5t-181.5 -64.5q-99 0 -155 49t-56 139q0 25 3 53l13 88l37 321h97l-53 -396q-3 -24 -3 -43q0 -126 124 -126q146 0 164 159l45 406h98z" />
    <glyph glyph-name="V" unicode="V" horiz-adv-x="548" 
d="M298 0h-116l-119 642h100l6 -72l82 -474h6l215 469l26 77h96z" />
    <glyph glyph-name="W" unicode="W" horiz-adv-x="859" 
d="M611 0h-102l-65 351h-8l-156 -351h-104l-105 642h96l2 -67l76 -470h7l167 377l-29 160h101l5 -77l78 -460h7l207 464l24 73h92z" />
    <glyph glyph-name="X" unicode="X" horiz-adv-x="573" 
d="M360 329l159 -329h-114l-19 56l-102 202l-158 -208l-32 -50h-102l243 327l-155 315h115l19 -56l95 -189l143 192l32 53h105z" />
    <glyph glyph-name="Y" unicode="Y" horiz-adv-x="518" 
d="M295 226l-6 -42l-19 -184h-99l30 184l4 44l-143 414h102l7 -39l89 -273h9l167 270l21 42h105z" />
    <glyph glyph-name="Z" unicode="Z" horiz-adv-x="514" 
d="M520 570l-391 -492h234l98 8l4 -6l-18 -82l-123 2h-259l-63 -3l10 72l392 494h-218l-100 -8l-4 6l19 82l376 -1l52 1z" />
    <glyph glyph-name="bracketleft" unicode="[" horiz-adv-x="291" 
d="M328 641l-6 -45l-116 -13l-79 -648l113 -12l-6 -46l-6 -5l-187 10l51 377l41 378l191 10z" />
    <glyph glyph-name="backslash" unicode="\" horiz-adv-x="298" 
d="M24 669l8 10h66l206 -784l-7 -9h-67z" />
    <glyph glyph-name="bracketright" unicode="]" horiz-adv-x="291" 
d="M-30 -122l6 45l116 13l79 648l-113 12l6 46l6 5l187 -10l-51 -377l-41 -378l-191 -10z" />
    <glyph glyph-name="asciicircum" unicode="^" horiz-adv-x="429" 
d="M399 138l-8 -9l-57 -14l-88 307h-6l-170 -305l-10 -5l-53 21l196 354l11 6h80z" />
    <glyph glyph-name="underscore" unicode="_" horiz-adv-x="448" 
d="M423 -95l-12 -56h-465l-7 7l12 56h466z" />
    <glyph glyph-name="grave" unicode="`" horiz-adv-x="400" 
d="M313 558l-25 -38l-10 -1q-60 39 -179 124l-2 10l36 52l10 1q61 -57 170 -148z" />
    <glyph glyph-name="a" unicode="a" horiz-adv-x="447" 
d="M405 463l-49 -352l-4 -108l-96 -7l26 182h-11q-65 -111 -140 -186h-16q-87 41 -87 161q0 69 26.5 136t80 115.5t129.5 63.5h5l67 -24l59 25zM181 123q26 30 59.5 89t67.5 141v15l-63 24q-60 0 -95 -60t-35 -152q0 -47 8 -67t19 -20q13 0 39 30z" />
    <glyph glyph-name="b" unicode="b" horiz-adv-x="449" 
d="M418 307q0 -70 -26.5 -137t-80 -115.5t-128.5 -62.5h-5l-74 16l-60 11l82 577l1 101l96 7l-59 -422h12q61 107 140 186h16q86 -42 86 -161zM297 127.5q35 60.5 35 151.5q0 48 -8 68.5t-19 20.5q-12 0 -38 -29.5t-59.5 -87t-66.5 -136.5l-2 -30l63 -18q60 0 95 60.5z" />
    <glyph glyph-name="c" unicode="c" horiz-adv-x="343" 
d="M341 446l6 -13l-26 -74l-20 -2q-19 22 -34 29.5t-33 7.5q-52 0 -82.5 -56.5t-30.5 -155.5q0 -60 12 -84.5t40 -24.5q48 0 97 83l13 -1l29 -38q-31 -53 -65 -81t-81 -43h-14q-64 10 -92 47.5t-28 122.5q0 86 26.5 155t80.5 109.5t134 40.5z" />
    <glyph glyph-name="d" unicode="d" horiz-adv-x="449" 
d="M441 704l-84 -593l-4 -108l-96 -7l26 182h-11q-64 -109 -141 -186h-17q-87 41 -87 161q0 69 27 136t81 116t130 63h5l51 -19l21 147l2 101zM179 121.5q26 29.5 60.5 87.5t67.5 137l3 22l-64 24q-61 0 -97 -60t-36 -151q0 -48 8 -68.5t20 -20.5t38 29.5z" />
    <glyph glyph-name="e" unicode="e" horiz-adv-x="389" 
d="M310 147l30 -39q-64 -94 -161 -115h-13q-70 8 -102.5 48.5t-32.5 120.5q0 88 29 156.5t81 108.5t119 43l10 -1q46 -7 70.5 -32t24.5 -65q0 -122 -246 -195q1 -56 17 -81t48 -25q27 0 53.5 17.5t59.5 59.5zM161.5 359q-31.5 -44 -39.5 -119q157 48 157 125q0 38 -41 38
q-45 0 -76.5 -44z" />
    <glyph glyph-name="f" unicode="f" horiz-adv-x="290" 
d="M440 681l-26 -68l-13 -2q-19 11 -42 17t-40 6q-37 0 -61.5 -26.5t-30.5 -76.5l-11 -80h105l7 -8l-8 -53h-112l-26 -189l-30 -210l-4 -108l-96 -7l45 314l27 200h-69l-5 7l7 54h75l8 56q13 97 61.5 147t137.5 50l97 -15z" />
    <glyph glyph-name="g" unicode="g" horiz-adv-x="450" 
d="M408 463l-50 -351l-7 -72q-10 -73 -44.5 -127t-85 -82.5t-109.5 -28.5q-68 0 -112 38.5t-56 109.5l4 10l139 78l1 9q-23 19 -33.5 48.5t-10.5 72.5q0 70 25.5 133.5t76 108t121.5 57.5h5l67 -24l58 26zM159.5 340q-31.5 -54 -31.5 -138q0 -47 8.5 -70.5t18.5 -23.5
t34 28.5t56 81.5t64 124l2 15l1 12l-63 25q-58 0 -89.5 -54zM287 189h-12q-55 -103 -133 -167l-86 -63q-6 -6 -8.5 -9.5t-2.5 -9.5q0 -26 24.5 -46.5t63.5 -20.5q50 0 85 36.5t45 104.5z" />
    <glyph glyph-name="h" unicode="h" horiz-adv-x="479" 
d="M407.5 434.5q24.5 -23.5 23.5 -58.5l-1 -13l-40 -253l-5 -107l-98 -7l53 330l1 11q0 26 -18 26q-28 0 -76 -66t-107 -190l-4 -104l-96 -7l86 600l1 101l96 7l-62 -445h10q45 76 82.5 124.5t78.5 82.5h11q40 -8 64.5 -31.5z" />
    <glyph glyph-name="i" unicode="i" horiz-adv-x="225" 
d="M138 111l-5 -108l-95 -7l52 361l4 101l93 7zM199.5 657q13.5 -14 13.5 -39q0 -26 -15 -41t-40 -15t-38.5 14t-13.5 39q0 26 15 41t41 15q24 0 37.5 -14z" />
    <glyph glyph-name="j" unicode="j" horiz-adv-x="242" 
d="M201 460l-50 -348l-9 -92q-10 -78 -45 -126t-111 -88l-31 43l1 10q47 30 70 64.5t30 92.5l47 340l2 34h-73l-5 7l8 54h68l94 13zM209.5 657q13.5 -14 13.5 -39q0 -26 -15 -41t-40 -15t-38.5 14t-13.5 39q0 26 15 41t41 15q24 0 37.5 -14z" />
    <glyph glyph-name="k" unicode="k" horiz-adv-x="477" 
d="M316 182q46 -82 106 -173l-4 -7l-80 -14l-9 4q-46 76 -97 184l3 15q123 79 123 144q0 28 -20 28q-32 0 -83 -65t-115 -199l-3 -96l-96 -7l85 600l2 101l96 7l-62 -440h12q49 75 89.5 123t82.5 78l14 1q43 -9 67.5 -35t24.5 -70q0 -96 -136 -179z" />
    <glyph glyph-name="l" unicode="l" horiz-adv-x="251" 
d="M148 111l-4 -108l-95 -7l85 600l2 101l96 7z" />
    <glyph glyph-name="m" unicode="m" horiz-adv-x="730" 
d="M658.5 434.5q24.5 -23.5 23.5 -58.5l-1 -13l-41 -253l-5 -107l-97 -7l52 330l1 11q0 26 -17 26q-29 0 -77.5 -67.5t-108.5 -195.5l-5 -97l-98 -7l53 330l1 11q0 26 -18 26q-28 0 -76 -66t-107 -190l-4 -104l-96 -7l52 361l4 101l94 7l-29 -206h10q45 76 82.5 124.5
t78.5 82.5h11q40 -8 64.5 -31.5t23.5 -58.5l-1 -13l-16 -104h10q45 76 82.5 124.5t78.5 82.5h11q40 -8 64.5 -31.5z" />
    <glyph glyph-name="n" unicode="n" horiz-adv-x="477" 
d="M405 434.5q25 -23.5 24 -58.5l-1 -13l-40 -253l-5 -107l-98 -7l53 330l1 11q0 26 -18 26q-28 0 -76 -66t-107 -190l-4 -104l-96 -7l52 361l4 101l94 7l-29 -206h10q45 76 82.5 124.5t78.5 82.5h11q39 -8 64 -31.5z" />
    <glyph glyph-name="o" unicode="o" horiz-adv-x="420" 
d="M273 469q57 -11 86.5 -49t29.5 -108q0 -141 -60.5 -227t-168.5 -94l-10 1q-59 12 -88.5 51t-29.5 112q0 90 28 159.5t80 110t123 44.5h10zM151 330.5q-31 -62.5 -31 -175.5q0 -48 12.5 -69t42.5 -21q62 0 93 63.5t31 176.5q0 48 -12.5 68t-41.5 20q-63 0 -94 -62.5z" />
    <glyph glyph-name="p" unicode="p" horiz-adv-x="446" 
d="M419 307q0 -70 -27 -137t-80.5 -115.5t-128.5 -62.5h-5l-54 12l-11 -79l-4 -110l-96 -7l78 549l4 101l94 7l-26 -183h13q62 108 141 186h16q86 -42 86 -161zM297 127q35 60 35 152q0 48 -8 68.5t-19 20.5q-12 0 -38.5 -30.5t-60.5 -89.5t-67 -140l-3 -22l66 -19
q60 0 95 60z" />
    <glyph glyph-name="q" unicode="q" horiz-adv-x="446" 
d="M405 463l-76 -541l-4 -107l-96 -7l53 370h-12q-65 -111 -140 -186h-16q-87 41 -87 161q0 69 27 136t80 116t129 63h6l67 -24l59 25zM179.5 122.5q26.5 30.5 60.5 89.5t67 141v3l1 12l-64 24q-61 0 -96 -60t-35 -151q0 -48 8 -68.5t19 -20.5q13 0 39.5 30.5z" />
    <glyph glyph-name="r" unicode="r" horiz-adv-x="335" 
d="M356 463l-18 -126l-8 -5l-11 2q-33 -5 -60 -26t-56.5 -70t-65.5 -137l-4 -98l-96 -7l53 361l4 101l93 7l-28 -199h10q31 60 69.5 108.5t91.5 90.5z" />
    <glyph glyph-name="s" unicode="s" horiz-adv-x="326" 
d="M318 442l-26 -85l-14 -4q-42 48 -85 48q-26 0 -43.5 -18t-17.5 -41q0 -20 15 -35t45 -36q44 -30 67.5 -57.5t23.5 -71.5q0 -43 -23.5 -77t-65 -53.5t-94.5 -19.5q-59 8 -107 33l24 88l13 5q21 -30 48 -46t53 -16q29 0 47 18.5t18 42.5q0 22 -15.5 38.5t-48.5 38.5
q-43 31 -65.5 57t-22.5 68q0 43 25 77t67 53t92 19q44 -10 90 -26z" />
    <glyph glyph-name="t" unicode="t" horiz-adv-x="338" 
d="M161 122l-2 -16q0 -12 5.5 -19t17.5 -7q16 0 35 16.5t44 54.5h10l27 -33q-35 -58 -64.5 -86.5t-66.5 -38.5q-45 0 -70 23.5t-24 66.5l2 25l41 251l4 31h-66l-6 7l6 54h74l13 106l88 37l7 -7l-22 -136h116l7 -8l-6 -53h-127z" />
    <glyph glyph-name="u" unicode="u" horiz-adv-x="478" 
d="M436 465l-51 -354l-3 -108l-96 -7l29 204h-8q-45 -75 -82 -122t-78 -81h-11q-40 8 -65 31t-24 58l1 14l41 253l7 106l94 8l-50 -322l-2 -21v-3q0 -21 18 -21q28 0 75 64.5t105 187.5l1 5l4 101z" />
    <glyph glyph-name="v" unicode="v" horiz-adv-x="419" 
d="M412 387q0 -55 -44 -134l-147 -253h-105l-51 458l94 7l3 -82l21 -283h8l100 179q30 55 30 92q0 31 -22 66l4 11l88 19q21 -39 21 -80z" />
    <glyph glyph-name="w" unicode="w" horiz-adv-x="694" 
d="M505 0h-101l-31 333h-9l-143 -333h-103l-53 458l93 7l1 -65l25 -293h9l124 287l23 67h100l3 -61l26 -292h7l90 171q15 30 22.5 51.5t7.5 40.5q0 31 -22 66l4 11l88 19q21 -39 21 -80q0 -29 -11 -61.5t-33 -72.5z" />
    <glyph glyph-name="x" unicode="x" horiz-adv-x="451" 
d="M395 4l-104 -10l-15 54l-60 128l-94 -129l-25 -47h-104l172 238l-100 218l101 11l13 -44l58 -123l89 118l24 42h100l-167 -228z" />
    <glyph glyph-name="y" unicode="y" horiz-adv-x="425" 
d="M418 386q0 -32 -10 -64t-31 -70l-134 -240q-61 -111 -115.5 -159t-119.5 -48q-36 0 -81 14l4 82l9 8q36 -9 65 -9q44 0 77.5 21t65.5 68l-96 468l95 8l10 -82l43 -275h13l84 161q32 58 32 109q0 34 -21 65l4 11l84 13q22 -48 22 -81z" />
    <glyph glyph-name="z" unicode="z" horiz-adv-x="414" 
d="M395 449l-274 -359l30 7q12 0 44 -10q4 -1 18 -5t24 -4q40 0 58.5 25t22.5 89l13 7l45 -21q-4 -95 -40 -141.5t-99 -46.5q-20 0 -38.5 4.5t-45.5 13.5q-43 15 -67 15q-18 0 -32 -6.5t-30 -22.5h-11l-29 27l272 361l-120 -1l-74 -10l-8 7l18 85l9 6l72 -5l185 -3l28 16z
" />
    <glyph glyph-name="braceleft" unicode="{" horiz-adv-x="291" 
d="M320 648l3 -8l-15 -51q-22 5 -36 5q-36 0 -53 -23t-17 -71q0 -17 1 -31.5t2 -25.5q3 -30 3 -54q0 -89 -81 -123l-1 -4q28 -13 42 -36.5t14 -53.5q0 -17 -5.5 -36.5t-16.5 -52.5t-16.5 -54t-5.5 -40q0 -56 53 -56q14 0 37 5l3 -51l-6 -7q-25 -8 -57 -8q-54 0 -81 24.5
t-27 72.5q0 24 6 49.5t17 63.5q19 61 19 85q0 59 -67 72l6 48q46 10 67 35.5t21 73.5l-1 51q-2 40 -2 58q0 150 139 150q23 0 55 -7z" />
    <glyph glyph-name="bar" unicode="|" horiz-adv-x="312" 
d="M263 793l-63 -504l-67 -546l-68 -4l-6 9l65 535l64 511l69 5z" />
    <glyph glyph-name="braceright" unicode="}" horiz-adv-x="291" 
d="M-20 -121l-3 8l15 51q22 -5 36 -5q36 0 53 23t17 71q0 17 -1 31.5t-2 25.5q-3 30 -3 54q0 89 81 123l1 4q-28 13 -42 36.5t-14 53.5q0 17 5.5 36.5t16.5 52.5t16.5 54t5.5 40q0 56 -53 56q-14 0 -37 -5l-3 51l6 7q25 8 57 8q54 0 81 -24.5t27 -72.5q0 -24 -6 -49.5
t-17 -63.5q-19 -61 -19 -85q0 -59 67 -72l-6 -48q-46 -10 -67 -35.5t-21 -73.5l1 -51q2 -40 2 -58q0 -150 -139 -150q-23 0 -55 7z" />
    <glyph glyph-name="asciitilde" unicode="~" horiz-adv-x="480" 
d="M128.5 240.5q-13.5 -9.5 -34.5 -28.5l-18 -15h-10l-22 33l1 10l86 79l11 5q18 -3 50 -12.5t45 -12.5q81 -25 101 -25q10 0 23.5 9t36.5 30l16 14h10l21 -33l-1 -10l-85 -80l-12 -4q-21 3 -56.5 13.5t-42.5 12.5q-8 2 -44.5 13t-51.5 11q-10 0 -23.5 -9.5z" />
    <glyph glyph-name="uni00A0" unicode="&#xa0;" horiz-adv-x="141" 
 />
    <glyph glyph-name="exclamdown" unicode="&#xa1;" horiz-adv-x="266" 
d="M23 -185l79 426l56 7l10 -11l-48 -418l-11 -11l-77 -5zM115.5 375q-13.5 14 -13.5 39q0 26 14.5 41t39.5 15t39 -14t14 -39q0 -26 -15.5 -41t-40.5 -15q-24 0 -37.5 14z" />
    <glyph glyph-name="cent" unicode="&#xa2;" horiz-adv-x="390" 
d="M272 443l-55 -331q40 19 75 80l12 -1l26 -35q-27 -45 -57 -71t-67 -40l-27 -166h-48l-6 9l23 149q-57 12 -84 50t-27 120q0 112 47 191.5t140 101.5l25 153h48l7 -9l-22 -137h8l72 -21l6 -11l-22 -62l-17 -3q-28 28 -57 33zM124 141q11 -27 35 -35l55 331
q-48 -17 -74.5 -73.5t-26.5 -142.5q0 -53 11 -80z" />
    <glyph glyph-name="sterling" unicode="&#xa3;" horiz-adv-x="430" 
d="M430 577l-14 -73l-6 -5q-53 33 -101 33q-43 0 -68.5 -24t-30.5 -70l-13 -100h128l3 -6l-11 -47h-127l-15 -115q-5 -36 -17 -59t-35 -39v-4h158l95 7l3 -7l-15 -70l-107 2h-255l-4 6l11 51q75 16 85 105l15 123h-71l-3 6l10 47h70l11 87q9 81 60 124.5t136 43.5
q53 0 108 -16z" />
    <glyph glyph-name="currency" unicode="&#xa4;" horiz-adv-x="436" 
d="M442 507l-2 -10l-75 -63q17 -28 17 -65q0 -49 -35 -90l62 -61v-10l-48 -44l-10 1l-54 67q-41 -26 -83 -26q-20 0 -39.5 6.5t-33.5 18.5l-69 -69h-10l-40 42l3 10l74 62q-17 28 -17 66q0 45 36 90l-61 61v10l47 44h10l56 -69q37 25 81 25q43 0 72 -23l70 68l10 1z
M169.5 418q-31.5 -30 -31.5 -73q0 -37 23 -60t60 -23q45 0 76 29.5t31 73.5q0 36 -23.5 59.5t-60.5 23.5q-43 0 -74.5 -30z" />
    <glyph glyph-name="yen" unicode="&#xa5;" horiz-adv-x="534" 
d="M502 298l4 -4l-9 -42h-149l-58 -83v-4h194l5 -6l-8 -41h-198l-12 -118h-81l18 118h-178l-4 5l8 42h180l1 8l-32 79h-137l-3 6l8 40h113l-82 201h86l8 -30l86 -209h7l149 206l18 33h85l-140 -201h121z" />
    <glyph glyph-name="brokenbar" unicode="&#xa6;" horiz-adv-x="312" 
d="M263 793l-52 -419l-69 -8l-6 6l51 422l70 5zM183 150l-50 -407l-67 -4l-7 9l50 404l67 8z" />
    <glyph glyph-name="section" unicode="&#xa7;" horiz-adv-x="401" 
d="M198.5 477.5q19.5 -18.5 59.5 -45.5q56 -38 86.5 -70t30.5 -80q0 -44 -30 -83t-80 -62q41 -41 41 -88q0 -40 -25 -74t-68.5 -54.5t-95.5 -20.5q-33 0 -70 8t-65 23l21 80l10 7q26 -27 57.5 -41.5t63.5 -14.5q38 0 63.5 21t25.5 46q0 23 -20 42t-61 46q-56 37 -86.5 69.5
t-30.5 79.5q0 45 30 84.5t80 62.5q-40 40 -40 86q0 40 24.5 74t67.5 54.5t94 20.5q59 0 112 -22l-21 -79l-13 -3q-52 40 -99 40q-34 0 -57.5 -21t-23.5 -45q0 -22 19.5 -40.5zM291 257q0 27 -21 49t-64 52l-21 15q-37 -17 -56.5 -38.5t-19.5 -44.5q0 -26 21 -47t63 -50
q16 -10 24 -16q74 30 74 80z" />
    <glyph glyph-name="dieresis" unicode="&#xa8;" horiz-adv-x="393" 
d="M195 647q12 -12 12 -34q0 -23 -13.5 -37t-36.5 -14q-22 0 -34 12t-12 35t13.5 36.5t36.5 13.5q22 0 34 -12zM363.5 647q12.5 -12 12.5 -34q0 -23 -13.5 -37t-36.5 -14q-22 0 -34 12.5t-12 34.5q0 23 13 36.5t36 13.5q22 0 34.5 -12z" />
    <glyph glyph-name="copyright" unicode="&#xa9;" horiz-adv-x="692" 
d="M509 560q67 -38 104 -107t37 -160t-37 -160t-104 -107t-156 -38q-88 0 -155.5 38t-104.5 107t-37 160t37 160t104.5 107t155.5 38q89 0 156 -38zM217.5 526.5q-58.5 -33.5 -91 -94t-32.5 -139.5t32.5 -139.5t91 -94t135.5 -33.5t135.5 33.5t91 94t32.5 139.5t-32.5 139.5
t-91 94t-135.5 33.5t-135.5 -33.5zM463 444l-13 -53l-6 -3q-16 10 -36.5 15.5t-39.5 5.5q-94 0 -94 -109q0 -118 95 -118q19 0 41 5.5t40 14.5l7 -2l-6 -54q-42 -20 -86 -20q-79 0 -119.5 43t-40.5 125t43 126.5t123 44.5q43 0 92 -21z" />
    <glyph glyph-name="ordfeminine" unicode="&#xaa;" horiz-adv-x="317" 
d="M324 644l-32 -237l-5 -72l-71 -6l17 130l-1 -4h-8q-42 -81 -88 -127h-12q-37 13 -51.5 37.5t-14.5 65.5q0 77 40.5 137.5t116.5 76.5h4l53 -7l45 11zM184 437q29 42 60 110l3 23l1 15l-43 8q-37 -1 -58 -38t-21 -96q0 -32 6 -48t13 -16q10 0 39 42z" />
    <glyph glyph-name="guillemotleft" unicode="&#xab;" horiz-adv-x="407" 
d="M225 220l2 18l163 171l43 -26v-11l-135 -146l100 -146l-4 -11l-49 -25zM53 220l2 18l163 171l43 -26v-11l-135 -146l100 -146l-4 -11l-49 -25z" />
    <glyph glyph-name="logicalnot" unicode="&#xac;" horiz-adv-x="480" 
d="M434 290l-29 -233l-60 -5l-7 7l21 171h-325l-6 7l12 60h389z" />
    <glyph glyph-name="uni00AD" unicode="&#xad;" horiz-adv-x="306" 
d="M286 298l-8 -61l-244 -35l-8 8l8 62l244 34z" />
    <glyph glyph-name="registered" unicode="&#xae;" horiz-adv-x="441" 
d="M354 652q50 -50 50 -132q0 -83 -50 -133.5t-133 -50.5t-133 50.5t-50 133.5q0 82 50 132t133 50t133 -50zM333.5 407.5q42.5 42.5 42.5 112.5q0 69 -42.5 111t-111.5 42q-70 0 -112.5 -41.5t-42.5 -111.5t42.5 -112.5t112.5 -42.5q69 0 111.5 42.5zM286 531.5
q-10 -15.5 -29 -25.5q31 -45 52 -69l-1 -4q-14 -5 -39 -7l-4 3q-18 25 -41 67h-33v-5l2 -62h-40l1 58l-1 136h77q32 0 49 -15t17 -43q0 -18 -10 -33.5zM192 528l34 -2q29 11 29 35q0 30 -38 32l-24 -1z" />
    <glyph glyph-name="macron" unicode="&#xaf;" horiz-adv-x="386" 
d="M387 636l-5 -56h-282l-7 8l5 55h283z" />
    <glyph glyph-name="degree" unicode="&#xb0;" horiz-adv-x="293" 
d="M279 616.5q32 -32.5 32 -80.5q0 -37 -20 -69t-53 -51t-70 -19q-50 0 -82 32.5t-32 80.5q0 38 20 70t53 50.5t71 18.5q49 0 81 -32.5zM128 577.5q-28 -26.5 -28 -62.5q0 -30 21 -51.5t51 -21.5q38 0 65.5 26t27.5 63q0 31 -20.5 52t-51.5 21q-37 0 -65 -26.5z" />
    <glyph glyph-name="plusminus" unicode="&#xb1;" horiz-adv-x="478" 
d="M302 468l-22 -171h170l8 -7l-14 -60h-172l-21 -173l-61 -5l-6 7l20 171h-171l-5 7l13 60h171l22 173l61 6zM415 -40l-6 -60h-411l-7 7l6 60h410z" />
    <glyph glyph-name="uni00B2" unicode="&#xb2;" horiz-adv-x="353" 
d="M306 681q31 -23 31 -60q0 -31 -23.5 -65.5t-80.5 -94.5l-73 -77l1 -2h116l66 3l3 -6l-16 -62l-85 3h-166l-27 -1l-4 3l5 48l111 109q49 49 69 75.5t20 48.5q0 16 -11.5 26t-32.5 10q-23 0 -50.5 -13t-52.5 -36h-9l-7 60q74 54 139 54q46 0 77 -23z" />
    <glyph glyph-name="uni00B3" unicode="&#xb3;" horiz-adv-x="312" 
d="M272.5 681.5q32.5 -23.5 32.5 -60.5q0 -28 -18.5 -54t-55.5 -42l-1 -3q66 -18 66 -80q0 -56 -50 -91t-130 -35q-40 0 -71 7l3 56l6 5q42 -10 70 -10q43 0 69 17.5t26 46.5q0 45 -62 48h-45l-4 4l7 53h32q28 1 51.5 19.5t23.5 43.5q0 18 -12 27.5t-33 9.5q-36 0 -84 -30
h-9l-6 53q31 20 57.5 29.5t56.5 9.5q48 0 80.5 -23.5z" />
    <glyph glyph-name="acute" unicode="&#xb4;" horiz-adv-x="378" 
d="M308 705l36 -52l-2 -10q-119 -85 -179 -124l-10 1l-25 38q109 91 170 148z" />
    <glyph glyph-name="uni00B5" unicode="&#xb5;" horiz-adv-x="475" 
d="M438 465l-51 -354l-3 -108l-96 -7l29 204h-8q-69 -120 -149 -203h-12q-21 11 -33 25l-6 -207l-97 -7l79 549l4 101l93 7l-47 -341v-6q0 -10 4 -14t13 -4q28 0 75 64.5t106 188.5l1 4l4 101z" />
    <glyph glyph-name="paragraph" unicode="&#xb6;" horiz-adv-x="499" 
d="M525 633l-16 -67h-71l-50 -379l-6 -55q-8 -70 -53.5 -120t-142.5 -92l-22 45l2 10q59 33 88.5 69t34.5 82l6 47l46 394h-54q-60 -7 -92.5 -46.5t-32.5 -103.5q0 -50 26 -86t76 -54l-39 -53q-80 17 -123 65.5t-43 122.5q0 107 71 168.5t192 61.5h197z" />
    <glyph glyph-name="periodcentered" unicode="&#xb7;" horiz-adv-x="229" 
d="M156.5 288q13.5 -14 13.5 -39q0 -26 -15 -41t-40 -15t-38.5 14t-13.5 39q0 26 15 41t41 15q24 0 37.5 -14z" />
    <glyph glyph-name="cedilla" unicode="&#xb8;" horiz-adv-x="385" 
d="M155 -50l34 -20q39 -22 39 -57q0 -31 -23.5 -50.5t-62.5 -19.5q-41 0 -76 31l9 45l5 2q15 -15 28.5 -22.5t28.5 -7.5q14 0 22 6t8 18q0 14 -20 23l-48 29l23 94h53z" />
    <glyph glyph-name="uni00B9" unicode="&#xb9;" horiz-adv-x="264" 
d="M237 697l-32 -242l-14 -135h-81l18 126l21 171l-86 -20l-5 4l8 62l162 43z" />
    <glyph glyph-name="ordmasculine" unicode="&#xba;" horiz-adv-x="302" 
d="M224 648q80 -14 80 -107q0 -95 -42.5 -152.5t-115.5 -61.5l-7 1q-81 11 -81 110q0 92 42.5 149t114.5 61h9zM145.5 552.5q-19.5 -41.5 -19.5 -114.5q0 -31 8 -45t26 -14q74 0 74 157q0 31 -7 44.5t-24 13.5q-38 0 -57.5 -41.5z" />
    <glyph glyph-name="guillemotright" unicode="&#xbb;" horiz-adv-x="407" 
d="M353 234l-2 -18l-163 -171l-43 26v11l135 146l-100 146l4 11l49 25zM181 234l-2 -18l-163 -171l-43 26v11l135 146l-100 146l4 11l49 25z" />
    <glyph glyph-name="onequarter" unicode="&#xbc;" horiz-adv-x="716" 
d="M230 639l-32 -242l-14 -135h-81l18 126l21 171l-86 -20l-5 4l8 62l162 43zM616 656l5 -15l-561 -732l-38 25l-4 12l561 735zM664 95l-57 2l-7 -92l-6 -5l-63 -3l-4 4l14 96h-113l-55 -2l-5 6l6 50l195 230h73l-29 -224h57l4 -8zM446 157h103l17 136h-5z" />
    <glyph glyph-name="onehalf" unicode="&#xbd;" horiz-adv-x="727" 
d="M230 639l-32 -242l-14 -135h-81l18 126l21 171l-86 -20l-5 4l8 62l162 43zM616 656l5 -15l-561 -732l-38 25l-4 12l561 735zM641 361q31 -23 31 -60q0 -31 -23.5 -65.5t-80.5 -94.5l-73 -77l1 -2h116l66 3l3 -6l-16 -62l-85 3h-166l-27 -1l-4 3l5 48l111 109
q49 49 69 75.5t20 48.5q0 16 -11.5 26t-32.5 10q-23 0 -50.5 -13t-52.5 -36h-9l-7 60q74 54 139 54q46 0 77 -23z" />
    <glyph glyph-name="threequarters" unicode="&#xbe;" horiz-adv-x="754" 
d="M265.5 623.5q32.5 -23.5 32.5 -60.5q0 -28 -18.5 -54t-55.5 -42l-1 -3q66 -18 66 -80q0 -56 -50 -91t-130 -35q-40 0 -71 7l3 56l6 5q42 -10 70 -10q43 0 69 17.5t26 46.5q0 45 -62 48h-45l-4 4l7 53h32q28 1 51.5 19.5t23.5 43.5q0 18 -12 27.5t-33 9.5q-36 0 -84 -30
h-9l-6 53q31 20 57.5 29.5t56.5 9.5q48 0 80.5 -23.5zM654 656l5 -15l-561 -732l-38 25l-4 12l561 735zM702 95l-57 2l-7 -92l-6 -5l-63 -3l-4 4l14 96h-113l-55 -2l-5 6l6 50l195 230h73l-29 -224h57l4 -8zM484 157h103l17 136h-5z" />
    <glyph glyph-name="questiondown" unicode="&#xbf;" horiz-adv-x="334" 
d="M22.5 -154q-62.5 38 -62.5 101q0 43 27 81.5t77 66.5l86 51l3 4l5 92l70 9l5 -8l-5 -123l-7 -9l-100 -54q-71 -38 -71 -95q0 -84 179 -96l6 -9l-24 -50l-12 -6q-114 7 -176.5 45zM165.5 375q-13.5 14 -13.5 39q0 26 15 41t40 15t38.5 -14t13.5 -39q0 -26 -15 -41t-41 -15
q-24 0 -37.5 14z" />
    <glyph glyph-name="Agrave" unicode="&#xc0;" horiz-adv-x="561" 
d="M515 0h-99l-7 71l-16 92l-129 3l-117 -2l-40 -89l-26 -75h-97l298 642h115zM380 244l-51 300h-8l-136 -299l96 -2zM447 766l-18 -42l-10 -4q-112 44 -201 83l-4 10l25 57l10 3q75 -45 198 -107z" />
    <glyph glyph-name="Aacute" unicode="&#xc1;" horiz-adv-x="561" 
d="M515 0h-99l-7 71l-16 92l-129 3l-117 -2l-40 -89l-26 -75h-97l298 642h115zM380 244l-51 300h-8l-136 -299l96 -2zM447 870l25 -57l-4 -10q-78 -35 -201 -83l-11 4l-17 42q130 66 198 107z" />
    <glyph glyph-name="Acircumflex" unicode="&#xc2;" horiz-adv-x="561" 
d="M515 0h-99l-7 71l-16 92l-129 3l-117 -2l-40 -89l-26 -75h-97l298 642h115zM380 244l-51 300h-8l-136 -299l96 -2zM217 763q71 47 128 95h24q45 -42 116 -95l-23 -40h-10l-97 65q-21 -13 -39 -23t-32 -18l-42 -24h-11z" />
    <glyph glyph-name="Atilde" unicode="&#xc3;" horiz-adv-x="561" 
d="M515 0h-99l-7 71l-16 92l-129 3l-117 -2l-40 -89l-26 -75h-97l298 642h115zM380 244l-51 300h-8l-136 -299l96 -2zM516 831v-9l-64 -76l-11 -4q-16 2 -44.5 9.5t-38.5 10.5q-59 17 -72 17q-9 0 -18 -7.5t-25 -24.5q-4 -6 -15 -17h-10l-29 30v9l64 76l11 3q34 -5 85 -20
q54 -15 69 -15q10 0 20.5 8.5t22.5 21t17 18.5h8z" />
    <glyph glyph-name="Adieresis" unicode="&#xc4;" horiz-adv-x="561" 
d="M515 0h-99l-7 71l-16 92l-129 3l-117 -2l-40 -89l-26 -75h-97l298 642h115zM380 244l-51 300h-8l-136 -299l96 -2zM305 829q12 -12 12 -34q0 -23 -13.5 -37t-36.5 -14q-22 0 -34 12t-12 35t13.5 36.5t36.5 13.5q22 0 34 -12zM473.5 829q12.5 -12 12.5 -34
q0 -23 -13.5 -37t-36.5 -14q-22 0 -34 12.5t-12 34.5q0 23 13 36.5t36 13.5q22 0 34.5 -12z" />
    <glyph glyph-name="Aring" unicode="&#xc5;" horiz-adv-x="561" 
d="M515 0h-99l-7 71l-16 92l-129 3l-117 -2l-40 -89l-26 -75h-97l298 642h115zM380 244l-51 300h-8l-136 -299l96 -2zM420 865q22 -23 22 -61q0 -42 -25 -65.5t-65 -23.5q-38 0 -61.5 22.5t-23.5 63.5t23.5 64t65.5 23t64 -23zM311 802q0 -21 11.5 -32t32.5 -11
q20 0 31.5 10.5t11.5 30.5t-11 31.5t-34 11.5q-42 0 -42 -41z" />
    <glyph glyph-name="AE" unicode="&#xc6;" horiz-adv-x="778" 
d="M747 76l-17 -76h-348l4 71l-1 176l-223 -54l-71 -118l-36 -75h-99l393 642h382l5 -9l-17 -76l-152 5h-89v-218l204 47l7 -6l-2 -71l-208 -45v-191h106l157 6zM384 322l-2 222h-6l-159 -261z" />
    <glyph glyph-name="Ccedilla" unicode="&#xc7;" horiz-adv-x="503" 
d="M530 603l-30 -87l-9 -3q-58 53 -137 53q-99 0 -153 -76.5t-54 -217.5q0 -96 38 -146t109 -50q41 0 82.5 14.5t78.5 41.5l9 -6l-20 -90q-42 -23 -81 -33t-84 -10q-113 0 -174.5 69t-61.5 195q0 121 38 209t111 135t174 47q97 0 164 -45zM315 -50l34 -20q39 -22 39 -57
q0 -31 -23.5 -50.5t-62.5 -19.5q-41 0 -76 31l9 45l5 2q15 -15 28.5 -22.5t28.5 -7.5q14 0 22 6t8 18q0 14 -20 23l-48 29l23 94h53z" />
    <glyph glyph-name="Egrave" unicode="&#xc8;" horiz-adv-x="475" 
d="M226 560l-27 -192l112 -2l101 3l5 -7l-16 -76l-108 3l-105 -2l-12 -86l-12 -120l119 -2l147 5l3 -8l-15 -76h-361l30 193l51 449h362l5 -9l-17 -76l-145 4zM425 766l-18 -42l-10 -4q-112 44 -201 83l-4 10l25 57l10 3q75 -45 198 -107z" />
    <glyph glyph-name="Eacute" unicode="&#xc9;" horiz-adv-x="475" 
d="M226 560l-27 -192l112 -2l101 3l5 -7l-16 -76l-108 3l-105 -2l-12 -86l-12 -120l119 -2l147 5l3 -8l-15 -76h-361l30 193l51 449h362l5 -9l-17 -76l-145 4zM425 870l25 -57l-4 -10q-78 -35 -201 -83l-11 4l-17 42q130 66 198 107z" />
    <glyph glyph-name="Ecircumflex" unicode="&#xca;" horiz-adv-x="475" 
d="M226 560l-27 -192l112 -2l101 3l5 -7l-16 -76l-108 3l-105 -2l-12 -86l-12 -120l119 -2l147 5l3 -8l-15 -76h-361l30 193l51 449h362l5 -9l-17 -76l-145 4zM195 763q71 47 128 95h24q45 -42 116 -95l-23 -40h-10l-97 65q-21 -13 -39 -23t-32 -18l-42 -24h-11z" />
    <glyph glyph-name="Edieresis" unicode="&#xcb;" horiz-adv-x="475" 
d="M226 560l-27 -192l112 -2l101 3l5 -7l-16 -76l-108 3l-105 -2l-12 -86l-12 -120l119 -2l147 5l3 -8l-15 -76h-361l30 193l51 449h362l5 -9l-17 -76l-145 4zM283 829q12 -12 12 -34q0 -23 -13.5 -37t-36.5 -14q-22 0 -34 12t-12 35t13.5 36.5t36.5 13.5q22 0 34 -12z
M451.5 829q12.5 -12 12.5 -34q0 -23 -13.5 -37t-36.5 -14q-22 0 -34 12.5t-12 34.5q0 23 13 36.5t36 13.5q22 0 34.5 -12z" />
    <glyph glyph-name="Igrave" unicode="&#xcc;" horiz-adv-x="270" 
d="M175 201l-19 -201h-99l29 193l51 449h99zM298 766l-18 -42l-10 -4q-112 44 -201 83l-4 10l25 57l10 3q75 -45 198 -107z" />
    <glyph glyph-name="Iacute" unicode="&#xcd;" horiz-adv-x="270" 
d="M175 201l-19 -201h-99l29 193l51 449h99zM298 870l25 -57l-4 -10q-78 -35 -201 -83l-11 4l-17 42q130 66 198 107z" />
    <glyph glyph-name="Icircumflex" unicode="&#xce;" horiz-adv-x="270" 
d="M175 201l-19 -201h-99l29 193l51 449h99zM68 763q71 47 128 95h24q45 -42 116 -95l-23 -40h-10l-97 65q-21 -13 -39 -23t-32 -18l-42 -24h-11z" />
    <glyph glyph-name="Eth" unicode="&#xd0;" horiz-adv-x="653" 
d="M570.5 580.5q64.5 -65.5 64.5 -185.5q0 -124 -39.5 -214t-116 -138.5t-185.5 -48.5q-42 0 -101 1.5t-110 4.5h-1l30 193l51 449h1l224 4q118 0 182.5 -65.5zM474.5 150.5q56.5 77.5 56.5 227.5q0 95 -38 141t-116 46q-54 0 -126 -4l-51 -360l-11 -121q35 -3 69.5 -5
t55.5 -2q104 0 160.5 77.5zM367.349 349l-7.31152 -60h-327.684l-3.98828 7l8.64062 60h327.02z" />
    <glyph glyph-name="Ntilde" unicode="&#xd1;" horiz-adv-x="662" 
d="M567 191l-20 -191h-104l-230 488h-7l-35 -274l-23 -214h-91l29 190l53 452h103l230 -489h7l58 484l93 7zM564 831v-9l-64 -76l-11 -4q-16 2 -44.5 9.5t-38.5 10.5q-59 17 -72 17q-9 0 -18 -7.5t-25 -24.5q-4 -6 -15 -17h-10l-29 30v9l64 76l11 3q34 -5 85 -20
q54 -15 69 -15q10 0 20.5 8.5t22.5 21t17 18.5h8z" />
    <glyph glyph-name="Ograve" unicode="&#xd2;" horiz-adv-x="618" 
d="M538.5 581.5q62.5 -67.5 62.5 -192.5q0 -122 -37.5 -211t-110 -137.5t-174.5 -48.5q-111 0 -173.5 69.5t-62.5 195.5q0 184 83 288t237 104q113 0 175.5 -67.5zM195.5 491.5q-51.5 -76.5 -51.5 -229.5q0 -97 35.5 -144t109.5 -47q208 0 208 308q0 97 -35.5 143t-109.5 46
q-105 0 -156.5 -76.5zM472 766l-18 -42l-10 -4q-112 44 -201 83l-4 10l25 57l10 3q75 -45 198 -107z" />
    <glyph glyph-name="Oacute" unicode="&#xd3;" horiz-adv-x="618" 
d="M538.5 581.5q62.5 -67.5 62.5 -192.5q0 -122 -37.5 -211t-110 -137.5t-174.5 -48.5q-111 0 -173.5 69.5t-62.5 195.5q0 184 83 288t237 104q113 0 175.5 -67.5zM195.5 491.5q-51.5 -76.5 -51.5 -229.5q0 -97 35.5 -144t109.5 -47q208 0 208 308q0 97 -35.5 143t-109.5 46
q-105 0 -156.5 -76.5zM472 870l25 -57l-4 -10q-78 -35 -201 -83l-11 4l-17 42q130 66 198 107z" />
    <glyph glyph-name="Ocircumflex" unicode="&#xd4;" horiz-adv-x="618" 
d="M538.5 581.5q62.5 -67.5 62.5 -192.5q0 -122 -37.5 -211t-110 -137.5t-174.5 -48.5q-111 0 -173.5 69.5t-62.5 195.5q0 184 83 288t237 104q113 0 175.5 -67.5zM195.5 491.5q-51.5 -76.5 -51.5 -229.5q0 -97 35.5 -144t109.5 -47q208 0 208 308q0 97 -35.5 143t-109.5 46
q-105 0 -156.5 -76.5zM242 763q71 47 128 95h24q45 -42 116 -95l-23 -40h-10l-97 65q-21 -13 -39 -23t-32 -18l-42 -24h-11z" />
    <glyph glyph-name="Otilde" unicode="&#xd5;" horiz-adv-x="618" 
d="M538.5 581.5q62.5 -67.5 62.5 -192.5q0 -122 -37.5 -211t-110 -137.5t-174.5 -48.5q-111 0 -173.5 69.5t-62.5 195.5q0 184 83 288t237 104q113 0 175.5 -67.5zM195.5 491.5q-51.5 -76.5 -51.5 -229.5q0 -97 35.5 -144t109.5 -47q208 0 208 308q0 97 -35.5 143t-109.5 46
q-105 0 -156.5 -76.5zM541 831v-9l-64 -76l-11 -4q-16 2 -44.5 9.5t-38.5 10.5q-59 17 -72 17q-9 0 -18 -7.5t-25 -24.5q-4 -6 -15 -17h-10l-29 30v9l64 76l11 3q34 -5 85 -20q54 -15 69 -15q10 0 20.5 8.5t22.5 21t17 18.5h8z" />
    <glyph glyph-name="multiply" unicode="&#xd7;" horiz-adv-x="481" 
d="M429 395l-1 -11l-136 -120l106 -121l-1 -10l-51 -40l-108 122l-138 -122l-40 40l1 9l136 122l-106 120l1 11l50 39l109 -123l136 123z" />
    <glyph glyph-name="Oslash" unicode="&#xd8;" horiz-adv-x="619" 
d="M580 514.5q21 -53.5 21 -125.5q0 -122 -37.5 -211t-110 -137.5t-174.5 -48.5q-56 0 -100 18l-68 -117l-54 22l-3 9l69 120q-39 34 -59.5 88t-20.5 125q0 184 83 288t237 104q56 0 98 -16l54 95l54 -22l4 -11l-55 -95q41 -32 62 -85.5zM172 129l245 427q-28 12 -65 12
q-105 0 -156.5 -76.5t-51.5 -229.5q0 -86 28 -133zM497 379q0 86 -29 133l-247 -428q27 -13 68 -13q208 0 208 308z" />
    <glyph glyph-name="Ugrave" unicode="&#xd9;" horiz-adv-x="606" 
d="M547 315l-9 -74q-14 -120 -80.5 -184.5t-181.5 -64.5q-99 0 -155 49t-56 139q0 25 3 53l13 88l37 321h97l-53 -396q-3 -24 -3 -43q0 -126 124 -126q146 0 164 159l45 406h98zM467 766l-18 -42l-10 -4q-112 44 -201 83l-4 10l25 57l10 3q75 -45 198 -107z" />
    <glyph glyph-name="Uacute" unicode="&#xda;" horiz-adv-x="606" 
d="M547 315l-9 -74q-14 -120 -80.5 -184.5t-181.5 -64.5q-99 0 -155 49t-56 139q0 25 3 53l13 88l37 321h97l-53 -396q-3 -24 -3 -43q0 -126 124 -126q146 0 164 159l45 406h98zM467 870l25 -57l-4 -10q-78 -35 -201 -83l-11 4l-17 42q130 66 198 107z" />
    <glyph glyph-name="Ucircumflex" unicode="&#xdb;" horiz-adv-x="606" 
d="M547 315l-9 -74q-14 -120 -80.5 -184.5t-181.5 -64.5q-99 0 -155 49t-56 139q0 25 3 53l13 88l37 321h97l-53 -396q-3 -24 -3 -43q0 -126 124 -126q146 0 164 159l45 406h98zM237 763q71 47 128 95h24q45 -42 116 -95l-23 -40h-10l-97 65q-21 -13 -39 -23t-32 -18
l-42 -24h-11z" />
    <glyph glyph-name="Udieresis" unicode="&#xdc;" horiz-adv-x="606" 
d="M547 315l-9 -74q-14 -120 -80.5 -184.5t-181.5 -64.5q-99 0 -155 49t-56 139q0 25 3 53l13 88l37 321h97l-53 -396q-3 -24 -3 -43q0 -126 124 -126q146 0 164 159l45 406h98zM327 829q12 -12 12 -34q0 -23 -13.5 -37t-36.5 -14q-22 0 -34 12t-12 35t13.5 36.5t36.5 13.5
q22 0 34 -12zM495.5 829q12.5 -12 12.5 -34q0 -23 -13.5 -37t-36.5 -14q-22 0 -34 12.5t-12 34.5q0 23 13 36.5t36 13.5q22 0 34.5 -12z" />
    <glyph glyph-name="Thorn" unicode="&#xde;" horiz-adv-x="520" 
d="M458.5 492.5q47.5 -42.5 47.5 -126.5q0 -73 -32.5 -130.5t-92.5 -90.5t-140 -33h-74l-11 -112h-98l28 193l53 449h98l-15 -108l104 1q85 0 132.5 -42.5zM371.5 242.5q32.5 44.5 32.5 109.5q0 51 -24.5 76.5t-80.5 28.5l-88 -3l-35 -253l-1 -10l110 -3q54 10 86.5 54.5z
" />
    <glyph glyph-name="germandbls" unicode="&#xdf;" horiz-adv-x="565" 
d="M399.5 314.5q14.5 -17.5 45.5 -42.5q42 -35 63.5 -63t21.5 -71q0 -41 -23 -74t-64 -52.5t-93 -19.5q-61 6 -109 33l21 83l12 6q22 -29 49 -44.5t54 -15.5q30 0 50 18.5t20 45.5q0 22 -14.5 39t-46.5 43q-41 34 -63 63t-22 71q0 44 16.5 72t49.5 63q27 27 40 47.5t13 48.5
q0 65 -77 65q-45 0 -75.5 -22.5t-39.5 -68.5l-46 -338l-30 -210l-4 -108l-95 -7l72 514h-70l-5 7l8 54h75l9 66q11 89 66 138t144 49q74 0 114.5 -33t40.5 -92q0 -44 -18 -73t-52 -63q-27 -27 -39.5 -46t-12.5 -44q0 -21 14.5 -38.5z" />
    <glyph glyph-name="agrave" unicode="&#xe0;" horiz-adv-x="447" 
d="M405 463l-49 -352l-4 -108l-96 -7l26 182h-11q-65 -111 -140 -186h-16q-87 41 -87 161q0 69 26.5 136t80 115.5t129.5 63.5h5l67 -24l59 25zM181 123q26 30 59.5 89t67.5 141v15l-63 24q-60 0 -95 -60t-35 -152q0 -47 8 -67t19 -20q13 0 39 30zM337 559l-25 -38l-10 -1
q-60 39 -179 124l-2 10l36 52l10 1q61 -57 170 -148z" />
    <glyph glyph-name="aacute" unicode="&#xe1;" horiz-adv-x="447" 
d="M405 463l-49 -352l-4 -108l-96 -7l26 182h-11q-65 -111 -140 -186h-16q-87 41 -87 161q0 69 26.5 136t80 115.5t129.5 63.5h5l67 -24l59 25zM181 123q26 30 59.5 89t67.5 141v15l-63 24q-60 0 -95 -60t-35 -152q0 -47 8 -67t19 -20q13 0 39 30zM341 706l36 -52l-2 -10
q-119 -85 -179 -124l-10 1l-25 38q109 91 170 148z" />
    <glyph glyph-name="acircumflex" unicode="&#xe2;" horiz-adv-x="447" 
d="M405 463l-49 -352l-4 -108l-96 -7l26 182h-11q-65 -111 -140 -186h-16q-87 41 -87 161q0 69 26.5 136t80 115.5t129.5 63.5h5l67 -24l59 25zM181 123q26 30 59.5 89t67.5 141v15l-63 24q-60 0 -95 -60t-35 -152q0 -47 8 -67t19 -20q13 0 39 30zM123 562q43 39 141 137h25
q54 -74 114 -137l-30 -38h-10q-56 55 -92 100q-40 -38 -117 -100h-11z" />
    <glyph glyph-name="atilde" unicode="&#xe3;" horiz-adv-x="447" 
d="M405 463l-49 -352l-4 -108l-96 -7l26 182h-11q-65 -111 -140 -186h-16q-87 41 -87 161q0 69 26.5 136t80 115.5t129.5 63.5h5l67 -24l59 25zM181 123q26 30 59.5 89t67.5 141v15l-63 24q-60 0 -95 -60t-35 -152q0 -47 8 -67t19 -20q13 0 39 30zM430 650v-9l-64 -76
l-11 -4q-16 2 -44.5 9.5t-38.5 10.5q-59 17 -72 17q-9 0 -18 -7.5t-25 -24.5q-4 -6 -15 -17h-10l-29 30v9l64 76l11 3q34 -5 85 -20q54 -15 69 -15q10 0 20.5 8.5t22.5 21t17 18.5h8z" />
    <glyph glyph-name="adieresis" unicode="&#xe4;" horiz-adv-x="447" 
d="M405 463l-49 -352l-4 -108l-96 -7l26 182h-11q-65 -111 -140 -186h-16q-87 41 -87 161q0 69 26.5 136t80 115.5t129.5 63.5h5l67 -24l59 25zM181 123q26 30 59.5 89t67.5 141v15l-63 24q-60 0 -95 -60t-35 -152q0 -47 8 -67t19 -20q13 0 39 30zM219 648q12 -12 12 -34
q0 -23 -13.5 -37t-36.5 -14q-22 0 -34 12t-12 35t13.5 36.5t36.5 13.5q22 0 34 -12zM387.5 648q12.5 -12 12.5 -34q0 -23 -13.5 -37t-36.5 -14q-22 0 -34 12.5t-12 34.5q0 23 13 36.5t36 13.5q22 0 34.5 -12z" />
    <glyph glyph-name="aring" unicode="&#xe5;" horiz-adv-x="447" 
d="M405 463l-49 -352l-4 -108l-96 -7l26 182h-11q-65 -111 -140 -186h-16q-87 41 -87 161q0 69 26.5 136t80 115.5t129.5 63.5h5l67 -24l59 25zM181 123q26 30 59.5 89t67.5 141v15l-63 24q-60 0 -95 -60t-35 -152q0 -47 8 -67t19 -20q13 0 39 30zM334 684q22 -23 22 -61
q0 -42 -25 -65.5t-65 -23.5q-38 0 -61.5 22.5t-23.5 63.5t23.5 64t65.5 23t64 -23zM225 621q0 -21 11.5 -32t32.5 -11q20 0 31.5 10.5t11.5 30.5t-11 31.5t-34 11.5q-42 0 -42 -41z" />
    <glyph glyph-name="ae" unicode="&#xe6;" horiz-adv-x="631" 
d="M505 470l11 -1q44 -8 68 -32t24 -65q0 -59 -59.5 -107.5t-188.5 -90.5q0 -7 1 -11q2 -47 17 -69.5t43 -22.5q33 0 65 24.5t51 63.5l14 -1l32 -42q-73 -101 -163 -123h-13q-72 7 -103 48t-33 118l-1 7q-67 -106 -139 -174h-15q-88 42 -88 161q0 69 27 136t81 115.5
t131 63.5h5l111 -40q55 39 122 42zM403 359q-31 -44 -40 -119q160 48 160 125q0 38 -43 38q-46 0 -77 -44zM151 332.5q-36 -60.5 -36 -151.5q0 -48 8 -68.5t19 -20.5q12 0 37 27t57 80t64 125q10 22 22 40l-74 29q-61 0 -97 -60.5z" />
    <glyph glyph-name="ccedilla" unicode="&#xe7;" horiz-adv-x="343" 
d="M341 446l6 -13l-26 -74l-20 -2q-19 22 -34 29.5t-33 7.5q-52 0 -82.5 -56.5t-30.5 -155.5q0 -60 12 -84.5t40 -24.5q48 0 97 83l13 -1l29 -38q-31 -53 -65 -81t-81 -43h-14q-64 10 -92 47.5t-28 122.5q0 86 26.5 155t80.5 109.5t134 40.5zM189 -50l34 -20q39 -22 39 -57
q0 -31 -23.5 -50.5t-62.5 -19.5q-41 0 -76 31l9 45l5 2q15 -15 28.5 -22.5t28.5 -7.5q14 0 22 6t8 18q0 14 -20 23l-48 29l23 94h53z" />
    <glyph glyph-name="egrave" unicode="&#xe8;" horiz-adv-x="389" 
d="M310 147l30 -39q-64 -94 -161 -115h-13q-70 8 -102.5 48.5t-32.5 120.5q0 88 29 156.5t81 108.5t119 43l10 -1q46 -7 70.5 -32t24.5 -65q0 -122 -246 -195q1 -56 17 -81t48 -25q27 0 53.5 17.5t59.5 59.5zM161.5 359q-31.5 -44 -39.5 -119q157 48 157 125q0 38 -41 38
q-45 0 -76.5 -44zM323 559l-25 -38l-10 -1q-60 39 -179 124l-2 10l36 52l10 1q61 -57 170 -148z" />
    <glyph glyph-name="eacute" unicode="&#xe9;" horiz-adv-x="389" 
d="M310 147l30 -39q-64 -94 -161 -115h-13q-70 8 -102.5 48.5t-32.5 120.5q0 88 29 156.5t81 108.5t119 43l10 -1q46 -7 70.5 -32t24.5 -65q0 -122 -246 -195q1 -56 17 -81t48 -25q27 0 53.5 17.5t59.5 59.5zM161.5 359q-31.5 -44 -39.5 -119q157 48 157 125q0 38 -41 38
q-45 0 -76.5 -44zM327 706l36 -52l-2 -10q-119 -85 -179 -124l-10 1l-25 38q109 91 170 148z" />
    <glyph glyph-name="ecircumflex" unicode="&#xea;" horiz-adv-x="389" 
d="M310 147l30 -39q-64 -94 -161 -115h-13q-70 8 -102.5 48.5t-32.5 120.5q0 88 29 156.5t81 108.5t119 43l10 -1q46 -7 70.5 -32t24.5 -65q0 -122 -246 -195q1 -56 17 -81t48 -25q27 0 53.5 17.5t59.5 59.5zM161.5 359q-31.5 -44 -39.5 -119q157 48 157 125q0 38 -41 38
q-45 0 -76.5 -44zM109 562q43 39 141 137h25q54 -74 114 -137l-30 -38h-10q-56 55 -92 100q-40 -38 -117 -100h-11z" />
    <glyph glyph-name="edieresis" unicode="&#xeb;" horiz-adv-x="389" 
d="M310 147l30 -39q-64 -94 -161 -115h-13q-70 8 -102.5 48.5t-32.5 120.5q0 88 29 156.5t81 108.5t119 43l10 -1q46 -7 70.5 -32t24.5 -65q0 -122 -246 -195q1 -56 17 -81t48 -25q27 0 53.5 17.5t59.5 59.5zM161.5 359q-31.5 -44 -39.5 -119q157 48 157 125q0 38 -41 38
q-45 0 -76.5 -44zM205 648q12 -12 12 -34q0 -23 -13.5 -37t-36.5 -14q-22 0 -34 12t-12 35t13.5 36.5t36.5 13.5q22 0 34 -12zM373.5 648q12.5 -12 12.5 -34q0 -23 -13.5 -37t-36.5 -14q-22 0 -34 12.5t-12 34.5q0 23 13 36.5t36 13.5q22 0 34.5 -12z" />
    <glyph glyph-name="igrave" unicode="&#xec;" horiz-adv-x="225" 
d="M138 111l-5 -108l-95 -7l52 361l4 101l93 7zM227 558l-25 -38l-10 -1q-60 39 -179 124l-2 10l36 52l10 1q61 -57 170 -148z" />
    <glyph glyph-name="iacute" unicode="&#xed;" horiz-adv-x="225" 
d="M138 111l-5 -108l-95 -7l52 361l4 101l93 7zM231 705l36 -52l-2 -10q-119 -85 -179 -124l-10 1l-25 38q109 91 170 148z" />
    <glyph glyph-name="icircumflex" unicode="&#xee;" horiz-adv-x="225" 
d="M138 111l-5 -108l-95 -7l52 361l4 101l93 7zM13 561q43 39 141 137h25q54 -74 114 -137l-30 -38h-10q-56 55 -92 100q-40 -38 -117 -100h-11z" />
    <glyph glyph-name="eth" unicode="&#xf0;" horiz-adv-x="446" 
d="M376 464q26 -70 26 -149q0 -141 -61 -228.5t-168 -95.5l-10 1q-60 12 -90 50.5t-30 112.5q0 87 27.5 155t79 107.5t120.5 42.5h10l5 -1q-23 51 -67 93l-125 -63l-7 3l-15 45l103 52q-43 32 -106 60l2 12l65 46h6q63 -30 116 -75l119 60l8 -3l16 -45l-102 -52
q52 -58 78 -128zM282.5 125.5q32.5 64.5 33.5 179.5q0 31 -5 66q-17 26 -53 26q-64 0 -97 -64t-33 -178q0 -50 13.5 -72t44.5 -22q64 0 96.5 64.5z" />
    <glyph glyph-name="ntilde" unicode="&#xf1;" horiz-adv-x="477" 
d="M405 434.5q25 -23.5 24 -58.5l-1 -13l-40 -253l-5 -107l-98 -7l53 330l1 11q0 26 -18 26q-28 0 -76 -66t-107 -190l-4 -104l-96 -7l52 361l4 101l94 7l-29 -206h10q45 76 82.5 124.5t78.5 82.5h11q39 -8 64 -31.5zM450 649v-9l-64 -76l-11 -4q-16 2 -44.5 9.5t-38.5 10.5
q-59 17 -72 17q-9 0 -18 -7.5t-25 -24.5q-4 -6 -15 -17h-10l-29 30v9l64 76l11 3q34 -5 85 -20q54 -15 69 -15q10 0 20.5 8.5t22.5 21t17 18.5h8z" />
    <glyph glyph-name="ograve" unicode="&#xf2;" horiz-adv-x="420" 
d="M273 469q57 -11 86.5 -49t29.5 -108q0 -141 -60.5 -227t-168.5 -94l-10 1q-59 12 -88.5 51t-29.5 112q0 90 28 159.5t80 110t123 44.5h10zM151 330.5q-31 -62.5 -31 -175.5q0 -48 12.5 -69t42.5 -21q62 0 93 63.5t31 176.5q0 48 -12.5 68t-41.5 20q-63 0 -94 -62.5z
M336 558l-25 -38l-10 -1q-60 39 -179 124l-2 10l36 52l10 1q61 -57 170 -148z" />
    <glyph glyph-name="oacute" unicode="&#xf3;" horiz-adv-x="420" 
d="M273 469q57 -11 86.5 -49t29.5 -108q0 -141 -60.5 -227t-168.5 -94l-10 1q-59 12 -88.5 51t-29.5 112q0 90 28 159.5t80 110t123 44.5h10zM151 330.5q-31 -62.5 -31 -175.5q0 -48 12.5 -69t42.5 -21q62 0 93 63.5t31 176.5q0 48 -12.5 68t-41.5 20q-63 0 -94 -62.5z
M340 705l36 -52l-2 -10q-119 -85 -179 -124l-10 1l-25 38q109 91 170 148z" />
    <glyph glyph-name="ocircumflex" unicode="&#xf4;" horiz-adv-x="420" 
d="M273 469q57 -11 86.5 -49t29.5 -108q0 -141 -60.5 -227t-168.5 -94l-10 1q-59 12 -88.5 51t-29.5 112q0 90 28 159.5t80 110t123 44.5h10zM151 330.5q-31 -62.5 -31 -175.5q0 -48 12.5 -69t42.5 -21q62 0 93 63.5t31 176.5q0 48 -12.5 68t-41.5 20q-63 0 -94 -62.5z
M122 561q43 39 141 137h25q54 -74 114 -137l-30 -38h-10q-56 55 -92 100q-40 -38 -117 -100h-11z" />
    <glyph glyph-name="otilde" unicode="&#xf5;" horiz-adv-x="420" 
d="M273 469q57 -11 86.5 -49t29.5 -108q0 -141 -60.5 -227t-168.5 -94l-10 1q-59 12 -88.5 51t-29.5 112q0 90 28 159.5t80 110t123 44.5h10zM151 330.5q-31 -62.5 -31 -175.5q0 -48 12.5 -69t42.5 -21q62 0 93 63.5t31 176.5q0 48 -12.5 68t-41.5 20q-63 0 -94 -62.5z
M429 649v-9l-64 -76l-11 -4q-16 2 -44.5 9.5t-38.5 10.5q-59 17 -72 17q-9 0 -18 -7.5t-25 -24.5q-4 -6 -15 -17h-10l-29 30v9l64 76l11 3q34 -5 85 -20q54 -15 69 -15q10 0 20.5 8.5t22.5 21t17 18.5h8z" />
    <glyph glyph-name="divide" unicode="&#xf7;" horiz-adv-x="477" 
d="M455 290l-6 -60h-411l-7 7l6 60h410zM258.043 129.897q12.4346 -12.8955 12.4346 -35.9219q0 -23.9482 -13.8154 -37.7646q-13.8164 -13.8164 -36.8438 -13.8164t-35.4619 12.8955q-12.4346 12.8945 -12.4346 35.9219q0 23.9482 13.8164 37.7646t37.7646 13.8164
q22.1055 0 34.54 -12.8955zM300.043 476.897q12.4346 -12.8955 12.4346 -35.9219q0 -23.9482 -13.8154 -37.7646q-13.8164 -13.8164 -36.8438 -13.8164t-35.4619 12.8955q-12.4346 12.8945 -12.4346 35.9219q0 23.9482 13.8164 37.7646t37.7646 13.8164
q22.1055 0 34.54 -12.8955z" />
    <glyph glyph-name="oslash" unicode="&#xf8;" horiz-adv-x="421" 
d="M390 312q0 -140 -61 -226.5t-169 -94.5l-9 1l-23 6l-60 -117l-51 26l-3 9l58 114q-40 42 -40 125q0 90 28 159.5t80 110t123 44.5h10q8 -1 22 -5l48 94l47 -25l6 -10l-46 -91q40 -40 40 -120zM121 125l137 267q-4 1 -13 1q-63 0 -94 -62.5t-31 -175.5q0 -21 1 -30z
M268 128.5q31 63.5 31 176.5q0 18 -1 26l-135 -265q3 -1 12 -1q62 0 93 63.5z" />
    <glyph glyph-name="ugrave" unicode="&#xf9;" horiz-adv-x="478" 
d="M436 465l-51 -354l-3 -108l-96 -7l29 204h-8q-45 -75 -82 -122t-78 -81h-11q-40 8 -65 31t-24 58l1 14l41 253l7 106l94 8l-50 -322l-2 -21v-3q0 -21 18 -21q28 0 75 64.5t105 187.5l1 5l4 101zM356 558l-25 -38l-10 -1q-60 39 -179 124l-2 10l36 52l10 1
q61 -57 170 -148z" />
    <glyph glyph-name="uacute" unicode="&#xfa;" horiz-adv-x="478" 
d="M436 465l-51 -354l-3 -108l-96 -7l29 204h-8q-45 -75 -82 -122t-78 -81h-11q-40 8 -65 31t-24 58l1 14l41 253l7 106l94 8l-50 -322l-2 -21v-3q0 -21 18 -21q28 0 75 64.5t105 187.5l1 5l4 101zM360 705l36 -52l-2 -10q-119 -85 -179 -124l-10 1l-25 38q109 91 170 148z
" />
    <glyph glyph-name="ucircumflex" unicode="&#xfb;" horiz-adv-x="478" 
d="M436 465l-51 -354l-3 -108l-96 -7l29 204h-8q-45 -75 -82 -122t-78 -81h-11q-40 8 -65 31t-24 58l1 14l41 253l7 106l94 8l-50 -322l-2 -21v-3q0 -21 18 -21q28 0 75 64.5t105 187.5l1 5l4 101zM142 561q43 39 141 137h25q54 -74 114 -137l-30 -38h-10q-56 55 -92 100
q-40 -38 -117 -100h-11z" />
    <glyph glyph-name="udieresis" unicode="&#xfc;" horiz-adv-x="478" 
d="M436 465l-51 -354l-3 -108l-96 -7l29 204h-8q-45 -75 -82 -122t-78 -81h-11q-40 8 -65 31t-24 58l1 14l41 253l7 106l94 8l-50 -322l-2 -21v-3q0 -21 18 -21q28 0 75 64.5t105 187.5l1 5l4 101zM238 647q12 -12 12 -34q0 -23 -13.5 -37t-36.5 -14q-22 0 -34 12t-12 35
t13.5 36.5t36.5 13.5q22 0 34 -12zM406.5 647q12.5 -12 12.5 -34q0 -23 -13.5 -37t-36.5 -14q-22 0 -34 12.5t-12 34.5q0 23 13 36.5t36 13.5q22 0 34.5 -12z" />
    <glyph glyph-name="thorn" unicode="&#xfe;" horiz-adv-x="448" 
d="M422 307q0 -70 -27 -137t-80.5 -115.5t-128.5 -62.5h-5l-53 12l-11 -78l-4 -111l-96 -7l110 787l4 102l93 6l-58 -424h12q70 120 142 189h15q87 -43 87 -161zM300 127.5q35 60.5 35 151.5q0 48 -8 68.5t-19 20.5q-12 0 -38.5 -30t-60.5 -89t-67 -140l-3 -24l66 -18
q60 0 95 60.5z" />
    <glyph glyph-name="ydieresis" unicode="&#xff;" horiz-adv-x="425" 
d="M418 386q0 -32 -10 -64t-31 -70l-134 -240q-61 -111 -115.5 -159t-119.5 -48q-36 0 -81 14l4 82l9 8q36 -9 65 -9q44 0 77.5 21t65.5 68l-96 468l95 8l10 -82l43 -275h13l84 161q32 58 32 109q0 34 -21 65l4 11l84 13q22 -48 22 -81zM211 648q12 -12 12 -34
q0 -23 -13.5 -37t-36.5 -14q-22 0 -34 12t-12 35t13.5 36.5t36.5 13.5q22 0 34 -12zM379.5 648q12.5 -12 12.5 -34q0 -23 -13.5 -37t-36.5 -14q-22 0 -34 12.5t-12 34.5q0 23 13 36.5t36 13.5q22 0 34.5 -12z" />
    <glyph glyph-name="Amacron" unicode="&#x100;" horiz-adv-x="561" 
d="M515 0h-99l-7 71l-16 92l-129 3l-117 -2l-40 -89l-26 -75h-97l298 642h115zM380 244l-51 300h-8l-136 -299l96 -2zM499 818l-5 -56h-282l-7 8l5 55h283z" />
    <glyph glyph-name="amacron" unicode="&#x101;" horiz-adv-x="447" 
d="M405 463l-49 -352l-4 -108l-96 -7l26 182h-11q-65 -111 -140 -186h-16q-87 41 -87 161q0 69 26.5 136t80 115.5t129.5 63.5h5l67 -24l59 25zM181 123q26 30 59.5 89t67.5 141v15l-63 24q-60 0 -95 -60t-35 -152q0 -47 8 -67t19 -20q13 0 39 30zM414 637l-5 -56h-282l-7 8
l5 55h283z" />
    <glyph glyph-name="Abreve" unicode="&#x102;" horiz-adv-x="561" 
d="M515 0h-99l-7 71l-16 92l-129 3l-117 -2l-40 -89l-26 -75h-97l298 642h115zM380 244l-51 300h-8l-136 -299l96 -2zM486 819q-45 -95 -142 -95q-49 0 -82.5 25t-43.5 70l28 33h15q8 -29 31 -44t57 -15t60 15.5t41 43.5h14z" />
    <glyph glyph-name="abreve" unicode="&#x103;" horiz-adv-x="447" 
d="M405 463l-49 -352l-4 -108l-96 -7l26 182h-11q-65 -111 -140 -186h-16q-87 41 -87 161q0 69 26.5 136t80 115.5t129.5 63.5h5l67 -24l59 25zM181 123q26 30 59.5 89t67.5 141v15l-63 24q-60 0 -95 -60t-35 -152q0 -47 8 -67t19 -20q13 0 39 30zM400 647
q-19 -55 -55 -86.5t-88 -31.5q-59 0 -89 31.5t-36 86.5l28 35h15q5 -42 27 -63t58 -21q74 0 105 84h14z" />
    <glyph glyph-name="Aogonek" unicode="&#x104;" horiz-adv-x="561" 
d="M515 0h-99l-7 71l-16 92l-129 3l-117 -2l-40 -89l-26 -75h-97l298 642h115zM380 244l-51 300h-8l-136 -299l96 -2zM451.5 -59.5q-25.5 -24.5 -33.5 -35.5t-8 -22q0 -9 6 -14.5t18 -5.5q14 0 28 7.5t32 23.5l5 -1l14 -48q-23 -21 -45 -31.5t-46 -10.5q-35 0 -56.5 17.5
t-21.5 46.5q0 30 22.5 58t81.5 75h67q-38 -35 -63.5 -59.5z" />
    <glyph glyph-name="aogonek" unicode="&#x105;" horiz-adv-x="447" 
d="M405 463l-49 -352l-4 -108l-96 -7l26 182h-11q-65 -111 -140 -186h-16q-87 41 -87 161q0 69 26.5 136t80 115.5t129.5 63.5h5l67 -24l59 25zM181 123q26 30 59.5 89t67.5 141v15l-63 24q-60 0 -95 -60t-35 -152q0 -47 8 -67t19 -20q13 0 39 30zM288.5 -56.5
q-25.5 -24.5 -33.5 -35.5t-8 -22q0 -9 6 -14.5t18 -5.5q14 0 28 7.5t32 23.5l5 -1l14 -48q-23 -21 -45 -31.5t-46 -10.5q-35 0 -56.5 17.5t-21.5 46.5q0 30 22.5 58t81.5 75h67q-38 -35 -63.5 -59.5z" />
    <glyph glyph-name="Cacute" unicode="&#x106;" horiz-adv-x="503" 
d="M530 603l-30 -87l-9 -3q-58 53 -137 53q-99 0 -153 -76.5t-54 -217.5q0 -96 38 -146t109 -50q41 0 82.5 14.5t78.5 41.5l9 -6l-20 -90q-42 -23 -81 -33t-84 -10q-113 0 -174.5 69t-61.5 195q0 121 38 209t111 135t174 47q97 0 164 -45zM450 870l25 -57l-4 -10
q-78 -35 -201 -83l-11 4l-17 42q130 66 198 107z" />
    <glyph glyph-name="cacute" unicode="&#x107;" horiz-adv-x="343" 
d="M341 446l6 -13l-26 -74l-20 -2q-19 22 -34 29.5t-33 7.5q-52 0 -82.5 -56.5t-30.5 -155.5q0 -60 12 -84.5t40 -24.5q48 0 97 83l13 -1l29 -38q-31 -53 -65 -81t-81 -43h-14q-64 10 -92 47.5t-28 122.5q0 86 26.5 155t80.5 109.5t134 40.5zM328 706l36 -52l-2 -10
q-119 -85 -179 -124l-10 1l-25 38q109 91 170 148z" />
    <glyph glyph-name="Ccircumflex" unicode="&#x108;" horiz-adv-x="503" 
d="M530 603l-30 -87l-9 -3q-58 53 -137 53q-99 0 -153 -76.5t-54 -217.5q0 -96 38 -146t109 -50q41 0 82.5 14.5t78.5 41.5l9 -6l-20 -90q-42 -23 -81 -33t-84 -10q-113 0 -174.5 69t-61.5 195q0 121 38 209t111 135t174 47q97 0 164 -45zM220 763q71 47 128 95h24
q45 -42 116 -95l-23 -40h-10l-97 65q-21 -13 -39 -23t-32 -18l-42 -24h-11z" />
    <glyph glyph-name="ccircumflex" unicode="&#x109;" horiz-adv-x="343" 
d="M341 446l6 -13l-26 -74l-20 -2q-19 22 -34 29.5t-33 7.5q-52 0 -82.5 -56.5t-30.5 -155.5q0 -60 12 -84.5t40 -24.5q48 0 97 83l13 -1l29 -38q-31 -53 -65 -81t-81 -43h-14q-64 10 -92 47.5t-28 122.5q0 86 26.5 155t80.5 109.5t134 40.5zM110 562q43 39 141 137h25
q54 -74 114 -137l-30 -38h-10q-56 55 -92 100q-40 -38 -117 -100h-11z" />
    <glyph glyph-name="Cdotaccent" unicode="&#x10a;" horiz-adv-x="503" 
d="M530 603l-30 -87l-9 -3q-58 53 -137 53q-99 0 -153 -76.5t-54 -217.5q0 -96 38 -146t109 -50q41 0 82.5 14.5t78.5 41.5l9 -6l-20 -90q-42 -23 -81 -33t-84 -10q-113 0 -174.5 69t-61.5 195q0 121 38 209t111 135t174 47q97 0 164 -45zM397.5 839q13.5 -14 13.5 -39
q0 -26 -15 -41t-40 -15t-38.5 14t-13.5 39q0 26 15 41t41 15q24 0 37.5 -14z" />
    <glyph glyph-name="cdotaccent" unicode="&#x10b;" horiz-adv-x="343" 
d="M341 446l6 -13l-26 -74l-20 -2q-19 22 -34 29.5t-33 7.5q-52 0 -82.5 -56.5t-30.5 -155.5q0 -60 12 -84.5t40 -24.5q48 0 97 83l13 -1l29 -38q-31 -53 -65 -81t-81 -43h-14q-64 10 -92 47.5t-28 122.5q0 86 26.5 155t80.5 109.5t134 40.5zM295.5 658q13.5 -14 13.5 -39
q0 -26 -15 -41t-40 -15t-38.5 14t-13.5 39q0 26 15 41t41 15q24 0 37.5 -14z" />
    <glyph glyph-name="Ccaron" unicode="&#x10c;" horiz-adv-x="503" 
d="M530 603l-30 -87l-9 -3q-58 53 -137 53q-99 0 -153 -76.5t-54 -217.5q0 -96 38 -146t109 -50q41 0 82.5 14.5t78.5 41.5l9 -6l-20 -90q-42 -23 -81 -33t-84 -10q-113 0 -174.5 69t-61.5 195q0 121 38 209t111 135t174 47q97 0 164 -45zM491 818q-71 -47 -128 -95h-24
q-45 42 -116 95l23 40h10l97 -65q21 13 39 23t32 18l42 24h11z" />
    <glyph glyph-name="ccaron" unicode="&#x10d;" horiz-adv-x="343" 
d="M341 446l6 -13l-26 -74l-20 -2q-19 22 -34 29.5t-33 7.5q-52 0 -82.5 -56.5t-30.5 -155.5q0 -60 12 -84.5t40 -24.5q48 0 97 83l13 -1l29 -38q-31 -53 -65 -81t-81 -43h-14q-64 10 -92 47.5t-28 122.5q0 86 26.5 155t80.5 109.5t134 40.5zM394 660q-43 -39 -141 -137h-25
q-54 74 -114 137l30 38h10q56 -55 92 -100q40 38 117 100h11z" />
    <glyph glyph-name="Dcaron" unicode="&#x10e;" horiz-adv-x="627" 
d="M545.5 580.5q64.5 -65.5 64.5 -185.5q0 -124 -39.5 -214t-116 -138.5t-185.5 -48.5q-42 0 -101 1.5t-110 4.5h-1l30 193l51 449h1l224 4q118 0 182.5 -65.5zM449.5 150.5q56.5 77.5 56.5 227.5q0 95 -38 141t-116 46q-54 0 -126 -4l-51 -360l-11 -121q35 -3 69.5 -5
t55.5 -2q104 0 160.5 77.5zM485 818q-71 -47 -128 -95h-24q-45 42 -116 95l23 40h10l97 -65q21 13 39 23t32 18l42 24h11z" />
    <glyph glyph-name="dcaron" unicode="&#x10f;" horiz-adv-x="517" 
d="M441 704l-84 -593l-4 -108l-96 -7l26 182h-11q-64 -109 -141 -186h-17q-87 41 -87 161q0 69 27 136t81 116t130 63h5l51 -19l21 147l2 101zM179 121.5q26 29.5 60.5 87.5t67.5 137l3 22l-64 24q-61 0 -97 -60t-36 -151q0 -48 8 -68.5t20 -20.5t38 29.5zM587 640l-48 -182
l-47 -6l-5 6l25 185l71 4z" />
    <glyph glyph-name="Dcroat" unicode="&#x110;" horiz-adv-x="653" 
d="M570.5 580.5q64.5 -65.5 64.5 -185.5q0 -124 -39.5 -214t-116 -138.5t-185.5 -48.5q-42 0 -101 1.5t-110 4.5h-1l30 193l51 449h1l224 4q118 0 182.5 -65.5zM474.5 150.5q56.5 77.5 56.5 227.5q0 95 -38 141t-116 46q-54 0 -126 -4l-51 -360l-11 -121q35 -3 69.5 -5
t55.5 -2q104 0 160.5 77.5zM367.349 349l-7.31152 -60h-327.684l-3.98828 7l8.64062 60h327.02z" />
    <glyph glyph-name="dcroat" unicode="&#x111;" horiz-adv-x="459" 
d="M500 552h-81l-62 -441l-4 -108l-96 -7l26 182h-11q-64 -109 -141 -186h-17q-87 41 -87 161q0 69 27 136t81 116t130 63h5l51 -19l15 103h-118l-6 7l5 50h125l2 88l97 7l-13 -95h69l8 -8zM179 121.5q26 29.5 60.5 87.5t67.5 137l3 22l-64 24q-61 0 -97 -60t-36 -151
q0 -48 8 -68.5t20 -20.5t38 29.5z" />
    <glyph glyph-name="Emacron" unicode="&#x112;" horiz-adv-x="475" 
d="M226 560l-27 -192l112 -2l101 3l5 -7l-16 -76l-108 3l-105 -2l-12 -86l-12 -120l119 -2l147 5l3 -8l-15 -76h-361l30 193l51 449h362l5 -9l-17 -76l-145 4zM477 818l-5 -56h-282l-7 8l5 55h283z" />
    <glyph glyph-name="emacron" unicode="&#x113;" horiz-adv-x="389" 
d="M310 147l30 -39q-64 -94 -161 -115h-13q-70 8 -102.5 48.5t-32.5 120.5q0 88 29 156.5t81 108.5t119 43l10 -1q46 -7 70.5 -32t24.5 -65q0 -122 -246 -195q1 -56 17 -81t48 -25q27 0 53.5 17.5t59.5 59.5zM161.5 359q-31.5 -44 -39.5 -119q157 48 157 125q0 38 -41 38
q-45 0 -76.5 -44zM400 637l-5 -56h-282l-7 8l5 55h283z" />
    <glyph glyph-name="Ebreve" unicode="&#x114;" horiz-adv-x="475" 
d="M226 560l-27 -192l112 -2l101 3l5 -7l-16 -76l-108 3l-105 -2l-12 -86l-12 -120l119 -2l147 5l3 -8l-15 -76h-361l30 193l51 449h362l5 -9l-17 -76l-145 4zM464 819q-45 -95 -142 -95q-49 0 -82.5 25t-43.5 70l28 33h15q8 -29 31 -44t57 -15t60 15.5t41 43.5h14z" />
    <glyph glyph-name="ebreve" unicode="&#x115;" horiz-adv-x="389" 
d="M310 147l30 -39q-64 -94 -161 -115h-13q-70 8 -102.5 48.5t-32.5 120.5q0 88 29 156.5t81 108.5t119 43l10 -1q46 -7 70.5 -32t24.5 -65q0 -122 -246 -195q1 -56 17 -81t48 -25q27 0 53.5 17.5t59.5 59.5zM161.5 359q-31.5 -44 -39.5 -119q157 48 157 125q0 38 -41 38
q-45 0 -76.5 -44zM386 647q-19 -55 -55 -86.5t-88 -31.5q-59 0 -89 31.5t-36 86.5l28 35h15q5 -42 27 -63t58 -21q74 0 105 84h14z" />
    <glyph glyph-name="Edotaccent" unicode="&#x116;" horiz-adv-x="475" 
d="M226 560l-27 -192l112 -2l101 3l5 -7l-16 -76l-108 3l-105 -2l-12 -86l-12 -120l119 -2l147 5l3 -8l-15 -76h-361l30 193l51 449h362l5 -9l-17 -76l-145 4zM372.5 839q13.5 -14 13.5 -39q0 -26 -15 -41t-40 -15t-38.5 14t-13.5 39q0 26 15 41t41 15q24 0 37.5 -14z" />
    <glyph glyph-name="edotaccent" unicode="&#x117;" horiz-adv-x="389" 
d="M310 147l30 -39q-64 -94 -161 -115h-13q-70 8 -102.5 48.5t-32.5 120.5q0 88 29 156.5t81 108.5t119 43l10 -1q46 -7 70.5 -32t24.5 -65q0 -122 -246 -195q1 -56 17 -81t48 -25q27 0 53.5 17.5t59.5 59.5zM161.5 359q-31.5 -44 -39.5 -119q157 48 157 125q0 38 -41 38
q-45 0 -76.5 -44zM294.5 658q13.5 -14 13.5 -39q0 -26 -15 -41t-40 -15t-38.5 14t-13.5 39q0 26 15 41t41 15q24 0 37.5 -14z" />
    <glyph glyph-name="Eogonek" unicode="&#x118;" horiz-adv-x="475" 
d="M226 560l-27 -192l112 -2l101 3l5 -7l-16 -76l-108 3l-105 -2l-12 -86l-12 -120l119 -2l147 5l3 -8l-15 -76h-361l30 193l51 449h362l5 -9l-17 -76l-145 4zM250.5 -196.5q-24.5 21.5 -24.5 56.5q0 20 8.5 37t31.5 41t74 72h59q-41 -44 -66.5 -72.5t-32.5 -40t-7 -22.5
q0 -32 34 -32q33 0 75 36h6l13 -50q-53 -47 -106 -47q-40 0 -64.5 21.5z" />
    <glyph glyph-name="eogonek" unicode="&#x119;" horiz-adv-x="389" 
d="M310 147l30 -39q-64 -94 -161 -115h-13q-70 8 -102.5 48.5t-32.5 120.5q0 88 29 156.5t81 108.5t119 43l10 -1q46 -7 70.5 -32t24.5 -65q0 -122 -246 -195q1 -56 17 -81t48 -25q27 0 53.5 17.5t59.5 59.5zM161.5 359q-31.5 -44 -39.5 -119q157 48 157 125q0 38 -41 38
q-45 0 -76.5 -44zM113.5 -177.5q-24.5 21.5 -24.5 56.5q0 20 8.5 37t31.5 41t74 72h59q-41 -44 -66.5 -72.5t-32.5 -40t-7 -22.5q0 -32 34 -32q33 0 75 36h6l13 -50q-53 -47 -106 -47q-40 0 -64.5 21.5z" />
    <glyph glyph-name="Ecaron" unicode="&#x11a;" horiz-adv-x="475" 
d="M226 560l-27 -192l112 -2l101 3l5 -7l-16 -76l-108 3l-105 -2l-12 -86l-12 -120l119 -2l147 5l3 -8l-15 -76h-361l30 193l51 449h362l5 -9l-17 -76l-145 4zM466 818q-71 -47 -128 -95h-24q-45 42 -116 95l23 40h10l97 -65q21 13 39 23t32 18l42 24h11z" />
    <glyph glyph-name="ecaron" unicode="&#x11b;" horiz-adv-x="389" 
d="M310 147l30 -39q-64 -94 -161 -115h-13q-70 8 -102.5 48.5t-32.5 120.5q0 88 29 156.5t81 108.5t119 43l10 -1q46 -7 70.5 -32t24.5 -65q0 -122 -246 -195q1 -56 17 -81t48 -25q27 0 53.5 17.5t59.5 59.5zM161.5 359q-31.5 -44 -39.5 -119q157 48 157 125q0 38 -41 38
q-45 0 -76.5 -44zM393 660q-43 -39 -141 -137h-25q-54 74 -114 137l30 38h10q56 -55 92 -100q40 38 117 100h11z" />
    <glyph glyph-name="Gcircumflex" unicode="&#x11c;" horiz-adv-x="578" 
d="M570 605l-33 -92l-10 -2q-44 30 -80 42.5t-79 12.5q-226 0 -226 -310q0 -94 39.5 -138t122.5 -44q23 0 46.5 4.5t60.5 16.5l11 67l11 102l92 7l-13 -95l-15 -145q-58 -20 -104 -29.5t-97 -9.5q-125 0 -190 67.5t-65 189.5q0 191 90 295t256 104q100 0 183 -43zM236 763
q71 47 128 95h24q45 -42 116 -95l-23 -40h-10l-97 65q-21 -13 -39 -23t-32 -18l-42 -24h-11z" />
    <glyph glyph-name="gcircumflex" unicode="&#x11d;" horiz-adv-x="450" 
d="M408 463l-50 -351l-7 -72q-10 -73 -44.5 -127t-85 -82.5t-109.5 -28.5q-68 0 -112 38.5t-56 109.5l4 10l139 78l1 9q-23 19 -33.5 48.5t-10.5 72.5q0 70 25.5 133.5t76 108t121.5 57.5h5l67 -24l58 26zM159.5 340q-31.5 -54 -31.5 -138q0 -47 8.5 -70.5t18.5 -23.5
t34 28.5t56 81.5t64 124l2 15l1 12l-63 25q-58 0 -89.5 -54zM287 189h-12q-55 -103 -133 -167l-86 -63q-6 -6 -8.5 -9.5t-2.5 -9.5q0 -26 24.5 -46.5t63.5 -20.5q50 0 85 36.5t45 104.5zM134 561q43 39 141 137h25q54 -74 114 -137l-30 -38h-10q-56 55 -92 100
q-40 -38 -117 -100h-11z" />
    <glyph glyph-name="Gbreve" unicode="&#x11e;" horiz-adv-x="578" 
d="M570 605l-33 -92l-10 -2q-44 30 -80 42.5t-79 12.5q-226 0 -226 -310q0 -94 39.5 -138t122.5 -44q23 0 46.5 4.5t60.5 16.5l11 67l11 102l92 7l-13 -95l-15 -145q-58 -20 -104 -29.5t-97 -9.5q-125 0 -190 67.5t-65 189.5q0 191 90 295t256 104q100 0 183 -43zM505 819
q-45 -95 -142 -95q-49 0 -82.5 25t-43.5 70l28 33h15q8 -29 31 -44t57 -15t60 15.5t41 43.5h14z" />
    <glyph glyph-name="gbreve" unicode="&#x11f;" horiz-adv-x="450" 
d="M408 463l-50 -351l-7 -72q-10 -73 -44.5 -127t-85 -82.5t-109.5 -28.5q-68 0 -112 38.5t-56 109.5l4 10l139 78l1 9q-23 19 -33.5 48.5t-10.5 72.5q0 70 25.5 133.5t76 108t121.5 57.5h5l67 -24l58 26zM159.5 340q-31.5 -54 -31.5 -138q0 -47 8.5 -70.5t18.5 -23.5
t34 28.5t56 81.5t64 124l2 15l1 12l-63 25q-58 0 -89.5 -54zM287 189h-12q-55 -103 -133 -167l-86 -63q-6 -6 -8.5 -9.5t-2.5 -9.5q0 -26 24.5 -46.5t63.5 -20.5q50 0 85 36.5t45 104.5zM411 646q-19 -55 -55 -86.5t-88 -31.5q-59 0 -89 31.5t-36 86.5l28 35h15
q5 -42 27 -63t58 -21q74 0 105 84h14z" />
    <glyph glyph-name="Gdotaccent" unicode="&#x120;" horiz-adv-x="578" 
d="M570 605l-33 -92l-10 -2q-44 30 -80 42.5t-79 12.5q-226 0 -226 -310q0 -94 39.5 -138t122.5 -44q23 0 46.5 4.5t60.5 16.5l11 67l11 102l92 7l-13 -95l-15 -145q-58 -20 -104 -29.5t-97 -9.5q-125 0 -190 67.5t-65 189.5q0 191 90 295t256 104q100 0 183 -43zM413.5 839
q13.5 -14 13.5 -39q0 -26 -15 -41t-40 -15t-38.5 14t-13.5 39q0 26 15 41t41 15q24 0 37.5 -14z" />
    <glyph glyph-name="gdotaccent" unicode="&#x121;" horiz-adv-x="450" 
d="M408 463l-50 -351l-7 -72q-10 -73 -44.5 -127t-85 -82.5t-109.5 -28.5q-68 0 -112 38.5t-56 109.5l4 10l139 78l1 9q-23 19 -33.5 48.5t-10.5 72.5q0 70 25.5 133.5t76 108t121.5 57.5h5l67 -24l58 26zM159.5 340q-31.5 -54 -31.5 -138q0 -47 8.5 -70.5t18.5 -23.5
t34 28.5t56 81.5t64 124l2 15l1 12l-63 25q-58 0 -89.5 -54zM287 189h-12q-55 -103 -133 -167l-86 -63q-6 -6 -8.5 -9.5t-2.5 -9.5q0 -26 24.5 -46.5t63.5 -20.5q50 0 85 36.5t45 104.5zM319.5 657q13.5 -14 13.5 -39q0 -26 -15 -41t-40 -15t-38.5 14t-13.5 39q0 26 15 41
t41 15q24 0 37.5 -14z" />
    <glyph glyph-name="Gcommaaccent" unicode="&#x122;" horiz-adv-x="578" 
d="M570 605l-33 -92l-10 -2q-44 30 -80 42.5t-79 12.5q-226 0 -226 -310q0 -94 39.5 -138t122.5 -44q23 0 46.5 4.5t60.5 16.5l11 67l11 102l92 7l-13 -95l-15 -145q-58 -20 -104 -29.5t-97 -9.5q-125 0 -190 67.5t-65 189.5q0 191 90 295t256 104q100 0 183 -43zM370 -113
q0 -69 -99 -141l-32 27v8q53 42 53 88q0 27 -29 50v8q30 19 66 30q41 -27 41 -70z" />
    <glyph glyph-name="gcommaaccent" unicode="&#x123;" horiz-adv-x="450" 
d="M254.5 548.5q-12.5 18.5 -12.5 45.5q0 60 74 133l33 -23l2 -6q-39 -42 -39 -79q0 -39 36 -56v-8q-20 -19 -55 -37q-26 12 -38.5 30.5zM408 463l-50 -351l-7 -72q-10 -73 -44.5 -127t-85 -82.5t-109.5 -28.5q-68 0 -112 38.5t-56 109.5l4 10l139 78l1 9q-23 19 -33.5 48.5
t-10.5 72.5q0 70 25.5 133.5t76 108t121.5 57.5h5l67 -24l58 26zM159.5 340q-31.5 -54 -31.5 -138q0 -47 8.5 -70.5t18.5 -23.5t34 28.5t56 81.5t64 124l2 15l1 12l-63 25q-58 0 -89.5 -54zM287 189h-12q-55 -103 -133 -167l-86 -63q-6 -6 -8.5 -9.5t-2.5 -9.5
q0 -26 24.5 -46.5t63.5 -20.5q50 0 85 36.5t45 104.5z" />
    <glyph glyph-name="Hcircumflex" unicode="&#x124;" horiz-adv-x="662" 
d="M629 642l-61 -441l-20 -201h-98l29 193l10 89l-159 3l-144 -3l-11 -81l-19 -201h-99l29 193l51 449h99l-38 -276l150 -3l150 3l31 276h100zM265 763q71 47 128 95h24q45 -42 116 -95l-23 -40h-10l-97 65q-21 -13 -39 -23t-32 -18l-42 -24h-11z" />
    <glyph glyph-name="hcircumflex" unicode="&#x125;" horiz-adv-x="479" 
d="M407.5 434.5q24.5 -23.5 23.5 -58.5l-1 -13l-40 -253l-5 -107l-98 -7l53 330l1 11q0 26 -18 26q-28 0 -76 -66t-107 -190l-4 -104l-96 -7l86 600l1 101l96 7l-62 -445h10q45 76 82.5 124.5t78.5 82.5h11q40 -8 64.5 -31.5zM54 821q71 47 128 95h24q45 -42 116 -95
l-23 -40h-10l-97 65q-21 -13 -39 -23t-32 -18l-42 -24h-11z" />
    <glyph glyph-name="Hbar" unicode="&#x126;" horiz-adv-x="691" 
d="M688 476h-69l-38 -275l-21 -201h-98l30 193l10 89l-159 3l-144 -3l-11 -81l-20 -201h-99l30 193l32 283h-57l-3 6l4 59h63l11 101h99l-14 -101h297l11 101h100l-14 -101h60l5 -6zM524 476h-299l-15 -110l150 -3l151 3z" />
    <glyph glyph-name="hbar" unicode="&#x127;" horiz-adv-x="535" 
d="M448.5 434.5q24.5 -23.5 23.5 -58.5l-1 -13l-41 -253l-4 -107l-98 -7l53 330l1 11q0 26 -18 26q-28 0 -76 -66t-107 -190l-4 -104l-96 -7l80 556h-72l-7 7l4 50h81l1 88l96 7l-13 -95h116l7 -8l-4 -49h-127l-41 -293h10q45 76 82.5 124.5t78.5 82.5h11q40 -8 64.5 -31.5z
" />
    <glyph glyph-name="Imacron" unicode="&#x12a;" horiz-adv-x="270" 
d="M175 201l-19 -201h-99l29 193l51 449h99zM321 818l-6 -56h-219l-7 8l5 55h220z" />
    <glyph glyph-name="imacron" unicode="&#x12b;" horiz-adv-x="225" 
d="M138 111l-5 -108l-95 -7l52 361l4 101l93 7zM274 636l-6 -56h-219l-7 8l5 55h220z" />
    <glyph glyph-name="Ibreve" unicode="&#x12c;" horiz-adv-x="270" 
d="M175 201l-19 -201h-99l29 193l51 449h99zM337 819q-45 -95 -142 -95q-49 0 -82.5 25t-43.5 70l28 33h15q8 -29 31 -44t57 -15t60 15.5t41 43.5h14z" />
    <glyph glyph-name="ibreve" unicode="&#x12d;" horiz-adv-x="225" 
d="M138 111l-5 -108l-95 -7l52 361l4 101l93 7zM290 646q-19 -55 -55 -86.5t-88 -31.5q-59 0 -89 31.5t-36 86.5l28 35h15q5 -42 27 -63t58 -21q74 0 105 84h14z" />
    <glyph glyph-name="Iogonek" unicode="&#x12e;" horiz-adv-x="270" 
d="M175 201l-19 -201h-99l29 193l51 449h99zM92.5 -59.5q-25.5 -24.5 -33.5 -35.5t-8 -22q0 -9 6 -14.5t18 -5.5q14 0 28 7.5t32 23.5l5 -1l14 -48q-23 -21 -45 -31.5t-46 -10.5q-35 0 -56.5 17.5t-21.5 46.5q0 30 22.5 58t81.5 75h67q-38 -35 -63.5 -59.5z" />
    <glyph glyph-name="iogonek" unicode="&#x12f;" horiz-adv-x="225" 
d="M138 111l-5 -108l-95 -7l52 361l4 101l93 7zM198.5 657q13.5 -14 13.5 -39q0 -26 -15 -41t-40 -15t-38.5 14t-13.5 39q0 26 15 41t41 15q24 0 37.5 -14zM69.5 -56.5q-25.5 -24.5 -33.5 -35.5t-8 -22q0 -9 6 -14.5t18 -5.5q14 0 28 7.5t32 23.5l5 -1l14 -48
q-23 -21 -45 -31.5t-46 -10.5q-35 0 -56.5 17.5t-21.5 46.5q0 30 22.5 58t81.5 75h67q-38 -35 -63.5 -59.5z" />
    <glyph glyph-name="Idotaccent" unicode="&#x130;" horiz-adv-x="270" 
d="M175 201l-19 -201h-99l29 193l51 449h99zM245.5 839q13.5 -14 13.5 -39q0 -26 -15 -41t-40 -15t-38.5 14t-13.5 39q0 26 15 41t41 15q24 0 37.5 -14z" />
    <glyph glyph-name="dotlessi" unicode="&#x131;" horiz-adv-x="225" 
d="M138 111l-5 -108l-95 -7l52 361l4 101l93 7z" />
    <glyph glyph-name="IJ" unicode="&#x132;" horiz-adv-x="581" 
d="M175 201l-19 -201h-99l29 193l51 449h99zM482 212l-9 -93q-10 -78 -56 -128t-149 -94l-28 54l1 11q71 36 102.5 70.5t38.5 87.5l11 83l40 362l-113 -2l-8 8l14 71h216z" />
    <glyph glyph-name="ij" unicode="&#x133;" horiz-adv-x="467" 
d="M138 111l-5 -108l-95 -7l52 361l4 101l93 7zM199.5 657q13.5 -14 13.5 -39q0 -26 -15 -41t-40 -15t-38.5 14t-13.5 39q0 26 15 41t41 15q24 0 37.5 -14zM426 460l-50 -348l-9 -92q-10 -78 -45 -126t-111 -88l-31 43l1 10q47 30 70 64.5t30 92.5l47 340l2 34h-73l-5 7
l8 54h68l94 13zM434.5 657q13.5 -14 13.5 -39q0 -26 -15 -41t-40 -15t-38.5 14t-13.5 39q0 26 15 41t41 15q24 0 37.5 -14z" />
    <glyph glyph-name="Jcircumflex" unicode="&#x134;" horiz-adv-x="311" 
d="M212 212l-9 -93q-10 -78 -56 -128t-149 -94l-28 54l1 11q71 36 102.5 70.5t38.5 87.5l11 83l40 362l-113 -2l-8 8l14 71h216zM64 763q71 47 128 95h24q45 -42 116 -95l-23 -40h-10l-97 65q-21 -13 -39 -23t-32 -18l-42 -24h-11z" />
    <glyph glyph-name="jcircumflex" unicode="&#x135;" horiz-adv-x="242" 
d="M201 460l-50 -348l-9 -92q-10 -78 -45 -126t-111 -88l-31 43l1 10q47 30 70 64.5t30 92.5l47 340l2 34h-73l-5 7l8 54h68l94 13zM24 561q43 39 141 137h25q54 -74 114 -137l-30 -38h-10q-56 55 -92 100q-40 -38 -117 -100h-11z" />
    <glyph glyph-name="Kcommaaccent" unicode="&#x136;" horiz-adv-x="539" 
d="M175 201l-20 -201h-99l30 193l51 449h99zM303 337q89 -151 214 -316l-3 -12q-51 -12 -97 -18l-10 5q-122 185 -207 340l1 6l223 242l45 58h108zM342 -113q0 -69 -99 -141l-32 27v8q53 42 53 88q0 27 -29 50v8q30 19 66 30q41 -27 41 -70z" />
    <glyph glyph-name="kcommaaccent" unicode="&#x137;" horiz-adv-x="477" 
d="M316 182q46 -82 106 -173l-4 -7l-80 -14l-9 4q-46 76 -97 184l3 15q123 79 123 144q0 28 -20 28q-32 0 -83 -65t-115 -199l-3 -96l-96 -7l85 600l2 101l96 7l-62 -440h12q49 75 89.5 123t82.5 78l14 1q43 -9 67.5 -35t24.5 -70q0 -96 -136 -179zM271 -113q0 -69 -99 -141
l-32 27v8q53 42 53 88q0 27 -29 50v8q30 19 66 30q41 -27 41 -70z" />
    <glyph glyph-name="kgreenlandic" unicode="&#x138;" horiz-adv-x="478" 
d="M315 182q53 -92 108 -173l-3 -7l-80 -14l-10 4q-42 71 -100 184l3 15q63 40 95 75t32 69q0 15 -6.5 21.5t-15.5 6.5q-32 0 -84 -64t-116 -196l-5 -100l-95 -7l52 361l4 101l93 7l-28 -203h11q54 78 94 126t82 77l14 1q44 -9 68.5 -34.5t24.5 -70.5q0 -95 -138 -179z" />
    <glyph glyph-name="Lacute" unicode="&#x139;" horiz-adv-x="409" 
d="M388 74l-17 -74h-315l31 193l50 449h99l-60 -441l-12 -119h219zM300 870l25 -57l-4 -10q-78 -35 -201 -83l-11 4l-17 42q130 66 198 107z" />
    <glyph glyph-name="lacute" unicode="&#x13a;" horiz-adv-x="251" 
d="M148 111l-4 -108l-95 -7l85 600l2 101l96 7zM294 928l25 -57l-4 -10q-78 -35 -201 -83l-11 4l-17 42q130 66 198 107z" />
    <glyph glyph-name="Lcommaaccent" unicode="&#x13b;" horiz-adv-x="409" 
d="M388 74l-17 -74h-315l31 193l50 449h99l-60 -441l-12 -119h219zM266 -113q0 -69 -99 -141l-32 27v8q53 42 53 88q0 27 -29 50v8q30 19 66 30q41 -27 41 -70z" />
    <glyph glyph-name="lcommaaccent" unicode="&#x13c;" horiz-adv-x="251" 
d="M148 111l-4 -108l-95 -7l85 600l2 101l96 7zM157 -113q0 -69 -99 -141l-32 27v8q53 42 53 88q0 27 -29 50v8q30 19 66 30q41 -27 41 -70z" />
    <glyph glyph-name="Lcaron" unicode="&#x13d;" horiz-adv-x="455" 
d="M388 74l-17 -74h-315l31 193l50 449h99l-60 -441l-12 -119h219zM451 582l-48 -182l-47 -6l-5 6l25 185l71 4z" />
    <glyph glyph-name="lcaron" unicode="&#x13e;" horiz-adv-x="302" 
d="M148 111l-4 -108l-95 -7l85 600l2 101l96 7zM372 640l-48 -182l-47 -6l-5 6l25 185l71 4z" />
    <glyph glyph-name="Ldot" unicode="&#x13f;" horiz-adv-x="415" 
d="M388 74l-17 -74h-315l31 193l50 449h99l-60 -441l-12 -119h219zM382.5 422q13.5 -14 13.5 -39q0 -26 -15 -41t-40 -15t-38.5 14t-13.5 39q0 26 15 41t41 15q24 0 37.5 -14z" />
    <glyph glyph-name="ldot" unicode="&#x140;" horiz-adv-x="265" 
d="M147 111l-5 -108l-93 -7l81 600l5 100l91 7zM303 331q14 -14 14 -38q0 -26 -15 -41.5t-41 -15.5q-24 0 -37.5 14t-13.5 39q0 26 15 41t40 15q24 0 38 -14z" />
    <glyph glyph-name="Lslash" unicode="&#x141;" horiz-adv-x="416" 
d="M394 74l-17 -74h-315l31 193l9 81l-69 -35l-10 6l-10 58l98 50l32 289h99l-33 -239l123 62l10 -5l11 -58l-154 -79l-17 -122l-12 -119h219z" />
    <glyph glyph-name="lslash" unicode="&#x142;" horiz-adv-x="259" 
d="M183 352l-34 -241l-3 -108l-97 -7l45 316l-60 -30l-4 3l-14 63l89 45l29 203l3 101l96 7l-38 -270l63 32l5 -3l15 -63z" />
    <glyph glyph-name="Nacute" unicode="&#x143;" horiz-adv-x="662" 
d="M567 191l-20 -191h-104l-230 488h-7l-35 -274l-23 -214h-91l29 190l53 452h103l230 -489h7l58 484l93 7zM495 870l25 -57l-4 -10q-78 -35 -201 -83l-11 4l-17 42q130 66 198 107z" />
    <glyph glyph-name="nacute" unicode="&#x144;" horiz-adv-x="477" 
d="M405 434.5q25 -23.5 24 -58.5l-1 -13l-40 -253l-5 -107l-98 -7l53 330l1 11q0 26 -18 26q-28 0 -76 -66t-107 -190l-4 -104l-96 -7l52 361l4 101l94 7l-29 -206h10q45 76 82.5 124.5t78.5 82.5h11q39 -8 64 -31.5zM361 705l36 -52l-2 -10q-119 -85 -179 -124l-10 1
l-25 38q109 91 170 148z" />
    <glyph glyph-name="Ncommaaccent" unicode="&#x145;" horiz-adv-x="662" 
d="M567 191l-20 -191h-104l-230 488h-7l-35 -274l-23 -214h-91l29 190l53 452h103l230 -489h7l58 484l93 7zM364 -113q0 -69 -99 -141l-32 27v8q53 42 53 88q0 27 -29 50v8q30 19 66 30q41 -27 41 -70z" />
    <glyph glyph-name="ncommaaccent" unicode="&#x146;" horiz-adv-x="477" 
d="M405 434.5q25 -23.5 24 -58.5l-1 -13l-40 -253l-5 -107l-98 -7l53 330l1 11q0 26 -18 26q-28 0 -76 -66t-107 -190l-4 -104l-96 -7l52 361l4 101l94 7l-29 -206h10q45 76 82.5 124.5t78.5 82.5h11q39 -8 64 -31.5zM273 -113q0 -69 -99 -141l-32 27v8q53 42 53 88
q0 27 -29 50v8q30 19 66 30q41 -27 41 -70z" />
    <glyph glyph-name="Ncaron" unicode="&#x147;" horiz-adv-x="662" 
d="M567 191l-20 -191h-104l-230 488h-7l-35 -274l-23 -214h-91l29 190l53 452h103l230 -489h7l58 484l93 7zM536 818q-71 -47 -128 -95h-24q-45 42 -116 95l23 40h10l97 -65q21 13 39 23t32 18l42 24h11z" />
    <glyph glyph-name="ncaron" unicode="&#x148;" horiz-adv-x="477" 
d="M405 434.5q25 -23.5 24 -58.5l-1 -13l-40 -253l-5 -107l-98 -7l53 330l1 11q0 26 -18 26q-28 0 -76 -66t-107 -190l-4 -104l-96 -7l52 361l4 101l94 7l-29 -206h10q45 76 82.5 124.5t78.5 82.5h11q39 -8 64 -31.5zM427 659q-43 -39 -141 -137h-25q-54 74 -114 137l30 38
h10q56 -55 92 -100q40 38 117 100h11z" />
    <glyph glyph-name="Eng" unicode="&#x14a;" horiz-adv-x="670" 
d="M569 191l-13 -133q-11 -78 -56.5 -128t-147.5 -94l-28 54l2 11q48 25 77.5 48.5t43.5 51.5l-235 486h-7l-33 -273l-23 -214h-92l30 190l51 452h105l232 -484h7l56 479l94 7z" />
    <glyph glyph-name="eng" unicode="&#x14b;" horiz-adv-x="475" 
d="M404 434.5q25 -23.5 24 -58.5l-1 -13l-42 -251l-11 -92q-12 -78 -47 -126t-108 -88l-30 42l1 11q46 30 68 65t29 92l49 303l1 12q1 32 -16 32q-28 0 -76.5 -67.5t-106.5 -197.5l-4 -95l-96 -7l52 361l4 101l94 7l-29 -206h10q45 77 82.5 125.5t78.5 81.5h11
q38 -8 63 -31.5z" />
    <glyph glyph-name="Omacron" unicode="&#x14c;" horiz-adv-x="618" 
d="M538.5 581.5q62.5 -67.5 62.5 -192.5q0 -122 -37.5 -211t-110 -137.5t-174.5 -48.5q-111 0 -173.5 69.5t-62.5 195.5q0 184 83 288t237 104q113 0 175.5 -67.5zM195.5 491.5q-51.5 -76.5 -51.5 -229.5q0 -97 35.5 -144t109.5 -47q208 0 208 308q0 97 -35.5 143t-109.5 46
q-105 0 -156.5 -76.5zM524 818l-5 -56h-282l-7 8l5 55h283z" />
    <glyph glyph-name="omacron" unicode="&#x14d;" horiz-adv-x="420" 
d="M273 469q57 -11 86.5 -49t29.5 -108q0 -141 -60.5 -227t-168.5 -94l-10 1q-59 12 -88.5 51t-29.5 112q0 90 28 159.5t80 110t123 44.5h10zM151 330.5q-31 -62.5 -31 -175.5q0 -48 12.5 -69t42.5 -21q62 0 93 63.5t31 176.5q0 48 -12.5 68t-41.5 20q-63 0 -94 -62.5z
M413 636l-5 -56h-282l-7 8l5 55h283z" />
    <glyph glyph-name="Obreve" unicode="&#x14e;" horiz-adv-x="618" 
d="M538.5 581.5q62.5 -67.5 62.5 -192.5q0 -122 -37.5 -211t-110 -137.5t-174.5 -48.5q-111 0 -173.5 69.5t-62.5 195.5q0 184 83 288t237 104q113 0 175.5 -67.5zM195.5 491.5q-51.5 -76.5 -51.5 -229.5q0 -97 35.5 -144t109.5 -47q208 0 208 308q0 97 -35.5 143t-109.5 46
q-105 0 -156.5 -76.5zM511 819q-45 -95 -142 -95q-49 0 -82.5 25t-43.5 70l28 33h15q8 -29 31 -44t57 -15t60 15.5t41 43.5h14z" />
    <glyph glyph-name="obreve" unicode="&#x14f;" horiz-adv-x="420" 
d="M273 469q57 -11 86.5 -49t29.5 -108q0 -141 -60.5 -227t-168.5 -94l-10 1q-59 12 -88.5 51t-29.5 112q0 90 28 159.5t80 110t123 44.5h10zM151 330.5q-31 -62.5 -31 -175.5q0 -48 12.5 -69t42.5 -21q62 0 93 63.5t31 176.5q0 48 -12.5 68t-41.5 20q-63 0 -94 -62.5z
M399 646q-19 -55 -55 -86.5t-88 -31.5q-59 0 -89 31.5t-36 86.5l28 35h15q5 -42 27 -63t58 -21q74 0 105 84h14z" />
    <glyph glyph-name="Ohungarumlaut" unicode="&#x150;" horiz-adv-x="618" 
d="M538.5 581.5q62.5 -67.5 62.5 -192.5q0 -122 -37.5 -211t-110 -137.5t-174.5 -48.5q-111 0 -173.5 69.5t-62.5 195.5q0 184 83 288t237 104q113 0 175.5 -67.5zM195.5 491.5q-51.5 -76.5 -51.5 -229.5q0 -97 35.5 -144t109.5 -47q208 0 208 308q0 97 -35.5 143t-109.5 46
q-105 0 -156.5 -76.5zM273 767q69 78 89 103l8 2l45 -31v-9q-47 -46 -120 -113l-10 -1l-31 27zM444 795q20 22 65 75l7 2l46 -31v-9q-23 -23 -75 -71l-45 -42l-10 -1l-31 27z" />
    <glyph glyph-name="ohungarumlaut" unicode="&#x151;" horiz-adv-x="420" 
d="M273 469q57 -11 86.5 -49t29.5 -108q0 -141 -60.5 -227t-168.5 -94l-10 1q-59 12 -88.5 51t-29.5 112q0 90 28 159.5t80 110t123 44.5h10zM151 330.5q-31 -62.5 -31 -175.5q0 -48 12.5 -69t42.5 -21q62 0 93 63.5t31 176.5q0 48 -12.5 68t-41.5 20q-63 0 -94 -62.5z
M271 707l9 1l44 -33l1 -9q-57 -60 -145 -145l-9 -2l-32 28q63 70 132 160zM416 707l8 1l45 -33l1 -9q-57 -60 -145 -145l-9 -2l-31 28q75 87 131 160z" />
    <glyph glyph-name="OE" unicode="&#x152;" horiz-adv-x="825" 
d="M483 648q52 -6 77 -6h289l6 -9l-18 -76l-139 4h-124l-24 -193l105 -2l108 3l4 -7l-16 -76l-113 3l-102 -2l-10 -89l-13 -117l113 -2l153 5l5 -8l-16 -76h-288q-24 1 -53.5 -2t-38.5 -4q-62 -6 -94 -6q-121 0 -186.5 72t-65.5 201q0 121 42.5 209.5t122 136t188.5 47.5
q34 0 88 -6zM202 495q-59 -78 -59 -229q0 -198 170 -198q25 0 49.5 3t37.5 7q14 5 20 13t8 24l46 405q1 7 1 17t-2 15t-7 7q-10 6 -35.5 10t-54.5 4q-115 0 -174 -78z" />
    <glyph glyph-name="oe" unicode="&#x153;" horiz-adv-x="661" 
d="M581 158l32 -42q-73 -101 -163 -123h-12q-48 5 -76 26t-40 57q-57 -77 -158 -85l-10 1q-61 12 -91.5 51t-30.5 113q0 89 28.5 158.5t82 110t124.5 44.5h10q77 -14 99 -80q61 77 159 81l11 -1q44 -8 68 -32t24 -65q0 -59 -59.5 -107.5t-187.5 -90.5q1 -54 15.5 -78.5
t44.5 -24.5q33 0 65 24.5t51 63.5zM433 359.5q-31 -43.5 -39 -118.5q159 47 159 124q0 38 -43 38q-46 0 -77 -43.5zM274 127q32 64 32 178q0 48 -13 69t-43 21q-64 0 -96.5 -63t-32.5 -176q0 -50 13 -71.5t44 -21.5q64 0 96 64z" />
    <glyph glyph-name="Racute" unicode="&#x154;" horiz-adv-x="547" 
d="M476.5 349.5q-39.5 -59.5 -109.5 -92.5q57 -119 126 -234l-2 -11q-49 -17 -96 -21l-10 8q-64 135 -102 232h-104l-4 -30l-19 -201h-99l29 193l52 449l200 1q83 0 130.5 -41.5t47.5 -117.5q0 -75 -39.5 -134.5zM191 311l107 -3q115 36 115 160q0 92 -105 97l-82 -3z
M416 887l36 -52l-2 -10q-119 -85 -179 -124l-10 1l-25 38q109 91 170 148z" />
    <glyph glyph-name="racute" unicode="&#x155;" horiz-adv-x="335" 
d="M356 463l-18 -126l-8 -5l-11 2q-33 -5 -60 -26t-56.5 -70t-65.5 -137l-4 -98l-96 -7l53 361l4 101l93 7l-28 -199h10q31 60 69.5 108.5t91.5 90.5zM322 705l36 -52l-2 -10q-119 -85 -179 -124l-10 1l-25 38q109 91 170 148z" />
    <glyph glyph-name="Rcommaaccent" unicode="&#x156;" horiz-adv-x="547" 
d="M476.5 349.5q-39.5 -59.5 -109.5 -92.5q57 -119 126 -234l-2 -11q-49 -17 -96 -21l-10 8q-64 135 -102 232h-104l-4 -30l-19 -201h-99l29 193l52 449l200 1q83 0 130.5 -41.5t47.5 -117.5q0 -75 -39.5 -134.5zM191 311l107 -3q115 36 115 160q0 92 -105 97l-82 -3z
M305 -113q0 -69 -99 -141l-32 27v8q53 42 53 88q0 27 -29 50v8q30 19 66 30q41 -27 41 -70z" />
    <glyph glyph-name="rcommaaccent" unicode="&#x157;" horiz-adv-x="335" 
d="M356 463l-18 -126l-8 -5l-11 2q-33 -5 -60 -26t-56.5 -70t-65.5 -137l-4 -98l-96 -7l53 361l4 101l93 7l-28 -199h10q31 60 69.5 108.5t91.5 90.5zM141 -113q0 -69 -99 -141l-32 27v8q53 42 53 88q0 27 -29 50v8q30 19 66 30q41 -27 41 -70z" />
    <glyph glyph-name="Rcaron" unicode="&#x158;" horiz-adv-x="547" 
d="M476.5 349.5q-39.5 -59.5 -109.5 -92.5q57 -119 126 -234l-2 -11q-49 -17 -96 -21l-10 8q-64 135 -102 232h-104l-4 -30l-19 -201h-99l29 193l52 449l200 1q83 0 130.5 -41.5t47.5 -117.5q0 -75 -39.5 -134.5zM191 311l107 -3q115 36 115 160q0 92 -105 97l-82 -3z
M482 841q-43 -39 -141 -137h-25q-54 74 -114 137l30 38h10q56 -55 92 -100q40 38 117 100h11z" />
    <glyph glyph-name="rcaron" unicode="&#x159;" horiz-adv-x="335" 
d="M356 463l-18 -126l-8 -5l-11 2q-33 -5 -60 -26t-56.5 -70t-65.5 -137l-4 -98l-96 -7l53 361l4 101l93 7l-28 -199h10q31 60 69.5 108.5t91.5 90.5zM388 659q-43 -39 -141 -137h-25q-54 74 -114 137l30 38h10q56 -55 92 -100q40 38 117 100h11z" />
    <glyph glyph-name="Sacute" unicode="&#x15a;" horiz-adv-x="464" 
d="M457 617l-27 -90l-17 -6q-26 23 -57.5 35.5t-63.5 12.5q-51 0 -82 -27t-31 -65q0 -33 24.5 -56t76.5 -54q45 -27 73.5 -49t48.5 -54.5t20 -77.5q0 -54 -29.5 -98t-82.5 -70t-119 -26q-43 0 -90 11.5t-86 32.5l25 97l12 6q31 -34 72 -51.5t79 -17.5q53 0 86 28t33 69
q0 35 -25 58t-77 55q-44 26 -71.5 47.5t-47 54t-19.5 76.5q0 53 29.5 96.5t80.5 68.5t115 25q76 0 150 -31zM377 887l36 -52l-2 -10q-119 -85 -179 -124l-10 1l-25 38q109 91 170 148z" />
    <glyph glyph-name="sacute" unicode="&#x15b;" horiz-adv-x="326" 
d="M318 442l-26 -85l-14 -4q-42 48 -85 48q-26 0 -43.5 -18t-17.5 -41q0 -20 15 -35t45 -36q44 -30 67.5 -57.5t23.5 -71.5q0 -43 -23.5 -77t-65 -53.5t-94.5 -19.5q-59 8 -107 33l24 88l13 5q21 -30 48 -46t53 -16q29 0 47 18.5t18 42.5q0 22 -15.5 38.5t-48.5 38.5
q-43 31 -65.5 57t-22.5 68q0 43 25 77t67 53t92 19q44 -10 90 -26zM292 705l36 -52l-2 -10q-119 -85 -179 -124l-10 1l-25 38q109 91 170 148z" />
    <glyph glyph-name="Scircumflex" unicode="&#x15c;" horiz-adv-x="464" 
d="M457 617l-27 -90l-17 -6q-26 23 -57.5 35.5t-63.5 12.5q-51 0 -82 -27t-31 -65q0 -33 24.5 -56t76.5 -54q45 -27 73.5 -49t48.5 -54.5t20 -77.5q0 -54 -29.5 -98t-82.5 -70t-119 -26q-43 0 -90 11.5t-86 32.5l25 97l12 6q31 -34 72 -51.5t79 -17.5q53 0 86 28t33 69
q0 35 -25 58t-77 55q-44 26 -71.5 47.5t-47 54t-19.5 76.5q0 53 29.5 96.5t80.5 68.5t115 25q76 0 150 -31zM159 743q43 39 141 137h25q54 -74 114 -137l-30 -38h-10q-56 55 -92 100q-40 -38 -117 -100h-11z" />
    <glyph glyph-name="scircumflex" unicode="&#x15d;" horiz-adv-x="326" 
d="M318 442l-26 -85l-14 -4q-42 48 -85 48q-26 0 -43.5 -18t-17.5 -41q0 -20 15 -35t45 -36q44 -30 67.5 -57.5t23.5 -71.5q0 -43 -23.5 -77t-65 -53.5t-94.5 -19.5q-59 8 -107 33l24 88l13 5q21 -30 48 -46t53 -16q29 0 47 18.5t18 42.5q0 22 -15.5 38.5t-48.5 38.5
q-43 31 -65.5 57t-22.5 68q0 43 25 77t67 53t92 19q44 -10 90 -26zM74 561q43 39 141 137h25q54 -74 114 -137l-30 -38h-10q-56 55 -92 100q-40 -38 -117 -100h-11z" />
    <glyph glyph-name="Scedilla" unicode="&#x15e;" horiz-adv-x="464" 
d="M457 617l-27 -90l-17 -6q-26 23 -57.5 35.5t-63.5 12.5q-51 0 -82 -27t-31 -65q0 -33 24.5 -56t76.5 -54q45 -27 73.5 -49t48.5 -54.5t20 -77.5q0 -54 -29.5 -98t-82.5 -70t-119 -26q-43 0 -90 11.5t-86 32.5l25 97l12 6q31 -34 72 -51.5t79 -17.5q53 0 86 28t33 69
q0 35 -25 58t-77 55q-44 26 -71.5 47.5t-47 54t-19.5 76.5q0 53 29.5 96.5t80.5 68.5t115 25q76 0 150 -31zM215 -50l34 -20q39 -22 39 -57q0 -31 -23.5 -50.5t-62.5 -19.5q-41 0 -76 31l9 45l5 2q15 -15 28.5 -22.5t28.5 -7.5q14 0 22 6t8 18q0 14 -20 23l-48 29l23 94h53z
" />
    <glyph glyph-name="scedilla" unicode="&#x15f;" horiz-adv-x="326" 
d="M318 442l-26 -85l-14 -4q-42 48 -85 48q-26 0 -43.5 -18t-17.5 -41q0 -20 15 -35t45 -36q44 -30 67.5 -57.5t23.5 -71.5q0 -43 -23.5 -77t-65 -53.5t-94.5 -19.5q-59 8 -107 33l24 88l13 5q21 -30 48 -46t53 -16q29 0 47 18.5t18 42.5q0 22 -15.5 38.5t-48.5 38.5
q-43 31 -65.5 57t-22.5 68q0 43 25 77t67 53t92 19q44 -10 90 -26zM152 -50l34 -20q39 -22 39 -57q0 -31 -23.5 -50.5t-62.5 -19.5q-41 0 -76 31l9 45l5 2q15 -15 28.5 -22.5t28.5 -7.5q14 0 22 6t8 18q0 14 -20 23l-48 29l23 94h53z" />
    <glyph glyph-name="Scaron" unicode="&#x160;" horiz-adv-x="464" 
d="M457 617l-27 -90l-17 -6q-26 23 -57.5 35.5t-63.5 12.5q-51 0 -82 -27t-31 -65q0 -33 24.5 -56t76.5 -54q45 -27 73.5 -49t48.5 -54.5t20 -77.5q0 -54 -29.5 -98t-82.5 -70t-119 -26q-43 0 -90 11.5t-86 32.5l25 97l12 6q31 -34 72 -51.5t79 -17.5q53 0 86 28t33 69
q0 35 -25 58t-77 55q-44 26 -71.5 47.5t-47 54t-19.5 76.5q0 53 29.5 96.5t80.5 68.5t115 25q76 0 150 -31zM438 818q-71 -47 -128 -95h-24q-45 42 -116 95l23 40h10l97 -65q21 13 39 23t32 18l42 24h11z" />
    <glyph glyph-name="scaron" unicode="&#x161;" horiz-adv-x="326" 
d="M318 442l-26 -85l-14 -4q-42 48 -85 48q-26 0 -43.5 -18t-17.5 -41q0 -20 15 -35t45 -36q44 -30 67.5 -57.5t23.5 -71.5q0 -43 -23.5 -77t-65 -53.5t-94.5 -19.5q-59 8 -107 33l24 88l13 5q21 -30 48 -46t53 -16q29 0 47 18.5t18 42.5q0 22 -15.5 38.5t-48.5 38.5
q-43 31 -65.5 57t-22.5 68q0 43 25 77t67 53t92 19q44 -10 90 -26zM358 659q-43 -39 -141 -137h-25q-54 74 -114 137l30 38h10q56 -55 92 -100q40 38 117 100h11z" />
    <glyph glyph-name="uni0162" unicode="&#x162;" horiz-adv-x="475" 
d="M508 633l-17 -75l-109 6h-52l-50 -363l-20 -201h-24l-16 -50l34 -20q22 -12 31 -25.5t9 -31.5q0 -31 -24 -50t-62 -19q-44 0 -76 30l8 45l6 3q14 -15 27.5 -23t29.5 -8q13 0 21 6.5t8 18.5q0 8 -5 13t-15 10l-48 28l20 73h-23l31 193l40 371h-52l-113 -6l-6 9l18 75h424z
" />
    <glyph glyph-name="uni0163" unicode="&#x163;" horiz-adv-x="338" 
d="M161 122l-2 -16q0 -12 5.5 -19t17.5 -7q16 0 35 16.5t44 54.5h10l27 -33q-35 -58 -64.5 -86.5t-66.5 -38.5q-45 0 -70 23.5t-24 66.5l2 25l41 251l4 31h-66l-6 7l6 54h74l13 106l88 37l7 -7l-22 -136h116l7 -8l-6 -53h-127zM185 -50l34 -20q39 -22 39 -57
q0 -31 -23.5 -50.5t-62.5 -19.5q-41 0 -76 31l9 45l5 2q15 -15 28.5 -22.5t28.5 -7.5q14 0 22 6t8 18q0 14 -20 23l-48 29l23 94h53z" />
    <glyph glyph-name="Tcaron" unicode="&#x164;" horiz-adv-x="475" 
d="M508 633l-17 -75l-109 6h-52l-50 -363l-20 -201h-99l31 193l40 371h-52l-113 -6l-6 9l18 75h424zM447 841q-43 -39 -141 -137h-25q-54 74 -114 137l30 38h10q56 -55 92 -100q40 38 117 100h11z" />
    <glyph glyph-name="tcaron" unicode="&#x165;" horiz-adv-x="363" 
d="M161 122l-2 -16q0 -12 5.5 -19t17.5 -7q16 0 35 16.5t44 54.5h10l27 -33q-35 -58 -64.5 -86.5t-66.5 -38.5q-45 0 -70 23.5t-24 66.5l2 25l41 251l4 31h-66l-6 7l6 54h74l13 106l88 37l7 -7l-22 -136h116l7 -8l-6 -53h-127zM387 692l-48 -182l-47 -6l-5 6l25 185l71 4z
" />
    <glyph glyph-name="Tbar" unicode="&#x166;" horiz-adv-x="475" 
d="M330 564l-30 -220h92l8 -7l-5 -51h-103l-12 -85l-20 -201h-99l31 193l10 93h-89l-6 6l4 52h97l24 220h-52l-113 -6l-6 9l18 75h424l5 -9l-17 -75l-109 6h-52z" />
    <glyph glyph-name="tbar" unicode="&#x167;" horiz-adv-x="337" 
d="M207 390l-15 -97h104l8 -7l-5 -51h-117l-18 -113l-2 -16q0 -12 5.5 -19t17.5 -7q16 0 35 16.5t44 53.5h10l27 -34q-35 -58 -64.5 -85.5t-66.5 -37.5q-45 0 -70 23.5t-24 66.5l2 25l21 127h-66l-7 7l5 51h77l11 66l4 31h-66l-6 7l6 54h74l13 106l88 37l7 -7l-22 -136h116
l7 -8l-6 -53h-127z" />
    <glyph glyph-name="Umacron" unicode="&#x16a;" horiz-adv-x="606" 
d="M547 315l-9 -74q-14 -120 -80.5 -184.5t-181.5 -64.5q-99 0 -155 49t-56 139q0 25 3 53l13 88l37 321h97l-53 -396q-3 -24 -3 -43q0 -126 124 -126q146 0 164 159l45 406h98zM519 818l-5 -56h-282l-7 8l5 55h283z" />
    <glyph glyph-name="umacron" unicode="&#x16b;" horiz-adv-x="478" 
d="M436 465l-51 -354l-3 -108l-96 -7l29 204h-8q-45 -75 -82 -122t-78 -81h-11q-40 8 -65 31t-24 58l1 14l41 253l7 106l94 8l-50 -322l-2 -21v-3q0 -21 18 -21q28 0 75 64.5t105 187.5l1 5l4 101zM433 636l-5 -56h-282l-7 8l5 55h283z" />
    <glyph glyph-name="Ubreve" unicode="&#x16c;" horiz-adv-x="606" 
d="M547 315l-9 -74q-14 -120 -80.5 -184.5t-181.5 -64.5q-99 0 -155 49t-56 139q0 25 3 53l13 88l37 321h97l-53 -396q-3 -24 -3 -43q0 -126 124 -126q146 0 164 159l45 406h98zM506 828q-19 -55 -55 -86.5t-88 -31.5q-59 0 -89 31.5t-36 86.5l28 35h15q5 -42 27 -63t58 -21
q74 0 105 84h14z" />
    <glyph glyph-name="ubreve" unicode="&#x16d;" horiz-adv-x="478" 
d="M436 465l-51 -354l-3 -108l-96 -7l29 204h-8q-45 -75 -82 -122t-78 -81h-11q-40 8 -65 31t-24 58l1 14l41 253l7 106l94 8l-50 -322l-2 -21v-3q0 -21 18 -21q28 0 75 64.5t105 187.5l1 5l4 101zM419 646q-19 -55 -55 -86.5t-88 -31.5q-59 0 -89 31.5t-36 86.5l28 35h15
q5 -42 27 -63t58 -21q74 0 105 84h14z" />
    <glyph glyph-name="Uring" unicode="&#x16e;" horiz-adv-x="606" 
d="M547 315l-9 -74q-14 -120 -80.5 -184.5t-181.5 -64.5q-99 0 -155 49t-56 139q0 25 3 53l13 88l37 321h97l-53 -396q-3 -24 -3 -43q0 -126 124 -126q146 0 164 159l45 406h98zM440 865q22 -23 22 -61q0 -42 -25 -65.5t-65 -23.5q-38 0 -61.5 22.5t-23.5 63.5t23.5 64
t65.5 23t64 -23zM331 802q0 -21 11.5 -32t32.5 -11q20 0 31.5 10.5t11.5 30.5t-11 31.5t-34 11.5q-42 0 -42 -41z" />
    <glyph glyph-name="uring" unicode="&#x16f;" horiz-adv-x="478" 
d="M436 465l-51 -354l-3 -108l-96 -7l29 204h-8q-45 -75 -82 -122t-78 -81h-11q-40 8 -65 31t-24 58l1 14l41 253l7 106l94 8l-50 -322l-2 -21v-3q0 -21 18 -21q28 0 75 64.5t105 187.5l1 5l4 101zM353 683q22 -23 22 -61q0 -42 -25 -65.5t-65 -23.5q-38 0 -61.5 22.5
t-23.5 63.5t23.5 64t65.5 23t64 -23zM244 620q0 -21 11.5 -32t32.5 -11q20 0 31.5 10.5t11.5 30.5t-11 31.5t-34 11.5q-42 0 -42 -41z" />
    <glyph glyph-name="Uhungarumlaut" unicode="&#x170;" horiz-adv-x="606" 
d="M547 315l-9 -74q-14 -120 -80.5 -184.5t-181.5 -64.5q-99 0 -155 49t-56 139q0 25 3 53l13 88l37 321h97l-53 -396q-3 -24 -3 -43q0 -126 124 -126q146 0 164 159l45 406h98zM268 767q69 78 89 103l8 2l45 -31v-9q-47 -46 -120 -113l-10 -1l-31 27zM439 795q20 22 65 75
l7 2l46 -31v-9q-23 -23 -75 -71l-45 -42l-10 -1l-31 27z" />
    <glyph glyph-name="uhungarumlaut" unicode="&#x171;" horiz-adv-x="478" 
d="M436 465l-51 -354l-3 -108l-96 -7l29 204h-8q-45 -75 -82 -122t-78 -81h-11q-40 8 -65 31t-24 58l1 14l41 253l7 106l94 8l-50 -322l-2 -21v-3q0 -21 18 -21q28 0 75 64.5t105 187.5l1 5l4 101zM291 707l9 1l44 -33l1 -9q-57 -60 -145 -145l-9 -2l-32 28q63 70 132 160z
M436 707l8 1l45 -33l1 -9q-57 -60 -145 -145l-9 -2l-31 28q75 87 131 160z" />
    <glyph glyph-name="Uogonek" unicode="&#x172;" horiz-adv-x="606" 
d="M547 315l-9 -74q-14 -120 -80.5 -184.5t-181.5 -64.5q-99 0 -155 49t-56 139q0 25 3 53l13 88l37 321h97l-53 -396q-3 -24 -3 -43q0 -126 124 -126q146 0 164 159l45 406h98zM231.5 -196.5q-24.5 21.5 -24.5 56.5q0 20 8.5 37t31.5 41t74 72h59q-41 -44 -66.5 -72.5
t-32.5 -40t-7 -22.5q0 -32 34 -32q33 0 75 36h6l13 -50q-53 -47 -106 -47q-40 0 -64.5 21.5z" />
    <glyph glyph-name="uogonek" unicode="&#x173;" horiz-adv-x="478" 
d="M436 465l-51 -354l-3 -108l-96 -7l29 204h-8q-45 -75 -82 -122t-78 -81h-11q-40 8 -65 31t-24 58l1 14l41 253l7 106l94 8l-50 -322l-2 -21v-3q0 -21 18 -21q28 0 75 64.5t105 187.5l1 5l4 101zM318.5 -56.5q-25.5 -24.5 -33.5 -35.5t-8 -22q0 -9 6 -14.5t18 -5.5
q14 0 28 7.5t32 23.5l5 -1l14 -48q-23 -21 -45 -31.5t-46 -10.5q-35 0 -56.5 17.5t-21.5 46.5q0 30 22.5 58t81.5 75h67q-38 -35 -63.5 -59.5z" />
    <glyph glyph-name="Wcircumflex" unicode="&#x174;" horiz-adv-x="859" 
d="M611 0h-102l-65 351h-8l-156 -351h-104l-105 642h96l2 -67l76 -470h7l167 377l-29 160h101l5 -77l78 -460h7l207 464l24 73h92zM341 763q71 47 128 95h24q45 -42 116 -95l-23 -40h-10l-97 65q-21 -13 -39 -23t-32 -18l-42 -24h-11z" />
    <glyph glyph-name="wcircumflex" unicode="&#x175;" horiz-adv-x="694" 
d="M505 0h-101l-31 333h-9l-143 -333h-103l-53 458l93 7l1 -65l25 -293h9l124 287l23 67h100l3 -61l26 -292h7l90 171q15 30 22.5 51.5t7.5 40.5q0 31 -22 66l4 11l88 19q21 -39 21 -80q0 -29 -11 -61.5t-33 -72.5zM250 561q43 39 141 137h25q54 -74 114 -137l-30 -38h-10
q-56 55 -92 100q-40 -38 -117 -100h-11z" />
    <glyph glyph-name="Ycircumflex" unicode="&#x176;" horiz-adv-x="518" 
d="M295 226l-6 -42l-19 -184h-99l30 184l4 44l-143 414h102l7 -39l89 -273h9l167 270l21 42h105zM192 763q71 47 128 95h24q45 -42 116 -95l-23 -40h-10l-97 65q-21 -13 -39 -23t-32 -18l-42 -24h-11z" />
    <glyph glyph-name="ycircumflex" unicode="&#x177;" horiz-adv-x="425" 
d="M418 386q0 -32 -10 -64t-31 -70l-134 -240q-61 -111 -115.5 -159t-119.5 -48q-36 0 -81 14l4 82l9 8q36 -9 65 -9q44 0 77.5 21t65.5 68l-96 468l95 8l10 -82l43 -275h13l84 161q32 58 32 109q0 34 -21 65l4 11l84 13q22 -48 22 -81zM115 562q43 39 141 137h25
q54 -74 114 -137l-30 -38h-10q-56 55 -92 100q-40 -38 -117 -100h-11z" />
    <glyph glyph-name="Ydieresis" unicode="&#x178;" horiz-adv-x="518" 
d="M295 226l-6 -42l-19 -184h-99l30 184l4 44l-143 414h102l7 -39l89 -273h9l167 270l21 42h105zM282 829q12 -12 12 -34q0 -23 -13.5 -37t-36.5 -14q-22 0 -34 12t-12 35t13.5 36.5t36.5 13.5q22 0 34 -12zM450.5 829q12.5 -12 12.5 -34q0 -23 -13.5 -37t-36.5 -14
q-22 0 -34 12.5t-12 34.5q0 23 13 36.5t36 13.5q22 0 34.5 -12z" />
    <glyph glyph-name="Zacute" unicode="&#x179;" horiz-adv-x="514" 
d="M520 570l-391 -492h234l98 8l4 -6l-18 -82l-123 2h-259l-63 -3l10 72l392 494h-218l-100 -8l-4 6l19 82l376 -1l52 1zM385 870l25 -57l-4 -10q-78 -35 -201 -83l-11 4l-17 42q130 66 198 107z" />
    <glyph glyph-name="zacute" unicode="&#x17a;" horiz-adv-x="414" 
d="M395 449l-274 -359l30 7q12 0 44 -10q4 -1 18 -5t24 -4q40 0 58.5 25t22.5 89l13 7l45 -21q-4 -95 -40 -141.5t-99 -46.5q-20 0 -38.5 4.5t-45.5 13.5q-43 15 -67 15q-18 0 -32 -6.5t-30 -22.5h-11l-29 27l272 361l-120 -1l-74 -10l-8 7l18 85l9 6l72 -5l185 -3l28 16z
M328 705l36 -52l-2 -10q-119 -85 -179 -124l-10 1l-25 38q109 91 170 148z" />
    <glyph glyph-name="Zdotaccent" unicode="&#x17b;" horiz-adv-x="514" 
d="M520 570l-391 -492h234l98 8l4 -6l-18 -82l-123 2h-259l-63 -3l10 72l392 494h-218l-100 -8l-4 6l19 82l376 -1l52 1zM332.5 839q13.5 -14 13.5 -39q0 -26 -15 -41t-40 -15t-38.5 14t-13.5 39q0 26 15 41t41 15q24 0 37.5 -14z" />
    <glyph glyph-name="zdotaccent" unicode="&#x17c;" horiz-adv-x="414" 
d="M395 449l-274 -359l30 7q12 0 44 -10q4 -1 18 -5t24 -4q40 0 58.5 25t22.5 89l13 7l45 -21q-4 -95 -40 -141.5t-99 -46.5q-20 0 -38.5 4.5t-45.5 13.5q-43 15 -67 15q-18 0 -32 -6.5t-30 -22.5h-11l-29 27l272 361l-120 -1l-74 -10l-8 7l18 85l9 6l72 -5l185 -3l28 16z
M295.5 657q13.5 -14 13.5 -39q0 -26 -15 -41t-40 -15t-38.5 14t-13.5 39q0 26 15 41t41 15q24 0 37.5 -14z" />
    <glyph glyph-name="Zcaron" unicode="&#x17d;" horiz-adv-x="514" 
d="M520 570l-391 -492h234l98 8l4 -6l-18 -82l-123 2h-259l-63 -3l10 72l392 494h-218l-100 -8l-4 6l19 82l376 -1l52 1zM426 817q-71 -47 -128 -95h-24q-45 42 -116 95l23 40h10l97 -65q21 13 39 23t32 18l42 24h11z" />
    <glyph glyph-name="zcaron" unicode="&#x17e;" horiz-adv-x="414" 
d="M395 449l-274 -359l30 7q12 0 44 -10q4 -1 18 -5t24 -4q40 0 58.5 25t22.5 89l13 7l45 -21q-4 -95 -40 -141.5t-99 -46.5q-20 0 -38.5 4.5t-45.5 13.5q-43 15 -67 15q-18 0 -32 -6.5t-30 -22.5h-11l-29 27l272 361l-120 -1l-74 -10l-8 7l18 85l9 6l72 -5l185 -3l28 16z
M394 659q-43 -39 -141 -137h-25q-54 74 -114 137l30 38h10q56 -55 92 -100q40 38 117 100h11z" />
    <glyph glyph-name="uni018F" unicode="&#x18f;" horiz-adv-x="600" 
d="M517 575.5q66 -72.5 66 -201.5q0 -113 -41.5 -199.5t-116 -134t-171.5 -47.5q-101 0 -161 55.5t-60 151.5q0 26 4 46.5t14 52.5l15 15l414 2q2 30 2 47q0 96 -44.5 147.5t-130.5 51.5q-48 0 -98 -15t-96 -44l-11 9l29 89q99 47 199 47q121 0 187 -72.5zM390 115.5
q53 46.5 76 127.5l-327 -3l-5 -22q-1 -8 -1 -24q0 -59 35.5 -92t96.5 -33q72 0 125 46.5z" />
    <glyph glyph-name="florin" unicode="&#x192;" horiz-adv-x="293" 
d="M385 608l-14 -63l-8 -4q-32 14 -65 14q-82 0 -91 -85l-13 -93h108l4 -6l-5 -46h-114l-17 -140l-17 -135q-7 -69 -34 -112t-91 -88l-40 38l2 8q43 36 61 68t24 84l16 130l17 147h-66l-4 6l5 46h71l10 80q8 77 57 118.5t129 41.5q32 0 75 -9z" />
    <glyph glyph-name="Ohorn" unicode="&#x1a0;" horiz-adv-x="632" 
d="M633 606q-29 -31 -76 -40q25 -34 36.5 -78.5t11.5 -105.5q0 -117 -39.5 -205t-112.5 -136.5t-172 -48.5q-117 0 -177.5 70.5t-60.5 207.5q0 115 40 200.5t113 132t169 46.5q35 0 59.5 -5.5t53.5 -14.5q31 -12 53 -12q24 0 39 13t15 37q0 34 -26 62l3 9q28 19 48 19
q21 0 36.5 -23.5t15.5 -54.5q0 -42 -29 -73zM447 144q56 76 56 225q0 103 -35 151.5t-113 48.5q-99 0 -154.5 -76t-55.5 -224q0 -104 35 -152.5t113 -48.5q98 0 154 76z" />
    <glyph glyph-name="ohorn" unicode="&#x1a1;" horiz-adv-x="465" 
d="M477 461q-17 -26 -45.5 -40t-60.5 -12q22 -37 22 -96q0 -142 -61 -228t-170 -94l-10 1q-61 12 -90.5 51t-29.5 112q0 90 28 159.5t81 110t124 44.5h10q20 -2 44 -10q26 -8 41 -8q26 0 42.5 15t16.5 39q0 32 -32 62l3 10q25 22 48 22q22 0 39 -25t17 -57q0 -30 -17 -56z
M271 127q32 64 32 179q0 48 -13.5 68.5t-42.5 20.5q-63 0 -95 -63t-32 -177q0 -49 13 -70.5t43 -21.5q63 0 95 64z" />
    <glyph glyph-name="Uhorn" unicode="&#x1af;" horiz-adv-x="613" 
d="M643.5 639.5q-21.5 -26.5 -59.5 -39.5l-37 -285l-9 -74q-14 -120 -80.5 -184.5t-181.5 -64.5q-99 0 -155 49t-56 139q0 25 3 53l13 88l37 321h97l-53 -396q-3 -24 -3 -43q0 -126 124 -126q146 0 164 159l45 406h36q62 0 62 50q0 30 -30 60l3 9q26 19 46 19
q21 0 38.5 -23.5t17.5 -56.5q0 -34 -21.5 -60.5z" />
    <glyph glyph-name="uhorn" unicode="&#x1b0;" horiz-adv-x="491" 
d="M502 470.5q-26 -28.5 -72 -45.5l-44 -314l-4 -108l-95 -7l29 207h-8q-46 -78 -83 -125.5t-78 -80.5h-11q-40 8 -65 31t-24 58l1 14l41 253l7 106l94 8l-50 -322l-1 -13q-1 -32 17 -32q28 0 75 66t107 197l4 95l36 6q37 5 54 19t17 37q0 32 -31 63l2 9q30 23 51 23
t39 -23.5t18 -56.5q0 -36 -26 -64.5z" />
    <glyph glyph-name="uni01C4" unicode="&#x1c4;" horiz-adv-x="1141" 
d="M545.5 580.5q64.5 -65.5 64.5 -185.5q0 -124 -39.5 -214t-116 -138.5t-185.5 -48.5q-42 0 -101 1.5t-110 4.5h-1l30 193l51 449h1l224 4q118 0 182.5 -65.5zM449.5 150.5q56.5 77.5 56.5 227.5q0 95 -38 141t-116 46q-54 0 -126 -4l-51 -360l-11 -121q35 -3 69.5 -5
t55.5 -2q104 0 160.5 77.5zM1147 570l-391 -492h234l98 8l4 -6l-18 -82l-123 2h-259l-63 -3l10 72l392 494h-218l-100 -8l-4 6l19 82l376 -1l52 1zM1053 817q-71 -47 -128 -95h-24q-45 42 -116 95l23 40h10l97 -65q21 13 39 23t32 18l42 24h11z" />
    <glyph glyph-name="uni01C5" unicode="&#x1c5;" horiz-adv-x="1041" 
d="M545.5 580.5q64.5 -65.5 64.5 -185.5q0 -124 -39.5 -214t-116 -138.5t-185.5 -48.5q-42 0 -101 1.5t-110 4.5h-1l30 193l51 449h1l224 4q118 0 182.5 -65.5zM449.5 150.5q56.5 77.5 56.5 227.5q0 95 -38 141t-116 46q-54 0 -126 -4l-51 -360l-11 -121q35 -3 69.5 -5
t55.5 -2q104 0 160.5 77.5zM1022 449l-274 -359l30 7q12 0 44 -10q4 -1 18 -5t24 -4q40 0 58.5 25t22.5 89l13 7l45 -21q-4 -95 -40 -141.5t-99 -46.5q-20 0 -38.5 4.5t-45.5 13.5q-43 15 -67 15q-18 0 -32 -6.5t-30 -22.5h-11l-29 27l272 361l-120 -1l-74 -10l-8 7l18 85
l9 6l72 -5l185 -3l28 16zM1021 659q-43 -39 -141 -137h-25q-54 74 -114 137l30 38h10q56 -55 92 -100q40 38 117 100h11z" />
    <glyph glyph-name="uni01C6" unicode="&#x1c6;" horiz-adv-x="863" 
d="M441 704l-84 -593l-4 -108l-96 -7l26 182h-11q-64 -109 -141 -186h-17q-87 41 -87 161q0 69 27 136t81 116t130 63h5l51 -19l21 147l2 101zM179 121.5q26 29.5 60.5 87.5t67.5 137l3 22l-64 24q-61 0 -97 -60t-36 -151q0 -48 8 -68.5t20 -20.5t38 29.5zM844 449
l-274 -359l30 7q12 0 44 -10q4 -1 18 -5t24 -4q40 0 58.5 25t22.5 89l13 7l45 -21q-4 -95 -40 -141.5t-99 -46.5q-20 0 -38.5 4.5t-45.5 13.5q-43 15 -67 15q-18 0 -32 -6.5t-30 -22.5h-11l-29 27l272 361l-120 -1l-74 -10l-8 7l18 85l9 6l72 -5l185 -3l28 16zM843 659
q-43 -39 -141 -137h-25q-54 74 -114 137l30 38h10q56 -55 92 -100q40 38 117 100h11z" />
    <glyph glyph-name="uni01C7" unicode="&#x1c7;" horiz-adv-x="718" 
d="M388 74l-17 -74h-315l31 193l50 449h99l-60 -441l-12 -119h219zM619 212l-9 -93q-10 -78 -56 -128t-149 -94l-28 54l1 11q71 36 102.5 70.5t38.5 87.5l11 83l40 362l-113 -2l-8 8l14 71h216z" />
    <glyph glyph-name="uni01C8" unicode="&#x1c8;" horiz-adv-x="651" 
d="M388 74l-17 -74h-315l31 193l50 449h99l-60 -441l-12 -119h219zM610 460l-50 -348l-9 -92q-10 -78 -45 -126t-111 -88l-31 43l1 10q47 30 70 64.5t30 92.5l47 340l2 34h-73l-5 7l8 54h68l94 13zM618.5 657q13.5 -14 13.5 -39q0 -26 -15 -41t-40 -15t-38.5 14t-13.5 39
q0 26 15 41t41 15q24 0 37.5 -14z" />
    <glyph glyph-name="uni01C9" unicode="&#x1c9;" horiz-adv-x="493" 
d="M148 111l-4 -108l-95 -7l85 600l2 101l96 7zM452 460l-50 -348l-9 -92q-10 -78 -45 -126t-111 -88l-31 43l1 10q47 30 70 64.5t30 92.5l47 340l2 34h-73l-5 7l8 54h68l94 13zM460.5 657q13.5 -14 13.5 -39q0 -26 -15 -41t-40 -15t-38.5 14t-13.5 39q0 26 15 41t41 15
q24 0 37.5 -14z" />
    <glyph glyph-name="uni01CA" unicode="&#x1ca;" horiz-adv-x="973" 
d="M567 191l-20 -191h-104l-230 488h-7l-35 -274l-23 -214h-91l29 190l53 452h103l230 -489h7l58 484l93 7zM874 212l-9 -93q-10 -78 -56 -128t-149 -94l-28 54l1 11q71 36 102.5 70.5t38.5 87.5l11 83l40 362l-113 -2l-8 8l14 71h216z" />
    <glyph glyph-name="uni01CB" unicode="&#x1cb;" horiz-adv-x="904" 
d="M567 191l-20 -191h-104l-230 488h-7l-35 -274l-23 -214h-91l29 190l53 452h103l230 -489h7l58 484l93 7zM863 460l-50 -348l-9 -92q-10 -78 -45 -126t-111 -88l-31 43l1 10q47 30 70 64.5t30 92.5l47 340l2 34h-73l-5 7l8 54h68l94 13zM871.5 657q13.5 -14 13.5 -39
q0 -26 -15 -41t-40 -15t-38.5 14t-13.5 39q0 26 15 41t41 15q24 0 37.5 -14z" />
    <glyph glyph-name="uni01CC" unicode="&#x1cc;" horiz-adv-x="719" 
d="M405 434.5q25 -23.5 24 -58.5l-1 -13l-40 -253l-5 -107l-98 -7l53 330l1 11q0 26 -18 26q-28 0 -76 -66t-107 -190l-4 -104l-96 -7l52 361l4 101l94 7l-29 -206h10q45 76 82.5 124.5t78.5 82.5h11q39 -8 64 -31.5zM678 460l-50 -348l-9 -92q-10 -78 -45 -126t-111 -88
l-31 43l1 10q47 30 70 64.5t30 92.5l47 340l2 34h-73l-5 7l8 54h68l94 13zM686.5 657q13.5 -14 13.5 -39q0 -26 -15 -41t-40 -15t-38.5 14t-13.5 39q0 26 15 41t41 15q24 0 37.5 -14z" />
    <glyph glyph-name="uni01CD" unicode="&#x1cd;" horiz-adv-x="561" 
d="M515 0h-99l-7 71l-16 92l-129 3l-117 -2l-40 -89l-26 -75h-97l298 642h115zM380 244l-51 300h-8l-136 -299l96 -2zM488 818q-71 -47 -128 -95h-24q-45 42 -116 95l23 40h10l97 -65q21 13 39 23t32 18l42 24h11z" />
    <glyph glyph-name="uni01CE" unicode="&#x1ce;" horiz-adv-x="447" 
d="M405 463l-49 -352l-4 -108l-96 -7l26 182h-11q-65 -111 -140 -186h-16q-87 41 -87 161q0 69 26.5 136t80 115.5t129.5 63.5h5l67 -24l59 25zM181 123q26 30 59.5 89t67.5 141v15l-63 24q-60 0 -95 -60t-35 -152q0 -47 8 -67t19 -20q13 0 39 30zM407 660
q-43 -39 -141 -137h-25q-54 74 -114 137l30 38h10q56 -55 92 -100q40 38 117 100h11z" />
    <glyph glyph-name="uni01CF" unicode="&#x1cf;" horiz-adv-x="270" 
d="M175 201l-19 -201h-99l29 193l51 449h99zM339 818q-71 -47 -128 -95h-24q-45 42 -116 95l23 40h10l97 -65q21 13 39 23t32 18l42 24h11z" />
    <glyph glyph-name="uni01D0" unicode="&#x1d0;" horiz-adv-x="225" 
d="M138 111l-5 -108l-95 -7l52 361l4 101l93 7zM297 659q-43 -39 -141 -137h-25q-54 74 -114 137l30 38h10q56 -55 92 -100q40 38 117 100h11z" />
    <glyph glyph-name="uni01D1" unicode="&#x1d1;" horiz-adv-x="618" 
d="M538.5 581.5q62.5 -67.5 62.5 -192.5q0 -122 -37.5 -211t-110 -137.5t-174.5 -48.5q-111 0 -173.5 69.5t-62.5 195.5q0 184 83 288t237 104q113 0 175.5 -67.5zM195.5 491.5q-51.5 -76.5 -51.5 -229.5q0 -97 35.5 -144t109.5 -47q208 0 208 308q0 97 -35.5 143t-109.5 46
q-105 0 -156.5 -76.5zM513 818q-71 -47 -128 -95h-24q-45 42 -116 95l23 40h10l97 -65q21 13 39 23t32 18l42 24h11z" />
    <glyph glyph-name="uni01D2" unicode="&#x1d2;" horiz-adv-x="420" 
d="M273 469q57 -11 86.5 -49t29.5 -108q0 -141 -60.5 -227t-168.5 -94l-10 1q-59 12 -88.5 51t-29.5 112q0 90 28 159.5t80 110t123 44.5h10zM151 330.5q-31 -62.5 -31 -175.5q0 -48 12.5 -69t42.5 -21q62 0 93 63.5t31 176.5q0 48 -12.5 68t-41.5 20q-63 0 -94 -62.5z
M406 659q-43 -39 -141 -137h-25q-54 74 -114 137l30 38h10q56 -55 92 -100q40 38 117 100h11z" />
    <glyph glyph-name="uni01D3" unicode="&#x1d3;" horiz-adv-x="606" 
d="M547 315l-9 -74q-14 -120 -80.5 -184.5t-181.5 -64.5q-99 0 -155 49t-56 139q0 25 3 53l13 88l37 321h97l-53 -396q-3 -24 -3 -43q0 -126 124 -126q146 0 164 159l45 406h98zM513 841q-43 -39 -141 -137h-25q-54 74 -114 137l30 38h10q56 -55 92 -100q40 38 117 100h11z
" />
    <glyph glyph-name="uni01D4" unicode="&#x1d4;" horiz-adv-x="478" 
d="M436 465l-51 -354l-3 -108l-96 -7l29 204h-8q-45 -75 -82 -122t-78 -81h-11q-40 8 -65 31t-24 58l1 14l41 253l7 106l94 8l-50 -322l-2 -21v-3q0 -21 18 -21q28 0 75 64.5t105 187.5l1 5l4 101zM426 659q-43 -39 -141 -137h-25q-54 74 -114 137l30 38h10q56 -55 92 -100
q40 38 117 100h11z" />
    <glyph glyph-name="uni01D5" unicode="&#x1d5;" horiz-adv-x="606" 
d="M547 315l-9 -74q-14 -120 -80.5 -184.5t-181.5 -64.5q-99 0 -155 49t-56 139q0 25 3 53l13 88l37 321h97l-53 -396q-3 -24 -3 -43q0 -126 124 -126q146 0 164 159l45 406h98zM527 941l-5 -57h-266l-8 8l6 56h266zM332.5 808.5q12.5 -12.5 12.5 -34.5t-14 -36t-36 -14
t-34 12t-12 35t13.5 36.5t36.5 13.5q21 0 33.5 -12.5zM495.5 808.5q12.5 -12.5 12.5 -34.5q0 -23 -13.5 -36.5t-36.5 -13.5q-22 0 -34 12.5t-12 34.5q0 23 13 36.5t36 13.5q22 0 34.5 -12.5z" />
    <glyph glyph-name="uni01D6" unicode="&#x1d6;" horiz-adv-x="478" 
d="M436 465l-51 -354l-3 -108l-96 -7l29 204h-8q-45 -75 -82 -122t-78 -81h-11q-40 8 -65 31t-24 58l1 14l41 253l7 106l94 8l-50 -322l-2 -21v-3q0 -21 18 -21q28 0 75 64.5t105 187.5l1 5l4 101zM440 759l-5 -57h-266l-8 8l6 56h266zM245.5 626.5q12.5 -12.5 12.5 -34.5
t-14 -36t-36 -14t-34 12t-12 35t13.5 36.5t36.5 13.5q21 0 33.5 -12.5zM408.5 626.5q12.5 -12.5 12.5 -34.5q0 -23 -13.5 -36.5t-36.5 -13.5q-22 0 -34 12.5t-12 34.5q0 23 13 36.5t36 13.5q22 0 34.5 -12.5z" />
    <glyph glyph-name="uni01D7" unicode="&#x1d7;" horiz-adv-x="606" 
d="M547 315l-9 -74q-14 -120 -80.5 -184.5t-181.5 -64.5q-99 0 -155 49t-56 139q0 25 3 53l13 88l37 321h97l-53 -396q-3 -24 -3 -43q0 -126 124 -126q146 0 164 159l45 406h98zM471 982l16 -61l-6 -9q-85 -20 -213 -46l-10 5l-9 45q111 32 213 71zM309 808.5
q12 -12.5 12 -34.5q0 -23 -13.5 -36.5t-35.5 -13.5q-23 0 -35 12.5t-12 34.5q0 23 13.5 36.5t36.5 13.5q22 0 34 -12.5zM471.5 808.5q12.5 -12.5 12.5 -34.5q0 -23 -13.5 -36.5t-35.5 -13.5q-23 0 -35 12.5t-12 34.5q0 23 13.5 36.5t36.5 13.5q21 0 33.5 -12.5z" />
    <glyph glyph-name="uni01D8" unicode="&#x1d8;" horiz-adv-x="478" 
d="M436 465l-51 -354l-3 -108l-96 -7l29 204h-8q-45 -75 -82 -122t-78 -81h-11q-40 8 -65 31t-24 58l1 14l41 253l7 106l94 8l-50 -322l-2 -21v-3q0 -21 18 -21q28 0 75 64.5t105 187.5l1 5l4 101zM395 800l15 -61l-5 -9q-93 -22 -213 -46l-9 5l-9 45q110 32 213 71z
M247.5 627q11.5 -12 11.5 -35t-13.5 -36.5t-35.5 -13.5t-34 12.5t-12 34.5q0 23 13.5 36.5t36.5 13.5q22 0 33.5 -12zM410 626.5q12 -12.5 12 -34.5q0 -23 -13.5 -36.5t-35.5 -13.5t-34 12t-12 35t13.5 36.5t36.5 13.5q21 0 33 -12.5z" />
    <glyph glyph-name="uni01D9" unicode="&#x1d9;" horiz-adv-x="606" 
d="M547 315l-9 -74q-14 -120 -80.5 -184.5t-181.5 -64.5q-99 0 -155 49t-56 139q0 25 3 53l13 88l37 321h97l-53 -396q-3 -24 -3 -43q0 -126 124 -126q146 0 164 159l45 406h98zM321 812q12 -12 12 -34q0 -23 -13.5 -37t-36.5 -14q-22 0 -34 12t-12 35t13.5 36.5t36.5 13.5
q22 0 34 -12zM489.5 812q12.5 -12 12.5 -34q0 -23 -13.5 -37t-36.5 -14q-22 0 -34 12.5t-12 34.5q0 23 13 36.5t36 13.5q22 0 34.5 -12zM515 934q-71 -47 -128 -95h-24q-45 42 -116 95l23 40h10l97 -65q21 13 39 23t32 18l42 24h11z" />
    <glyph glyph-name="uni01DA" unicode="&#x1da;" horiz-adv-x="478" 
d="M436 465l-51 -354l-3 -108l-96 -7l29 204h-8q-45 -75 -82 -122t-78 -81h-11q-40 8 -65 31t-24 58l1 14l41 253l7 106l94 8l-50 -322l-2 -21v-3q0 -21 18 -21q28 0 75 64.5t105 187.5l1 5l4 101zM428 754q-70 -48 -127 -95h-24q-55 49 -116 95l23 41h11l64 -44l32 -22
q36 22 114 66h10zM242 626.5q12 -12.5 12 -34.5q0 -23 -13.5 -36.5t-35.5 -13.5t-34 12t-12 35t13.5 36.5t36.5 13.5q21 0 33 -12.5zM405 626.5q12 -12.5 12 -34.5q0 -23 -13.5 -36.5t-35.5 -13.5q-23 0 -35 12.5t-12 34.5q0 23 13.5 36.5t36.5 13.5q22 0 34 -12.5z" />
    <glyph glyph-name="uni01DB" unicode="&#x1db;" horiz-adv-x="606" 
d="M547 315l-9 -74q-14 -120 -80.5 -184.5t-181.5 -64.5q-99 0 -155 49t-56 139q0 25 3 53l13 88l37 321h97l-53 -396q-3 -24 -3 -43q0 -126 124 -126q146 0 164 159l45 406h98zM241 912l-6 9l15 61l10 5q97 -37 213 -71l-10 -45l-10 -5q-132 27 -212 46zM238 736
q-12 12 -12 35t13.5 36.5t36.5 13.5q21 0 33 -12.5t12 -34.5q0 -23 -13.5 -36.5t-35.5 -13.5t-34 12zM400.5 736.5q-12.5 12.5 -12.5 34.5q0 23 13.5 36.5t36.5 13.5q22 0 34.5 -12.5t12.5 -34.5q0 -23 -13.5 -36.5t-36.5 -13.5q-22 0 -34.5 12.5z" />
    <glyph glyph-name="uni01DC" unicode="&#x1dc;" horiz-adv-x="478" 
d="M436 465l-51 -354l-3 -108l-96 -7l29 204h-8q-45 -75 -82 -122t-78 -81h-11q-40 8 -65 31t-24 58l1 14l41 253l7 106l94 8l-50 -322l-2 -21v-3q0 -21 18 -21q28 0 75 64.5t105 187.5l1 5l4 101zM180 730l-6 9l15 61l10 5q97 -37 213 -71l-10 -45l-10 -5q-132 27 -212 46z
M177 554q-12 12 -12 35t13.5 36.5t36.5 13.5q21 0 33 -12.5t12 -34.5q0 -23 -13.5 -36.5t-35.5 -13.5t-34 12zM339.5 554.5q-12.5 12.5 -12.5 34.5q0 23 13.5 36.5t36.5 13.5q22 0 34.5 -12.5t12.5 -34.5q0 -23 -13.5 -36.5t-36.5 -13.5q-22 0 -34.5 12.5z" />
    <glyph glyph-name="Gcaron" unicode="&#x1e6;" horiz-adv-x="578" 
d="M570 605l-33 -92l-10 -2q-44 30 -80 42.5t-79 12.5q-226 0 -226 -310q0 -94 39.5 -138t122.5 -44q23 0 46.5 4.5t60.5 16.5l11 67l11 102l92 7l-13 -95l-15 -145q-58 -20 -104 -29.5t-97 -9.5q-125 0 -190 67.5t-65 189.5q0 191 90 295t256 104q100 0 183 -43zM507 818
q-71 -47 -128 -95h-24q-45 42 -116 95l23 40h10l97 -65q21 13 39 23t32 18l42 24h11z" />
    <glyph glyph-name="gcaron" unicode="&#x1e7;" horiz-adv-x="450" 
d="M408 463l-50 -351l-7 -72q-10 -73 -44.5 -127t-85 -82.5t-109.5 -28.5q-68 0 -112 38.5t-56 109.5l4 10l139 78l1 9q-23 19 -33.5 48.5t-10.5 72.5q0 70 25.5 133.5t76 108t121.5 57.5h5l67 -24l58 26zM159.5 340q-31.5 -54 -31.5 -138q0 -47 8.5 -70.5t18.5 -23.5
t34 28.5t56 81.5t64 124l2 15l1 12l-63 25q-58 0 -89.5 -54zM287 189h-12q-55 -103 -133 -167l-86 -63q-6 -6 -8.5 -9.5t-2.5 -9.5q0 -26 24.5 -46.5t63.5 -20.5q50 0 85 36.5t45 104.5zM418 659q-43 -39 -141 -137h-25q-54 74 -114 137l30 38h10q56 -55 92 -100
q40 38 117 100h11z" />
    <glyph glyph-name="uni01EA" unicode="&#x1ea;" horiz-adv-x="618" 
d="M538.5 581.5q62.5 -67.5 62.5 -192.5q0 -122 -37.5 -211t-110 -137.5t-174.5 -48.5q-111 0 -173.5 69.5t-62.5 195.5q0 184 83 288t237 104q113 0 175.5 -67.5zM195.5 491.5q-51.5 -76.5 -51.5 -229.5q0 -97 35.5 -144t109.5 -47q208 0 208 308q0 97 -35.5 143t-109.5 46
q-105 0 -156.5 -76.5zM239.5 -196.5q-24.5 21.5 -24.5 56.5q0 20 8.5 37t31.5 41t74 72h59q-41 -44 -66.5 -72.5t-32.5 -40t-7 -22.5q0 -32 34 -32q33 0 75 36h6l13 -50q-53 -47 -106 -47q-40 0 -64.5 21.5z" />
    <glyph glyph-name="uni01EB" unicode="&#x1eb;" horiz-adv-x="420" 
d="M273 469q57 -11 86.5 -49t29.5 -108q0 -141 -60.5 -227t-168.5 -94l-10 1q-59 12 -88.5 51t-29.5 112q0 90 28 159.5t80 110t123 44.5h10zM151 330.5q-31 -62.5 -31 -175.5q0 -48 12.5 -69t42.5 -21q62 0 93 63.5t31 176.5q0 48 -12.5 68t-41.5 20q-63 0 -94 -62.5z
M123.5 -174.5q-24.5 21.5 -24.5 56.5q0 20 8.5 37t31.5 41t74 72h59q-41 -44 -66.5 -72.5t-32.5 -40t-7 -22.5q0 -32 34 -32q33 0 75 36h6l13 -50q-53 -47 -106 -47q-40 0 -64.5 21.5z" />
    <glyph glyph-name="Aringacute" unicode="&#x1fa;" horiz-adv-x="567" 
d="M268 796l-11 44q126 46 209 82l9 -4l18 -60l-4 -9q-74 -22 -188 -52l-23 -6zM520 0h-99l-6 69l-16 92l-131 3l-116 -2l-41 -88l-25 -74h-97l297 621q-26 24 -26 66q0 41 23.5 64t65.5 23t64.5 -23t22.5 -61q0 -49 -36 -74zM304 689q0 -22 11.5 -33t32.5 -11q20 0 32 10.5
t12 31.5q0 19 -11.5 30.5t-33.5 11.5q-43 0 -43 -40zM385 242l-51 295h-8l-137 -295l96 -2z" />
    <glyph glyph-name="aringacute" unicode="&#x1fb;" horiz-adv-x="447" 
d="M405 463l-49 -352l-4 -108l-96 -7l26 182h-11q-65 -111 -140 -186h-16q-87 41 -87 161q0 69 26.5 136t80 115.5t129.5 63.5h5l67 -24l59 25zM181 123q26 30 59.5 89t67.5 141v15l-63 24q-60 0 -95 -60t-35 -152q0 -47 8 -67t19 -20q13 0 39 30zM336 684q22 -23 22 -61
q0 -42 -25 -65.5t-65 -23.5q-38 0 -61.5 22.5t-23.5 63.5t23.5 64t65.5 23t64 -23zM227 621q0 -21 11.5 -32t32.5 -11q20 0 31.5 10.5t11.5 30.5t-11 31.5t-34 11.5q-42 0 -42 -41zM397.313 850.542l17.8613 -59.6211l-5.18945 -9.43652
q-81.6826 -25.2256 -209.613 -57.8652l-10.4297 5.31152l-11.75 43.7578q137.072 49.6514 209.562 82.0508z" />
    <glyph glyph-name="AEacute" unicode="&#x1fc;" horiz-adv-x="778" 
d="M747 76l-17 -76h-348l4 71l-1 176l-223 -54l-71 -118l-36 -75h-99l393 642h382l5 -9l-17 -76l-152 5h-89v-218l204 47l7 -6l-2 -71l-208 -45v-191h106l157 6zM384 322l-2 222h-6l-159 -261zM640 870l25 -57l-4 -10q-78 -35 -201 -83l-11 4l-17 42q130 66 198 107z" />
    <glyph glyph-name="aeacute" unicode="&#x1fd;" horiz-adv-x="631" 
d="M505 470l11 -1q44 -8 68 -32t24 -65q0 -59 -59.5 -107.5t-188.5 -90.5q0 -7 1 -11q2 -47 17 -69.5t43 -22.5q33 0 65 24.5t51 63.5l14 -1l32 -42q-73 -101 -163 -123h-13q-72 7 -103 48t-33 118l-1 7q-67 -106 -139 -174h-15q-88 42 -88 161q0 69 27 136t81 115.5
t131 63.5h5l111 -40q55 39 122 42zM403 359q-31 -44 -40 -119q160 48 160 125q0 38 -43 38q-46 0 -77 -44zM151 332.5q-36 -60.5 -36 -151.5q0 -48 8 -68.5t19 -20.5q12 0 37 27t57 80t64 125q10 22 22 40l-74 29q-61 0 -97 -60.5zM443 706l36 -52l-2 -10
q-119 -85 -179 -124l-10 1l-25 38q109 91 170 148z" />
    <glyph glyph-name="Oslashacute" unicode="&#x1fe;" horiz-adv-x="619" 
d="M580 514.5q21 -53.5 21 -125.5q0 -122 -37.5 -211t-110 -137.5t-174.5 -48.5q-56 0 -100 18l-68 -117l-54 22l-3 9l69 120q-39 34 -59.5 88t-20.5 125q0 184 83 288t237 104q56 0 98 -16l54 95l54 -22l4 -11l-55 -95q41 -32 62 -85.5zM172 129l245 427q-28 12 -65 12
q-105 0 -156.5 -76.5t-51.5 -229.5q0 -86 28 -133zM497 379q0 86 -29 133l-247 -428q27 -13 68 -13q208 0 208 308zM451 870l25 -57l-4 -10q-78 -35 -201 -83l-11 4l-17 42q130 66 198 107z" />
    <glyph glyph-name="oslashacute" unicode="&#x1ff;" horiz-adv-x="421" 
d="M390 312q0 -140 -61 -226.5t-169 -94.5l-9 1l-23 6l-60 -117l-51 26l-3 9l58 114q-40 42 -40 125q0 90 28 159.5t80 110t123 44.5h10q8 -1 22 -5l48 94l47 -25l6 -10l-46 -91q40 -40 40 -120zM121 125l137 267q-4 1 -13 1q-63 0 -94 -62.5t-31 -175.5q0 -21 1 -30z
M268 128.5q31 63.5 31 176.5q0 18 -1 26l-135 -265q3 -1 12 -1q62 0 93 63.5zM336 705l36 -52l-2 -10q-119 -85 -179 -124l-10 1l-25 38q109 91 170 148z" />
    <glyph glyph-name="uni0200" unicode="&#x200;" horiz-adv-x="561" 
d="M515 0h-99l-7 71l-16 92l-129 3l-117 -2l-40 -89l-26 -75h-97l298 642h115zM380 244l-51 300h-8l-136 -299l96 -2zM304 724l-29 27q-62 56 -92 86v8l39 34l8 -1q53 -64 111 -127l-28 -28zM444 724q-82 74 -121 113v8l38 34l9 -1q56 -68 110 -127l-27 -28z" />
    <glyph glyph-name="uni0201" unicode="&#x201;" horiz-adv-x="447" 
d="M405 463l-49 -352l-4 -108l-96 -7l26 182h-11q-65 -111 -140 -186h-16q-87 41 -87 161q0 69 26.5 136t80 115.5t129.5 63.5h5l67 -24l59 25zM181 123q26 30 59.5 89t67.5 141v15l-63 24q-60 0 -95 -60t-35 -152q0 -47 8 -67t19 -20q13 0 39 30zM215 522q-78 75 -144 145
v9l45 33l8 -1q73 -93 132 -160l-31 -28zM360 522q-88 85 -145 145l2 9l44 33l9 -1q67 -87 131 -160l-32 -28z" />
    <glyph glyph-name="uni0202" unicode="&#x202;" horiz-adv-x="561" 
d="M515 0h-99l-7 71l-16 92l-129 3l-117 -2l-40 -89l-26 -75h-97l298 642h115zM380 244l-51 300h-8l-136 -299l96 -2zM219 744q19 55 55 86.5t88 31.5q59 0 89 -31.5t36 -86.5l-28 -35h-15q-5 42 -27 63t-58 21q-73 0 -105 -84h-14z" />
    <glyph glyph-name="uni0203" unicode="&#x203;" horiz-adv-x="447" 
d="M405 463l-49 -352l-4 -108l-96 -7l26 182h-11q-65 -111 -140 -186h-16q-87 41 -87 161q0 69 26.5 136t80 115.5t129.5 63.5h5l67 -24l59 25zM181 123q26 30 59.5 89t67.5 141v15l-63 24q-60 0 -95 -60t-35 -152q0 -47 8 -67t19 -20q13 0 39 30zM133 563q19 55 55 86.5
t88 31.5q59 0 89 -31.5t36 -86.5l-28 -35h-15q-5 42 -27 63t-58 21q-73 0 -105 -84h-14z" />
    <glyph glyph-name="uni0204" unicode="&#x204;" horiz-adv-x="475" 
d="M226 560l-27 -192l112 -2l101 3l5 -7l-16 -76l-108 3l-105 -2l-12 -86l-12 -120l119 -2l147 5l3 -8l-15 -76h-361l30 193l51 449h362l5 -9l-17 -76l-145 4zM282 724l-29 27q-62 56 -92 86v8l39 34l8 -1q53 -64 111 -127l-28 -28zM422 724q-82 74 -121 113v8l38 34l9 -1
q56 -68 110 -127l-27 -28z" />
    <glyph glyph-name="uni0205" unicode="&#x205;" horiz-adv-x="389" 
d="M310 147l30 -39q-64 -94 -161 -115h-13q-70 8 -102.5 48.5t-32.5 120.5q0 88 29 156.5t81 108.5t119 43l10 -1q46 -7 70.5 -32t24.5 -65q0 -122 -246 -195q1 -56 17 -81t48 -25q27 0 53.5 17.5t59.5 59.5zM161.5 359q-31.5 -44 -39.5 -119q157 48 157 125q0 38 -41 38
q-45 0 -76.5 -44zM201 522q-78 75 -144 145v9l45 33l8 -1q73 -93 132 -160l-31 -28zM346 522q-88 85 -145 145l2 9l44 33l9 -1q67 -87 131 -160l-32 -28z" />
    <glyph glyph-name="uni0206" unicode="&#x206;" horiz-adv-x="475" 
d="M226 560l-27 -192l112 -2l101 3l5 -7l-16 -76l-108 3l-105 -2l-12 -86l-12 -120l119 -2l147 5l3 -8l-15 -76h-361l30 193l51 449h362l5 -9l-17 -76l-145 4zM197 744q19 55 55 86.5t88 31.5q59 0 89 -31.5t36 -86.5l-28 -35h-15q-5 42 -27 63t-58 21q-73 0 -105 -84h-14z
" />
    <glyph glyph-name="uni0207" unicode="&#x207;" horiz-adv-x="389" 
d="M310 147l30 -39q-64 -94 -161 -115h-13q-70 8 -102.5 48.5t-32.5 120.5q0 88 29 156.5t81 108.5t119 43l10 -1q46 -7 70.5 -32t24.5 -65q0 -122 -246 -195q1 -56 17 -81t48 -25q27 0 53.5 17.5t59.5 59.5zM161.5 359q-31.5 -44 -39.5 -119q157 48 157 125q0 38 -41 38
q-45 0 -76.5 -44zM119 563q19 55 55 86.5t88 31.5q59 0 89 -31.5t36 -86.5l-28 -35h-15q-5 42 -27 63t-58 21q-73 0 -105 -84h-14z" />
    <glyph glyph-name="uni0208" unicode="&#x208;" horiz-adv-x="270" 
d="M175 201l-19 -201h-99l29 193l51 449h99zM155 724l-29 27q-62 56 -92 86v8l39 34l8 -1q53 -64 111 -127l-28 -28zM295 724q-82 74 -121 113v8l38 34l9 -1q56 -68 110 -127l-27 -28z" />
    <glyph glyph-name="uni0209" unicode="&#x209;" horiz-adv-x="225" 
d="M138 111l-5 -108l-95 -7l52 361l4 101l93 7zM105 521q-78 75 -144 145v9l45 33l8 -1q73 -93 132 -160l-31 -28zM250 521q-88 85 -145 145l2 9l44 33l9 -1q67 -87 131 -160l-32 -28z" />
    <glyph glyph-name="uni020A" unicode="&#x20a;" horiz-adv-x="270" 
d="M175 201l-19 -201h-99l29 193l51 449h99zM70 744q19 55 55 86.5t88 31.5q59 0 89 -31.5t36 -86.5l-28 -35h-15q-5 42 -27 63t-58 21q-73 0 -105 -84h-14z" />
    <glyph glyph-name="uni020B" unicode="&#x20b;" horiz-adv-x="225" 
d="M138 111l-5 -108l-95 -7l52 361l4 101l93 7zM23 562q19 55 55 86.5t88 31.5q59 0 89 -31.5t36 -86.5l-28 -35h-15q-5 42 -27 63t-58 21q-73 0 -105 -84h-14z" />
    <glyph glyph-name="uni020C" unicode="&#x20c;" horiz-adv-x="618" 
d="M538.5 581.5q62.5 -67.5 62.5 -192.5q0 -122 -37.5 -211t-110 -137.5t-174.5 -48.5q-111 0 -173.5 69.5t-62.5 195.5q0 184 83 288t237 104q113 0 175.5 -67.5zM195.5 491.5q-51.5 -76.5 -51.5 -229.5q0 -97 35.5 -144t109.5 -47q208 0 208 308q0 97 -35.5 143t-109.5 46
q-105 0 -156.5 -76.5zM329 724l-29 27q-62 56 -92 86v8l39 34l8 -1q53 -64 111 -127l-28 -28zM469 724q-82 74 -121 113v8l38 34l9 -1q56 -68 110 -127l-27 -28z" />
    <glyph glyph-name="uni020D" unicode="&#x20d;" horiz-adv-x="420" 
d="M273 469q57 -11 86.5 -49t29.5 -108q0 -141 -60.5 -227t-168.5 -94l-10 1q-59 12 -88.5 51t-29.5 112q0 90 28 159.5t80 110t123 44.5h10zM151 330.5q-31 -62.5 -31 -175.5q0 -48 12.5 -69t42.5 -21q62 0 93 63.5t31 176.5q0 48 -12.5 68t-41.5 20q-63 0 -94 -62.5z
M214 521q-78 75 -144 145v9l45 33l8 -1q73 -93 132 -160l-31 -28zM359 521q-88 85 -145 145l2 9l44 33l9 -1q67 -87 131 -160l-32 -28z" />
    <glyph glyph-name="uni020E" unicode="&#x20e;" horiz-adv-x="618" 
d="M538.5 581.5q62.5 -67.5 62.5 -192.5q0 -122 -37.5 -211t-110 -137.5t-174.5 -48.5q-111 0 -173.5 69.5t-62.5 195.5q0 184 83 288t237 104q113 0 175.5 -67.5zM195.5 491.5q-51.5 -76.5 -51.5 -229.5q0 -97 35.5 -144t109.5 -47q208 0 208 308q0 97 -35.5 143t-109.5 46
q-105 0 -156.5 -76.5zM244 744q19 55 55 86.5t88 31.5q59 0 89 -31.5t36 -86.5l-28 -35h-15q-5 42 -27 63t-58 21q-73 0 -105 -84h-14z" />
    <glyph glyph-name="uni020F" unicode="&#x20f;" horiz-adv-x="420" 
d="M273 469q57 -11 86.5 -49t29.5 -108q0 -141 -60.5 -227t-168.5 -94l-10 1q-59 12 -88.5 51t-29.5 112q0 90 28 159.5t80 110t123 44.5h10zM151 330.5q-31 -62.5 -31 -175.5q0 -48 12.5 -69t42.5 -21q62 0 93 63.5t31 176.5q0 48 -12.5 68t-41.5 20q-63 0 -94 -62.5z
M132 562q19 55 55 86.5t88 31.5q59 0 89 -31.5t36 -86.5l-28 -35h-15q-5 42 -27 63t-58 21q-73 0 -105 -84h-14z" />
    <glyph glyph-name="uni0210" unicode="&#x210;" horiz-adv-x="547" 
d="M476.5 349.5q-39.5 -59.5 -109.5 -92.5q57 -119 126 -234l-2 -11q-49 -17 -96 -21l-10 8q-64 135 -102 232h-104l-4 -30l-19 -201h-99l29 193l52 449l200 1q83 0 130.5 -41.5t47.5 -117.5q0 -75 -39.5 -134.5zM191 311l107 -3q115 36 115 160q0 92 -105 97l-82 -3z
M293 724l-29 27q-62 56 -92 86v8l39 34l8 -1q53 -64 111 -127l-28 -28zM433 724q-82 74 -121 113v8l38 34l9 -1q56 -68 110 -127l-27 -28z" />
    <glyph glyph-name="uni0211" unicode="&#x211;" horiz-adv-x="335" 
d="M356 463l-18 -126l-8 -5l-11 2q-33 -5 -60 -26t-56.5 -70t-65.5 -137l-4 -98l-96 -7l53 361l4 101l93 7l-28 -199h10q31 60 69.5 108.5t91.5 90.5zM196 521q-78 75 -144 145v9l45 33l8 -1q73 -93 132 -160l-31 -28zM341 521q-88 85 -145 145l2 9l44 33l9 -1
q67 -87 131 -160l-32 -28z" />
    <glyph glyph-name="uni0212" unicode="&#x212;" horiz-adv-x="547" 
d="M476.5 349.5q-39.5 -59.5 -109.5 -92.5q57 -119 126 -234l-2 -11q-49 -17 -96 -21l-10 8q-64 135 -102 232h-104l-4 -30l-19 -201h-99l29 193l52 449l200 1q83 0 130.5 -41.5t47.5 -117.5q0 -75 -39.5 -134.5zM191 311l107 -3q115 36 115 160q0 92 -105 97l-82 -3z
M208 744q19 55 55 86.5t88 31.5q59 0 89 -31.5t36 -86.5l-28 -35h-15q-5 42 -27 63t-58 21q-73 0 -105 -84h-14z" />
    <glyph glyph-name="uni0213" unicode="&#x213;" horiz-adv-x="335" 
d="M356 463l-18 -126l-8 -5l-11 2q-33 -5 -60 -26t-56.5 -70t-65.5 -137l-4 -98l-96 -7l53 361l4 101l93 7l-28 -199h10q31 60 69.5 108.5t91.5 90.5zM114 562q19 55 55 86.5t88 31.5q59 0 89 -31.5t36 -86.5l-28 -35h-15q-5 42 -27 63t-58 21q-73 0 -105 -84h-14z" />
    <glyph glyph-name="uni0214" unicode="&#x214;" horiz-adv-x="606" 
d="M547 315l-9 -74q-14 -120 -80.5 -184.5t-181.5 -64.5q-99 0 -155 49t-56 139q0 25 3 53l13 88l37 321h97l-53 -396q-3 -24 -3 -43q0 -126 124 -126q146 0 164 159l45 406h98zM324 724l-29 27q-62 56 -92 86v8l39 34l8 -1q53 -64 111 -127l-28 -28zM464 724
q-82 74 -121 113v8l38 34l9 -1q56 -68 110 -127l-27 -28z" />
    <glyph glyph-name="uni0215" unicode="&#x215;" horiz-adv-x="478" 
d="M436 465l-51 -354l-3 -108l-96 -7l29 204h-8q-45 -75 -82 -122t-78 -81h-11q-40 8 -65 31t-24 58l1 14l41 253l7 106l94 8l-50 -322l-2 -21v-3q0 -21 18 -21q28 0 75 64.5t105 187.5l1 5l4 101zM234 521q-78 75 -144 145v9l45 33l8 -1q73 -93 132 -160l-31 -28zM379 521
q-88 85 -145 145l2 9l44 33l9 -1q67 -87 131 -160l-32 -28z" />
    <glyph glyph-name="uni0216" unicode="&#x216;" horiz-adv-x="606" 
d="M547 315l-9 -74q-14 -120 -80.5 -184.5t-181.5 -64.5q-99 0 -155 49t-56 139q0 25 3 53l13 88l37 321h97l-53 -396q-3 -24 -3 -43q0 -126 124 -126q146 0 164 159l45 406h98zM239 744q19 55 55 86.5t88 31.5q59 0 89 -31.5t36 -86.5l-28 -35h-15q-5 42 -27 63t-58 21
q-73 0 -105 -84h-14z" />
    <glyph glyph-name="uni0217" unicode="&#x217;" horiz-adv-x="478" 
d="M436 465l-51 -354l-3 -108l-96 -7l29 204h-8q-45 -75 -82 -122t-78 -81h-11q-40 8 -65 31t-24 58l1 14l41 253l7 106l94 8l-50 -322l-2 -21v-3q0 -21 18 -21q28 0 75 64.5t105 187.5l1 5l4 101zM152 562q19 55 55 86.5t88 31.5q59 0 89 -31.5t36 -86.5l-28 -35h-15
q-5 42 -27 63t-58 21q-73 0 -105 -84h-14z" />
    <glyph glyph-name="Scommaaccent" unicode="&#x218;" horiz-adv-x="464" 
d="M457 617l-27 -90l-17 -6q-26 23 -57.5 35.5t-63.5 12.5q-51 0 -82 -27t-31 -65q0 -33 24.5 -56t76.5 -54q45 -27 73.5 -49t48.5 -54.5t20 -77.5q0 -54 -29.5 -98t-82.5 -70t-119 -26q-43 0 -90 11.5t-86 32.5l25 97l12 6q31 -34 72 -51.5t79 -17.5q53 0 86 28t33 69
q0 35 -25 58t-77 55q-44 26 -71.5 47.5t-47 54t-19.5 76.5q0 53 29.5 96.5t80.5 68.5t115 25q76 0 150 -31zM265 -113q0 -69 -99 -141l-32 27v8q53 42 53 88q0 27 -29 50v8q30 19 66 30q41 -27 41 -70z" />
    <glyph glyph-name="scommaaccent" unicode="&#x219;" horiz-adv-x="326" 
d="M318 442l-26 -85l-14 -4q-42 48 -85 48q-26 0 -43.5 -18t-17.5 -41q0 -20 15 -35t45 -36q44 -30 67.5 -57.5t23.5 -71.5q0 -43 -23.5 -77t-65 -53.5t-94.5 -19.5q-59 8 -107 33l24 88l13 5q21 -30 48 -46t53 -16q29 0 47 18.5t18 42.5q0 22 -15.5 38.5t-48.5 38.5
q-43 31 -65.5 57t-22.5 68q0 43 25 77t67 53t92 19q44 -10 90 -26zM202 -113q0 -69 -99 -141l-32 27v8q53 42 53 88q0 27 -29 50v8q30 19 66 30q41 -27 41 -70z" />
    <glyph glyph-name="uni021A" unicode="&#x21a;" horiz-adv-x="475" 
d="M508 633l-17 -75l-109 6h-52l-50 -363l-20 -201h-99l31 193l40 371h-52l-113 -6l-6 9l18 75h424zM270 -113q0 -69 -99 -141l-32 27v8q53 42 53 88q0 27 -29 50v8q30 19 66 30q41 -27 41 -70z" />
    <glyph glyph-name="uni021B" unicode="&#x21b;" horiz-adv-x="338" 
d="M161 122l-2 -16q0 -12 5.5 -19t17.5 -7q16 0 35 16.5t44 54.5h10l27 -33q-35 -58 -64.5 -86.5t-66.5 -38.5q-45 0 -70 23.5t-24 66.5l2 25l41 251l4 31h-66l-6 7l6 54h74l13 106l88 37l7 -7l-22 -136h116l7 -8l-6 -53h-127zM235 -113q0 -69 -99 -141l-32 27v8
q53 42 53 88q0 27 -29 50v8q30 19 66 30q41 -27 41 -70z" />
    <glyph glyph-name="uni022A" unicode="&#x22a;" horiz-adv-x="618" 
d="M538.5 581.5q62.5 -67.5 62.5 -192.5q0 -122 -37.5 -211t-110 -137.5t-174.5 -48.5q-111 0 -173.5 69.5t-62.5 195.5q0 184 83 288t237 104q113 0 175.5 -67.5zM195.5 491.5q-51.5 -76.5 -51.5 -229.5q0 -97 35.5 -144t109.5 -47q208 0 208 308q0 97 -35.5 143t-109.5 46
q-105 0 -156.5 -76.5zM532 941l-5 -57h-266l-8 8l6 56h266zM337.5 808.5q12.5 -12.5 12.5 -34.5t-14 -36t-36 -14t-34 12t-12 35t13.5 36.5t36.5 13.5q21 0 33.5 -12.5zM500.5 808.5q12.5 -12.5 12.5 -34.5q0 -23 -13.5 -36.5t-36.5 -13.5q-22 0 -34 12.5t-12 34.5
q0 23 13 36.5t36 13.5q22 0 34.5 -12.5z" />
    <glyph glyph-name="uni022B" unicode="&#x22b;" horiz-adv-x="420" 
d="M273 469q57 -11 86.5 -49t29.5 -108q0 -141 -60.5 -227t-168.5 -94l-10 1q-59 12 -88.5 51t-29.5 112q0 90 28 159.5t80 110t123 44.5h10zM151 330.5q-31 -62.5 -31 -175.5q0 -48 12.5 -69t42.5 -21q62 0 93 63.5t31 176.5q0 48 -12.5 68t-41.5 20q-63 0 -94 -62.5z
M420 759l-5 -57h-266l-8 8l6 56h266zM225.5 626.5q12.5 -12.5 12.5 -34.5t-14 -36t-36 -14t-34 12t-12 35t13.5 36.5t36.5 13.5q21 0 33.5 -12.5zM388.5 626.5q12.5 -12.5 12.5 -34.5q0 -23 -13.5 -36.5t-36.5 -13.5q-22 0 -34 12.5t-12 34.5q0 23 13 36.5t36 13.5
q22 0 34.5 -12.5z" />
    <glyph glyph-name="uni022C" unicode="&#x22c;" horiz-adv-x="618" 
d="M538.5 581.5q62.5 -67.5 62.5 -192.5q0 -122 -37.5 -211t-110 -137.5t-174.5 -48.5q-111 0 -173.5 69.5t-62.5 195.5q0 184 83 288t237 104q113 0 175.5 -67.5zM195.5 491.5q-51.5 -76.5 -51.5 -229.5q0 -97 35.5 -144t109.5 -47q208 0 208 308q0 97 -35.5 143t-109.5 46
q-105 0 -156.5 -76.5zM526 828v-9l-58 -76l-9 -3q-25 4 -75 21q-45 15 -56 15q-10 0 -18.5 -8.5t-18.5 -21t-15 -18.5h-9l-29 31v8l57 75l10 4q22 -3 74 -20q47 -15 57 -15t19 8.5t19 21l14 17.5h9zM525 962l-6 -56h-219l-7 8l5 55h220z" />
    <glyph glyph-name="uni022D" unicode="&#x22d;" horiz-adv-x="420" 
d="M273 469q57 -11 86.5 -49t29.5 -108q0 -141 -60.5 -227t-168.5 -94l-10 1q-59 12 -88.5 51t-29.5 112q0 90 28 159.5t80 110t123 44.5h10zM151 330.5q-31 -62.5 -31 -175.5q0 -48 12.5 -69t42.5 -21q62 0 93 63.5t31 176.5q0 48 -12.5 68t-41.5 20q-63 0 -94 -62.5z
M414 646v-9l-58 -76l-9 -3q-25 4 -75 21q-45 15 -56 15q-10 0 -18.5 -8.5t-18.5 -21t-15 -18.5h-9l-29 31v8l57 75l10 4q22 -3 74 -20q47 -15 57 -15t19 8.5t19 21l14 17.5h9zM413 780l-6 -56h-219l-7 8l5 55h220z" />
    <glyph glyph-name="uni0230" unicode="&#x230;" horiz-adv-x="618" 
d="M538.5 581.5q62.5 -67.5 62.5 -192.5q0 -122 -37.5 -211t-110 -137.5t-174.5 -48.5q-111 0 -173.5 69.5t-62.5 195.5q0 184 83 288t237 104q113 0 175.5 -67.5zM195.5 491.5q-51.5 -76.5 -51.5 -229.5q0 -97 35.5 -144t109.5 -47q208 0 208 308q0 97 -35.5 143t-109.5 46
q-105 0 -156.5 -76.5zM401.5 816q13.5 -14 13.5 -39q0 -26 -15 -41t-40 -15t-38.5 14t-13.5 39q0 26 15 41t41 15q24 0 37.5 -14zM491 927l-6 -56h-219l-7 8l5 55h220z" />
    <glyph glyph-name="uni0231" unicode="&#x231;" horiz-adv-x="420" 
d="M273 469q57 -11 86.5 -49t29.5 -108q0 -141 -60.5 -227t-168.5 -94l-10 1q-59 12 -88.5 51t-29.5 112q0 90 28 159.5t80 110t123 44.5h10zM151 330.5q-31 -62.5 -31 -175.5q0 -48 12.5 -69t42.5 -21q62 0 93 63.5t31 176.5q0 48 -12.5 68t-41.5 20q-63 0 -94 -62.5z
M289.5 634q13.5 -14 13.5 -39q0 -26 -15 -41t-40 -15t-38.5 14t-13.5 39q0 26 15 41t41 15q24 0 37.5 -14zM379 745l-6 -56h-219l-7 8l5 55h220z" />
    <glyph glyph-name="uni0232" unicode="&#x232;" horiz-adv-x="518" 
d="M295 226l-6 -42l-19 -184h-99l30 184l4 44l-143 414h102l7 -39l89 -273h9l167 270l21 42h105zM474 818l-5 -56h-282l-7 8l5 55h283z" />
    <glyph glyph-name="uni0233" unicode="&#x233;" horiz-adv-x="425" 
d="M418 386q0 -32 -10 -64t-31 -70l-134 -240q-61 -111 -115.5 -159t-119.5 -48q-36 0 -81 14l4 82l9 8q36 -9 65 -9q44 0 77.5 21t65.5 68l-96 468l95 8l10 -82l43 -275h13l84 161q32 58 32 109q0 34 -21 65l4 11l84 13q22 -48 22 -81zM406 637l-5 -56h-282l-7 8l5 55h283z
" />
    <glyph glyph-name="uni0237" unicode="&#x237;" horiz-adv-x="242" 
d="M201 460l-50 -348l-9 -92q-10 -78 -45 -126t-111 -88l-31 43l1 10q47 30 70 64.5t30 92.5l47 340l2 34h-73l-5 7l8 54h68l94 13z" />
    <glyph glyph-name="uni0259" unicode="&#x259;" horiz-adv-x="389" 
d="M325.5 418.5q32.5 -40.5 32.5 -120.5q0 -88 -29 -156.5t-81 -108.5t-119 -43l-10 1q-46 7 -70.5 32t-24.5 65q0 122 246 195q-1 56 -17 81t-48 25q-27 0 -53.5 -17.5t-59.5 -59.5l-13 1l-30 39q64 94 161 115h13q70 -8 102.5 -48.5zM227.5 101q31.5 44 39.5 119
q-157 -48 -157 -125q0 -38 41 -38q45 0 76.5 44z" />
    <glyph glyph-name="uni02B0" unicode="&#x2b0;" horiz-adv-x="338" 
d="M315 623q17 -18 16 -43l-1 -9l-26 -165l-5 -71l-75 -6l33 208l1 8q0 13 -4.5 20t-10.5 7q-13 0 -39.5 -34.5t-60.5 -98.5l-4 -32l-5 -72l-73 -6l55 407l3 69l73 6l-39 -297h8q52 91 100 132h8q29 -5 46 -23z" />
    <glyph glyph-name="uni02B2" unicode="&#x2b2;" horiz-adv-x="177" 
d="M176.5 786q10.5 -10 10.5 -29q0 -21 -12 -32.5t-32 -11.5q-40 0 -40 40q0 21 12 32t32 11q19 0 29.5 -10zM174 641l-31 -238l-7 -52q-7 -54 -31 -88.5t-74 -60.5l-23 33l1 6q27 19 40.5 42t18.5 60l30 227v26h-41l-4 4l6 38h46l67 6z" />
    <glyph glyph-name="uni02B7" unicode="&#x2b7;" horiz-adv-x="481" 
d="M501 590q0 -36 -29 -89l-89 -169h-80l-17 214h-7l-86 -214h-80l-34 307l72 5l1 -44l13 -187h6l74 182l17 46h77l1 -41l14 -187h6l51 108q19 38 19 67q0 23 -12 44l68 14q15 -30 15 -56z" />
    <glyph glyph-name="uni02B8" unicode="&#x2b8;" horiz-adv-x="296" 
d="M316 593q0 -44 -38 -112l-63 -120q-49 -88 -90 -124t-89 -36q-28 0 -59 11l-3 61l7 7q27 -9 53 -9q52 0 95 50l-66 318l73 5l6 -55l27 -176h11l47 100q21 47 21 75q0 20 -12 44l68 14q12 -27 12 -53z" />
    <glyph glyph-name="uni02B9" unicode="&#x2b9;" horiz-adv-x="180" 
d="M187 632l-51 -195l-49 -7l-7 7l26 197l76 6z" />
    <glyph glyph-name="uni02BB" unicode="&#x2bb;" horiz-adv-x="184" 
d="M81 453q-13 20 -13 49q0 66 79 144l36 -25l1 -7q-42 -45 -42 -85q0 -42 39 -60v-9q-20 -19 -59 -40q-28 13 -41 33z" />
    <glyph glyph-name="uni02BC" unicode="&#x2bc;" horiz-adv-x="184" 
d="M179.5 612q13.5 -20 13.5 -49q0 -65 -80 -144l-35 25l-2 7q42 45 42 85q0 42 -39 60v9q20 19 59 40q28 -13 41.5 -33z" />
    <glyph glyph-name="uni02BE" unicode="&#x2be;" horiz-adv-x="301" 
d="M131 498q29 -1 44.5 11.5t15.5 38.5q0 37 -48 37l6 51q92 0 92 -78q0 -51 -30.5 -80.5t-84.5 -29.5z" />
    <glyph glyph-name="uni02BF" unicode="&#x2bf;" horiz-adv-x="232" 
d="M210 586q-28 2 -43.5 -11t-15.5 -39q0 -18 12 -28t36 -10l-6 -50q-92 0 -92 78q0 51 31 80.5t84 29.5z" />
    <glyph glyph-name="circumflex" unicode="&#x2c6;" horiz-adv-x="388" 
d="M94 561q43 39 141 137h25q54 -74 114 -137l-30 -38h-10q-56 55 -92 100q-40 -38 -117 -100h-11z" />
    <glyph glyph-name="caron" unicode="&#x2c7;" horiz-adv-x="388" 
d="M386 659q-43 -39 -141 -137h-25q-54 74 -114 137l30 38h10q56 -55 92 -100q40 38 117 100h11z" />
    <glyph glyph-name="uni02C8" unicode="&#x2c8;" horiz-adv-x="254" 
d="M129 643h73l-21 -175h-72z" />
    <glyph glyph-name="uni02C9" unicode="&#x2c9;" horiz-adv-x="386" 
d="M387 636l-5 -56h-282l-7 8l5 55h283z" />
    <glyph glyph-name="uni02CA" unicode="&#x2ca;" horiz-adv-x="378" 
d="M308 705l36 -52l-2 -10q-119 -85 -179 -124l-10 1l-25 38q109 91 170 148z" />
    <glyph glyph-name="uni02CB" unicode="&#x2cb;" horiz-adv-x="400" 
d="M313 558l-25 -38l-10 -1q-60 39 -179 124l-2 10l36 52l10 1q61 -57 170 -148z" />
    <glyph glyph-name="uni02CC" unicode="&#x2cc;" horiz-adv-x="229" 
d="M43 -55h72l-21 -175h-72z" />
    <glyph glyph-name="breve" unicode="&#x2d8;" horiz-adv-x="388" 
d="M380 646q-19 -55 -55 -86.5t-88 -31.5q-59 0 -89 31.5t-36 86.5l28 35h15q5 -42 27 -63t58 -21q74 0 105 84h14z" />
    <glyph glyph-name="dotaccent" unicode="&#x2d9;" horiz-adv-x="249" 
d="M211.5 657q13.5 -14 13.5 -39q0 -26 -15 -41t-40 -15t-38.5 14t-13.5 39q0 26 15 41t41 15q24 0 37.5 -14z" />
    <glyph glyph-name="ring" unicode="&#x2da;" horiz-adv-x="390" 
d="M308 683q22 -23 22 -61q0 -42 -25 -65.5t-65 -23.5q-38 0 -61.5 22.5t-23.5 63.5t23.5 64t65.5 23t64 -23zM199 620q0 -21 11.5 -32t32.5 -11q20 0 31.5 10.5t11.5 30.5t-11 31.5t-34 11.5q-42 0 -42 -41z" />
    <glyph glyph-name="ogonek" unicode="&#x2db;" horiz-adv-x="308" 
d="M42.5 -175.5q-24.5 21.5 -24.5 56.5q0 20 8.5 37t31.5 41t74 72h59q-41 -44 -66.5 -72.5t-32.5 -40t-7 -22.5q0 -32 34 -32q33 0 75 36h6l13 -50q-53 -47 -106 -47q-40 0 -64.5 21.5z" />
    <glyph glyph-name="tilde" unicode="&#x2dc;" horiz-adv-x="383" 
d="M402 649v-9l-64 -76l-11 -4q-16 2 -44.5 9.5t-38.5 10.5q-59 17 -72 17q-9 0 -18 -7.5t-25 -24.5q-4 -6 -15 -17h-10l-29 30v9l64 76l11 3q34 -5 85 -20q54 -15 69 -15q10 0 20.5 8.5t22.5 21t17 18.5h8z" />
    <glyph glyph-name="hungarumlaut" unicode="&#x2dd;" horiz-adv-x="375" 
d="M214 707l9 1l44 -33l1 -9q-57 -60 -145 -145l-9 -2l-32 28q63 70 132 160zM359 707l8 1l45 -33l1 -9q-57 -60 -145 -145l-9 -2l-31 28q75 87 131 160z" />
    <glyph glyph-name="uni02E1" unicode="&#x2e1;" horiz-adv-x="160" 
d="M133 407l-4 -72l-73 -6l54 407l3 69l73 6z" />
    <glyph glyph-name="uni02E2" unicode="&#x2e2;" horiz-adv-x="241" 
d="M256 630l-16 -54l-10 -4q-14 13 -30.5 20t-27.5 7q-17 0 -27.5 -11t-10.5 -27q0 -13 10 -22.5t30 -23.5q30 -20 46.5 -39t16.5 -50q0 -42 -34.5 -70t-87.5 -29q-45 5 -76 18l17 59l8 6q15 -17 34 -27t36 -10t28.5 11t11.5 26q0 14 -11 25.5t-33 25.5q-30 21 -45.5 38.5
t-15.5 44.5q0 46 35.5 74.5t87.5 27.5q28 -2 64 -16z" />
    <glyph glyph-name="uni02E3" unicode="&#x2e3;" horiz-adv-x="316" 
d="M305 335l-82 -7l-8 37l-34 82l-53 -82l-18 -33h-79l110 161l-62 146l77 8l10 -30l33 -77l52 74l13 27h77l-107 -153z" />
    <glyph glyph-name="gravecomb" unicode="&#x300;" 
d="M-46 558l-25 -38l-10 -1q-60 39 -179 124l-2 10l36 52l10 1q61 -57 170 -148z" />
    <glyph glyph-name="acutecomb" unicode="&#x301;" 
d="M-70 705l36 -52l-2 -10q-119 -85 -179 -124l-10 1l-25 38q109 91 170 148z" />
    <glyph glyph-name="uni0302" unicode="&#x302;" 
d="M-293 561q43 39 141 137h25q54 -74 114 -137l-30 -38h-10q-56 55 -92 100q-40 -38 -117 -100h-11z" />
    <glyph glyph-name="tildecomb" unicode="&#x303;" 
d="M20 649v-9l-65 -77l-11 -3q-26 4 -84 21q-6 2 -33 9t-37 7q-9 0 -17.5 -7t-23.5 -23l-18 -19h-9l-30 30v9l66 76l9 4q20 -3 85 -20q8 -2 33.5 -9t35.5 -7t20 8t22 20.5t18 19.5h8z" />
    <glyph glyph-name="uni0304" unicode="&#x304;" 
d="M1 636l-5 -56h-282l-7 8l5 55h283z" />
    <glyph glyph-name="uni0306" unicode="&#x306;" 
d="M-8 646q-19 -55 -55 -86.5t-88 -31.5q-59 0 -89 31.5t-36 86.5l28 35h15q5 -42 27 -63t58 -21q74 0 105 84h14z" />
    <glyph glyph-name="uni0307" unicode="&#x307;" 
d="M-37.5 657q13.5 -14 13.5 -39q0 -26 -15 -41t-40 -15t-38.5 14t-13.5 39q0 26 15 41t41 15q24 0 37.5 -14z" />
    <glyph glyph-name="uni0308" unicode="&#x308;" 
d="M-198 647q12 -12 12 -34q0 -23 -13.5 -37t-36.5 -14q-22 0 -34 12t-12 35t13.5 36.5t36.5 13.5q22 0 34 -12zM-29.5 647q12.5 -12 12.5 -34q0 -23 -13.5 -37t-36.5 -14q-22 0 -34 12.5t-12 34.5q0 23 13 36.5t36 13.5q22 0 34.5 -12z" />
    <glyph glyph-name="hookabovecomb" unicode="&#x309;" 
d="M-129 569q25 18 39 36t14 32q0 11 -7.5 16.5t-20.5 5.5q-15 0 -31.5 -6t-31.5 -18l-18 30q21 22 46 34t49 12q32 0 52.5 -18t20.5 -46q0 -19 -12.5 -36.5t-41.5 -41.5l21 -37l-41 -23z" />
    <glyph glyph-name="uni030A" unicode="&#x30a;" 
d="M-82 683q22 -23 22 -61q0 -42 -25 -65.5t-65 -23.5q-38 0 -61.5 22.5t-23.5 63.5t23.5 64t65.5 23t64 -23zM-191 620q0 -21 11.5 -32t32.5 -11q20 0 31.5 10.5t11.5 30.5t-11 31.5t-34 11.5q-42 0 -42 -41z" />
    <glyph glyph-name="uni030B" unicode="&#x30b;" 
d="M-189 707l9 1l44 -33l1 -9q-57 -60 -145 -145l-9 -2l-32 28q63 70 132 160zM-44 707l8 1l45 -33l1 -9q-57 -60 -145 -145l-9 -2l-31 28q75 87 131 160z" />
    <glyph glyph-name="uni030C" unicode="&#x30c;" 
d="M-2 659q-43 -39 -141 -137h-25q-54 74 -114 137l30 38h10q56 -55 92 -100q40 38 117 100h11z" />
    <glyph glyph-name="uni030F" unicode="&#x30f;" 
d="M-188 521q-78 75 -144 145v9l45 33l8 -1q73 -93 132 -160l-31 -28zM-43 521q-88 85 -145 145l2 9l44 33l9 -1q67 -87 131 -160l-32 -28z" />
    <glyph glyph-name="uni0311" unicode="&#x311;" 
d="M-288 562q19 55 55 86.5t88 31.5q59 0 89 -31.5t36 -86.5l-28 -35h-15q-5 42 -27 63t-58 21q-73 0 -105 -84h-14z" />
    <glyph glyph-name="uni0312" unicode="&#x312;" 
d="M-103.5 453q-13.5 20 -13.5 49q0 65 80 144l35 -25l2 -7q-42 -45 -42 -85q0 -42 39 -60v-9q-20 -19 -59 -40q-28 13 -41.5 33z" />
    <glyph glyph-name="uni031B" unicode="&#x31b;" 
d="M-170 460q29 0 48.5 15.5t19.5 42.5q0 18 -8.5 35.5t-23.5 31.5l3 9q27 19 48 19t39.5 -26t18.5 -63q0 -52 -40 -83t-105 -32v51z" />
    <glyph glyph-name="dotbelowcomb" unicode="&#x323;" 
d="M-120.5 -79q13.5 -14 13.5 -39q0 -26 -15 -41t-40 -15t-38.5 14t-13.5 39q0 26 15 41t41 15q24 0 37.5 -14z" />
    <glyph glyph-name="uni0324" unicode="&#x324;" 
d="M-288 -93q12 -12 12 -34q0 -23 -13.5 -37t-36.5 -14q-22 0 -34 12t-12 35t13.5 36.5t36.5 13.5q22 0 34 -12zM-119.5 -93q12.5 -12 12.5 -34q0 -23 -13.5 -37t-36.5 -14q-22 0 -34 12.5t-12 34.5q0 23 13 36.5t36 13.5q22 0 34.5 -12z" />
    <glyph glyph-name="uni0326" unicode="&#x326;" 
d="M-111 -113q0 -69 -99 -141l-32 27v8q53 42 53 88q0 27 -29 50v8q30 19 66 30q41 -27 41 -70z" />
    <glyph glyph-name="uni0327" unicode="&#x327;" 
d="M-230 -50l34 -20q39 -22 39 -57q0 -31 -23.5 -50.5t-62.5 -19.5q-41 0 -76 31l9 45l5 2q15 -15 28.5 -22.5t28.5 -7.5q14 0 22 6t8 18q0 14 -20 23l-48 29l23 94h53z" />
    <glyph glyph-name="uni0328" unicode="&#x328;" 
d="M-265.5 -175.5q-24.5 21.5 -24.5 56.5q0 20 8.5 37t31.5 41t74 72h59q-41 -44 -66.5 -72.5t-32.5 -40t-7 -22.5q0 -32 34 -32q33 0 75 36h6l13 -50q-53 -47 -106 -47q-40 0 -64.5 21.5z" />
    <glyph glyph-name="uni032E" unicode="&#x32e;" 
d="M-91 -94q-19 -55 -55 -86.5t-88 -31.5q-59 0 -89 31.5t-36 86.5l28 35h15q5 -42 27 -63t58 -21q73 0 105 84h14z" />
    <glyph glyph-name="uni0331" unicode="&#x331;" 
d="M-90 -107l-5 -57h-224l-6 8l5 55h223z" />
    <glyph glyph-name="uni0335" unicode="&#x335;" 
d="M-45 282l-11 -58h-340l-5 6l11 58h340z" />
    <glyph glyph-name="uni0342" unicode="&#x342;" 
d="M19 649v-9l-57 -76l-9 -4q-25 4 -75 21q-43 16 -56 16q-9 0 -17 -7.5t-22 -25.5l-13 -16h-8l-29 30v9l57 75l10 4q17 -3 69 -20q5 -2 28 -9t33 -7q9 0 18.5 9t19.5 21.5l14 17.5h8z" />
    <glyph glyph-name="uni0343" unicode="&#x343;" 
d="M19 663q0 -33 -21 -66.5t-66 -72.5l-31 21v6q47 48 47 86q0 32 -29 46l1 6q30 23 58 35q41 -18 41 -61z" />
    <glyph glyph-name="uni0344" unicode="&#x344;" 
d="M-180 556q33 92 50 153l7 4l54 -21l4 -9l-68 -140l-12 -3zM-275 565q-11 11 -11 32q0 20 12.5 32.5t32.5 12.5t31 -11t11 -32q0 -20 -12.5 -32.5t-32.5 -12.5t-31 11zM-69 597q0 20 12.5 32.5t32.5 12.5t31.5 -11t11.5 -32q0 -20 -12.5 -32.5t-32.5 -12.5q-43 0 -43 43z
" />
    <glyph glyph-name="uni0345" unicode="&#x345;" 
d="M-190 -217l33 178l49 4l6 -7l-8 -177l-74 -4z" />
    <glyph glyph-name="uni0374" unicode="&#x374;" horiz-adv-x="179" 
d="M187 632l-52 -195l-49 -7l-7 7l27 197l75 6z" />
    <glyph glyph-name="uni0375" unicode="&#x375;" horiz-adv-x="179" 
d="M-4 -143l51 194l50 7l6 -6l-26 -198l-76 -5z" />
    <glyph glyph-name="uni037A" unicode="&#x37a;" horiz-adv-x="212" 
d="M1 -217l33 178l49 4l6 -7l-8 -177l-74 -4z" />
    <glyph glyph-name="uni037E" unicode="&#x37e;" horiz-adv-x="229" 
d="M147 29q0 -72 -103 -147l-33 29v8q55 44 55 91q0 29 -31 52v9q34 21 69 31q43 -29 43 -73zM162.5 357q13.5 -14 13.5 -39q0 -26 -15 -41t-40 -15t-38.5 14t-13.5 39q0 26 15 41t41 15q24 0 37.5 -14z" />
    <glyph glyph-name="tonos" unicode="&#x384;" horiz-adv-x="193" 
d="M161 719l58 -23l2 -11l-94 -158l-10 -5l-47 21q35 66 81 172z" />
    <glyph glyph-name="dieresistonos" unicode="&#x385;" horiz-adv-x="357" 
d="M177 556q33 92 50 153l7 4l54 -21l4 -9l-68 -140l-12 -3zM82 565q-11 11 -11 32q0 20 12.5 32.5t32.5 12.5t31 -11t11 -32q0 -20 -12.5 -32.5t-32.5 -12.5t-31 11zM288 597q0 20 12.5 32.5t32.5 12.5t31.5 -11t11.5 -32q0 -20 -12.5 -32.5t-32.5 -12.5q-43 0 -43 43z" />
    <glyph glyph-name="Alphatonos" unicode="&#x386;" horiz-adv-x="613" 
d="M566 0h-99l-7 71l-16 92l-129 3l-117 -2l-40 -89l-26 -75h-97l298 642h115zM431 244l-51 300h-8l-136 -299l96 -2zM167 669l58 -23l2 -11l-94 -158l-10 -5l-47 21q35 66 81 172z" />
    <glyph glyph-name="anoteleia" unicode="&#x387;" horiz-adv-x="230" 
d="M164.5 348q13.5 -14 13.5 -39q0 -26 -15 -41t-40 -15t-38.5 14t-13.5 39q0 26 15 41t41 15q24 0 37.5 -14z" />
    <glyph glyph-name="Epsilontonos" unicode="&#x388;" horiz-adv-x="608" 
d="M358 560l-27 -192l112 -2l101 3l5 -7l-16 -76l-108 3l-105 -2l-12 -86l-12 -120l119 -2l147 5l3 -8l-15 -76h-361l30 193l51 449h362l5 -9l-17 -76l-145 4zM143 669l58 -23l2 -11l-94 -158l-10 -5l-47 21q35 66 81 172z" />
    <glyph glyph-name="Etatonos" unicode="&#x389;" horiz-adv-x="795" 
d="M761 642l-61 -441l-20 -201h-98l29 193l10 89l-159 3l-144 -3l-11 -81l-19 -201h-99l29 193l51 449h99l-38 -276l150 -3l150 3l31 276h100zM143 669l58 -23l2 -11l-94 -158l-10 -5l-47 21q35 66 81 172z" />
    <glyph glyph-name="Iotatonos" unicode="&#x38a;" horiz-adv-x="403" 
d="M307 201l-19 -201h-99l29 193l51 449h99zM143 669l58 -23l2 -11l-94 -158l-10 -5l-47 21q35 66 81 172z" />
    <glyph glyph-name="Omicrontonos" unicode="&#x38c;" horiz-adv-x="714" 
d="M634.5 581.5q62.5 -67.5 62.5 -192.5q0 -122 -37.5 -211t-110 -137.5t-174.5 -48.5q-111 0 -173.5 69.5t-62.5 195.5q0 184 83 288t237 104q113 0 175.5 -67.5zM291.5 491.5q-51.5 -76.5 -51.5 -229.5q0 -97 35.5 -144t109.5 -47q208 0 208 308q0 97 -35.5 143t-109.5 46
q-105 0 -156.5 -76.5zM120 669l58 -23l2 -11l-94 -158l-10 -5l-47 21q35 66 81 172z" />
    <glyph glyph-name="Upsilontonos" unicode="&#x38e;" horiz-adv-x="701" 
d="M478 226l-6 -42l-19 -184h-99l30 184l4 44l-143 414h102l7 -39l89 -273h9l167 270l21 42h105zM142 669l58 -23l2 -11l-94 -158l-10 -5l-47 21q35 66 81 172z" />
    <glyph glyph-name="Omegatonos" unicode="&#x38f;" horiz-adv-x="752" 
d="M103 4l18 76l71 -5h76l1 6q-59 39 -88 95.5t-29 135.5q0 99 40 175.5t111.5 119t165.5 42.5q113 0 175 -66t62 -187q0 -104 -48 -185t-138 -130l-1 -6h78l74 6l6 -8l-19 -74l-70 1h-115l-39 -2l-4 4l12 92q86 54 124.5 123t38.5 169q0 92 -37.5 137.5t-113.5 45.5
q-61 0 -107.5 -32.5t-71.5 -92t-25 -138.5q0 -70 23.5 -119t78.5 -93l-11 -92l-5 -4l-39 2h-116l-73 -3zM119 669l58 -23l2 -11l-94 -158l-10 -5l-47 21q35 66 81 172z" />
    <glyph glyph-name="iotadieresistonos" unicode="&#x390;" horiz-adv-x="223" 
d="M137 111l-5 -108l-95 -7l52 361l4 101l93 7zM112 556q33 92 50 153l7 4l54 -21l4 -9l-68 -140l-12 -3zM17 565q-11 11 -11 32q0 20 12.5 32.5t32.5 12.5t31 -11t11 -32q0 -20 -12.5 -32.5t-32.5 -12.5t-31 11zM223 597q0 20 12.5 32.5t32.5 12.5t31.5 -11t11.5 -32
q0 -20 -12.5 -32.5t-32.5 -12.5q-43 0 -43 43z" />
    <glyph glyph-name="Alpha" unicode="&#x391;" horiz-adv-x="561" 
d="M515 0h-99l-7 71l-16 92l-129 3l-117 -2l-40 -89l-26 -75h-97l298 642h115zM380 244l-51 300h-8l-136 -299l96 -2z" />
    <glyph glyph-name="Beta" unicode="&#x392;" horiz-adv-x="532" 
d="M467 283q27 -32 27 -83q0 -100 -71.5 -152t-214.5 -52q-95 0 -150 4h-1l30 193l51 449l185 1q81 0 127 -35t46 -102q0 -60 -29.5 -104.5t-83.5 -67.5q57 -19 84 -51zM371 548q-24 18 -78 18h-68l-27 -201l98 -3q99 24 99 127q0 41 -24 59zM351.5 105.5
q42.5 32.5 42.5 91.5q0 78 -94 92l-113 -1l-12 -87l-12 -124q48 -4 69 -4q77 0 119.5 32.5z" />
    <glyph glyph-name="Gamma" unicode="&#x393;" horiz-adv-x="431" 
d="M479 635l-17 -73l-137 2h-98l-48 -364l-22 -202h-100l29 194l51 451h336z" />
    <glyph glyph-name="uni0394" unicode="&#x394;" horiz-adv-x="556" 
d="M10 65l266 577h117l111 -577l-8 -65h-495zM408 78l-83 466h-9l-213 -466h305z" />
    <glyph glyph-name="Epsilon" unicode="&#x395;" horiz-adv-x="475" 
d="M226 560l-27 -192l112 -2l101 3l5 -7l-16 -76l-108 3l-105 -2l-12 -86l-12 -120l119 -2l147 5l3 -8l-15 -76h-361l30 193l51 449h362l5 -9l-17 -76l-145 4z" />
    <glyph glyph-name="Zeta" unicode="&#x396;" horiz-adv-x="514" 
d="M520 570l-391 -492h234l98 8l4 -6l-18 -82l-123 2h-259l-63 -3l10 72l392 494h-218l-100 -8l-4 6l19 82l376 -1l52 1z" />
    <glyph glyph-name="Eta" unicode="&#x397;" horiz-adv-x="662" 
d="M629 642l-61 -441l-20 -201h-98l29 193l10 89l-159 3l-144 -3l-11 -81l-19 -201h-99l29 193l51 449h99l-38 -276l150 -3l150 3l31 276h100z" />
    <glyph glyph-name="Theta" unicode="&#x398;" horiz-adv-x="652" 
d="M571 580q64 -69 64 -195q0 -120 -41.5 -209t-119.5 -136.5t-185 -47.5q-119 0 -182.5 70t-63.5 198q0 120 41 208t119 134.5t185 46.5q119 0 183 -69zM200 493q-57 -76 -57 -227q0 -100 40 -149t122 -49q114 0 171.5 78t57.5 227q0 99 -40.5 147.5t-123.5 48.5
q-113 0 -170 -76zM212 287l11 63l234 8l6 -7l-12 -63l-233 -9z" />
    <glyph glyph-name="Iota" unicode="&#x399;" horiz-adv-x="270" 
d="M175 201l-19 -201h-99l29 193l51 449h99z" />
    <glyph glyph-name="Kappa" unicode="&#x39a;" horiz-adv-x="539" 
d="M175 201l-20 -201h-99l30 193l51 449h99zM303 337q89 -151 214 -316l-3 -12q-51 -12 -97 -18l-10 5q-122 185 -207 340l1 6l223 242l45 58h108z" />
    <glyph glyph-name="Lambda" unicode="&#x39b;" horiz-adv-x="567" 
d="M283 642h116l122 -642h-99l-6 71l-83 473h-7l-218 -469l-25 -75h-99z" />
    <glyph glyph-name="Mu" unicode="&#x39c;" horiz-adv-x="761" 
d="M678 0h-88l13 195l8 296h-7l-210 -419h-79l-95 419h-8l-64 -288l-41 -203h-82l143 642h112l17 -97l75 -346h8l169 350l41 93h111z" />
    <glyph glyph-name="Nu" unicode="&#x39d;" horiz-adv-x="662" 
d="M567 191l-20 -191h-104l-230 488h-7l-35 -274l-23 -214h-91l29 190l53 452h103l230 -489h7l58 484l93 7z" />
    <glyph glyph-name="Xi" unicode="&#x39e;" horiz-adv-x="557" 
d="M110 562l19 80h403l6 -9l-19 -80l-201 3l-202 -3zM118 292l19 80l162 -2l154 2l6 -9l-19 -80l-160 2l-155 -2zM51 80l8 9l197 -4l209 4l7 -9l-20 -80h-404z" />
    <glyph glyph-name="Omicron" unicode="&#x39f;" horiz-adv-x="618" 
d="M538.5 581.5q62.5 -67.5 62.5 -192.5q0 -122 -37.5 -211t-110 -137.5t-174.5 -48.5q-111 0 -173.5 69.5t-62.5 195.5q0 184 83 288t237 104q113 0 175.5 -67.5zM195.5 491.5q-51.5 -76.5 -51.5 -229.5q0 -97 35.5 -144t109.5 -47q208 0 208 308q0 97 -35.5 143t-109.5 46
q-105 0 -156.5 -76.5z" />
    <glyph glyph-name="Pi" unicode="&#x3a0;" horiz-adv-x="650" 
d="M557 201l-22 -201h-98l28 193l41 367l-149 2l-133 -4l-47 -357l-21 -201h-99l28 193l51 449h479z" />
    <glyph glyph-name="Rho" unicode="&#x3a1;" horiz-adv-x="514" 
d="M467 600q48 -43 48 -126q0 -73 -32.5 -131t-93 -91t-140.5 -33h-71l-2 -18l-20 -201h-99l30 193l51 449l197 1q84 0 132 -43zM380.5 349.5q32.5 44.5 32.5 109.5q0 52 -24.5 77.5t-80.5 28.5l-82 -3l-37 -264l105 -3q54 10 86.5 54.5z" />
    <glyph glyph-name="Sigma" unicode="&#x3a3;" horiz-adv-x="496" 
d="M23 68l206 260l-137 241l11 73h314l88 1l7 -9l-16 -73l-80 3h-205l123 -222l-2 -15l-197 -248h203l92 4l7 -9l-17 -75l-327 1l-79 -1z" />
    <glyph glyph-name="Tau" unicode="&#x3a4;" horiz-adv-x="475" 
d="M508 633l-17 -75l-109 6h-52l-50 -363l-20 -201h-99l31 193l40 371h-52l-113 -6l-6 9l18 75h424z" />
    <glyph glyph-name="Upsilon" unicode="&#x3a5;" horiz-adv-x="518" 
d="M295 226l-6 -42l-19 -184h-99l30 184l4 44l-143 414h102l7 -39l89 -273h9l167 270l21 42h105z" />
    <glyph glyph-name="Phi" unicode="&#x3a6;" horiz-adv-x="764" 
d="M657 152.5q-86 -77.5 -250 -87.5l-10 -88h-92l12 87q-133 7 -201.5 64t-68.5 163q0 286 335 306l8 71h93l-9 -70q269 -14 269 -224q0 -144 -86 -221.5zM189 185.5q46 -39.5 139 -46.5l8 55l37 328q-116 -8 -173 -62t-57 -158q0 -77 46 -116.5zM588 202.5
q58 54.5 58 159.5q0 75 -45 114t-137 46l-42 -320l-7 -62q115 8 173 62.5z" />
    <glyph glyph-name="Chi" unicode="&#x3a7;" horiz-adv-x="573" 
d="M360 329l159 -329h-114l-19 56l-102 202l-158 -208l-32 -50h-102l243 327l-155 315h115l19 -56l95 -189l143 192l32 53h105z" />
    <glyph glyph-name="Psi" unicode="&#x3a8;" horiz-adv-x="705" 
d="M700 642l-25 -189l-12 -89q-12 -105 -84.5 -166.5t-193.5 -72.5l-13 -125h-93l17 124q-109 8 -166 60.5t-57 143.5q0 12 2 36l10 95l22 183h92l-33 -266q-2 -22 -2 -33q0 -125 143 -142l50 441h94l-58 -441q166 18 185 175l31 266h91z" />
    <glyph glyph-name="uni03A9" unicode="&#x3a9;" horiz-adv-x="677" 
d="M28 4l18 76l71 -5h76l1 6q-59 39 -88 95.5t-29 135.5q0 99 40 175.5t111.5 119t165.5 42.5q113 0 175 -66t62 -187q0 -104 -48 -185t-138 -130l-1 -6h78l74 6l6 -8l-19 -74l-70 1h-115l-39 -2l-4 4l12 92q86 54 124.5 123t38.5 169q0 92 -37.5 137.5t-113.5 45.5
q-61 0 -107.5 -32.5t-71.5 -92t-25 -138.5q0 -70 23.5 -119t78.5 -93l-11 -92l-5 -4l-39 2h-116l-73 -3z" />
    <glyph glyph-name="Iotadieresis" unicode="&#x3aa;" horiz-adv-x="270" 
d="M175 201l-19 -201h-99l29 193l51 449h99zM162 829q12 -12 12 -34q0 -23 -13.5 -37t-36.5 -14q-22 0 -34 12t-12 35t13.5 36.5t36.5 13.5q22 0 34 -12zM330.5 829q12.5 -12 12.5 -34q0 -23 -13.5 -37t-36.5 -14q-22 0 -34 12.5t-12 34.5q0 23 13 36.5t36 13.5
q22 0 34.5 -12z" />
    <glyph glyph-name="Upsilondieresis" unicode="&#x3ab;" horiz-adv-x="518" 
d="M295 226l-6 -42l-19 -184h-99l30 184l4 44l-143 414h102l7 -39l89 -273h9l167 270l21 42h105zM284 829q12 -12 12 -34q0 -23 -13.5 -37t-36.5 -14q-22 0 -34 12t-12 35t13.5 36.5t36.5 13.5q22 0 34 -12zM452.5 829q12.5 -12 12.5 -34q0 -23 -13.5 -37t-36.5 -14
q-22 0 -34 12.5t-12 34.5q0 23 13 36.5t36 13.5q22 0 34.5 -12z" />
    <glyph glyph-name="alphatonos" unicode="&#x3ac;" horiz-adv-x="438" 
d="M401 467l-49 -356l-4 -108l-96 -7l26 182h-12q-65 -111 -140 -186h-16q-87 41 -87 161q0 67 25 131.5t74 113.5t117 70h5l70 -46l5 38zM175 121q27 31 61 91t68 142l1 11l-65 27q-60 0 -95.5 -61t-35.5 -153q0 -47 7.5 -67.5t18.5 -20.5q13 0 40 31zM342 719l58 -23
l2 -11l-94 -158l-10 -5l-47 21q35 66 81 172z" />
    <glyph glyph-name="epsilontonos" unicode="&#x3ad;" horiz-adv-x="374" 
d="M166 382q-21 -18 -21 -51q0 -25 17 -42.5t46 -22.5h75l4 -6l-13 -56h-72q-37 0 -64.5 -25t-27.5 -59q0 -29 17.5 -44.5t45.5 -15.5q31 0 64.5 18t58.5 51h12l25 -52q-31 -35 -73 -57t-89 -27q-77 0 -114.5 27t-37.5 82q0 48 29 84.5t79 52.5q-68 29 -68 92q0 62 52 100
t137 38q65 -14 117 -35l-24 -73l-14 -2q-55 41 -106 41q-34 0 -55 -18zM282 719l58 -23l2 -11l-94 -158l-10 -5l-47 21q35 66 81 172z" />
    <glyph glyph-name="etatonos" unicode="&#x3ae;" horiz-adv-x="467" 
d="M403 434.5q25 -23.5 24 -58.5l-1 -13l-69 -438l-5 -107l-98 -7l82 515l1 11q0 26 -18 26q-28 0 -76 -66t-107 -190l-4 -104l-96 -7l53 361l4 101l93 7l-29 -206h10q45 76 82.5 124.5t78.5 82.5h11q39 -8 64 -31.5zM329 719l58 -23l2 -11l-94 -158l-10 -5l-47 21
q35 66 81 172z" />
    <glyph glyph-name="iotatonos" unicode="&#x3af;" horiz-adv-x="223" 
d="M137 111l-5 -108l-95 -7l52 361l4 101l93 7zM207 719l58 -23l2 -11l-94 -158l-10 -5l-47 21q35 66 81 172z" />
    <glyph glyph-name="upsilondieresistonos" unicode="&#x3b0;" horiz-adv-x="442" 
d="M83 29q-38 36 -38 99q0 9 2 31l26 198l5 101l92 6l-40 -292q-2 -22 -2 -30q0 -40 18 -59t55 -19q45 0 66.5 23.5t29.5 82.5l25 187l5 101l91 6l-39 -297q-10 -82 -61 -128t-129 -46q-68 0 -106 36zM221 556q33 92 50 153l7 4l54 -21l4 -9l-68 -140l-12 -3zM126 565
q-11 11 -11 32q0 20 12.5 32.5t32.5 12.5t31 -11t11 -32q0 -20 -12.5 -32.5t-32.5 -12.5t-31 11zM332 597q0 20 12.5 32.5t32.5 12.5t31.5 -11t11.5 -32q0 -20 -12.5 -32.5t-32.5 -12.5q-43 0 -43 43z" />
    <glyph glyph-name="alpha" unicode="&#x3b1;" horiz-adv-x="438" 
d="M401 467l-49 -356l-4 -108l-96 -7l26 182h-12q-65 -111 -140 -186h-16q-87 41 -87 161q0 67 25 131.5t74 113.5t117 70h5l70 -46l5 38zM175 121q27 31 61 91t68 142l1 11l-65 27q-60 0 -95.5 -61t-35.5 -153q0 -47 7.5 -67.5t18.5 -20.5q13 0 40 31z" />
    <glyph glyph-name="beta" unicode="&#x3b2;" horiz-adv-x="466" 
d="M433 219q0 -64 -27.5 -115.5t-76 -81t-108.5 -29.5q-50 0 -92 21l-12 -92l-7 -107l-90 -7l83 647q17 122 71 185.5t142 63.5q64 0 99.5 -33t35.5 -93t-37.5 -112t-105.5 -86q125 -32 125 -161zM312.5 103.5q34.5 43.5 34.5 110.5q0 58 -32 86.5t-97 28.5l-3 6l8 63
q68 24 105 67t37 98q0 68 -65 68q-48 0 -75 -35t-37 -108l-50 -398q44 -30 87 -30q53 0 87.5 43.5z" />
    <glyph glyph-name="gamma" unicode="&#x3b3;" horiz-adv-x="399" 
d="M350 253l-161 -269l-8 -59l-4 -110l-96 -7l24 171l-58 479l95 7l3 -82l21 -283h8l99 179q31 54 31 92q0 31 -22 66l3 11l89 19q21 -39 21 -80q0 -59 -45 -134z" />
    <glyph glyph-name="delta" unicode="&#x3b4;" horiz-adv-x="414" 
d="M226.5 625.5q-21.5 -17.5 -21.5 -46.5q0 -25 15.5 -45t49.5 -50q36 -32 59 -58t39.5 -67t16.5 -96q0 -75 -28.5 -137t-78 -97.5t-108.5 -35.5q-68 0 -105.5 46t-37.5 129q0 108 46 179t129 92l2 5q-28 25 -42.5 40.5t-24.5 37.5t-10 50q0 62 47 98t129 36q54 -6 103 -26
l-21 -70l-13 -2q-48 35 -87 35q-37 0 -58.5 -17.5zM269 112q32 51 32 134q0 52 -14 88.5t-39 65.5q-70 -18 -103 -71t-33 -149q0 -63 17 -91t55 -28q53 0 85 51z" />
    <glyph glyph-name="epsilon" unicode="&#x3b5;" horiz-adv-x="374" 
d="M166 382q-21 -18 -21 -51q0 -25 17 -42.5t46 -22.5h75l4 -6l-13 -56h-72q-37 0 -64.5 -25t-27.5 -59q0 -29 17.5 -44.5t45.5 -15.5q31 0 64.5 18t58.5 51h12l25 -52q-31 -35 -73 -57t-89 -27q-77 0 -114.5 27t-37.5 82q0 48 29 84.5t79 52.5q-68 29 -68 92q0 62 52 100
t137 38q65 -14 117 -35l-24 -73l-14 -2q-55 41 -106 41q-34 0 -55 -18z" />
    <glyph glyph-name="zeta" unicode="&#x3b6;" horiz-adv-x="359" 
d="M158 75q20 0 58 5q46 4 58 4q52 0 52 -61q0 -43 -35 -91.5t-109 -112.5l-50 37v6q46 33 79.5 71t33.5 56q0 19 -18 19q-8 0 -44 -4q-44 -6 -63 -6q-50 0 -76 32.5t-26 95.5q0 186 307 507h-141l-74 -4l-3 5l16 67l86 -1h171l48 1l-8 -65q-165 -182 -239 -302t-74 -194
q0 -65 51 -65z" />
    <glyph glyph-name="eta" unicode="&#x3b7;" horiz-adv-x="467" 
d="M403 434.5q25 -23.5 24 -58.5l-1 -13l-69 -438l-5 -107l-98 -7l82 515l1 11q0 26 -18 26q-28 0 -76 -66t-107 -190l-4 -104l-96 -7l53 361l4 101l93 7l-29 -206h10q45 76 82.5 124.5t78.5 82.5h11q39 -8 64 -31.5z" />
    <glyph glyph-name="theta" unicode="&#x3b8;" horiz-adv-x="449" 
d="M391.5 647.5q32.5 -59.5 32.5 -171.5q0 -142 -29.5 -252t-84 -171t-127.5 -61q-62 0 -95 59.5t-33 172.5q0 142 29.5 251.5t84.5 170.5t128 61q62 0 94.5 -59.5zM198.5 569q-36.5 -68 -51.5 -193l192 8q3 45 3 97q0 76 -15 116t-45 40q-47 0 -83.5 -68zM281.5 127
q36.5 67 51.5 190l-192 -8q-3 -43 -3 -92q0 -77 15.5 -117t45.5 -40q46 0 82.5 67z" />
    <glyph glyph-name="iota" unicode="&#x3b9;" horiz-adv-x="223" 
d="M137 111l-5 -108l-95 -7l52 361l4 101l93 7z" />
    <glyph glyph-name="kappa" unicode="&#x3ba;" horiz-adv-x="431" 
d="M241 243q31 -52 105 -160l45 -66l-1 -11q-26 -7 -81 -15l-10 4l-147 234l-15 -118l-6 -108l-93 -7l49 361l5 101l91 6l-27 -209l153 162l29 43h101z" />
    <glyph glyph-name="lambda" unicode="&#x3bb;" horiz-adv-x="414" 
d="M388 66l-16 -55q-20 -12 -54 -18q-29 2 -43.5 18t-19.5 54l-36 263h-6l-117 -265l-24 -68l-88 9l216 460l-3 26q-7 51 -16 79t-23.5 40t-38.5 12q-13 0 -31 -3l-2 10l21 71q21 4 43 4q37 0 60 -16.5t37.5 -54t24.5 -102.5l63 -436q5 -29 22 -29q8 0 25 7z" />
    <glyph glyph-name="uni03BC" unicode="&#x3bc;" horiz-adv-x="475" 
d="M438 465l-51 -354l-3 -108l-96 -7l29 204h-8q-69 -120 -149 -203h-12q-21 11 -33 25l-6 -207l-97 -7l79 549l4 101l93 7l-47 -341v-6q0 -10 4 -14t13 -4q28 0 75 64.5t106 188.5l1 4l4 101z" />
    <glyph glyph-name="nu" unicode="&#x3bd;" horiz-adv-x="401" 
d="M396 387q0 -55 -44 -134l-147 -253h-105l-51 458l94 7l3 -82l21 -283h8l100 179q30 55 30 92q0 31 -22 66l4 11l88 19q21 -39 21 -80z" />
    <glyph glyph-name="xi" unicode="&#x3be;" horiz-adv-x="373" 
d="M419 672l-23 -68l-18 -1q-44 29 -81 29q-33 0 -60.5 -19t-43.5 -52t-16 -72q0 -47 25 -71.5t71 -24.5h66l4 -9l-12 -55h-47q-82 -27 -129 -77t-47 -110q0 -32 14.5 -50.5t40.5 -18.5q14 0 28.5 2t26.5 3q48 6 60 6q50 0 50 -60q0 -44 -34 -92t-109 -113l-52 37v6
q51 37 83 73t32 56q0 17 -19 17q-5 0 -41 -4q-56 -7 -67 -7q-46 0 -72.5 33t-26.5 90q0 72 42.5 131t117.5 94q-43 17 -66.5 50.5t-23.5 81.5q0 60 32 113t85.5 84.5t115.5 31.5q52 -7 90 -27z" />
    <glyph glyph-name="omicron" unicode="&#x3bf;" horiz-adv-x="413" 
d="M269 469q57 -11 86.5 -49t29.5 -108q0 -141 -60.5 -227t-168.5 -94l-10 1q-59 12 -88.5 51t-29.5 112q0 90 28 159.5t80 110t123 44.5h10zM147 330.5q-31 -62.5 -31 -175.5q0 -48 12.5 -69t42.5 -21q62 0 93 63.5t31 176.5q0 48 -12.5 68t-41.5 20q-63 0 -94 -62.5z" />
    <glyph glyph-name="pi" unicode="&#x3c0;" horiz-adv-x="507" 
d="M522 396h-91l-43 -289l-8 -104l-92 -7l61 400h-147l-39 -285l-8 -108l-92 -7l58 400h-83l-7 8l8 56h483l6 -6z" />
    <glyph glyph-name="rho" unicode="&#x3c1;" horiz-adv-x="430" 
d="M368 426.5q35 -41.5 35 -122.5q0 -86 -31 -156t-85 -111.5t-121 -43.5l-58 12l-11 -83l-6 -107l-91 -7l56 433q14 104 71 165.5t140 61.5q66 0 101 -41.5zM282.5 124.5q35.5 61.5 35.5 166.5q0 60 -14.5 84t-50.5 24q-44 0 -73 -33.5t-37 -94.5l-25 -192l67 -18
q62 2 97.5 63.5z" />
    <glyph glyph-name="uni03C2" unicode="&#x3c2;" horiz-adv-x="353" 
d="M106 -144l1 7q46 33 79.5 70.5t33.5 56.5q0 18 -18 18q-13 0 -40 -5q-8 -1 -23 -3t-23 -2q-43 0 -65.5 40t-22.5 114q0 92 31 164t87 111.5t127 39.5l71 -22l5 -12l-26 -64l-20 -3q-32 31 -58 31q-38 0 -68 -29.5t-46.5 -82t-16.5 -119.5q0 -49 10.5 -70t34.5 -21
q15 0 43 5q8 1 22.5 3t22.5 2q53 0 53 -62q0 -42 -35 -90.5t-110 -112.5z" />
    <glyph glyph-name="sigma" unicode="&#x3c3;" horiz-adv-x="451" 
d="M360 394l-3 -7q24 -61 24 -128q0 -72 -28.5 -133.5t-77.5 -97.5t-109 -36q-136 0 -136 182q0 134 62.5 210t173.5 76h189l3 -6l-12 -60h-86zM289 394h-38q-136 0 -136 -219q0 -65 14 -89t50 -24q57 0 88.5 59t31.5 160q0 60 -10 113z" />
    <glyph glyph-name="tau" unicode="&#x3c4;" horiz-adv-x="371" 
d="M187 122l-2 -16q0 -12 5.5 -19t17.5 -7q15 0 32 14.5t41 46.5h9l27 -33q-31 -53 -59.5 -79t-64.5 -36q-45 0 -70 23.5t-24 66.5l2 25l47 288h-115l-6 8l7 56h341l7 -6l-8 -58h-143z" />
    <glyph glyph-name="upsilon" unicode="&#x3c5;" horiz-adv-x="442" 
d="M83 29q-38 36 -38 99q0 9 2 31l26 198l5 101l92 6l-40 -292q-2 -22 -2 -30q0 -40 18 -59t55 -19q45 0 66.5 23.5t29.5 82.5l25 187l5 101l91 6l-39 -297q-10 -82 -61 -128t-129 -46q-68 0 -106 36z" />
    <glyph glyph-name="phi" unicode="&#x3c6;" horiz-adv-x="573" 
d="M480.5 79.5q-63.5 -73.5 -188.5 -83.5l-10 -74l-7 -107l-90 -7l24 188q-181 15 -181 194q0 99 43.5 170t124.5 106l31 -35l-1 -10q-62 -46 -89 -97.5t-27 -124.5q0 -63 26.5 -97.5t81.5 -42.5l32 248q11 75 53.5 118t107.5 43q63 0 98 -48t35 -133q0 -134 -63.5 -207.5z
M421.5 123q39.5 55 39.5 158q0 58 -17 90t-46 32q-52 0 -63 -77l-35 -268q82 10 121.5 65z" />
    <glyph glyph-name="chi" unicode="&#x3c7;" horiz-adv-x="429" 
d="M352 -113q5 -6 14 -6t18 4l7 -7l-17 -54q-24 -11 -54 -16q-26 2 -38.5 15.5t-22.5 53.5l-61 211l-118 -221l-23 -52h-93l187 329l-65 200q-9 28 -16.5 37.5t-20.5 9.5q-4 0 -18 -2l-4 9l20 63q19 3 34 3q35 0 53.5 -18t31.5 -61l55 -188l112 212l22 51h93l-181 -319
l75 -235q5 -13 10 -19z" />
    <glyph glyph-name="psi" unicode="&#x3c8;" horiz-adv-x="588" 
d="M568 464l-35 -272q-8 -59 -41 -104.5t-82 -70t-105 -24.5l-9 -71l-8 -107l-91 -7l24 185h-8q-74 0 -121 43t-47 117q0 9 2 31l22 173l6 101l92 6l-37 -267q-2 -20 -2 -28q0 -51 27 -78t71 -27h5l49 378l6 100l90 7l-62 -485h2q54 0 89.5 32.5t43.5 98.5l22 162l5 101z
" />
    <glyph glyph-name="omega" unicode="&#x3c9;" horiz-adv-x="579" 
d="M519.5 378q24.5 -52 24.5 -129q0 -122 -45.5 -190.5t-125.5 -68.5q-87 0 -108 90q-20 -47 -50 -68.5t-74 -21.5q-57 0 -84 40t-27 122q0 224 159 312l33 -34l-2 -12q-107 -91 -107 -260q0 -97 50 -97q31 0 50.5 32.5t28.5 99.5l16 116l75 5l8 -7l-17 -121q-3 -24 -3 -45
q0 -39 12.5 -59.5t37.5 -20.5q40 0 63.5 48.5t23.5 130.5q0 108 -54 178v12l37 34q54 -34 78.5 -86z" />
    <glyph glyph-name="iotadieresis" unicode="&#x3ca;" horiz-adv-x="223" 
d="M137 111l-5 -108l-95 -7l52 361l4 101l93 7zM111 647q12 -12 12 -34q0 -23 -13.5 -37t-36.5 -14q-22 0 -34 12t-12 35t13.5 36.5t36.5 13.5q22 0 34 -12zM279.5 647q12.5 -12 12.5 -34q0 -23 -13.5 -37t-36.5 -14q-22 0 -34 12.5t-12 34.5q0 23 13 36.5t36 13.5
q22 0 34.5 -12z" />
    <glyph glyph-name="upsilondieresis" unicode="&#x3cb;" horiz-adv-x="442" 
d="M83 29q-38 36 -38 99q0 9 2 31l26 198l5 101l92 6l-40 -292q-2 -22 -2 -30q0 -40 18 -59t55 -19q45 0 66.5 23.5t29.5 82.5l25 187l5 101l91 6l-39 -297q-10 -82 -61 -128t-129 -46q-68 0 -106 36zM220 647q12 -12 12 -34q0 -23 -13.5 -37t-36.5 -14q-22 0 -34 12t-12 35
t13.5 36.5t36.5 13.5q22 0 34 -12zM388.5 647q12.5 -12 12.5 -34q0 -23 -13.5 -37t-36.5 -14q-22 0 -34 12.5t-12 34.5q0 23 13 36.5t36 13.5q22 0 34.5 -12z" />
    <glyph glyph-name="omicrontonos" unicode="&#x3cc;" horiz-adv-x="413" 
d="M269 469q57 -11 86.5 -49t29.5 -108q0 -141 -60.5 -227t-168.5 -94l-10 1q-59 12 -88.5 51t-29.5 112q0 90 28 159.5t80 110t123 44.5h10zM147 330.5q-31 -62.5 -31 -175.5q0 -48 12.5 -69t42.5 -21q62 0 93 63.5t31 176.5q0 48 -12.5 68t-41.5 20q-63 0 -94 -62.5z
M328 719l58 -23l2 -11l-94 -158l-10 -5l-47 21q35 66 81 172z" />
    <glyph glyph-name="upsilontonos" unicode="&#x3cd;" horiz-adv-x="442" 
d="M83 29q-38 36 -38 99q0 9 2 31l26 198l5 101l92 6l-40 -292q-2 -22 -2 -30q0 -40 18 -59t55 -19q45 0 66.5 23.5t29.5 82.5l25 187l5 101l91 6l-39 -297q-10 -82 -61 -128t-129 -46q-68 0 -106 36zM316 719l58 -23l2 -11l-94 -158l-10 -5l-47 21q35 66 81 172z" />
    <glyph glyph-name="omegatonos" unicode="&#x3ce;" horiz-adv-x="579" 
d="M519.5 378q24.5 -52 24.5 -129q0 -122 -45.5 -190.5t-125.5 -68.5q-87 0 -108 90q-20 -47 -50 -68.5t-74 -21.5q-57 0 -84 40t-27 122q0 224 159 312l33 -34l-2 -12q-107 -91 -107 -260q0 -97 50 -97q31 0 50.5 32.5t28.5 99.5l16 116l75 5l8 -7l-17 -121q-3 -24 -3 -45
q0 -39 12.5 -59.5t37.5 -20.5q40 0 63.5 48.5t23.5 130.5q0 108 -54 178v12l37 34q54 -34 78.5 -86zM384 706l58 -23l2 -11l-94 -158l-10 -5l-47 21q35 66 81 172z" />
    <glyph glyph-name="uni03CF" unicode="&#x3cf;" horiz-adv-x="595" 
d="M199 642l-59 -441l-21 -201h-99l29 193l50 449h100zM450 2l46 6q-53 -117 -112 -170.5t-134 -53.5q-14 0 -42 4q-29 29 -32 77l7 5q22 -5 49 -5q54 0 93.5 30.5t76.5 98.5l-18 11q-131 182 -216 333l-1 4l232 242l46 58h112l-290 -304q101 -160 228 -319v-8z" />
    <glyph glyph-name="uni03D1" unicode="&#x3d1;" horiz-adv-x="449" 
d="M391.5 647.5q32.5 -59.5 32.5 -171.5q0 -142 -29.5 -252t-84 -171t-127.5 -61q-62 0 -95 59.5t-33 172.5q0 142 29.5 251.5t84.5 170.5t128 61q62 0 94.5 -59.5zM198.5 569q-36.5 -68 -51.5 -193l192 8q3 45 3 97q0 76 -15 116t-45 40q-47 0 -83.5 -68zM281.5 127
q36.5 67 51.5 190l-192 -8q-3 -43 -3 -92q0 -77 15.5 -117t45.5 -40q46 0 82.5 67z" />
    <glyph glyph-name="uni03D5" unicode="&#x3d5;" horiz-adv-x="573" 
d="M480.5 79.5q-63.5 -73.5 -188.5 -83.5l-10 -74l-7 -107l-90 -7l24 188q-181 15 -181 194q0 99 43.5 170t124.5 106l31 -35l-1 -10q-62 -46 -89 -97.5t-27 -124.5q0 -63 26.5 -97.5t81.5 -42.5l32 248q11 75 53.5 118t107.5 43q63 0 98 -48t35 -133q0 -134 -63.5 -207.5z
M421.5 123q39.5 55 39.5 158q0 58 -17 90t-46 32q-52 0 -63 -77l-35 -268q82 10 121.5 65z" />
    <glyph glyph-name="uni03D6" unicode="&#x3d6;" horiz-adv-x="507" 
d="M522 396h-91l-43 -289l-8 -104l-92 -7l61 400h-147l-39 -285l-8 -108l-92 -7l58 400h-83l-7 8l8 56h483l6 -6z" />
    <glyph glyph-name="uni03D7" unicode="&#x3d7;" horiz-adv-x="474" 
d="M209 249q43 -65 131 -178l42 -55l-1 -10l-42 -4l42 2q-45 -95 -95 -138t-115 -43q-9 0 -29 2q-33 27 -36 73l6 6q28 -4 39 -4q45 0 79 23t66 74l-18 9l-30 42q-87 122 -129 191l-5 -37l-22 -202h-95l27 194l30 260l96 8l-29 -207l165 162l35 43h105z" />
    <glyph glyph-name="uni03F0" unicode="&#x3f0;" horiz-adv-x="431" 
d="M241 243q31 -52 105 -160l45 -66l-1 -11q-26 -7 -81 -15l-10 4l-147 234l-15 -118l-6 -108l-93 -7l49 361l5 101l91 6l-27 -209l153 162l29 43h101z" />
    <glyph glyph-name="uni0400" unicode="&#x400;" horiz-adv-x="498" 
d="M226 560l-27 -192l112 -2l101 3l5 -7l-16 -76l-108 3l-105 -2l-12 -86l-12 -120l119 -2l147 5l3 -8l-15 -76h-361l30 193l51 449h362l5 -9l-17 -76l-145 4zM425 766l-18 -42l-10 -4q-112 44 -201 83l-4 10l25 57l10 3q75 -45 198 -107z" />
    <glyph glyph-name="uni0401" unicode="&#x401;" horiz-adv-x="498" 
d="M226 560l-27 -192l112 -2l101 3l5 -7l-16 -76l-108 3l-105 -2l-12 -86l-12 -120l119 -2l147 5l3 -8l-15 -76h-361l30 193l51 449h362l5 -9l-17 -76l-145 4zM285 829q12 -12 12 -34q0 -23 -13.5 -37t-36.5 -14q-22 0 -34 12t-12 35t13.5 36.5t36.5 13.5q22 0 34 -12z
M453.5 829q12.5 -12 12.5 -34q0 -23 -13.5 -37t-36.5 -14q-22 0 -34 12.5t-12 34.5q0 23 13 36.5t36 13.5q22 0 34.5 -12z" />
    <glyph glyph-name="uni0402" unicode="&#x402;" horiz-adv-x="646" 
d="M560 390q39 -37 39 -125q0 -34 -6 -79q-16 -129 -63 -220t-134 -160l-33 40l-1 11q60 58 94.5 135.5t48.5 182.5q4 32 4 64q0 54 -18 77.5t-59 23.5q-79 0 -160 -79l-8 -60l-20 -201h-96l29 193l41 370h-46l-104 -2l-6 8l15 73h452l5 -9l-15 -72l-116 2h-91l-28 -212h8
q65 56 140 77q89 -1 128 -38z" />
    <glyph glyph-name="uni0403" unicode="&#x403;" horiz-adv-x="447" 
d="M479 635l-17 -73l-137 2h-98l-48 -364l-22 -202h-100l29 194l51 451h336zM416 870l25 -57l-4 -10q-78 -35 -201 -83l-11 4l-17 42q130 66 198 107z" />
    <glyph glyph-name="uni0404" unicode="&#x404;" horiz-adv-x="543" 
d="M547 602l-27 -86l-9 -2q-60 52 -144 52q-80 0 -133.5 -50.5t-76.5 -147.5l114 -2l165 3l6 -7l-15 -76l-172 3l-110 -2q-1 -12 -1 -34q0 -177 156 -177q44 0 88.5 15t83.5 42l12 -7l-17 -91q-85 -42 -186 -42q-118 0 -179.5 64t-61.5 186q0 28 5 70q19 160 106 247.5
t226 87.5q100 0 170 -46z" />
    <glyph glyph-name="uni0405" unicode="&#x405;" horiz-adv-x="473" 
d="M461 617l-27 -90l-17 -6q-26 23 -57.5 35.5t-63.5 12.5q-51 0 -82 -27t-31 -65q0 -33 24.5 -56t76.5 -54q45 -27 73.5 -49t48.5 -54.5t20 -77.5q0 -54 -29.5 -98t-82.5 -70t-119 -26q-43 0 -90 11.5t-86 32.5l25 97l12 6q31 -34 72 -51.5t79 -17.5q53 0 86 28t33 69
q0 35 -25 58t-77 55q-44 26 -71.5 47.5t-47 54t-19.5 76.5q0 53 29.5 96.5t80.5 68.5t115 25q76 0 150 -31z" />
    <glyph glyph-name="uni0406" unicode="&#x406;" horiz-adv-x="272" 
d="M176 201l-19 -201h-99l29 193l51 449h99z" />
    <glyph glyph-name="uni0407" unicode="&#x407;" horiz-adv-x="270" 
d="M175 201l-19 -201h-99l29 193l51 449h99zM158 829q12 -12 12 -34q0 -23 -13.5 -37t-36.5 -14q-22 0 -34 12t-12 35t13.5 36.5t36.5 13.5q22 0 34 -12zM326.5 829q12.5 -12 12.5 -34q0 -23 -13.5 -37t-36.5 -14q-22 0 -34 12.5t-12 34.5q0 23 13 36.5t36 13.5
q22 0 34.5 -12z" />
    <glyph glyph-name="uni0408" unicode="&#x408;" horiz-adv-x="328" 
d="M238 212l-9 -93q-10 -78 -56 -128t-149 -94l-28 54l1 11q71 36 102.5 70.5t38.5 87.5l11 83l40 362l-113 -2l-8 8l14 71h216z" />
    <glyph glyph-name="uni0409" unicode="&#x409;" horiz-adv-x="864" 
d="M787.5 344.5q43.5 -37.5 43.5 -108.5q0 -9 -2 -31q-11 -97 -83.5 -151t-192.5 -54h-164l28 193l42 373h-153l-12 -52q-43 -195 -79.5 -304t-78.5 -159.5t-101 -62.5l-29 -2l-8 79q50 16 84 61t63.5 138t65.5 267l24 109l-1 2h333l-34 -260h129q82 0 125.5 -37.5zM731 221
q0 43 -26.5 66.5t-78.5 23.5l-103 -2l-14 -108l-13 -127l96 -4q60 8 95 42t43 90q1 6 1 19z" />
    <glyph glyph-name="uni040A" unicode="&#x40a;" horiz-adv-x="926" 
d="M851.5 341q43.5 -36 43.5 -106q0 -9 -2 -31q-13 -98 -84.5 -151t-192.5 -53h-160l27 193l12 105h-161l-148 -2l-13 -95l-22 -201h-94l28 193l51 449h96l-36 -268l155 -1l153 1l30 268h96l-35 -265h130q83 0 126.5 -36zM689 303l-104 -1l-13 -101l-14 -127l97 -4
q66 9 102 47.5t36 102.5q0 86 -104 83z" />
    <glyph glyph-name="uni040B" unicode="&#x40b;" horiz-adv-x="652" 
d="M560.5 391q42.5 -37 42.5 -112q0 -20 -3 -41l-25 -240h-95l31 223q2 20 2 28q0 90 -84 90q-37 0 -77.5 -20t-78.5 -57l-8 -62l-22 -202h-96l28 194l42 372h-47l-104 -2l-6 8l15 73h455l6 -8l-16 -73l-116 2h-91l-28 -213l7 1q64 54 140 77q86 -1 128.5 -38z" />
    <glyph glyph-name="uni040C" unicode="&#x40c;" horiz-adv-x="567" 
d="M176 201l-20 -201h-99l30 193l51 449h99zM304 337q89 -151 214 -316l-3 -12q-51 -12 -97 -18l-10 5q-122 185 -207 340l1 6l223 242l45 58h108zM389 870l25 -57l-4 -10q-78 -35 -201 -83l-11 4l-17 42q130 66 198 107z" />
    <glyph glyph-name="uni040D" unicode="&#x40d;" horiz-adv-x="671" 
d="M85 193l50 445l100 6l-67 -491h9l354 489h106l-60 -441l-21 -201h-99l28 193l36 296h-6l-357 -489h-101zM496 766l-18 -42l-10 -4q-112 44 -201 83l-4 10l25 57l10 3q75 -45 198 -107z" />
    <glyph glyph-name="uni040E" unicode="&#x40e;" horiz-adv-x="561" 
d="M591 641l-235 -445q-48 -84 -82.5 -124.5t-76.5 -57.5t-114 -22l-9 2q-8 35 -8 78l3 7q77 10 114 25t64 52l-176 485l101 1l15 -62l109 -320h10l165 325l25 56h95zM499 815q-26 -48 -74 -74.5t-99 -26.5q-49 0 -85.5 23.5t-48.5 66.5l47 39h11q15 -31 42 -48t60 -17
q32 0 63 17t52 48h10z" />
    <glyph glyph-name="uni040F" unicode="&#x40f;" horiz-adv-x="632" 
d="M595 642l-59 -441l-22 -201h-183l-24 -142l-74 -7l10 149h-184l28 193l51 449h96l-58 -441l-14 -124h269l17 116l50 449h97z" />
    <glyph glyph-name="uni0410" unicode="&#x410;" horiz-adv-x="579" 
d="M526 0h-99l-7 71l-16 92l-129 3l-117 -2l-40 -89l-26 -75h-97l298 642h115zM391 244l-51 300h-8l-136 -299l96 -2z" />
    <glyph glyph-name="uni0411" unicode="&#x411;" horiz-adv-x="582" 
d="M238 564l-25 -188h141q89 0 134.5 -37.5t45.5 -108.5q0 -109 -78.5 -170.5t-217.5 -61.5h-168l28 194l51 451h406l5 -8l-17 -73l-157 2h-148zM204 304l-14 -104l-13 -128l104 -4q72 8 109.5 44.5t37.5 97.5q0 46 -29 71t-85 24z" />
    <glyph glyph-name="uni0412" unicode="&#x412;" horiz-adv-x="542" 
d="M467 283q27 -32 27 -83q0 -100 -71.5 -152t-214.5 -52q-95 0 -150 4h-1l30 193l51 449l185 1q81 0 127 -35t46 -102q0 -60 -29.5 -104.5t-83.5 -67.5q57 -19 84 -51zM371 548q-24 18 -78 18h-68l-27 -201l98 -3q99 24 99 127q0 41 -24 59zM351.5 105.5
q42.5 32.5 42.5 91.5q0 78 -94 92l-113 -1l-12 -87l-12 -124q48 -4 69 -4q77 0 119.5 32.5z" />
    <glyph glyph-name="uni0413" unicode="&#x413;" horiz-adv-x="447" 
d="M479 635l-17 -73l-137 2h-98l-48 -364l-22 -202h-100l29 194l51 451h336z" />
    <glyph glyph-name="uni0414" unicode="&#x414;" horiz-adv-x="663" 
d="M617 81l-26 -205l-75 -7l1 130h-435l-28 -123l-77 -7l26 212h54q45 23 75.5 71t56.5 136t59 245l24 111h329l-59 -443l-12 -120h87zM450 192l42 375h-148l-12 -52q-41 -195 -78.5 -292t-91.5 -142h272z" />
    <glyph glyph-name="uni0415" unicode="&#x415;" horiz-adv-x="498" 
d="M226 560l-27 -192l112 -2l101 3l5 -7l-16 -76l-108 3l-105 -2l-12 -86l-12 -120l119 -2l147 5l3 -8l-15 -76h-361l30 193l51 449h362l5 -9l-17 -76l-145 4z" />
    <glyph glyph-name="uni0416" unicode="&#x416;" horiz-adv-x="835" 
d="M-1 9l-2 13q145 151 283 320l-189 300h105l28 -58l155 -242v-9q-112 -149 -278 -338l-12 -4q-48 6 -90 18zM369 193l50 449h98l-58 -441l-21 -201h-97zM679 -1q-111 171 -195 338l-1 5l213 242l43 58h109l-266 -303q96 -171 203 -320v-10q-37 -10 -94 -18z" />
    <glyph glyph-name="uni0417" unicode="&#x417;" horiz-adv-x="505" 
d="M457 201q0 -64 -33.5 -111.5t-95 -73t-142.5 -25.5q-51 0 -96.5 12.5t-76.5 34.5l29 86l10 4q27 -26 65 -40t79 -14q70 0 116 35t46 91q0 36 -22.5 60t-64.5 32h-133l-6 8l14 67l128 -1q39 15 64 48.5t25 72.5q0 37 -27 56.5t-78 19.5q-80 0 -167 -52l-11 5l19 87
q84 45 173 45q90 0 141.5 -37.5t51.5 -102.5q0 -56 -32.5 -102t-89.5 -72q114 -30 114 -133z" />
    <glyph glyph-name="uni0418" unicode="&#x418;" horiz-adv-x="671" 
d="M85 193l50 445l100 6l-67 -491h9l354 489h106l-60 -441l-21 -201h-99l28 193l36 296h-6l-357 -489h-101z" />
    <glyph glyph-name="uni0419" unicode="&#x419;" horiz-adv-x="671" 
d="M85 193l50 445l100 6l-67 -491h9l354 489h106l-60 -441l-21 -201h-99l28 193l36 296h-6l-357 -489h-101zM549 815q-26 -48 -72 -74.5t-95 -26.5q-46 0 -81 23.5t-47 66.5l47 39h12q14 -31 39.5 -48t55.5 -17q29 0 58 17t50 48h11z" />
    <glyph glyph-name="uni041A" unicode="&#x41a;" horiz-adv-x="567" 
d="M176 201l-20 -201h-99l30 193l51 449h99zM304 337q89 -151 214 -316l-3 -12q-51 -12 -97 -18l-10 5q-122 185 -207 340l1 6l223 242l45 58h108z" />
    <glyph glyph-name="uni041B" unicode="&#x41b;" horiz-adv-x="604" 
d="M511 201l-21 -203h-100l29 194l41 375h-153l-12 -52q-43 -196 -80 -305.5t-79 -160.5t-102 -63l-29 -2l-8 80q51 16 85 61t63.5 138.5t65.5 268.5l24 110l-1 2h336z" />
    <glyph glyph-name="uni041C" unicode="&#x41c;" horiz-adv-x="772" 
d="M683 0h-88l13 195l8 296h-7l-210 -419h-79l-95 419h-8l-64 -288l-41 -203h-82l143 642h112l17 -97l75 -346h8l169 350l41 93h111z" />
    <glyph glyph-name="uni041D" unicode="&#x41d;" horiz-adv-x="665" 
d="M630 642l-61 -441l-20 -201h-98l29 193l10 89l-159 3l-144 -3l-11 -81l-19 -201h-99l29 193l51 449h99l-38 -276l150 -3l150 3l31 276h100z" />
    <glyph glyph-name="uni041E" unicode="&#x41e;" horiz-adv-x="649" 
d="M552.5 581.5q62.5 -67.5 62.5 -192.5q0 -122 -37.5 -211t-110 -137.5t-174.5 -48.5q-111 0 -173.5 69.5t-62.5 195.5q0 184 83 288t237 104q113 0 175.5 -67.5zM209.5 491.5q-51.5 -76.5 -51.5 -229.5q0 -97 35.5 -144t109.5 -47q208 0 208 308q0 97 -35.5 143t-109.5 46
q-105 0 -156.5 -76.5z" />
    <glyph glyph-name="uni041F" unicode="&#x41f;" horiz-adv-x="653" 
d="M559 201l-22 -201h-98l28 193l41 367l-149 2l-133 -4l-47 -357l-21 -201h-99l28 193l51 449h479z" />
    <glyph glyph-name="uni0420" unicode="&#x420;" horiz-adv-x="521" 
d="M467 600q48 -43 48 -126q0 -73 -32.5 -131t-93 -91t-140.5 -33h-71l-2 -18l-20 -201h-99l30 193l51 449l197 1q84 0 132 -43zM380.5 349.5q32.5 44.5 32.5 109.5q0 52 -24.5 77.5t-80.5 28.5l-82 -3l-37 -264l105 -3q54 10 86.5 54.5z" />
    <glyph glyph-name="uni0421" unicode="&#x421;" horiz-adv-x="536" 
d="M543 603l-30 -87l-9 -3q-58 53 -137 53q-99 0 -153 -76.5t-54 -217.5q0 -96 38 -146t109 -50q41 0 82.5 14.5t78.5 41.5l9 -6l-20 -90q-42 -23 -81 -33t-84 -10q-113 0 -174.5 69t-61.5 195q0 121 38 209t111 135t174 47q97 0 164 -45z" />
    <glyph glyph-name="uni0422" unicode="&#x422;" horiz-adv-x="477" 
d="M507 633l-17 -75l-109 6h-52l-50 -363l-20 -201h-99l31 193l40 371h-52l-113 -6l-6 9l18 75h424z" />
    <glyph glyph-name="uni0423" unicode="&#x423;" horiz-adv-x="561" 
d="M591 641l-235 -445q-48 -84 -82.5 -124.5t-76.5 -57.5t-114 -22l-9 2q-8 35 -8 78l3 7q77 10 114 25t64 52l-176 485l101 1l15 -62l109 -320h10l165 325l25 56h95z" />
    <glyph glyph-name="uni0424" unicode="&#x424;" horiz-adv-x="762" 
d="M656 152.5q-86 -77.5 -250 -87.5l-10 -88h-92l12 87q-133 7 -201.5 64t-68.5 163q0 286 335 306l8 71h93l-9 -70q269 -14 269 -224q0 -144 -86 -221.5zM188 185.5q46 -39.5 139 -46.5l8 55l37 328q-116 -8 -173 -62t-57 -158q0 -77 46 -116.5zM587 202.5
q58 54.5 58 159.5q0 75 -45 114t-137 46l-42 -320l-7 -62q115 8 173 62.5z" />
    <glyph glyph-name="uni0425" unicode="&#x425;" horiz-adv-x="581" 
d="M367 329l159 -329h-114l-19 56l-102 202l-158 -208l-32 -50h-102l243 327l-155 315h115l19 -56l95 -189l143 192l32 53h105z" />
    <glyph glyph-name="uni0426" unicode="&#x426;" horiz-adv-x="672" 
d="M601 -122l-72 -7l2 129h-472l28 193l51 449h99l-58 -441l-13 -120h270l16 112l51 449h101l-59 -441l-13 -120h96z" />
    <glyph glyph-name="uni0427" unicode="&#x427;" horiz-adv-x="587" 
d="M554 643l-60 -443l-21 -202h-101l29 194l10 85h-8q-68 -54 -149 -76q-94 0 -139 36.5t-45 113.5q0 11 2 35l29 257h101l-30 -235q-2 -18 -2 -25q0 -45 23 -69.5t64 -24.5q38 0 80.5 20.5t83.5 57.5l31 276h102z" />
    <glyph glyph-name="uni0428" unicode="&#x428;" horiz-adv-x="888" 
d="M851 642l-58 -441l-22 -201h-712l28 193l51 449h99l-58 -441l-13 -120h211l17 112l50 449h101l-59 -441l-13 -120h212l16 112l50 449h100z" />
    <glyph glyph-name="uni0429" unicode="&#x429;" horiz-adv-x="918" 
d="M852 642l-58 -441l-22 -201h-712l28 193l51 449h99l-58 -441l-13 -120h211l17 112l50 449h101l-59 -441l-13 -120h212l16 112l50 449h100zM850 -122l-72 -7l2 129h-108l31 81h174z" />
    <glyph glyph-name="uni042A" unicode="&#x42a;" horiz-adv-x="631" 
d="M555.5 344q43.5 -38 43.5 -109q0 -110 -75 -172.5t-208 -62.5h-159l29 193l41 370h-69l-100 -2l-6 8l16 73h267l-35 -260h129q83 0 126.5 -38zM459 116q35 37 35 98q0 46 -27 71.5t-78 25.5l-99 -2l-14 -108l-13 -127l95 -4q66 9 101 46z" />
    <glyph glyph-name="uni042B" unicode="&#x42b;" horiz-adv-x="740" 
d="M438 344.5q41 -37.5 41 -108.5q0 -110 -73 -173t-203 -63h-152l28 193l50 449h100l-35 -260h124q79 0 120 -37.5zM705 642l-61 -441l-19 -201h-99l29 193l51 449h99zM341 116.5q33 37.5 33 98.5q0 46 -24.5 71t-71.5 25l-94 -2l-14 -108l-13 -127l89 -4q62 9 95 46.5z
" />
    <glyph glyph-name="uni042C" unicode="&#x42c;" horiz-adv-x="554" 
d="M479.5 344.5q44.5 -38.5 44.5 -110.5q0 -110 -77 -173t-213 -63h-164l28 194l51 452h100l-35 -261h136q85 0 129.5 -38.5zM382 115q35 37 35 99q0 46 -27 71.5t-80 24.5l-106 -1l-14 -109l-13 -127l102 -4q68 9 103 46z" />
    <glyph glyph-name="uni042D" unicode="&#x42d;" horiz-adv-x="537" 
d="M458 586q62 -64 62 -186q0 -30 -5 -73q-20 -160 -107 -248t-227 -88q-100 0 -171 46l27 87l9 2q61 -52 145 -52t139 54.5t75 157.5l-115 2l-164 -3l-6 7l16 77l170 -3l109 2q11 198 -156 198q-84 0 -174 -57l-11 7l17 92q88 42 186 42q119 0 181 -64z" />
    <glyph glyph-name="uni042E" unicode="&#x42e;" horiz-adv-x="836" 
d="M765 584.5q56 -64.5 56 -185.5q0 -37 -4 -70q-19 -162 -99 -249.5t-208 -87.5q-105 0 -161 66t-56 188q0 24 1 36l-56 1l-50 -1l-11 -81l-21 -201h-99l28 193l51 449h99l-37 -278l55 -1l52 1q26 138 102.5 211.5t194.5 73.5q107 0 163 -64.5zM718 401q0 86 -31 127
t-95 41q-82 0 -129 -60.5t-63 -186.5q-6 -48 -6 -86q0 -86 31.5 -127t95.5 -41q82 0 129 61t63 190q5 38 5 82z" />
    <glyph glyph-name="uni042F" unicode="&#x42f;" horiz-adv-x="550" 
d="M515 641l-60 -448l-19 -193h-98l28 201l4 32h-102q-66 -104 -161 -236l-11 -6q-53 4 -92 21l-2 12q105 120 190 231q-105 50 -105 161q0 66 31.5 118t86.5 81t123 29l188 -2zM378 309l29 259l-79 3q-56 -1 -93 -36.5t-45 -98.5q-1 -8 -1 -23q0 -85 85 -108z" />
    <glyph glyph-name="uni0430" unicode="&#x430;" horiz-adv-x="438" 
d="M400 463l-49 -352l-4 -108l-96 -7l26 182h-11q-65 -111 -140 -186h-16q-87 41 -87 161q0 69 26.5 136t80 115.5t129.5 63.5h5l67 -24l59 25zM176 123q26 30 59.5 89t67.5 141v15l-63 24q-60 0 -95 -60t-35 -152q0 -47 8 -67t19 -20q13 0 39 30z" />
    <glyph glyph-name="uni0431" unicode="&#x431;" horiz-adv-x="435" 
d="M388 401q20 -34 20 -95q0 -90 -28 -160t-78.5 -110t-116.5 -42q-68 0 -103 45.5t-35 135.5q0 163 53.5 280t151.5 161l91 43q27 14 39.5 23.5t27.5 32.5l33 -21q-16 -41 -31 -64.5t-43 -46.5l-91 -32q-56 -20 -89.5 -86t-43.5 -168l-4 -32h7q70 116 156 189h17
q47 -19 67 -53zM263 85.5q29 27.5 45.5 76t16.5 110.5q0 41 -9 68t-22 27q-19 0 -71.5 -68.5t-94.5 -145.5q3 -50 19.5 -72.5t49.5 -22.5q37 0 66 27.5z" />
    <glyph glyph-name="uni0432" unicode="&#x432;" horiz-adv-x="392" 
d="M352 135v-10q-17 -61 -65 -96.5t-114 -35.5q-145 0 -145 172q0 85 29.5 153.5t82 108.5t119.5 43l10 -1q47 -8 72 -32.5t25 -63.5q0 -75 -95 -131q54 -45 81 -107zM157.5 360q-33.5 -47 -41.5 -125q83 27 125 60t42 71q0 20 -11.5 30.5t-32.5 10.5q-48 0 -81.5 -47z
M246 80q25 22 25 50q0 17 -13 41.5t-33 46.5q-48 -21 -111 -40q2 -63 19.5 -91.5t56.5 -28.5q31 0 56 22z" />
    <glyph glyph-name="uni0433" unicode="&#x433;" horiz-adv-x="339" 
d="M51.5 21.5q-36.5 28.5 -36.5 77.5q0 34 18.5 62.5t44 48.5t66.5 47q44 30 64.5 48.5t20.5 39.5q0 19 -12.5 30t-34.5 11q-20 0 -40.5 -10.5t-58.5 -38.5l-15 1l-22 49q59 64 139 83q60 0 96.5 -30t36.5 -78q0 -47 -33 -80.5t-93 -72.5q-46 -31 -67 -50.5t-21 -42.5
q0 -19 13 -31t36 -12t48.5 15.5t60.5 49.5l14 -3l25 -47q-56 -72 -149 -96q-64 1 -100.5 29.5z" />
    <glyph glyph-name="uni0434" unicode="&#x434;" horiz-adv-x="419" 
d="M216 707q83 0 128 -63t45 -183q0 -227 -59.5 -347t-175.5 -122q-62 5 -94.5 49.5t-32.5 126.5q0 80 28.5 148t77.5 108t106 40q34 -2 62 -7q0 96 -31.5 141t-98.5 45q-27 0 -72 -10l-4 5l9 46q63 23 112 23zM263 139q32 78 37 245l-67 13q-56 -2 -88.5 -64.5
t-32.5 -175.5q0 -51 13.5 -73.5t43.5 -22.5q62 0 94 78z" />
    <glyph glyph-name="uni0435" unicode="&#x435;" horiz-adv-x="378" 
d="M307 147l30 -39q-64 -94 -161 -115h-13q-70 8 -102.5 48.5t-32.5 120.5q0 88 29 156.5t81 108.5t119 43l10 -1q46 -7 70.5 -32t24.5 -65q0 -122 -246 -195q1 -56 17 -81t48 -25q27 0 53.5 17.5t59.5 59.5zM158.5 359q-31.5 -44 -39.5 -119q157 48 157 125q0 38 -41 38
q-45 0 -76.5 -44z" />
    <glyph glyph-name="uni0436" unicode="&#x436;" horiz-adv-x="629" 
d="M386 464l-46 -353l-7 -108l-92 -7l49 361l5 101zM265 239q-103 -143 -186 -245l-10 -3q-33 4 -79 17l-2 11q113 135 186 233l-119 208h93l18 -43l97 -167zM456 248q67 -130 132 -233l-1 -9q-42 -10 -83 -15l-10 7q-65 111 -126 245l1 7l136 167l29 43h97z" />
    <glyph glyph-name="uni0437" unicode="&#x437;" horiz-adv-x="355" 
d="M-3 19l21 65l19 2q24 -13 45.5 -18t45.5 -5q47 0 75 21.5t28 57.5q0 28 -21 43.5t-59 17.5h-61l-3 6l11 54l48 -1q22 0 42.5 12.5t33.5 32.5t13 41q0 22 -14 36.5t-38 14.5q-28 0 -51 -12t-52 -41l-12 1l-22 40q37 42 76 61.5t85 19.5q52 0 84 -27.5t32 -71.5
q0 -38 -26 -72.5t-72 -54.5v-3q87 -26 87 -101q0 -42 -24 -75t-66.5 -51.5t-95.5 -18.5q-66 0 -129 26z" />
    <glyph glyph-name="uni0438" unicode="&#x438;" horiz-adv-x="464" 
d="M427 465l-51 -354l-3 -108l-96 -7l29 204h-8q-45 -75 -82 -122t-78 -81h-11q-40 8 -65 31t-24 58l1 14l41 253l7 106l94 8l-50 -322l-2 -21v-3q0 -21 18 -21q28 0 75 64.5t105 187.5l1 5l4 101z" />
    <glyph glyph-name="uni0439" unicode="&#x439;" horiz-adv-x="464" 
d="M427 465l-51 -354l-3 -108l-96 -7l29 204h-8q-45 -75 -82 -122t-78 -81h-11q-40 8 -65 31t-24 58l1 14l41 253l7 106l94 8l-50 -322l-2 -21v-3q0 -21 18 -21q28 0 75 64.5t105 187.5l1 5l4 101zM424 633q-26 -48 -72 -74.5t-95 -26.5q-46 0 -81 23.5t-47 66.5l47 39h12
q14 -31 39.5 -48t55.5 -17q29 0 58 17t50 48h11z" />
    <glyph glyph-name="uni043A" unicode="&#x43a;" horiz-adv-x="431" 
d="M87 357l5 101l91 6l-46 -353l-7 -108l-92 -7zM254 248q60 -114 137 -233l-1 -9q-41 -11 -82 -15l-10 7q-64 105 -133 245l1 7l141 167l30 43h98z" />
    <glyph glyph-name="uni043B" unicode="&#x43b;" horiz-adv-x="421" 
d="M373 3l-90 -7l-2 81l-26 288h-15l-92 -240q-20 -53 -40.5 -81.5t-47.5 -40.5t-67 -11l-9 67l6 10q33 8 53 31.5t44 82.5l117 277h115z" />
    <glyph glyph-name="uni043C" unicode="&#x43c;" horiz-adv-x="580" 
d="M119 458l98 7l12 -73l48 -231h5l109 231l29 66l100 7l-16 -465h-77l9 144l5 189h-7l-137 -282h-68l-63 282h-7l-38 -176l-31 -157h-74z" />
    <glyph glyph-name="uni043D" unicode="&#x43d;" horiz-adv-x="478" 
d="M439 464l-46 -353l-7 -108l-91 -7l26 198l-89 1l-84 -1l-11 -83l-6 -108l-93 -7l49 361l5 101l91 6l-26 -196l88 -1l85 1l12 89l5 101z" />
    <glyph glyph-name="uni043E" unicode="&#x43e;" horiz-adv-x="413" 
d="M269 469q57 -11 86.5 -49t29.5 -108q0 -141 -60.5 -227t-168.5 -94l-10 1q-59 12 -88.5 51t-29.5 112q0 90 28 159.5t80 110t123 44.5h10zM147 330.5q-31 -62.5 -31 -175.5q0 -48 12.5 -69t42.5 -21q62 0 93 63.5t31 176.5q0 48 -12.5 68t-41.5 20q-63 0 -94 -62.5z" />
    <glyph glyph-name="uni043F" unicode="&#x43f;" horiz-adv-x="465" 
d="M403 434.5q25 -23.5 24 -58.5l-1 -13l-40 -253l-5 -107l-98 -7l53 330l1 11q0 26 -18 26q-28 0 -76 -66t-107 -190l-4 -104l-96 -7l52 361l4 101l94 7l-29 -206h10q45 76 82.5 124.5t78.5 82.5h11q39 -8 64 -31.5z" />
    <glyph glyph-name="uni0440" unicode="&#x440;" horiz-adv-x="442" 
d="M418 307q0 -70 -27 -137t-80.5 -115.5t-128.5 -62.5h-5l-54 12l-11 -79l-4 -110l-96 -7l78 549l4 101l94 7l-26 -183h13q62 108 141 186h16q86 -42 86 -161zM296 127q35 60 35 152q0 48 -8 68.5t-19 20.5q-12 0 -38.5 -30.5t-60.5 -89.5t-67 -140l-3 -22l66 -19
q60 0 95 60z" />
    <glyph glyph-name="uni0441" unicode="&#x441;" horiz-adv-x="348" 
d="M340 446l6 -13l-26 -74l-20 -2q-19 22 -34 29.5t-33 7.5q-52 0 -82.5 -56.5t-30.5 -155.5q0 -60 12 -84.5t40 -24.5q48 0 97 83l13 -1l29 -38q-31 -53 -65 -81t-81 -43h-14q-64 10 -92 47.5t-28 122.5q0 86 26.5 155t80.5 109.5t134 40.5z" />
    <glyph glyph-name="uni0442" unicode="&#x442;" horiz-adv-x="718" 
d="M656.5 434.5q24.5 -23.5 23.5 -58.5l-1 -13l-41 -253l-5 -107l-97 -7l52 330l1 11q0 26 -17 26q-29 0 -77.5 -67.5t-108.5 -195.5l-5 -97l-98 -7l53 330l1 11q0 26 -18 26q-28 0 -76 -66t-107 -190l-4 -104l-96 -7l52 361l4 101l94 7l-29 -206h10q45 76 82.5 124.5
t78.5 82.5h11q40 -8 64.5 -31.5t23.5 -58.5l-1 -13l-16 -104h10q45 76 82.5 124.5t78.5 82.5h11q40 -8 64.5 -31.5z" />
    <glyph glyph-name="uni0443" unicode="&#x443;" horiz-adv-x="414" 
d="M407 386q0 -32 -10 -64t-31 -70l-134 -240q-61 -111 -115.5 -159t-119.5 -48q-36 0 -81 14l4 82l9 8q36 -9 65 -9q44 0 77.5 21t65.5 68l-96 468l95 8l10 -82l43 -275h13l84 161q32 58 32 109q0 34 -21 65l4 11l84 13q22 -48 22 -81z" />
    <glyph glyph-name="uni0444" unicode="&#x444;" horiz-adv-x="607" 
d="M578 310q0 -82 -25.5 -150t-72 -111.5t-107.5 -53.5l-58 13l-11 -87l-7 -107l-91 -7l33 252h-9q-41 -47 -84 -66h-16q-50 13 -76 53t-26 104q0 82 26 150t73.5 111.5t108.5 54.5l55 -13l19 143l5 100l91 7l-39 -301h9q42 45 86 66h15q101 -29 101 -158zM197 90.5
q22 14.5 52 45.5l33 245l-58 17q-51 0 -82.5 -59.5t-31.5 -157.5q0 -48 13 -76.5t34 -28.5q18 0 40 14.5zM465.5 121.5q30.5 59.5 30.5 157.5q0 48 -12.5 76.5t-33.5 28.5q-34 0 -93 -59l-32 -246l59 -17q51 0 81.5 59.5z" />
    <glyph glyph-name="uni0445" unicode="&#x445;" horiz-adv-x="438" 
d="M390 4l-104 -10l-15 54l-60 128l-94 -129l-25 -47h-104l172 238l-100 218l101 11l13 -44l58 -123l89 118l24 42h100l-167 -228z" />
    <glyph glyph-name="uni0446" unicode="&#x446;" horiz-adv-x="488" 
d="M449 55l-18 -92q-9 -45 -26 -74.5t-48 -55.5l-71 31l-1 15q51 32 73 92l9 29h-28q-51 0 -51 51q0 6 2 20l17 129h-9q-45 -75 -82 -122t-78 -81h-12q-40 8 -64.5 31t-23.5 58l1 14l41 253l7 106l94 8l-50 -322l-2 -21v-3q0 -21 18 -21q27 0 74 64t105 186l1 7l6 101l92 6
l-49 -368q-1 -4 -1 -10q0 -9 5 -12.5t17 -3.5h44z" />
    <glyph glyph-name="uni0447" unicode="&#x447;" horiz-adv-x="436" 
d="M398 464l-47 -353l-6 -108l-91 -7l30 224h-9q-49 -42 -80 -64t-62 -36h-12q-40 5 -61.5 27t-20.5 55l1 14l20 141l6 101l90 6l-29 -217v-12q0 -28 27 -28q20 0 57 25t84 69l7 56l4 101z" />
    <glyph glyph-name="uni0448" unicode="&#x448;" horiz-adv-x="714" 
d="M677 465l-50 -354l-3 -108l-97 -7l29 204h-8q-45 -75 -82 -122t-78 -81h-11q-40 8 -64.5 31t-23.5 58l1 14l16 100h-8q-45 -75 -82 -122t-78 -81h-12q-40 8 -64.5 31t-23.5 58l1 14l41 253l7 106l94 8l-50 -322l-2 -21v-3q0 -21 18 -21q28 0 75.5 66t107.5 193l7 100
l94 8l-50 -322l-2 -21v-3q0 -21 18 -21q28 0 75 64.5t106 188.5l1 4l4 101z" />
    <glyph glyph-name="uni0449" unicode="&#x449;" horiz-adv-x="737" 
d="M698 55l-18 -92q-9 -45 -26 -74.5t-48 -55.5l-71 31l-1 15q51 32 73 92l9 29h-28q-51 0 -51 51q0 6 2 20l17 129h-8q-45 -75 -82 -122t-78 -81h-11q-40 8 -64.5 31t-23.5 58l1 14l16 100h-8q-45 -75 -82 -122t-78 -81h-12q-40 8 -64.5 31t-23.5 58l1 14l41 253l7 106
l94 8l-50 -322l-2 -21v-3q0 -21 18 -21q28 0 75.5 66t107.5 193l7 100l94 8l-50 -322l-2 -21v-3q0 -21 18 -21q27 0 73 62.5t104 181.5l2 13l6 101l92 6l-49 -368q-1 -4 -1 -10q0 -9 5 -12.5t17 -3.5h44z" />
    <glyph glyph-name="uni044A" unicode="&#x44a;" horiz-adv-x="429" 
d="M386.5 287.5q20.5 -30.5 20.5 -79.5q0 -54 -31 -102t-83 -78.5t-114 -33.5h-5l-129 27l119 371h-59l-68 -2l-5 7l13 63h218l-78 -242h7q39 47 62 70.5t54 44.5h16q42 -15 62.5 -45.5zM289.5 96.5q35.5 38.5 36.5 94.5q0 31 -9 46.5t-23 15.5q-15 0 -51 -35t-91 -104
l-14 -44l64 -12q52 0 87.5 38.5z" />
    <glyph glyph-name="uni044B" unicode="&#x44b;" horiz-adv-x="634" 
d="M364.5 287.5q21.5 -30.5 21.5 -78.5q0 -54 -27.5 -101t-75 -77.5t-105.5 -36.5h-5l-134 21l46 342l5 101l91 6l-33 -253h7q38 45 66.5 72t61.5 50h16q44 -15 65.5 -45.5zM272.5 96q32.5 38 32.5 95q0 31 -9 46.5t-23 15.5q-15 0 -52.5 -35t-83.5 -94l-7 -56l61 -10
q49 0 81.5 38zM547 111l-5 -108l-95 -7l52 361l4 101l93 7z" />
    <glyph glyph-name="uni044C" unicode="&#x44c;" horiz-adv-x="409" 
d="M364.5 287.5q21.5 -30.5 21.5 -78.5q0 -54 -27.5 -101t-75 -77.5t-105.5 -36.5h-5l-134 21l46 342l5 101l91 6l-33 -253h7q38 45 66.5 72t61.5 50h16q44 -15 65.5 -45.5zM272.5 96q32.5 38 32.5 95q0 31 -9 46.5t-23 15.5q-15 0 -52.5 -35t-83.5 -94l-7 -56l61 -10
q49 0 81.5 38z" />
    <glyph glyph-name="uni044D" unicode="&#x44d;" horiz-adv-x="360" 
d="M303 416q29 -40 29 -122q0 -87 -30.5 -155.5t-83 -106.5t-117.5 -38q-50 0 -100 25l-5 11l21 58l19 1q22 -16 38.5 -23t36.5 -7q51 0 85 38t46 107h-64l-82 -1l-5 7l11 54l85 -2h62v20q0 63 -14.5 90t-48.5 27q-55 0 -105 -62h-13l-26 39q35 40 70.5 61.5t79.5 29.5h14
q68 -11 97 -51z" />
    <glyph glyph-name="uni044E" unicode="&#x44e;" horiz-adv-x="603" 
d="M548.5 419q26.5 -38 26.5 -116q0 -88 -28.5 -157.5t-80 -110t-117.5 -43.5l-10 1q-59 10 -86 50t-27 118q0 23 1 33l-45 1h-34l-11 -84l-6 -108l-93 -7l49 361l5 101l91 6l-26 -197h37l45 1q22 89 79 143.5t134 57.5h9q61 -12 87.5 -50zM455.5 124q32.5 63 32.5 175
q0 56 -11.5 77.5t-42.5 21.5q-57 0 -90 -63t-33 -174q0 -56 12 -78t43 -22q57 0 89.5 63z" />
    <glyph glyph-name="uni044F" unicode="&#x44f;" horiz-adv-x="431" 
d="M392 462l-46 -351l-7 -108l-91 -7l52 397l-61 9q-50 0 -83.5 -38t-33.5 -93q0 -59 40 -59q27 0 66 27l9 -3l8 -32q-61 -92 -149 -206l-9 -4q-40 2 -79 16l-2 10q60 60 128 138q-43 -1 -67.5 26.5t-24.5 76.5q0 77 56.5 134.5t147.5 72.5l87 -10l52 9z" />
    <glyph glyph-name="uni0450" unicode="&#x450;" horiz-adv-x="378" 
d="M307 147l30 -39q-64 -94 -161 -115h-13q-70 8 -102.5 48.5t-32.5 120.5q0 88 29 156.5t81 108.5t119 43l10 -1q46 -7 70.5 -32t24.5 -65q0 -122 -246 -195q1 -56 17 -81t48 -25q27 0 53.5 17.5t59.5 59.5zM158.5 359q-31.5 -44 -39.5 -119q157 48 157 125q0 38 -41 38
q-45 0 -76.5 -44zM320 559l-25 -38l-10 -1q-60 39 -179 124l-2 10l36 52l10 1q61 -57 170 -148z" />
    <glyph glyph-name="uni0451" unicode="&#x451;" horiz-adv-x="378" 
d="M307 147l30 -39q-64 -94 -161 -115h-13q-70 8 -102.5 48.5t-32.5 120.5q0 88 29 156.5t81 108.5t119 43l10 -1q46 -7 70.5 -32t24.5 -65q0 -122 -246 -195q1 -56 17 -81t48 -25q27 0 53.5 17.5t59.5 59.5zM158.5 359q-31.5 -44 -39.5 -119q157 48 157 125q0 38 -41 38
q-45 0 -76.5 -44zM202 648q12 -12 12 -34q0 -23 -13.5 -37t-36.5 -14q-22 0 -34 12t-12 35t13.5 36.5t36.5 13.5q22 0 34 -12zM370.5 648q12.5 -12 12.5 -34q0 -23 -13.5 -37t-36.5 -14q-22 0 -34 12.5t-12 34.5q0 23 13 36.5t36 13.5q22 0 34.5 -12z" />
    </font>
</defs>
</svg>
