<?xml version="1.0" standalone="no"?>
<!DOCTYPE svg PUBLIC "-//W3C//DTD SVG 1.1//EN" "http://www.w3.org/Graphics/SVG/1.1/DTD/svg11.dtd" >
<svg xmlns="http://www.w3.org/2000/svg" xmlns:xlink="http://www.w3.org/1999/xlink" version="1.1">
<metadata>
Created by FontForge 20170731 at Thu Nov  9 17:49:31 2017
 By Aleksey,,,
Copyright 2013 The Alegreya Sans Project Authors (https://github.com/huertatipografica/Alegreya-Sans)
</metadata>
<defs>
<font id="AlegreyaSans-Thin" horiz-adv-x="0" >
  <font-face 
    font-family="Alegreya Sans Thin"
    font-weight="250"
    font-stretch="normal"
    units-per-em="1000"
    panose-1="0 0 3 0 0 0 0 0 0 0"
    ascent="800"
    descent="-200"
    x-height="453"
    cap-height="637"
    bbox="-401 -265 1117 949.777"
    underline-thickness="42"
    underline-position="-232"
    unicode-range="U+000D-FB02"
  />
<missing-glyph horiz-adv-x="180" 
 />
    <glyph glyph-name="Idieresis" unicode="&#xa8;I" horiz-adv-x="240" 
d="M130 0h-20v637h20v-637zM84.5 794.5q5.5 -5.5 5.5 -14.5t-5.5 -14.5t-14.5 -5.5t-14.5 5.5t-5.5 14.5t5.5 14.5t14.5 5.5t14.5 -5.5zM184.5 794.5q5.5 -5.5 5.5 -14.5t-5.5 -14.5t-14.5 -5.5t-14.5 5.5t-5.5 14.5t5.5 14.5t14.5 5.5t14.5 -5.5z" />
    <glyph glyph-name="Odieresis" unicode="&#xa8;O" horiz-adv-x="627" 
d="M511.5 561q67.5 -81 67.5 -232q0 -161 -70 -247.5t-201 -86.5q-125 0 -192.5 83.5t-67.5 238.5q0 157 70 241t200 84q126 0 193.5 -81zM132.5 543q-64.5 -79 -64.5 -226q0 -145 62 -223.5t178 -78.5q121 0 186 81.5t65 232.5q0 141 -62.5 217t-178.5 76
q-121 0 -185.5 -79zM258.5 794.5q5.5 -5.5 5.5 -14.5t-5.5 -14.5t-14.5 -5.5t-14.5 5.5t-5.5 14.5t5.5 14.5t14.5 5.5t14.5 -5.5zM398.5 794.5q5.5 -5.5 5.5 -14.5t-5.5 -14.5t-14.5 -5.5t-14.5 5.5t-5.5 14.5t5.5 14.5t14.5 5.5t14.5 -5.5z" />
    <glyph glyph-name="Yacute" unicode="&#xb4;Y" horiz-adv-x="495" 
d="M248 245v-245h-20v246l-202 391h26l11 -26l173 -334h5l188 334l11 26h26zM348 834l7 -12l-2 -5q-67 -38 -174 -93l-5 3l-7 15q91 44 176 94z" />
    <glyph glyph-name="idieresis" unicode="&#xa8;i" horiz-adv-x="222" 
d="M101 449l20 4v-453h-20v449zM75.5 609.5q5.5 -5.5 5.5 -14.5t-5.5 -14.5t-14.5 -5.5t-14.5 5.5t-5.5 14.5t5.5 14.5t14.5 5.5t14.5 -5.5zM175.5 609.5q5.5 -5.5 5.5 -14.5t-5.5 -14.5t-14.5 -5.5t-14.5 5.5t-5.5 14.5t5.5 14.5t14.5 5.5t14.5 -5.5z" />
    <glyph glyph-name="odieresis" unicode="&#xa8;o" horiz-adv-x="487" 
d="M380 396.5q49 -60.5 49 -166.5q0 -109 -50.5 -172t-139.5 -63q-85 0 -134 60.5t-49 166.5q0 109 50.5 172t139.5 63q85 0 134 -60.5zM121.5 380q-45.5 -57 -45.5 -158q0 -97 43.5 -152t119.5 -55q79 0 124.5 57t45.5 158q0 97 -43.5 152t-119.5 55q-79 0 -124.5 -57z
M187.5 609.5q5.5 -5.5 5.5 -14.5t-5.5 -14.5t-14.5 -5.5t-14.5 5.5t-5.5 14.5t5.5 14.5t14.5 5.5t14.5 -5.5zM327.5 609.5q5.5 -5.5 5.5 -14.5t-5.5 -14.5t-14.5 -5.5t-14.5 5.5t-5.5 14.5t5.5 14.5t14.5 5.5t14.5 -5.5z" />
    <glyph glyph-name="yacute" unicode="&#xb4;y" horiz-adv-x="405" 
d="M54 409l140 -373h5l146 373l15 43h24l-177 -452q-26 -67 -53 -104t-63 -55.5t-95 -30.5h-5q-4 4 -8 12v6q60 12 95 29.5t59.5 50t47.5 92.5l-166 450l21 4zM307 668l10 -10l-1 -5q-69 -69 -144 -135l-5 1l-11 13q69 58 146 137z" />
    <glyph glyph-name="Itilde" unicode="&#x7e;I" horiz-adv-x="240" 
d="M130 0h-20v637h20v-637zM244 802v-4l-47 -47l-6 -2q-16 2 -72 20q-54 18 -65 18q-5 0 -13 -7t-17 -17l-16 -16h-3l-9 11v4l47 47l6 2q16 -2 72 -20q54 -18 65 -18q5 0 12 6t15 15l19 19h3z" />
    <glyph glyph-name="itilde" unicode="&#x7e;i" horiz-adv-x="222" 
d="M101 449l20 4v-453h-20v449zM235 617v-4l-47 -47l-6 -2q-16 2 -72 20q-54 18 -65 18q-5 0 -13 -7t-17 -17l-16 -16h-3l-9 11v4l47 47l6 2q16 -2 72 -20q54 -18 65 -18q5 0 12 6t15 15l19 19h3z" />
    <glyph glyph-name="Utilde" unicode="&#x7e;U" horiz-adv-x="612" 
d="M526 229q3 -110 -55 -171.5t-165 -61.5t-163.5 60t-56.5 173v408h20v-408q-1 -103 51 -158t149 -55t148.5 55t51.5 158v408h20v-408zM449 805v-4l-52 -47l-6 -2q-20 2 -81 20q-6 2 -35 10t-40 8q-5 0 -13 -6t-17 -16l-21 -19h-4l-9 11v4l52 47l6 2q20 -2 81 -20
q6 -2 35 -10t40 -8q5 0 13 6t17 16l21 19h4z" />
    <glyph glyph-name="utilde" unicode="&#x7e;u" horiz-adv-x="504" 
d="M475 29l-4 -18q-20 -14 -45 -14q-28 0 -41 20t-13 62h-4q-77 -83 -160 -83q-57 0 -87.5 35.5t-30.5 100.5v317l20 4v-320q0 -56 26 -86.5t75 -30.5q40 0 81 23.5t80 68.5v341l20 4v-374q0 -32 8.5 -47t27.5 -15q23 0 41 15zM393 620v-4l-52 -47l-6 -2q-20 2 -81 20
q-6 2 -35 10t-40 8q-5 0 -13 -6t-17 -16l-21 -19h-4l-9 11v4l52 47l6 2q20 -2 81 -20q6 -2 35 -10t40 -8q5 0 13 6t17 16l21 19h4z" />
    <glyph glyph-name="uni1EBC" unicode="&#x7e;E" horiz-adv-x="454" 
d="M425 16l-4 -16h-311v637h308l3 -4l-4 -16h-287v-277h238l3 -4l-4 -16h-237v-300h292zM405 805v-4l-52 -47l-6 -2q-20 2 -81 20q-6 2 -35 10t-40 8q-5 0 -13 -6t-17 -16l-21 -19h-4l-9 11v4l52 47l6 2q20 -2 81 -20q6 -2 35 -10t40 -8q5 0 13 6t17 16l21 19h4z" />
    <glyph glyph-name="uni1EBD" unicode="&#x7e;e" horiz-adv-x="446" 
d="M349.5 413.5q38.5 -43.5 38.5 -121.5q0 -20 -1 -30l-6 -7l-304 -4q-1 -10 -1 -30q0 -95 43.5 -150.5t118.5 -55.5q37 0 72 11.5t61 31.5l6 -2l-3 -20q-62 -41 -138 -41q-83 0 -131.5 61t-48.5 165q0 108 50.5 172t135.5 64q69 0 107.5 -43.5zM369 296q0 66 -34.5 103.5
t-93.5 37.5q-65 0 -108 -44.5t-54 -121.5l289 4zM369 620v-4l-52 -47l-6 -2q-20 2 -81 20q-6 2 -35 10t-40 8q-5 0 -13 -6t-17 -16l-21 -19h-4l-9 11v4l52 47l6 2q20 -2 81 -20q6 -2 35 -10t40 -8q5 0 13 6t17 16l21 19h4z" />
    <glyph glyph-name="uni1EF8" unicode="&#x7e;Y" horiz-adv-x="495" 
d="M248 245v-245h-20v246l-202 391h26l11 -26l173 -334h5l188 334l11 26h26zM378 805v-4l-52 -47l-6 -2q-20 2 -81 20q-6 2 -35 10t-40 8q-5 0 -13 -6t-17 -16l-21 -19h-4l-9 11v4l52 47l6 2q20 -2 81 -20q6 -2 35 -10t40 -8q5 0 13 6t17 16l21 19h4z" />
    <glyph glyph-name="uni1EF9" unicode="&#x7e;y" horiz-adv-x="405" 
d="M54 409l140 -373h5l146 373l15 43h24l-177 -452q-26 -67 -53 -104t-63 -55.5t-95 -30.5h-5q-4 4 -8 12v6q60 12 95 29.5t59.5 50t47.5 92.5l-166 450l21 4zM344 620v-4l-52 -47l-6 -2q-20 2 -81 20q-6 2 -35 10t-40 8q-5 0 -13 -6t-17 -16l-21 -19h-4l-9 11v4l52 47l6 2
q20 -2 81 -20q6 -2 35 -10t40 -8q5 0 13 6t17 16l21 19h4z" />
    <glyph glyph-name="fi" unicode="fi" horiz-adv-x="505" 
d="M397 682l-6 -20h-6q-49 23 -112 23q-71 0 -103.5 -34.5t-32.5 -109.5v-89h262l13 2l3 -2v-452h-20v432h-258v-432h-20v432h-67l-4 4l4 16h67v89q0 85 37.5 124.5t118.5 39.5q64 0 124 -23z" />
    <glyph glyph-name="fl" unicode="fl" horiz-adv-x="510" 
d="M396 696l-2 -19l-3 -2q-63 17 -112 17q-142 0 -142 -134v-106h125l3 -4l-3 -16h-125v-432h-20v432h-67l-4 4l3 16h68v106q0 77 40.5 115.5t119.5 38.5q49 0 119 -16zM405 0h-20v698l20 4v-702z" />
    <glyph glyph-name="f_j" unicode="fj" horiz-adv-x="509" 
d="M397 682l-6 -20h-6q-49 23 -112 23q-71 0 -103.5 -34.5t-32.5 -109.5v-89h256l19 2l3 -2v-440q0 -78 -19 -120.5t-71 -83.5l-11 11v6q47 38 64 76.5t17 106.5v424h-258v-432h-20v432h-67l-4 4l4 16h67v89q0 85 37.5 124.5t118.5 39.5q64 0 124 -23z" />
    <glyph glyph-name="Gtilde" unicode="&#x7e;G" horiz-adv-x="603" 
d="M432.5 627q46.5 -14 90.5 -40l-6 -18h-7q-87 52 -167 52q-132 0 -203.5 -80t-71.5 -229q0 -143 62 -220t177 -77q47 0 86.5 6.5t102.5 23.5v201l20 2v-218q-66 -19 -109.5 -26.5t-98.5 -8.5q-125 0 -192.5 82.5t-67.5 235.5q0 158 76.5 243t218.5 85q43 0 89.5 -14z
M464 805v-4l-52 -47l-6 -2q-20 2 -81 20q-6 2 -35 10t-40 8q-5 0 -13 -6t-17 -16l-21 -19h-4l-9 11v4l52 47l6 2q20 -2 81 -20q6 -2 35 -10t40 -8q5 0 13 6t17 16l21 19h4z" />
    <glyph glyph-name="gtilde" unicode="&#x7e;g" horiz-adv-x="472" 
d="M346 416l-2 -3q39 -41 39 -109q0 -71 -42 -112.5t-115 -41.5q-42 0 -75 14q-31 -20 -43 -33t-12 -24q0 -23 30.5 -33.5t97.5 -21.5q60 -9 98.5 -18.5t65.5 -31t27 -57.5t-27.5 -67.5t-73.5 -50.5t-98 -19q-71 0 -113.5 32.5t-42.5 82.5q5 34 29 60.5t73 54.5v5
q-42 9 -64.5 25t-22.5 43q5 25 57 60v3q-29 20 -45 52.5t-16 74.5q0 73 42 114t116 41q55 0 94 -25q74 14 128 29l4 -3v-18q-47 -12 -109 -23zM327 205.5q37 35.5 37 98.5q0 62 -36 97t-99 35q-65 0 -102 -36t-37 -99q0 -61 36 -96t100 -35t101 35.5zM372.5 -9
q-22.5 17 -55 25t-86.5 16q-13 1 -34 5q-55 -28 -86 -57t-31 -62q0 -37 37 -63.5t99 -26.5q48 0 89 17t65.5 44t24.5 56t-22.5 46zM376 610v-4l-52 -47l-6 -2q-20 2 -81 20q-6 2 -35 10t-40 8q-5 0 -13 -6t-17 -16l-21 -19h-4l-9 11v4l52 47l6 2q20 -2 81 -20q6 -2 35 -10
t40 -8q5 0 13 6t17 16l21 19h4z" />
    <glyph glyph-name=".notdef" horiz-adv-x="180" 
 />
    <glyph glyph-name=".null" 
 />
    <glyph glyph-name="nonmarkingreturn" unicode="&#xd;" horiz-adv-x="180" 
 />
    <glyph glyph-name="space" unicode=" " horiz-adv-x="180" 
 />
    <glyph glyph-name="exclam" unicode="!" horiz-adv-x="247" 
d="M142 651l-8 -453h-16l-4 5l8 448l3 3h14zM129.5 32.5q5.5 -5.5 5.5 -14.5t-5.5 -14.5t-14.5 -5.5t-14.5 5.5t-5.5 14.5t5.5 14.5t14.5 5.5t14.5 -5.5z" />
    <glyph glyph-name="quotedbl" unicode="&#x22;" horiz-adv-x="222" 
d="M79 631l-12 -144l-17 -2l-3 4l12 144l17 2zM176 631l-12 -144l-17 -2l-3 4l12 144l17 2z" />
    <glyph glyph-name="numbersign" unicode="#" horiz-adv-x="480" 
d="M330 374l-32 -129h121l3 -3l-2 -17h-127l-49 -193h-16l-3 4l48 189h-118l-49 -193h-16l-3 4l48 189h-112l-3 3l2 17h118l33 129h-112l-3 3l2 17h118l46 181h16l2 -5l-44 -176h118l46 181h16l2 -5l-44 -176h121l3 -3l-2 -17h-128zM311 374h-119l-32 -129h118z" />
    <glyph glyph-name="dollar" unicode="$" horiz-adv-x="404" 
d="M301 38q-40 -37 -102 -41l-11 -121h-15l-4 4l10 117q-31 2 -62 11t-56 25l1 19l5 1q24 -17 54.5 -26.5t59.5 -10.5l19 225q-42 19 -67 34.5t-42.5 39t-17.5 56.5t19 61t52.5 44.5t76.5 16.5l13 147h16l4 -5l-12 -143q42 -4 82 -21l-4 -18l-6 -1q-37 18 -74 21l-19 -218
q58 -27 89 -54.5t31 -74.5q0 -51 -40 -88zM120 311q27 -22 82 -47l17 210q-39 0 -67.5 -15.5t-43.5 -40t-15 -49.5q0 -36 27 -58zM288 53q33 32 33 72q0 37 -26 60.5t-76 46.5l-18 -215q54 4 87 36z" />
    <glyph glyph-name="percent" unicode="%" horiz-adv-x="792" 
d="M623 664l3 -8l-485 -746l-9 4l-4 9l485 746zM288 594q35 -44 35 -126q0 -83 -35.5 -127.5t-101.5 -44.5t-101 44t-35 126q0 83 35.5 127.5t102.5 44.5q65 0 100 -44zM98.5 580q-30.5 -39 -30.5 -112q0 -74 31 -113.5t89 -39.5q56 0 86.5 39t30.5 112q0 74 -30.5 113.5
t-88.5 39.5q-57 0 -87.5 -39zM707 295q35 -44 35 -126q0 -83 -35.5 -127.5t-101.5 -44.5t-101 44t-35 126q0 83 35.5 127.5t102.5 44.5q65 0 100 -44zM517.5 281q-30.5 -39 -30.5 -112q0 -74 31 -113.5t89 -39.5q56 0 86.5 39t30.5 112q0 74 -30.5 113.5t-88.5 39.5
q-57 0 -87.5 -39z" />
    <glyph glyph-name="ampersand" unicode="&#x26;" horiz-adv-x="676" 
d="M484 371v-4q16 -39 24 -74t8 -74q0 -63 -24 -111l133 -117v-3q-7 -7 -15 -10l-3 1l-125 110q-28 -44 -77 -68.5t-115 -24.5q-93 0 -152 45.5t-59 123.5q0 55 29.5 99t86.5 75v4q-40 34 -57.5 69t-17.5 78q0 72 44.5 112.5t126.5 40.5q79 0 152 -41l-6 -19h-7
q-62 40 -137 40q-74 0 -113.5 -35.5t-39.5 -98.5q0 -39 17.5 -71.5t56.5 -65.5l262 -230q20 43 20 97q0 80 -40 152h-79l-4 4l4 16h282l3 -4l-4 -16h-174zM397 39q45 23 70 64l-254 225q-54 -26 -84 -67.5t-30 -93.5q0 -69 54 -110t138 -41q61 0 106 23z" />
    <glyph glyph-name="quotesingle" unicode="'" horiz-adv-x="125" 
d="M79 631l-12 -144l-17 -2l-3 4l12 144l17 2z" />
    <glyph glyph-name="parenleft" unicode="(" horiz-adv-x="281" 
d="M275 652v-4q-87 -62 -123 -150t-37 -238q1 -150 37 -238t123 -150v-4l-9 -11h-4q-61 44 -97 98t-52.5 127t-17.5 178q1 105 17.5 178t52.5 127t97 98h4z" />
    <glyph glyph-name="parenright" unicode=")" horiz-adv-x="311" 
d="M14 -132v4q87 62 123 150t37 238q-1 150 -37 238t-123 150v4l9 11h4q61 -44 97 -98t52.5 -127t17.5 -178q-1 -105 -17.5 -178t-52.5 -127t-97 -98h-4z" />
    <glyph glyph-name="asterisk" unicode="*" horiz-adv-x="364" 
d="M199 713l-11 -113l-14 -2l-3 5l5 109q11 3 21 3zM151 583l-3 -14l-5 -1l-102 38q0 14 3 21l3 2zM327 597l-1 -2l-111 -25l-5 13l3 4l104 29q6 -7 10 -19zM211 542l60 -90q-8 -11 -15 -15h-3l-58 98l11 9zM168 536l-1 -6l-67 -85q-10 3 -19 10l-1 3l76 85z" />
    <glyph glyph-name="plus" unicode="+" horiz-adv-x="480" 
d="M250 468v-188h188l3 -3l-2 -17h-189v-189l-17 -2l-3 3v188h-188l-3 3l2 17h189v189l17 2z" />
    <glyph glyph-name="comma" unicode="," horiz-adv-x="230" 
d="M149 -7q0 -20 -17 -44t-49 -49l-10 11l1 3q26 19 40 39.5t14 38.5q0 20 -30 34v4q5 7 13 11q38 -17 38 -48z" />
    <glyph glyph-name="hyphen" unicode="-" horiz-adv-x="311" 
d="M280 277v-16l-245 -33l-4 4v16l245 33z" />
    <glyph glyph-name="period" unicode="." horiz-adv-x="230" 
d="M129.5 32.5q5.5 -5.5 5.5 -14.5t-5.5 -14.5t-14.5 -5.5t-14.5 5.5t-5.5 14.5t5.5 14.5t14.5 5.5t14.5 -5.5z" />
    <glyph glyph-name="slash" unicode="/" horiz-adv-x="291" 
d="M270 670l-204 -780h-16l-3 4l204 781h16z" />
    <glyph glyph-name="zero" unicode="0" horiz-adv-x="535" 
d="M425.5 430q54.5 -65 54.5 -187q0 -119 -55 -183t-158 -64q-102 0 -157 63.5t-55 181.5q0 123 55 188.5t159 65.5q102 0 156.5 -65zM125 415q-50 -60 -50 -172q0 -110 50 -168.5t144 -58.5q92 0 141.5 58t49.5 167q0 113 -50 173.5t-143 60.5q-92 0 -142 -60z" />
    <glyph glyph-name="one" unicode="1" horiz-adv-x="328" 
d="M186 489v-489h-20v466l-146 -45l-5 3v16l167 53z" />
    <glyph glyph-name="two" unicode="2" horiz-adv-x="439" 
d="M298 464q32 -28 32 -71q0 -40 -29.5 -92t-91.5 -126l-126 -152l2 -3h237l78 1l3 -4l-4 -18l-82 1h-222l-38 -1l-2 2v16l140 171q59 72 87 119.5t28 83.5q0 35 -25.5 58t-70.5 23q-40 0 -76 -20t-65 -57h-4l-4 17q29 37 68 58.5t82 21.5q51 0 83 -28z" />
    <glyph glyph-name="three" unicode="3" horiz-adv-x="392" 
d="M270.5 460.5q36.5 -32.5 36.5 -85.5q0 -46 -29 -87.5t-77 -63.5v-3q66 -14 101 -52.5t35 -96.5q0 -50 -26 -89t-72.5 -60.5t-106.5 -21.5q-44 0 -87 8l-3 17l3 3q43 -8 87 -8q83 0 134 41.5t51 109.5q0 62 -44 97.5t-126 39.5h-47l-3 3l1 17h43q31 0 65 19t57 52t23 72
q0 45 -30 72.5t-79 27.5q-34 0 -66 -15.5t-64 -47.5h-4l-4 18q35 34 68 50t70 16q57 0 93.5 -32.5z" />
    <glyph glyph-name="four" unicode="4" horiz-adv-x="457" 
d="M421 115l-4 -17l-71 1h-34v-191l-2 -3l-16 -3l-2 3v194h-215l-42 -1l-3 4v17l260 372h20v-372h105zM292 119v333h-4l-232 -333h236z" />
    <glyph glyph-name="five" unicode="5" horiz-adv-x="403" 
d="M349 490l-2 -18l-3 -2l-41 1h-195l-6 -206l66 -15q92 -21 135 -60t43 -100q0 -56 -28 -99t-79 -66.5t-118 -23.5q-35 0 -73 7l-4 17l3 3q41 -7 75 -7q92 0 148 46.5t56 123.5q0 52 -40 85.5t-125 53.5l-74 17l-4 5l5 232l9 8l49 -1h136l65 1z" />
    <glyph glyph-name="six" unicode="6" horiz-adv-x="456" 
d="M361 293q41 -42 41 -119q0 -87 -45 -133.5t-130 -46.5q-80 0 -123.5 55t-43.5 157q0 134 78.5 234.5t221.5 151.5h4l9 -11v-4q-122 -44 -195 -120.5t-92 -179.5l2 -2q73 60 159 60q73 0 114 -42zM342 55.5q40 41.5 40 118.5q0 68 -36 104.5t-100 36.5q-86 0 -164 -68
q-2 -26 -2 -41q0 -92 38 -142t109 -50q75 0 115 41.5z" />
    <glyph glyph-name="seven" unicode="7" horiz-adv-x="401" 
d="M96 491h238l36 1l1 -18l-223 -493l-35 -86l-19 6l-1 4l256 566h-259l-58 -1l-4 5l3 17z" />
    <glyph glyph-name="eight" unicode="8" horiz-adv-x="455" 
d="M334 553.5q37 -35.5 37 -97.5q0 -58 -33 -92.5t-89 -56.5v-3q45 -18 74 -35t48.5 -46t19.5 -72q0 -70 -47 -112.5t-125 -42.5q-75 0 -119.5 40.5t-44.5 107.5q0 62 39.5 100t100.5 61v3q-53 23 -83 55t-30 85q0 65 42 103t109 38q64 0 101 -35.5zM138 536.5
q-36 -32.5 -36 -88.5q0 -52 30.5 -79.5t89.5 -52.5q58 19 93.5 51t35.5 90q0 52 -31.5 82t-86.5 30q-59 0 -95 -32.5zM114.5 238q-39.5 -34 -39.5 -95q0 -57 39 -92t105 -35q69 0 110.5 36.5t41.5 96.5q0 41 -20.5 68t-48.5 42t-82 37q-66 -24 -105.5 -58z" />
    <glyph glyph-name="nine" unicode="9" horiz-adv-x="456" 
d="M95 199q-41 42 -41 119q0 87 45 133.5t130 46.5q80 0 123.5 -55t43.5 -157q0 -134 -78.5 -234.5t-221.5 -151.5h-4l-9 11v4q122 44 195 120.5t92 179.5l-2 2q-73 -60 -159 -60q-73 0 -114 42zM114 436.5q-40 -41.5 -40 -118.5q0 -68 36 -104.5t100 -36.5q86 0 164 68
q2 26 2 41q0 92 -38 142t-109 50q-75 0 -115 -41.5z" />
    <glyph glyph-name="colon" unicode=":" horiz-adv-x="230" 
d="M125.5 32.5q5.5 -5.5 5.5 -14.5t-5.5 -14.5t-14.5 -5.5t-14.5 5.5t-5.5 14.5t5.5 14.5t14.5 5.5t14.5 -5.5zM125.5 309.5q5.5 -5.5 5.5 -14.5t-5.5 -14.5t-14.5 -5.5t-14.5 5.5t-5.5 14.5t5.5 14.5t14.5 5.5t14.5 -5.5z" />
    <glyph glyph-name="semicolon" unicode=";" horiz-adv-x="230" 
d="M145 -7q0 -20 -17 -44t-49 -49l-10 11l1 3q26 19 40 39.5t14 38.5q0 20 -30 34v4q5 7 13 11q38 -17 38 -48zM125.5 309.5q5.5 -5.5 5.5 -14.5t-5.5 -14.5t-14.5 -5.5t-14.5 5.5t-5.5 14.5t5.5 14.5t14.5 5.5t14.5 -5.5z" />
    <glyph glyph-name="less" unicode="&#x3c;" horiz-adv-x="480" 
d="M439 441l-3 -5l-370 -164v-4l374 -153l-6 -15l-4 -2l-390 160v22l3 4l389 171z" />
    <glyph glyph-name="equal" unicode="=" horiz-adv-x="480" 
d="M441 349l-2 -17h-397l-3 3l2 17h397zM441 205l-2 -17h-397l-3 3l2 17h397z" />
    <glyph glyph-name="greater" unicode="&#x3e;" horiz-adv-x="480" 
d="M437 284l3 -4v-22l-390 -160l-4 2l-6 15l374 153v4l-370 164l-3 5l7 14z" />
    <glyph glyph-name="question" unicode="?" horiz-adv-x="322" 
d="M254 605q58 -40 58 -105q0 -37 -20 -70t-57 -58l-96 -66l-1 -3l5 -108l-17 -1l-3 4l-6 110l5 9l101 69q33 21 51 50t18 62q0 59 -56 94.5t-159 41.5l-2 3l6 14l6 3q109 -9 167 -49zM149.5 32.5q5.5 -5.5 5.5 -14.5t-5.5 -14.5t-14.5 -5.5t-14.5 5.5t-5.5 14.5t5.5 14.5
t14.5 5.5t14.5 -5.5z" />
    <glyph glyph-name="at" unicode="@" horiz-adv-x="805" 
d="M611 553q73 -39 112.5 -108.5t39.5 -160.5q0 -132 -77 -205.5t-223 -82.5l36 276v-1h-5q-45 -85 -97 -156t-105 -119h-11q-27 20 -39.5 52t-12.5 89q0 85 26.5 156t78 115t122.5 49h4l65 -5l13 7l5 -3l-46 -350l-8 -90q124 12 189 80.5t65 187.5q0 86 -36.5 151t-105 101
t-160.5 36q-112 0 -197.5 -48t-132.5 -133.5t-47 -196.5t47.5 -192t135 -124t203.5 -43l1 -4l-13 -16q-117 2 -206 49t-138.5 131t-49.5 195q0 119 49.5 210.5t139.5 141.5t208 50q97 0 170 -39zM333 64q36 40 83 111t92 161l3 26l7 70l-60 5q-63 -1 -110.5 -42.5t-73 -109
t-25.5 -144.5q0 -41 7 -67t16.5 -38t16.5 -12q8 0 44 40z" />
    <glyph glyph-name="A" unicode="A" horiz-adv-x="554" 
d="M526 0h-23l-13 43l-63 170h-302l-68 -170l-14 -43h-24l254 637h20zM284 603h-4l-147 -370h287z" />
    <glyph glyph-name="B" unicode="B" horiz-adv-x="492" 
d="M408.5 284.5q38.5 -39.5 38.5 -108.5q0 -85 -59 -132t-169 -47q-58 0 -109 3v637l123 2q79 0 121.5 -38.5t42.5 -109.5q0 -60 -25 -99.5t-71 -57.5q69 -10 107.5 -49.5zM130 618v-275l130 -3q56 11 86 50t30 101q0 58 -37 92.5t-99 34.5h-110zM372 59q55 42 55 117
q0 64 -41 101t-117 43h-139v-300q39 -3 85 -3q102 0 157 42z" />
    <glyph glyph-name="C" unicode="C" horiz-adv-x="523" 
d="M406 625.5q46 -15.5 83 -43.5l-7 -17h-7q-34 27 -75.5 41.5t-86.5 14.5q-119 0 -182 -79t-63 -226q0 -145 60 -223t173 -78q48 0 95.5 17.5t87.5 49.5l7 -2l-2 -18q-42 -32 -91 -49.5t-96 -17.5q-123 0 -188.5 83.5t-65.5 238.5q0 156 68.5 240t196.5 84q47 0 93 -15.5z
" />
    <glyph glyph-name="D" unicode="D" horiz-adv-x="637" 
d="M517 563.5q72 -78.5 72 -224.5q0 -166 -74.5 -255t-213.5 -89q-34 0 -90 1.5t-101 3.5v637l201 5q134 0 206 -78.5zM499.5 99q69.5 84 69.5 240q0 137 -67 210t-191 73q-31 0 -84.5 -1.5t-96.5 -3.5v-597q42 -2 91.5 -3.5t79.5 -1.5q129 0 198.5 84z" />
    <glyph glyph-name="E" unicode="E" horiz-adv-x="454" 
d="M425 16l-4 -16h-311v637h308l3 -4l-4 -16h-287v-277h238l3 -4l-4 -16h-237v-300h292z" />
    <glyph glyph-name="F" unicode="F" horiz-adv-x="411" 
d="M130 330h227l3 -4l-4 -16h-226v-310h-20v637h297l3 -4l-4 -16h-276v-287z" />
    <glyph glyph-name="G" unicode="G" horiz-adv-x="603" 
d="M432.5 627q46.5 -14 90.5 -40l-6 -18h-7q-87 52 -167 52q-132 0 -203.5 -80t-71.5 -229q0 -143 62 -220t177 -77q47 0 86.5 6.5t102.5 23.5v201l20 2v-218q-66 -19 -109.5 -26.5t-98.5 -8.5q-125 0 -192.5 82.5t-67.5 235.5q0 158 76.5 243t218.5 85q43 0 89.5 -14z" />
    <glyph glyph-name="H" unicode="H" horiz-adv-x="670" 
d="M560 637v-637h-20v314h-410v-314h-20v637h20v-303h410v303h20z" />
    <glyph glyph-name="I" unicode="I" horiz-adv-x="240" 
d="M130 0h-20v637h20v-637z" />
    <glyph glyph-name="J" unicode="J" horiz-adv-x="268" 
d="M160 115q0 -70 -29.5 -118.5t-99.5 -94.5l-11 11v6q64 42 92 87t28 107v504h-128l-4 4l3 16h149v-522z" />
    <glyph glyph-name="K" unicode="K" horiz-adv-x="507" 
d="M130 0h-20v637h20v-637zM186 340q146 -176 312 -335v-4q-3 -3 -14 -8l-4 1q-183 178 -321 344v3l249 249l43 47h31z" />
    <glyph glyph-name="L" unicode="L" horiz-adv-x="398" 
d="M393 16l-4 -16h-280v637h20v-617h261z" />
    <glyph glyph-name="M" unicode="M" horiz-adv-x="781" 
d="M705 0h-21l-20 195l-44 394h-5l-214 -508h-25l-210 508h-5l-43 -394l-21 -195h-21l70 637h23l40 -99l177 -428h4l187 439l37 88h23z" />
    <glyph glyph-name="N" unicode="N" horiz-adv-x="670" 
d="M559 176l-1 -176h-19l-404 595h-4l-1 -396v-199h-20v190l1 447h19l404 -595h4l2 594l20 2z" />
    <glyph glyph-name="O" unicode="O" horiz-adv-x="627" 
d="M511.5 561q67.5 -81 67.5 -232q0 -161 -70 -247.5t-201 -86.5q-125 0 -192.5 83.5t-67.5 238.5q0 157 70 241t200 84q126 0 193.5 -81zM132.5 543q-64.5 -79 -64.5 -226q0 -145 62 -223.5t178 -78.5q121 0 186 81.5t65 232.5q0 141 -62.5 217t-178.5 76
q-121 0 -185.5 -79z" />
    <glyph glyph-name="P" unicode="P" horiz-adv-x="484" 
d="M385 592.5q47 -46.5 47 -132.5q0 -102 -55 -156.5t-158 -54.5h-89v-249h-20v637l141 2q87 0 134 -46.5zM369.5 326.5q42.5 50.5 42.5 133.5q0 74 -40 115t-114 44l-128 -1v-349h119q78 7 120.5 57.5z" />
    <glyph glyph-name="Q" unicode="Q" horiz-adv-x="628" 
d="M533.5 -109.5q94.5 -42.5 195.5 -54.5v-6l-8 -12h-5q-102 13 -200.5 59t-179.5 119q-9 -1 -28 -1q-125 0 -192.5 83.5t-67.5 238.5q0 157 70 241t200 84q126 0 193.5 -81t67.5 -232q0 -144 -56 -228.5t-161 -101.5q77 -66 171.5 -108.5zM130 93.5q62 -78.5 178 -78.5
q121 0 186 81.5t65 232.5q0 141 -62.5 217t-178.5 76q-121 0 -185.5 -79t-64.5 -226q0 -145 62 -223.5z" />
    <glyph glyph-name="R" unicode="R" horiz-adv-x="518" 
d="M466 5v-4q-5 -5 -12 -8l-6 2q-107 140 -184 268h-134v-263h-20v637l141 2q87 0 134 -45t47 -130q0 -74 -38 -124.5t-109 -72.5q78 -128 181 -262zM130 283h142q67 17 103.5 64t36.5 117q0 74 -40 114t-114 40h-128v-335z" />
    <glyph glyph-name="S" unicode="S" horiz-adv-x="445" 
d="M368 611l-4 -18l-7 -1q-28 14 -58 21t-55 7q-48 0 -84 -20.5t-55 -53t-19 -66.5q0 -35 19 -60.5t46.5 -42t76.5 -40.5q54 -27 85.5 -47t54 -51.5t22.5 -76.5q0 -44 -24 -82.5t-66.5 -61t-95.5 -22.5q-39 0 -80 12t-72 35l1 19l5 2q30 -24 69 -36t76 -12q49 0 87.5 21
t59 54.5t20.5 70.5q0 38 -20 65t-48.5 45t-78.5 42q-53 26 -83.5 45.5t-52 50t-21.5 73.5t23 79t64 57t93 21q60 0 122 -29z" />
    <glyph glyph-name="T" unicode="T" horiz-adv-x="475" 
d="M447 633l-4 -16h-195v-617h-20v617h-197l-3 4l4 16h412z" />
    <glyph glyph-name="U" unicode="U" horiz-adv-x="612" 
d="M526 229q3 -110 -55 -171.5t-165 -61.5t-163.5 60t-56.5 173v408h20v-408q-1 -103 51 -158t149 -55t148.5 55t51.5 158v408h20v-408z" />
    <glyph glyph-name="V" unicode="V" horiz-adv-x="538" 
d="M273 0h-20l-233 637h23l13 -43l206 -560h4l223 560l14 43h24z" />
    <glyph glyph-name="W" unicode="W" horiz-adv-x="884" 
d="M622 0h-20l-156 438h-4l-170 -438h-20l-229 637h23l13 -43l202 -560h4l169 437l-60 166h22l13 -43l202 -560h4l219 560l14 43h23z" />
    <glyph glyph-name="X" unicode="X" horiz-adv-x="570" 
d="M298 330l231 -330h-27l-24 38l-193 276l-193 -278l-22 -36h-27l229 330l-215 307h28l22 -35l178 -256l174 251l24 40h27z" />
    <glyph glyph-name="Y" unicode="Y" horiz-adv-x="495" 
d="M248 245v-245h-20v246l-202 391h26l11 -26l173 -334h5l188 334l11 26h26z" />
    <glyph glyph-name="Z" unicode="Z" horiz-adv-x="507" 
d="M460 620l-401 -600h331l68 1l4 -5l-3 -16h-391l-36 -1v18l401 600h-320l-58 -1l-4 5l3 17l65 -1h304l37 1v-18z" />
    <glyph glyph-name="bracketleft" unicode="[" horiz-adv-x="281" 
d="M267 642v-15l-130 -9v-723l130 -9v-15l-4 -4l-146 10v759l146 10z" />
    <glyph glyph-name="backslash" unicode="\" horiz-adv-x="291" 
d="M21 670l3 5h16l204 -781l-3 -4h-16z" />
    <glyph glyph-name="bracketright" unicode="]" horiz-adv-x="281" 
d="M14 -129v15l130 9v723l-130 9v15l4 4l146 -10v-759l-146 -10z" />
    <glyph glyph-name="asciicircum" unicode="^" horiz-adv-x="407" 
d="M382 121l-2 -4l-15 -5l-153 350h-4l-164 -346l-5 -3l-14 7l171 364l4 3h22z" />
    <glyph glyph-name="underscore" unicode="_" horiz-adv-x="455" 
d="M470 -89l-2 -17h-480l-3 3l2 17h480z" />
    <glyph glyph-name="grave" unicode="`" horiz-adv-x="390" 
d="M276 532l-11 -13l-5 -1q-75 66 -144 135l-1 5l10 10l5 1q77 -79 146 -137z" />
    <glyph glyph-name="a" unicode="a" horiz-adv-x="442" 
d="M302.5 427.5q30.5 -29.5 30.5 -83.5q0 -33 -5 -133l-5 -138q0 -29 8.5 -42.5t27.5 -13.5q10 0 21.5 4t20.5 11l6 -3l-4 -18q-20 -14 -45 -14q-28 0 -41 17.5t-14 58.5h-3q-30 -35 -64 -56t-67 -22q-54 0 -83.5 29.5t-29.5 82.5q0 36 21.5 61t60.5 34l172 40l3 98
q0 47 -25.5 72t-73.5 25q-30 0 -65.5 -17t-71.5 -48l-6 2l-5 15q37 33 75.5 50.5t73.5 17.5q57 0 87.5 -29.5zM143 182q-32 -8 -49.5 -27t-17.5 -48q0 -43 24.5 -67.5t67.5 -24.5q33 0 68.5 24t67.5 67l5 115z" />
    <glyph glyph-name="b" unicode="b" horiz-adv-x="503" 
d="M400.5 398.5q44.5 -57.5 44.5 -161.5q0 -116 -55.5 -179.5t-156.5 -63.5q-61 0 -110 13l-13 -7l-5 3v695l20 4v-317h3q29 34 68 52.5t80 18.5q80 0 124.5 -57.5zM375 72.5q50 58.5 50 164.5q0 95 -39 147t-110 52q-42 0 -81 -21.5t-70 -61.5v-325q64 -14 108 -14
q92 0 142 58.5z" />
    <glyph glyph-name="c" unicode="c" horiz-adv-x="386" 
d="M302 445.5q35 -11.5 60 -30.5l-7 -17h-6q-22 17 -53.5 28t-62.5 11q-71 0 -114 -58.5t-43 -156.5q0 -94 42.5 -150.5t114.5 -56.5q33 0 67 11.5t60 31.5l6 -2l-2 -18q-26 -19 -61 -31t-71 -12q-80 0 -128 62t-48 165q0 71 22 124t62 82t93 29q34 0 69 -11.5z" />
    <glyph glyph-name="d" unicode="d" horiz-adv-x="507" 
d="M396 75q0 -30 8 -44t27 -14q23 0 41 15l6 -3l-4 -18q-20 -14 -44 -14q-27 0 -40 17t-14 55h-3q-32 -37 -67 -55.5t-77 -18.5q-78 0 -125.5 59t-47.5 163q0 115 55.5 177.5t156.5 62.5q51 0 108 -17v258l20 4v-627zM126 379.5q-50 -57.5 -50 -162.5q0 -94 42.5 -148
t111.5 -54q84 0 146 86v317q-55 19 -108 19q-92 0 -142 -57.5z" />
    <glyph glyph-name="e" unicode="e" horiz-adv-x="446" 
d="M349.5 413.5q38.5 -43.5 38.5 -121.5q0 -20 -1 -30l-6 -7l-304 -4q-1 -10 -1 -30q0 -95 43.5 -150.5t118.5 -55.5q37 0 72 11.5t61 31.5l6 -2l-3 -20q-62 -41 -138 -41q-83 0 -131.5 61t-48.5 165q0 108 50.5 172t135.5 64q69 0 107.5 -43.5zM369 296q0 66 -34.5 103.5
t-93.5 37.5q-65 0 -108 -44.5t-54 -121.5l289 4z" />
    <glyph glyph-name="f" unicode="f" horiz-adv-x="276" 
d="M307 695l-2 -19l-3 -2q-29 10 -63 10q-49 0 -75.5 -32t-26.5 -92v-108h125l3 -4l-3 -16h-125v-432h-20v432h-67l-4 4l3 16h68v108q0 70 31.5 107t90.5 37q30 0 68 -9z" />
    <glyph glyph-name="g" unicode="g" horiz-adv-x="472" 
d="M346 416l-2 -3q39 -41 39 -109q0 -71 -42 -112.5t-115 -41.5q-42 0 -75 14q-31 -20 -43 -33t-12 -24q0 -23 30.5 -33.5t97.5 -21.5q60 -9 98.5 -18.5t65.5 -31t27 -57.5t-27.5 -67.5t-73.5 -50.5t-98 -19q-71 0 -113.5 32.5t-42.5 82.5q5 34 29 60.5t73 54.5v5
q-42 9 -64.5 25t-22.5 43q5 25 57 60v3q-29 20 -45 52.5t-16 74.5q0 73 42 114t116 41q55 0 94 -25q74 14 128 29l4 -3v-18q-47 -12 -109 -23zM327 205.5q37 35.5 37 98.5q0 62 -36 97t-99 35q-65 0 -102 -36t-37 -99q0 -61 36 -96t100 -35t101 35.5zM372.5 -9
q-22.5 17 -55 25t-86.5 16q-13 1 -34 5q-55 -28 -86 -57t-31 -62q0 -37 37 -63.5t99 -26.5q48 0 89 17t65.5 44t24.5 56t-22.5 46z" />
    <glyph glyph-name="h" unicode="h" horiz-adv-x="506" 
d="M382.5 421.5q34.5 -35.5 33.5 -100.5l-1 -127l-1 -194h-20l2 320q0 55 -29 86t-82 31q-39 0 -80.5 -25.5t-79.5 -70.5v-341h-20v698l20 4v-328h4q37 40 77.5 61.5t78.5 21.5q63 0 97.5 -35.5z" />
    <glyph glyph-name="i" unicode="i" horiz-adv-x="222" 
d="M101 449l20 4v-453h-20v449zM125.5 625.5q5.5 -5.5 5.5 -14.5t-5.5 -14.5t-14.5 -5.5t-14.5 5.5t-5.5 14.5t5.5 14.5t14.5 5.5t14.5 -5.5z" />
    <glyph glyph-name="j" unicode="j" horiz-adv-x="222" 
d="M128 451v-439q0 -78 -19.5 -120.5t-73.5 -83.5l-10 10v6q48 37 65.5 76.5t17.5 107.5v424h-84l-4 4l3 16h83l20 1zM117.5 625.5q5.5 -5.5 5.5 -14.5t-5.5 -14.5t-14.5 -5.5t-14.5 5.5t-5.5 14.5t5.5 14.5t14.5 5.5t14.5 -5.5z" />
    <glyph glyph-name="k" unicode="k" horiz-adv-x="418" 
d="M125 0h-20v698l20 4v-702zM181 241q110 -124 227 -236v-4q-2 -3 -15 -8l-4 1q-125 122 -234 244v5l177 175l29 34h31z" />
    <glyph glyph-name="l" unicode="l" horiz-adv-x="230" 
d="M125 0h-20v698l20 4v-702z" />
    <glyph glyph-name="m" unicode="m" horiz-adv-x="788" 
d="M664 421.5q34 -35.5 34 -100.5v-127l-2 -194h-20l2 320q0 55 -29 86t-81 31q-39 0 -80 -24t-79 -68q1 -8 1 -24v-127l-2 -194h-20l2 320q0 55 -29 86t-81 31q-39 0 -80.5 -25.5t-79.5 -70.5l1 -145l-1 -196h-20v449l20 4v-79h5q37 40 77.5 61.5t77.5 21.5q49 0 81 -22.5
t43 -64.5h5q37 41 79 64t80 23q62 0 96 -35.5z" />
    <glyph glyph-name="n" unicode="n" horiz-adv-x="501" 
d="M377 421.5q34 -35.5 34 -100.5v-321h-22l2 320q0 55 -29 86t-82 31q-39 0 -80.5 -25.5t-79.5 -70.5v-341h-20v449l20 4v-79h4q37 40 77.5 61.5t78.5 21.5q63 0 97 -35.5z" />
    <glyph glyph-name="o" unicode="o" horiz-adv-x="487" 
d="M380 396.5q49 -60.5 49 -166.5q0 -109 -50.5 -172t-139.5 -63q-85 0 -134 60.5t-49 166.5q0 109 50.5 172t139.5 63q85 0 134 -60.5zM121.5 380q-45.5 -57 -45.5 -158q0 -97 43.5 -152t119.5 -55q79 0 124.5 57t45.5 158q0 97 -43.5 152t-119.5 55q-79 0 -124.5 -57z" />
    <glyph glyph-name="p" unicode="p" horiz-adv-x="498" 
d="M395.5 399.5q44.5 -57.5 44.5 -161.5q0 -116 -55.5 -179.5t-156.5 -63.5q-64 0 -108 10v-190h-20v634l20 4v-67h3q29 34 68 52.5t80 18.5q80 0 124.5 -57.5zM370 73.5q50 58.5 50 164.5q0 95 -39 147t-110 52q-42 0 -81 -21.5t-70 -61.5v-328q61 -11 108 -11
q92 0 142 58.5z" />
    <glyph glyph-name="q" unicode="q" horiz-adv-x="496" 
d="M392 455l4 -3v-637h-20v254h-3q-32 -37 -67 -55.5t-77 -18.5q-79 0 -126 59t-47 165q0 113 55.5 175.5t152.5 62.5q41 0 112 -15zM126.5 379.5q-50.5 -57.5 -50.5 -161.5q0 -96 42 -149.5t112 -53.5q85 0 146 86v319q-63 17 -109 17q-90 0 -140.5 -57.5z" />
    <glyph glyph-name="r" unicode="r" horiz-adv-x="297" 
d="M287 450v-19l-5 -2q-15 3 -27 3q-35 0 -68 -32t-67 -99v-301h-20v449l20 4v-111h4q31 56 64 83t72 27q13 0 27 -2z" />
    <glyph glyph-name="s" unicode="s" horiz-adv-x="357" 
d="M287 435l-5 -19l-6 -1q-41 20 -84 20q-50 0 -81 -27t-31 -66q0 -37 26 -58t80 -46q38 -18 61 -32t39 -36t16 -53q0 -33 -18 -61t-50.5 -44.5t-73.5 -16.5q-31 0 -61.5 9.5t-53.5 25.5l3 17l5 3q47 -35 106 -35q56 0 89.5 30t33.5 71q0 36 -25.5 57t-78.5 46
q-39 18 -62.5 32.5t-39.5 37t-16 54.5q0 49 36.5 80.5t96.5 31.5q46 0 94 -20z" />
    <glyph glyph-name="t" unicode="t" horiz-adv-x="298" 
d="M278 42l4 -3l-2 -18q-44 -25 -80 -25q-45 0 -69.5 30t-24.5 86v320h-62l-4 4l3 16h63v108l16 6l4 -3v-111h155l3 -4l-3 -16h-155v-319q0 -47 19 -72t55 -25q38 0 78 26z" />
    <glyph glyph-name="u" unicode="u" horiz-adv-x="504" 
d="M475 29l-4 -18q-20 -14 -45 -14q-28 0 -41 20t-13 62h-4q-77 -83 -160 -83q-57 0 -87.5 35.5t-30.5 100.5v317l20 4v-320q0 -56 26 -86.5t75 -30.5q40 0 81 23.5t80 68.5v341l20 4v-374q0 -32 8.5 -47t27.5 -15q23 0 41 15z" />
    <glyph glyph-name="v" unicode="v" horiz-adv-x="384" 
d="M53 409l130 -378h4l151 378l15 43h24l-182 -452h-22l-154 450l21 4z" />
    <glyph glyph-name="w" unicode="w" horiz-adv-x="632" 
d="M52 409l112 -377h4l128 377l14 43h23l11 -43l111 -377h4l129 377l14 43h23l-158 -452h-22l-123 416h-4l-142 -416h-22l-135 450l21 4z" />
    <glyph glyph-name="x" unicode="x" horiz-adv-x="409" 
d="M82 423l122 -175l119 170l21 34h27l-155 -221l161 -228l-24 -5l-22 35l-128 183l-129 -185l-20 -31h-27l164 233l-152 216l24 5z" />
    <glyph glyph-name="y" unicode="y" horiz-adv-x="405" 
d="M54 409l140 -373h5l146 373l15 43h24l-177 -452q-26 -67 -53 -104t-63 -55.5t-95 -30.5h-5q-4 4 -8 12v6q60 12 95 29.5t59.5 50t47.5 92.5l-166 450l21 4z" />
    <glyph glyph-name="z" unicode="z" horiz-adv-x="399" 
d="M107 452h224l25 1l1 -17l-291 -416h237l53 1l3 -4l-4 -18l-57 1h-233l-27 -1v17l291 416h-228l-46 -1l-4 4l4 18z" />
    <glyph glyph-name="braceleft" unicode="{" horiz-adv-x="281" 
d="M260 648l3 -3l-4 -17q-27 5 -39 5q-36 0 -53.5 -21t-17.5 -66q0 -29 10 -101q9 -58 9 -88q0 -77 -66 -103v-2q66 -26 66 -103q0 -30 -9 -88q-10 -72 -10 -101q0 -45 17.5 -66t53.5 -21q12 0 39 5l4 -17l-3 -3q-18 -5 -37 -5q-94 0 -94 107q0 32 10 104q9 58 9 85
q0 43 -22.5 66t-71.5 29v18q49 6 71.5 29t22.5 66q0 27 -9 85q-10 72 -10 104q0 107 94 107q19 0 37 -5z" />
    <glyph glyph-name="bar" unicode="|" horiz-adv-x="320" 
d="M170 789v-1054h-17l-3 4v1050l18 2z" />
    <glyph glyph-name="braceright" unicode="}" horiz-adv-x="281" 
d="M21 -142l-3 3l4 17q27 -5 39 -5q36 0 53.5 21t17.5 66q0 29 -10 101q-9 58 -9 88q0 78 66 103v2q-66 26 -66 103q0 30 9 88q10 72 10 101q0 45 -17.5 66t-53.5 21q-12 0 -39 -5l-4 17l3 3q18 5 37 5q94 0 94 -107q0 -32 -10 -104q-9 -58 -9 -85q0 -43 22.5 -66t71.5 -29
v-18q-49 -6 -71.5 -29t-22.5 -66q0 -27 9 -85q10 -72 10 -104q0 -107 -94 -107q-19 0 -37 5z" />
    <glyph glyph-name="asciitilde" unicode="~" horiz-adv-x="480" 
d="M131 272.5q-9 -6.5 -28 -22.5l-19 -17h-6l-7 9v5l64 53l6 3q16 -2 48 -10.5t45 -11.5q79 -23 99 -23q8 0 18 7.5t24 20t21 18.5h6l7 -10v-4l-65 -54l-6 -2q-23 2 -101 24q-73 21 -90 21q-7 0 -16 -6.5z" />
    <glyph glyph-name="uni00A0" unicode="&#xa0;" horiz-adv-x="180" 
 />
    <glyph glyph-name="exclamdown" unicode="&#xa1;" horiz-adv-x="247" 
d="M103 -194l8 453h16l4 -5l-8 -448l-3 -3h-14zM115.5 424.5q-5.5 5.5 -5.5 14.5t5.5 14.5t14.5 5.5t14.5 -5.5t5.5 -14.5t-5.5 -14.5t-14.5 -5.5t-14.5 5.5z" />
    <glyph glyph-name="cent" unicode="&#xa2;" horiz-adv-x="384" 
d="M361 102l-2 -18q-26 -19 -61 -31t-71 -12h-13l-14 -155h-15l-4 4l13 154q-66 13 -104.5 73t-38.5 151q0 71 22 124t62 82t93 29h5l13 147h16l4 -5l-12 -144q28 -4 55.5 -14.5t47.5 -25.5l-7 -17h-6q-18 13 -42.5 23t-49.5 14l-36 -420h12q33 0 67 11.5t60 31.5z
M104.5 131.5q33.5 -54.5 91.5 -67.5l35 419h-3q-71 0 -114 -58.5t-43 -156.5q0 -82 33.5 -136.5z" />
    <glyph glyph-name="sterling" unicode="&#xa3;" horiz-adv-x="384" 
d="M346 16l-3 -16h-307l-4 4l3 14q34 4 52 33.5t18 78.5v178h-67l-4 4l3 16h68v119q0 70 31.5 107t92.5 37q45 0 99 -19l-2 -19l-3 -2q-41 20 -91 20q-107 0 -107 -124v-119h140l3 -4l-3 -16h-140v-178q0 -74 -40 -108v-2h188l69 1z" />
    <glyph glyph-name="currency" unicode="&#xa4;" horiz-adv-x="436" 
d="M370 520l-1 -5l-64 -64q32 -37 32 -84q0 -23 -8.5 -44.5t-23.5 -38.5l66 -66l-1 -5l-10 -10l-5 1l-65 65q-17 -15 -38.5 -23.5t-44.5 -8.5t-44.5 8.5t-38.5 23.5l-66 -66l-5 1l-10 10l1 5l65 65q-15 17 -23.5 38.5t-8.5 44.5q0 47 32 84l-66 66l1 5l9 9h5l66 -66
q17 15 38.5 23.5t44.5 8.5q45 0 83 -31l65 65l5 -1zM129.5 444.5q-32.5 -32.5 -32.5 -77.5t32.5 -77.5t77.5 -32.5t77.5 32.5t32.5 77.5t-32.5 77.5t-77.5 32.5t-77.5 -32.5z" />
    <glyph glyph-name="yen" unicode="&#xa5;" horiz-adv-x="434" 
d="M415 150l3 -3l-2 -17h-190v-130h-20v130h-187l-3 3l2 17h188v37l-40 73h-147l-3 3l2 17h137l-115 211h25l9 -21l140 -253h4l152 253l10 21h25l-124 -211h134l3 -3l-2 -17h-147l-43 -74v-36h189z" />
    <glyph glyph-name="brokenbar" unicode="&#xa6;" horiz-adv-x="320" 
d="M170 789v-421l-17 -2l-3 3v420l18 2zM170 155v-420h-17l-3 4v418l17 3z" />
    <glyph glyph-name="section" unicode="&#xa7;" horiz-adv-x="407" 
d="M328.5 162.5q-23.5 -31.5 -68.5 -55.5q42 -45 42 -91q0 -32 -18.5 -60t-51 -44.5t-73.5 -16.5q-30 0 -60.5 9.5t-53.5 25.5l3 17l5 3q47 -35 106 -35q56 0 89.5 30t33.5 70q0 36 -27 66.5t-79 71.5q-58 46 -87 79.5t-29 76.5q0 37 24.5 69.5t67.5 56.5q-42 44 -42 89
q0 31 17.5 58t48.5 42.5t70 15.5q44 0 92 -20l-5 -19l-6 -1q-41 20 -83 20q-35 0 -61 -14t-39.5 -36.5t-13.5 -46.5q0 -34 26 -62.5t77 -68.5q58 -45 88.5 -80.5t30.5 -80.5q0 -37 -23.5 -68.5zM310.5 171q21.5 28 21.5 59q0 39 -27.5 70.5t-81.5 73.5q-35 26 -57 47
q-41 -22 -63.5 -52t-22.5 -61q0 -36 26.5 -65.5t80.5 -71.5q47 -37 59 -49q43 21 64.5 49z" />
    <glyph glyph-name="dieresis" unicode="&#xa8;" horiz-adv-x="390" 
d="M138.5 609.5q5.5 -5.5 5.5 -14.5t-5.5 -14.5t-14.5 -5.5t-14.5 5.5t-5.5 14.5t5.5 14.5t14.5 5.5t14.5 -5.5zM278.5 609.5q5.5 -5.5 5.5 -14.5t-5.5 -14.5t-14.5 -5.5t-14.5 5.5t-5.5 14.5t5.5 14.5t14.5 5.5t14.5 -5.5z" />
    <glyph glyph-name="copyright" unicode="&#xa9;" horiz-adv-x="682" 
d="M493 560q66 -38 102.5 -107t36.5 -160t-36.5 -160t-102.5 -107t-153 -38t-153 38t-102 107t-36 160t36 160t102 107t153 38t153 -38zM197.5 542.5q-61.5 -35.5 -95 -100t-33.5 -149.5t33.5 -149.5t95 -100t142.5 -35.5t142.5 35.5t95.5 100t34 149.5t-34 149.5t-95.5 100
t-142.5 35.5t-142.5 -35.5zM447 436l-5 -18h-5q-36 27 -88 27q-63 0 -96.5 -38.5t-33.5 -111.5t32.5 -111.5t92.5 -38.5q25 0 51.5 8.5t47.5 23.5l4 -1l-2 -19q-52 -32 -102 -32q-70 0 -107 44t-37 126t38.5 126t111.5 44q53 0 98 -29z" />
    <glyph glyph-name="ordfeminine" unicode="&#xaa;" horiz-adv-x="296" 
d="M209 624.5q21 -19.5 21 -54.5q0 -27 -3 -84l-3 -85q0 -35 23 -35q14 0 26 9l4 -2l-3 -16q-13 -9 -32 -9t-28 11t-10 37h-2q-19 -22 -41.5 -35t-43.5 -14q-37 0 -57 19t-20 54q0 24 14.5 40.5t41.5 22.5l112 24l2 59q0 29 -16 44t-47 15q-42 0 -91 -40l-4 1l-4 15
q51 43 101 43q39 0 60 -19.5zM103 467q-42 -9 -42 -46q0 -26 15 -41t43 -15q20 0 43 14.5t42 39.5l3 72z" />
    <glyph glyph-name="guillemotleft" unicode="&#xab;" horiz-adv-x="360" 
d="M216 217v11l155 168l12 -9v-6l-145 -158l145 -158v-6l-12 -9zM70 217v11l155 168l12 -9v-6l-145 -158l145 -158v-6l-12 -9z" />
    <glyph glyph-name="logicalnot" unicode="&#xac;" horiz-adv-x="480" 
d="M416 274v-203l-17 -2l-3 3v188h-358l-3 3l2 17h373z" />
    <glyph glyph-name="uni00AD" unicode="&#xad;" horiz-adv-x="311" 
d="M280 277v-16l-245 -33l-4 4v16l245 33z" />
    <glyph glyph-name="registered" unicode="&#xae;" horiz-adv-x="432" 
d="M345 654q48 -48 48 -128t-48 -128.5t-128 -48.5t-128.5 48.5t-48.5 128.5t48.5 128t128.5 48t128 -48zM331 411.5q43 43.5 43 114.5t-43 114t-114 43t-114.5 -43t-43.5 -114t43.5 -114.5t114.5 -43.5t114 43.5zM267.5 538q-10.5 -16 -30.5 -24q26 -41 53 -73v-3
q-3 -1 -10.5 -2t-10.5 -2l-3 2q-23 30 -51 74h-35v-13l1 -60h-22v192h59q60 0 60 -55q0 -20 -10.5 -36zM180 530l40 -2q36 12 36 44q0 18 -11 28t-32 11l-32 -1z" />
    <glyph glyph-name="macron" unicode="&#xaf;" horiz-adv-x="390" 
d="M341 604l-2 -17h-287l-3 3l2 17h287z" />
    <glyph glyph-name="degree" unicode="&#xb0;" horiz-adv-x="294" 
d="M232.5 607q35.5 -35 35.5 -85t-35.5 -84.5t-85.5 -34.5q-51 0 -86.5 34.5t-35.5 84.5t35.5 85t86.5 35q50 0 85.5 -35zM75.5 592q-30.5 -30 -30.5 -70t30.5 -69.5t71.5 -29.5t71 29.5t30 69.5t-30 70t-71 30t-71.5 -30z" />
    <glyph glyph-name="plusminus" unicode="&#xb1;" horiz-adv-x="480" 
d="M250 468v-188h188l3 -3l-2 -17h-189v-189l-17 -2l-3 3v188h-188l-3 3l2 17h189v189l17 2zM441 -48l-2 -17h-397l-3 3l2 17h397z" />
    <glyph glyph-name="uni00B2" unicode="&#xb2;" horiz-adv-x="336" 
d="M233 681q25 -21 25 -54q0 -29 -21 -63.5t-71 -95.5l-94 -116l2 -2h175l61 1l2 -4l-3 -17l-65 1h-169l-29 -1l-2 2v15l107 131q47 58 66.5 89t19.5 57q0 25 -19 42t-52 17q-30 0 -57.5 -15t-49.5 -42h-3l-4 17q22 28 52 43.5t64 15.5q40 0 65 -21z" />
    <glyph glyph-name="uni00B3" unicode="&#xb3;" horiz-adv-x="293" 
d="M195 682q25 -21 25 -55q0 -28 -19 -54t-51 -40v-2q43 -9 66 -33t23 -60q0 -48 -39 -78.5t-101 -30.5q-31 0 -60 6l-2 16l2 2q32 -5 60 -5q54 0 87 24.5t33 65.5q0 37 -28 58.5t-81 23.5h-33l-2 2l1 15h29q20 0 42 11.5t37 31.5t15 44q0 27 -19.5 43.5t-51.5 16.5
q-42 0 -86 -39h-3l-4 17q45 41 95 41q40 0 65 -21z" />
    <glyph glyph-name="acute" unicode="&#xb4;" horiz-adv-x="390" 
d="M266 668l10 -10l-1 -5q-69 -69 -144 -135l-5 1l-11 13q69 58 146 137z" />
    <glyph glyph-name="uni00B5" unicode="&#xb5;" horiz-adv-x="527" 
d="M490 29l-4 -18q-20 -14 -45 -14q-28 0 -41 20t-13 62h-4q-77 -83 -160 -83q-70 0 -100 53l2 -234h-20v634l20 4v-320q0 -56 26 -86.5t75 -30.5q40 0 81 23.5t80 68.5v341l20 4v-374q0 -32 8.5 -47t27.5 -15q23 0 41 15z" />
    <glyph glyph-name="paragraph" unicode="&#xb6;" horiz-adv-x="447" 
d="M411 633l-3 -16h-81v-495q0 -56 -30 -102t-94 -88l-10 11v6q58 38 86 79.5t28 89.5v499h-71q-79 -4 -121.5 -46t-42.5 -116q0 -76 45.5 -123.5t131.5 -62.5l-4 -20q-93 15 -143 67t-50 139t49.5 134.5t141.5 47.5h164z" />
    <glyph glyph-name="periodcentered" unicode="&#xb7;" horiz-adv-x="230" 
d="M129.5 252.5q5.5 -5.5 5.5 -14.5t-5.5 -14.5t-14.5 -5.5t-14.5 5.5t-5.5 14.5t5.5 14.5t14.5 5.5t14.5 -5.5z" />
    <glyph glyph-name="cedilla" unicode="&#xb8;" horiz-adv-x="390" 
d="M189 -55l31 -20q17 -11 25 -22.5t8 -27.5q0 -24 -17.5 -38.5t-42.5 -14.5q-37 0 -59 33l6 18h4q10 -16 21 -23.5t28 -7.5q18 0 29 8.5t11 24.5q0 11 -5.5 17.5t-18.5 15.5l-44 28l25 75h20z" />
    <glyph glyph-name="uni00B9" unicode="&#xb9;" horiz-adv-x="240" 
d="M138 701v-370h-20v348l-98 -27l-4 2v16l119 35z" />
    <glyph glyph-name="ordmasculine" unicode="&#xba;" horiz-adv-x="329" 
d="M257.5 605q32.5 -39 32.5 -107q0 -71 -34 -111.5t-94 -40.5q-58 0 -90.5 39t-32.5 107q0 71 34 111.5t94 40.5q58 0 90.5 -39zM88 590.5q-28 -34.5 -28 -97.5q0 -61 27 -94.5t75 -33.5q50 0 78.5 34.5t28.5 97.5q0 60 -27.5 94t-75.5 34q-50 0 -78 -34.5z" />
    <glyph glyph-name="guillemotright" unicode="&#xbb;" horiz-adv-x="360" 
d="M290 229v-11l-155 -168l-12 9v6l145 158l-145 158v6l12 9zM144 229v-11l-155 -168l-12 9v6l145 158l-145 158v6l12 9z" />
    <glyph glyph-name="onequarter" unicode="&#xbc;" horiz-adv-x="621" 
d="M138 638v-370h-20v348l-98 -27l-4 2v16l119 35zM490 664l3 -8l-485 -746l-9 4l-4 9l485 746zM581 134l-3 -16l-50 1h-19l1 -117l-2 -2l-16 -2l-2 2v119h-140l-31 -1l-3 3v15l174 233h19v-232h69zM490 137v200h-3l-149 -200h152z" />
    <glyph glyph-name="onehalf" unicode="&#xbd;" horiz-adv-x="622" 
d="M138 638v-370h-20v348l-98 -27l-4 2v16l119 35zM490 664l3 -8l-485 -746l-9 4l-4 9l485 746zM519 350q25 -21 25 -54q0 -29 -21 -63.5t-71 -95.5l-94 -116l2 -2h175l61 1l2 -4l-3 -17l-65 1h-169l-29 -1l-2 2v15l107 131q47 58 66.5 89t19.5 57q0 25 -19 42t-52 17
q-30 0 -57.5 -15t-49.5 -42h-3l-4 17q22 28 52 43.5t64 15.5q40 0 65 -21z" />
    <glyph glyph-name="threequarters" unicode="&#xbe;" horiz-adv-x="674" 
d="M195 619q25 -21 25 -55q0 -28 -19 -54t-51 -40v-2q43 -9 66 -33t23 -60q0 -48 -39 -78.5t-101 -30.5q-31 0 -60 6l-2 16l2 2q32 -5 60 -5q54 0 87 24.5t33 65.5q0 37 -28 58.5t-81 23.5h-33l-2 2l1 15h29q20 0 42 11.5t37 31.5t15 44q0 27 -19.5 43.5t-51.5 16.5
q-42 0 -86 -39h-3l-4 17q45 41 95 41q40 0 65 -21zM543 664l3 -8l-485 -746l-9 4l-4 9l485 746zM634 134l-3 -16l-50 1h-19l1 -117l-2 -2l-16 -2l-2 2v119h-140l-31 -1l-3 3v15l174 233h19v-232h69zM543 137v200h-3l-149 -200h152z" />
    <glyph glyph-name="questiondown" unicode="&#xbf;" horiz-adv-x="322" 
d="M71 -148q-58 40 -58 105q0 37 20 70t57 58l96 66l1 3l-5 108l17 1l3 -4l6 -110l-5 -9l-101 -69q-33 -21 -51 -50t-18 -62q0 -59 56 -94.5t159 -41.5l2 -3l-6 -14l-6 -3q-109 9 -167 49zM175.5 424.5q-5.5 5.5 -5.5 14.5t5.5 14.5t14.5 5.5t14.5 -5.5t5.5 -14.5
t-5.5 -14.5t-14.5 -5.5t-14.5 5.5z" />
    <glyph glyph-name="Agrave" unicode="&#xc0;" horiz-adv-x="554" 
d="M526 0h-23l-13 43l-63 170h-302l-68 -170l-14 -43h-24l254 637h20zM284 603h-4l-147 -370h287zM369 742l-7 -15l-5 -3q-107 55 -174 93l-2 5l7 12l5 2q85 -50 176 -94z" />
    <glyph glyph-name="Aacute" unicode="&#xc1;" horiz-adv-x="554" 
d="M526 0h-23l-13 43l-63 170h-302l-68 -170l-14 -43h-24l254 637h20zM284 603h-4l-147 -370h287zM386 834l7 -12l-2 -5q-67 -38 -174 -93l-5 3l-7 15q91 44 176 94z" />
    <glyph glyph-name="Acircumflex" unicode="&#xc2;" horiz-adv-x="554" 
d="M526 0h-23l-13 43l-63 170h-302l-68 -170l-14 -43h-24l254 637h20zM284 603h-4l-147 -370h287zM170 752q47 33 98 76h16q66 -52 100 -76l-7 -14h-5q-46 32 -95 70q-49 -38 -95 -70h-5z" />
    <glyph glyph-name="Atilde" unicode="&#xc3;" horiz-adv-x="554" 
d="M526 0h-23l-13 43l-63 170h-302l-68 -170l-14 -43h-24l254 637h20zM284 603h-4l-147 -370h287zM416 805v-4l-52 -47l-6 -2q-20 2 -81 20q-6 2 -35 10t-40 8q-5 0 -13 -6t-17 -16l-21 -19h-4l-9 11v4l52 47l6 2q20 -2 81 -20q6 -2 35 -10t40 -8q5 0 13 6t17 16l21 19h4z
" />
    <glyph glyph-name="Adieresis" unicode="&#xc4;" horiz-adv-x="554" 
d="M526 0h-23l-13 43l-63 170h-302l-68 -170l-14 -43h-24l254 637h20zM284 603h-4l-147 -370h287zM221.5 794.5q5.5 -5.5 5.5 -14.5t-5.5 -14.5t-14.5 -5.5t-14.5 5.5t-5.5 14.5t5.5 14.5t14.5 5.5t14.5 -5.5zM361.5 794.5q5.5 -5.5 5.5 -14.5t-5.5 -14.5t-14.5 -5.5
t-14.5 5.5t-5.5 14.5t5.5 14.5t14.5 5.5t14.5 -5.5z" />
    <glyph glyph-name="Aring" unicode="&#xc5;" horiz-adv-x="554" 
d="M526 0h-23l-13 43l-63 170h-302l-68 -170l-14 -43h-24l254 637h20zM284 603h-4l-147 -370h287zM327 832q19 -21 19 -49q0 -31 -21.5 -50t-49.5 -19t-49 19.5t-21 50.5q0 30 19.5 49.5t50.5 19.5q33 0 52 -21zM238.5 819.5q-13.5 -13.5 -13.5 -35.5q0 -23 14.5 -36.5
t35.5 -13.5t36 13t15 36q0 21 -13.5 35.5t-37.5 14.5q-23 0 -36.5 -13.5z" />
    <glyph glyph-name="AE" unicode="&#xc6;" horiz-adv-x="791" 
d="M766 16l-4 -16h-304l-5 43l-42 247l-261 -43l-117 -204l-21 -43h-27l368 637h301l3 -4l-5 -16h-275l51 -304l236 39l3 -3l-3 -17l-233 -38l46 -274h287zM408 310l-50 292h-3l-191 -332z" />
    <glyph glyph-name="Ccedilla" unicode="&#xc7;" horiz-adv-x="523" 
d="M406 625.5q46 -15.5 83 -43.5l-7 -17h-7q-34 27 -75.5 41.5t-86.5 14.5q-119 0 -182 -79t-63 -226q0 -145 60 -223t173 -78q48 0 95.5 17.5t87.5 49.5l7 -2l-2 -18q-42 -32 -91 -49.5t-96 -17.5q-123 0 -188.5 83.5t-65.5 238.5q0 156 68.5 240t196.5 84q47 0 93 -15.5z
M301 -55l31 -20q17 -11 25 -22.5t8 -27.5q0 -24 -17.5 -38.5t-42.5 -14.5q-37 0 -59 33l6 18h4q10 -16 21 -23.5t28 -7.5q18 0 29 8.5t11 24.5q0 11 -5.5 17.5t-18.5 15.5l-44 28l25 75h20z" />
    <glyph glyph-name="Egrave" unicode="&#xc8;" horiz-adv-x="454" 
d="M425 16l-4 -16h-311v637h308l3 -4l-4 -16h-287v-277h238l3 -4l-4 -16h-237v-300h292zM358 742l-7 -15l-5 -3q-107 55 -174 93l-2 5l7 12l5 2q85 -50 176 -94z" />
    <glyph glyph-name="Eacute" unicode="&#xc9;" horiz-adv-x="454" 
d="M425 16l-4 -16h-311v637h308l3 -4l-4 -16h-287v-277h238l3 -4l-4 -16h-237v-300h292zM375 834l7 -12l-2 -5q-67 -38 -174 -93l-5 3l-7 15q91 44 176 94z" />
    <glyph glyph-name="Ecircumflex" unicode="&#xca;" horiz-adv-x="454" 
d="M425 16l-4 -16h-311v637h308l3 -4l-4 -16h-287v-277h238l3 -4l-4 -16h-237v-300h292zM159 752q47 33 98 76h16q66 -52 100 -76l-7 -14h-5q-46 32 -95 70q-49 -38 -95 -70h-5z" />
    <glyph glyph-name="Edieresis" unicode="&#xcb;" horiz-adv-x="454" 
d="M425 16l-4 -16h-311v637h308l3 -4l-4 -16h-287v-277h238l3 -4l-4 -16h-237v-300h292zM210.5 794.5q5.5 -5.5 5.5 -14.5t-5.5 -14.5t-14.5 -5.5t-14.5 5.5t-5.5 14.5t5.5 14.5t14.5 5.5t14.5 -5.5zM350.5 794.5q5.5 -5.5 5.5 -14.5t-5.5 -14.5t-14.5 -5.5t-14.5 5.5
t-5.5 14.5t5.5 14.5t14.5 5.5t14.5 -5.5z" />
    <glyph glyph-name="Igrave" unicode="&#xcc;" horiz-adv-x="240" 
d="M130 0h-20v637h20v-637zM212 742l-7 -15l-5 -3q-107 55 -174 93l-2 5l7 12l5 2q85 -50 176 -94z" />
    <glyph glyph-name="Iacute" unicode="&#xcd;" horiz-adv-x="240" 
d="M130 0h-20v637h20v-637zM229 834l7 -12l-2 -5q-67 -38 -174 -93l-5 3l-7 15q91 44 176 94z" />
    <glyph glyph-name="Icircumflex" unicode="&#xce;" horiz-adv-x="240" 
d="M130 0h-20v637h20v-637zM13 752q47 33 98 76h16q66 -52 100 -76l-7 -14h-5q-46 32 -95 70q-49 -38 -95 -70h-5z" />
    <glyph glyph-name="Eth" unicode="&#xd0;" horiz-adv-x="654" 
d="M534 563.5q72 -78.5 72 -224.5q0 -166 -74.5 -255t-213.5 -89q-34 0 -90 1.5t-101 3.5v637l201 5q134 0 206 -78.5zM516.5 99q69.5 84 69.5 240q0 137 -67 210t-191 73q-31 0 -84.5 -1.5t-96.5 -3.5v-597q42 -2 91.5 -3.5t79.5 -1.5q129 0 198.5 84zM321.188 336
l-1.2002 -17h-310.187l-1.80078 3l1.2002 17h310.188z" />
    <glyph glyph-name="Ntilde" unicode="&#xd1;" horiz-adv-x="670" 
d="M559 176l-1 -176h-19l-404 595h-4l-1 -396v-199h-20v190l1 447h19l404 -595h4l2 594l20 2zM470 805v-4l-52 -47l-6 -2q-20 2 -81 20q-6 2 -35 10t-40 8q-5 0 -13 -6t-17 -16l-21 -19h-4l-9 11v4l52 47l6 2q20 -2 81 -20q6 -2 35 -10t40 -8q5 0 13 6t17 16l21 19h4z" />
    <glyph glyph-name="Ograve" unicode="&#xd2;" horiz-adv-x="627" 
d="M511.5 561q67.5 -81 67.5 -232q0 -161 -70 -247.5t-201 -86.5q-125 0 -192.5 83.5t-67.5 238.5q0 157 70 241t200 84q126 0 193.5 -81zM132.5 543q-64.5 -79 -64.5 -226q0 -145 62 -223.5t178 -78.5q121 0 186 81.5t65 232.5q0 141 -62.5 217t-178.5 76
q-121 0 -185.5 -79zM406 742l-7 -15l-5 -3q-107 55 -174 93l-2 5l7 12l5 2q85 -50 176 -94z" />
    <glyph glyph-name="Oacute" unicode="&#xd3;" horiz-adv-x="627" 
d="M511.5 561q67.5 -81 67.5 -232q0 -161 -70 -247.5t-201 -86.5q-125 0 -192.5 83.5t-67.5 238.5q0 157 70 241t200 84q126 0 193.5 -81zM132.5 543q-64.5 -79 -64.5 -226q0 -145 62 -223.5t178 -78.5q121 0 186 81.5t65 232.5q0 141 -62.5 217t-178.5 76
q-121 0 -185.5 -79zM423 834l7 -12l-2 -5q-67 -38 -174 -93l-5 3l-7 15q91 44 176 94z" />
    <glyph glyph-name="Ocircumflex" unicode="&#xd4;" horiz-adv-x="627" 
d="M511.5 561q67.5 -81 67.5 -232q0 -161 -70 -247.5t-201 -86.5q-125 0 -192.5 83.5t-67.5 238.5q0 157 70 241t200 84q126 0 193.5 -81zM132.5 543q-64.5 -79 -64.5 -226q0 -145 62 -223.5t178 -78.5q121 0 186 81.5t65 232.5q0 141 -62.5 217t-178.5 76
q-121 0 -185.5 -79zM207 752q47 33 98 76h16q66 -52 100 -76l-7 -14h-5q-46 32 -95 70q-49 -38 -95 -70h-5z" />
    <glyph glyph-name="Otilde" unicode="&#xd5;" horiz-adv-x="627" 
d="M511.5 561q67.5 -81 67.5 -232q0 -161 -70 -247.5t-201 -86.5q-125 0 -192.5 83.5t-67.5 238.5q0 157 70 241t200 84q126 0 193.5 -81zM132.5 543q-64.5 -79 -64.5 -226q0 -145 62 -223.5t178 -78.5q121 0 186 81.5t65 232.5q0 141 -62.5 217t-178.5 76
q-121 0 -185.5 -79zM453 805v-4l-52 -47l-6 -2q-20 2 -81 20q-6 2 -35 10t-40 8q-5 0 -13 -6t-17 -16l-21 -19h-4l-9 11v4l52 47l6 2q20 -2 81 -20q6 -2 35 -10t40 -8q5 0 13 6t17 16l21 19h4z" />
    <glyph glyph-name="multiply" unicode="&#xd7;" horiz-adv-x="480" 
d="M387 407v-4l-133 -133l133 -133v-4l-13 -11l-134 134l-134 -134l-13 11v4l133 133l-133 133v4l13 11l134 -134l134 134z" />
    <glyph glyph-name="Oslash" unicode="&#xd8;" horiz-adv-x="627" 
d="M547 503.5q32 -71.5 32 -174.5q0 -161 -70 -247.5t-201 -86.5q-72 0 -126 28l-51 -110l-16 3l-2 4l52 113q-57 38 -87 110t-30 174q0 157 70 241t200 84q66 0 117 -23l42 90l16 -3l2 -5l-42 -91q62 -35 94 -106.5zM95 154.5q27 -67.5 79 -102.5l253 548q-45 22 -109 22
q-121 0 -185.5 -79t-64.5 -226q0 -95 27 -162.5zM494 96.5q65 81.5 65 232.5q0 96 -29.5 162.5t-85.5 99.5l-253 -549q50 -27 117 -27q121 0 186 81.5z" />
    <glyph glyph-name="Ugrave" unicode="&#xd9;" horiz-adv-x="612" 
d="M526 229q3 -110 -55 -171.5t-165 -61.5t-163.5 60t-56.5 173v408h20v-408q-1 -103 51 -158t149 -55t148.5 55t51.5 158v408h20v-408zM402 742l-7 -15l-5 -3q-107 55 -174 93l-2 5l7 12l5 2q85 -50 176 -94z" />
    <glyph glyph-name="Uacute" unicode="&#xda;" horiz-adv-x="612" 
d="M526 229q3 -110 -55 -171.5t-165 -61.5t-163.5 60t-56.5 173v408h20v-408q-1 -103 51 -158t149 -55t148.5 55t51.5 158v408h20v-408zM419 834l7 -12l-2 -5q-67 -38 -174 -93l-5 3l-7 15q91 44 176 94z" />
    <glyph glyph-name="Ucircumflex" unicode="&#xdb;" horiz-adv-x="612" 
d="M526 229q3 -110 -55 -171.5t-165 -61.5t-163.5 60t-56.5 173v408h20v-408q-1 -103 51 -158t149 -55t148.5 55t51.5 158v408h20v-408zM203 752q47 33 98 76h16q66 -52 100 -76l-7 -14h-5q-46 32 -95 70q-49 -38 -95 -70h-5z" />
    <glyph glyph-name="Udieresis" unicode="&#xdc;" horiz-adv-x="612" 
d="M526 229q3 -110 -55 -171.5t-165 -61.5t-163.5 60t-56.5 173v408h20v-408q-1 -103 51 -158t149 -55t148.5 55t51.5 158v408h20v-408zM254.5 794.5q5.5 -5.5 5.5 -14.5t-5.5 -14.5t-14.5 -5.5t-14.5 5.5t-5.5 14.5t5.5 14.5t14.5 5.5t14.5 -5.5zM394.5 794.5
q5.5 -5.5 5.5 -14.5t-5.5 -14.5t-14.5 -5.5t-14.5 5.5t-5.5 14.5t5.5 14.5t14.5 5.5t14.5 -5.5z" />
    <glyph glyph-name="Thorn" unicode="&#xde;" horiz-adv-x="487" 
d="M385 469.5q47 -46.5 47 -132.5q0 -102 -55 -156.5t-158 -54.5h-89v-126h-20v637h20v-123l121 2q87 0 134 -46.5zM370 205q42 49 42 132q0 74 -40 115t-114 44l-128 -1v-349h119q79 10 121 59z" />
    <glyph glyph-name="germandbls" unicode="&#xdf;" horiz-adv-x="517" 
d="M299 316q14 -21 34 -35t56 -36q36 -21 57 -36.5t36 -38t15 -52.5q0 -33 -18 -61.5t-50.5 -45t-73.5 -16.5q-31 0 -61.5 9.5t-53.5 25.5l3 17l5 3q47 -35 106 -35q56 0 89.5 30t33.5 71q0 36 -24.5 59t-74.5 53q-37 21 -59.5 38t-38 41t-15.5 57q0 36 16.5 59.5t49.5 53.5
t49 53t16 58q0 46 -30.5 71t-83.5 25q-69 0 -107 -42.5t-38 -121.5v-520h-20v432h-67l-4 4l3 16h68v68q0 88 42.5 136t120.5 48q63 0 99.5 -30t36.5 -84q0 -42 -18 -68.5t-53 -57.5q-31 -28 -45.5 -48.5t-14.5 -50.5q0 -28 14 -49z" />
    <glyph glyph-name="agrave" unicode="&#xe0;" horiz-adv-x="442" 
d="M302.5 427.5q30.5 -29.5 30.5 -83.5q0 -33 -5 -133l-5 -138q0 -29 8.5 -42.5t27.5 -13.5q10 0 21.5 4t20.5 11l6 -3l-4 -18q-20 -14 -45 -14q-28 0 -41 17.5t-14 58.5h-3q-30 -35 -64 -56t-67 -22q-54 0 -83.5 29.5t-29.5 82.5q0 36 21.5 61t60.5 34l172 40l3 98
q0 47 -25.5 72t-73.5 25q-30 0 -65.5 -17t-71.5 -48l-6 2l-5 15q37 33 75.5 50.5t73.5 17.5q57 0 87.5 -29.5zM143 182q-32 -8 -49.5 -27t-17.5 -48q0 -43 24.5 -67.5t67.5 -24.5q33 0 68.5 24t67.5 67l5 115zM292 532l-11 -13l-5 -1q-75 66 -144 135l-1 5l10 10l5 1
q77 -79 146 -137z" />
    <glyph glyph-name="aacute" unicode="&#xe1;" horiz-adv-x="442" 
d="M302.5 427.5q30.5 -29.5 30.5 -83.5q0 -33 -5 -133l-5 -138q0 -29 8.5 -42.5t27.5 -13.5q10 0 21.5 4t20.5 11l6 -3l-4 -18q-20 -14 -45 -14q-28 0 -41 17.5t-14 58.5h-3q-30 -35 -64 -56t-67 -22q-54 0 -83.5 29.5t-29.5 82.5q0 36 21.5 61t60.5 34l172 40l3 98
q0 47 -25.5 72t-73.5 25q-30 0 -65.5 -17t-71.5 -48l-6 2l-5 15q37 33 75.5 50.5t73.5 17.5q57 0 87.5 -29.5zM143 182q-32 -8 -49.5 -27t-17.5 -48q0 -43 24.5 -67.5t67.5 -24.5q33 0 68.5 24t67.5 67l5 115zM313 668l10 -10l-1 -5q-69 -69 -144 -135l-5 1l-11 13
q69 58 146 137z" />
    <glyph glyph-name="acircumflex" unicode="&#xe2;" horiz-adv-x="442" 
d="M302.5 427.5q30.5 -29.5 30.5 -83.5q0 -33 -5 -133l-5 -138q0 -29 8.5 -42.5t27.5 -13.5q10 0 21.5 4t20.5 11l6 -3l-4 -18q-20 -14 -45 -14q-28 0 -41 17.5t-14 58.5h-3q-30 -35 -64 -56t-67 -22q-54 0 -83.5 29.5t-29.5 82.5q0 36 21.5 61t60.5 34l172 40l3 98
q0 47 -25.5 72t-73.5 25q-30 0 -65.5 -17t-71.5 -48l-6 2l-5 15q37 33 75.5 50.5t73.5 17.5q57 0 87.5 -29.5zM143 182q-32 -8 -49.5 -27t-17.5 -48q0 -43 24.5 -67.5t67.5 -24.5q33 0 68.5 24t67.5 67l5 115zM101 532q38 43 101 126h18q63 -83 101 -126l-9 -12h-5
q-48 53 -96 117q-48 -64 -96 -117h-5z" />
    <glyph glyph-name="atilde" unicode="&#xe3;" horiz-adv-x="442" 
d="M302.5 427.5q30.5 -29.5 30.5 -83.5q0 -33 -5 -133l-5 -138q0 -29 8.5 -42.5t27.5 -13.5q10 0 21.5 4t20.5 11l6 -3l-4 -18q-20 -14 -45 -14q-28 0 -41 17.5t-14 58.5h-3q-30 -35 -64 -56t-67 -22q-54 0 -83.5 29.5t-29.5 82.5q0 36 21.5 61t60.5 34l172 40l3 98
q0 47 -25.5 72t-73.5 25q-30 0 -65.5 -17t-71.5 -48l-6 2l-5 15q37 33 75.5 50.5t73.5 17.5q57 0 87.5 -29.5zM143 182q-32 -8 -49.5 -27t-17.5 -48q0 -43 24.5 -67.5t67.5 -24.5q33 0 68.5 24t67.5 67l5 115zM350 620v-4l-52 -47l-6 -2q-20 2 -81 20q-6 2 -35 10t-40 8
q-5 0 -13 -6t-17 -16l-21 -19h-4l-9 11v4l52 47l6 2q20 -2 81 -20q6 -2 35 -10t40 -8q5 0 13 6t17 16l21 19h4z" />
    <glyph glyph-name="adieresis" unicode="&#xe4;" horiz-adv-x="442" 
d="M302.5 427.5q30.5 -29.5 30.5 -83.5q0 -33 -5 -133l-5 -138q0 -29 8.5 -42.5t27.5 -13.5q10 0 21.5 4t20.5 11l6 -3l-4 -18q-20 -14 -45 -14q-28 0 -41 17.5t-14 58.5h-3q-30 -35 -64 -56t-67 -22q-54 0 -83.5 29.5t-29.5 82.5q0 36 21.5 61t60.5 34l172 40l3 98
q0 47 -25.5 72t-73.5 25q-30 0 -65.5 -17t-71.5 -48l-6 2l-5 15q37 33 75.5 50.5t73.5 17.5q57 0 87.5 -29.5zM143 182q-32 -8 -49.5 -27t-17.5 -48q0 -43 24.5 -67.5t67.5 -24.5q33 0 68.5 24t67.5 67l5 115zM155.5 609.5q5.5 -5.5 5.5 -14.5t-5.5 -14.5t-14.5 -5.5
t-14.5 5.5t-5.5 14.5t5.5 14.5t14.5 5.5t14.5 -5.5zM295.5 609.5q5.5 -5.5 5.5 -14.5t-5.5 -14.5t-14.5 -5.5t-14.5 5.5t-5.5 14.5t5.5 14.5t14.5 5.5t14.5 -5.5z" />
    <glyph glyph-name="aring" unicode="&#xe5;" horiz-adv-x="442" 
d="M302.5 427.5q30.5 -29.5 30.5 -83.5q0 -33 -5 -133l-5 -138q0 -29 8.5 -42.5t27.5 -13.5q10 0 21.5 4t20.5 11l6 -3l-4 -18q-20 -14 -45 -14q-28 0 -41 17.5t-14 58.5h-3q-30 -35 -64 -56t-67 -22q-54 0 -83.5 29.5t-29.5 82.5q0 36 21.5 61t60.5 34l172 40l3 98
q0 47 -25.5 72t-73.5 25q-30 0 -65.5 -17t-71.5 -48l-6 2l-5 15q37 33 75.5 50.5t73.5 17.5q57 0 87.5 -29.5zM143 182q-32 -8 -49.5 -27t-17.5 -48q0 -43 24.5 -67.5t67.5 -24.5q33 0 68.5 24t67.5 67l5 115zM261 647q19 -21 19 -49q0 -31 -21.5 -50t-49.5 -19t-49 19.5
t-21 50.5q0 30 19.5 49.5t50.5 19.5q33 0 52 -21zM172.5 634.5q-13.5 -13.5 -13.5 -35.5q0 -23 14.5 -36.5t35.5 -13.5t36 13t15 36q0 21 -13.5 35.5t-37.5 14.5q-23 0 -36.5 -13.5z" />
    <glyph glyph-name="ae" unicode="&#xe6;" horiz-adv-x="662" 
d="M619 294l-296 -69q2 -100 41.5 -155t112.5 -55q35 0 69 12.5t58 33.5l6 -2l-3 -20q-29 -21 -63.5 -32.5t-68.5 -11.5q-55 0 -94 28.5t-59 82.5q-47 -59 -82.5 -84.5t-75.5 -26.5q-53 0 -83 31t-30 82q0 40 20.5 62.5t61.5 31.5l171 39v99q0 46 -24.5 71.5t-67.5 25.5
q-65 0 -140 -65l-6 2l-5 15q78 68 153 68q52 0 80 -28t29 -81q55 109 155 109q65 0 103 -41t43 -115zM401 413.5q-36 -23.5 -57 -63t-21 -84.5v-20l279 65q-5 58 -38 92t-84 34q-43 0 -79 -23.5zM235 41q35 26 80 85q-11 53 -11 94l-166 -38q-36 -9 -51.5 -26.5t-15.5 -47.5
q0 -41 24.5 -67t67.5 -26q37 0 72 26z" />
    <glyph glyph-name="ccedilla" unicode="&#xe7;" horiz-adv-x="386" 
d="M302 445.5q35 -11.5 60 -30.5l-7 -17h-6q-22 17 -53.5 28t-62.5 11q-71 0 -114 -58.5t-43 -156.5q0 -94 42.5 -150.5t114.5 -56.5q33 0 67 11.5t60 31.5l6 -2l-2 -18q-26 -19 -61 -31t-71 -12q-80 0 -128 62t-48 165q0 71 22 124t62 82t93 29q34 0 69 -11.5zM231 -55
l31 -20q17 -11 25 -22.5t8 -27.5q0 -24 -17.5 -38.5t-42.5 -14.5q-37 0 -59 33l6 18h4q10 -16 21 -23.5t28 -7.5q18 0 29 8.5t11 24.5q0 11 -5.5 17.5t-18.5 15.5l-44 28l25 75h20z" />
    <glyph glyph-name="egrave" unicode="&#xe8;" horiz-adv-x="446" 
d="M349.5 413.5q38.5 -43.5 38.5 -121.5q0 -20 -1 -30l-6 -7l-304 -4q-1 -10 -1 -30q0 -95 43.5 -150.5t118.5 -55.5q37 0 72 11.5t61 31.5l6 -2l-3 -20q-62 -41 -138 -41q-83 0 -131.5 61t-48.5 165q0 108 50.5 172t135.5 64q69 0 107.5 -43.5zM369 296q0 66 -34.5 103.5
t-93.5 37.5q-65 0 -108 -44.5t-54 -121.5l289 4zM311 532l-11 -13l-5 -1q-75 66 -144 135l-1 5l10 10l5 1q77 -79 146 -137z" />
    <glyph glyph-name="eacute" unicode="&#xe9;" horiz-adv-x="446" 
d="M349.5 413.5q38.5 -43.5 38.5 -121.5q0 -20 -1 -30l-6 -7l-304 -4q-1 -10 -1 -30q0 -95 43.5 -150.5t118.5 -55.5q37 0 72 11.5t61 31.5l6 -2l-3 -20q-62 -41 -138 -41q-83 0 -131.5 61t-48.5 165q0 108 50.5 172t135.5 64q69 0 107.5 -43.5zM369 296q0 66 -34.5 103.5
t-93.5 37.5q-65 0 -108 -44.5t-54 -121.5l289 4zM332 668l10 -10l-1 -5q-69 -69 -144 -135l-5 1l-11 13q69 58 146 137z" />
    <glyph glyph-name="ecircumflex" unicode="&#xea;" horiz-adv-x="446" 
d="M349.5 413.5q38.5 -43.5 38.5 -121.5q0 -20 -1 -30l-6 -7l-304 -4q-1 -10 -1 -30q0 -95 43.5 -150.5t118.5 -55.5q37 0 72 11.5t61 31.5l6 -2l-3 -20q-62 -41 -138 -41q-83 0 -131.5 61t-48.5 165q0 108 50.5 172t135.5 64q69 0 107.5 -43.5zM369 296q0 66 -34.5 103.5
t-93.5 37.5q-65 0 -108 -44.5t-54 -121.5l289 4zM120 532q38 43 101 126h18q63 -83 101 -126l-9 -12h-5q-48 53 -96 117q-48 -64 -96 -117h-5z" />
    <glyph glyph-name="edieresis" unicode="&#xeb;" horiz-adv-x="446" 
d="M349.5 413.5q38.5 -43.5 38.5 -121.5q0 -20 -1 -30l-6 -7l-304 -4q-1 -10 -1 -30q0 -95 43.5 -150.5t118.5 -55.5q37 0 72 11.5t61 31.5l6 -2l-3 -20q-62 -41 -138 -41q-83 0 -131.5 61t-48.5 165q0 108 50.5 172t135.5 64q69 0 107.5 -43.5zM369 296q0 66 -34.5 103.5
t-93.5 37.5q-65 0 -108 -44.5t-54 -121.5l289 4zM174.5 609.5q5.5 -5.5 5.5 -14.5t-5.5 -14.5t-14.5 -5.5t-14.5 5.5t-5.5 14.5t5.5 14.5t14.5 5.5t14.5 -5.5zM314.5 609.5q5.5 -5.5 5.5 -14.5t-5.5 -14.5t-14.5 -5.5t-14.5 5.5t-5.5 14.5t5.5 14.5t14.5 5.5t14.5 -5.5z" />
    <glyph glyph-name="igrave" unicode="&#xec;" horiz-adv-x="222" 
d="M101 449l20 4v-453h-20v449zM191 532l-11 -13l-5 -1q-75 66 -144 135l-1 5l10 10l5 1q77 -79 146 -137z" />
    <glyph glyph-name="iacute" unicode="&#xed;" horiz-adv-x="222" 
d="M101 449l20 4v-453h-20v449zM213 668l10 -10l-1 -5q-69 -69 -144 -135l-5 1l-11 13q69 58 146 137z" />
    <glyph glyph-name="icircumflex" unicode="&#xee;" horiz-adv-x="222" 
d="M101 449l20 4v-453h-20v449zM1 532q38 43 101 126h18q63 -83 101 -126l-9 -12h-5q-48 53 -96 117q-48 -64 -96 -117h-5z" />
    <glyph glyph-name="eth" unicode="&#xf0;" horiz-adv-x="489" 
d="M392.5 432q36.5 -88 36.5 -189q0 -117 -48 -182.5t-137 -65.5q-87 0 -137.5 61t-50.5 168q0 108 52 170.5t143 62.5q72 0 127 -44q-36 94 -112 165l-129 -55l-4 3l-5 16l120 51q-67 58 -160 94v5l9 10h4q100 -39 169 -100l123 53l4 -3l5 -16l-115 -49q69 -67 105.5 -155z
M366.5 75q42.5 60 42.5 168q0 74 -19 135q-57 59 -139 59t-128.5 -57t-46.5 -156q0 -98 45.5 -153.5t122.5 -55.5q80 0 122.5 60z" />
    <glyph glyph-name="ntilde" unicode="&#xf1;" horiz-adv-x="501" 
d="M377 421.5q34 -35.5 34 -100.5v-321h-22l2 320q0 55 -29 86t-82 31q-39 0 -80.5 -25.5t-79.5 -70.5v-341h-20v449l20 4v-79h4q37 40 77.5 61.5t78.5 21.5q63 0 97 -35.5zM401 620v-4l-52 -47l-6 -2q-20 2 -81 20q-6 2 -35 10t-40 8q-5 0 -13 -6t-17 -16l-21 -19h-4l-9 11
v4l52 47l6 2q20 -2 81 -20q6 -2 35 -10t40 -8q5 0 13 6t17 16l21 19h4z" />
    <glyph glyph-name="ograve" unicode="&#xf2;" horiz-adv-x="487" 
d="M380 396.5q49 -60.5 49 -166.5q0 -109 -50.5 -172t-139.5 -63q-85 0 -134 60.5t-49 166.5q0 109 50.5 172t139.5 63q85 0 134 -60.5zM121.5 380q-45.5 -57 -45.5 -158q0 -97 43.5 -152t119.5 -55q79 0 124.5 57t45.5 158q0 97 -43.5 152t-119.5 55q-79 0 -124.5 -57z
M324 532l-11 -13l-5 -1q-75 66 -144 135l-1 5l10 10l5 1q77 -79 146 -137z" />
    <glyph glyph-name="oacute" unicode="&#xf3;" horiz-adv-x="487" 
d="M380 396.5q49 -60.5 49 -166.5q0 -109 -50.5 -172t-139.5 -63q-85 0 -134 60.5t-49 166.5q0 109 50.5 172t139.5 63q85 0 134 -60.5zM121.5 380q-45.5 -57 -45.5 -158q0 -97 43.5 -152t119.5 -55q79 0 124.5 57t45.5 158q0 97 -43.5 152t-119.5 55q-79 0 -124.5 -57z
M345 668l10 -10l-1 -5q-69 -69 -144 -135l-5 1l-11 13q69 58 146 137z" />
    <glyph glyph-name="ocircumflex" unicode="&#xf4;" horiz-adv-x="487" 
d="M380 396.5q49 -60.5 49 -166.5q0 -109 -50.5 -172t-139.5 -63q-85 0 -134 60.5t-49 166.5q0 109 50.5 172t139.5 63q85 0 134 -60.5zM121.5 380q-45.5 -57 -45.5 -158q0 -97 43.5 -152t119.5 -55q79 0 124.5 57t45.5 158q0 97 -43.5 152t-119.5 55q-79 0 -124.5 -57z
M133 532q38 43 101 126h18q63 -83 101 -126l-9 -12h-5q-48 53 -96 117q-48 -64 -96 -117h-5z" />
    <glyph glyph-name="otilde" unicode="&#xf5;" horiz-adv-x="487" 
d="M380 396.5q49 -60.5 49 -166.5q0 -109 -50.5 -172t-139.5 -63q-85 0 -134 60.5t-49 166.5q0 109 50.5 172t139.5 63q85 0 134 -60.5zM121.5 380q-45.5 -57 -45.5 -158q0 -97 43.5 -152t119.5 -55q79 0 124.5 57t45.5 158q0 97 -43.5 152t-119.5 55q-79 0 -124.5 -57z
M382 620v-4l-52 -47l-6 -2q-20 2 -81 20q-6 2 -35 10t-40 8q-5 0 -13 -6t-17 -16l-21 -19h-4l-9 11v4l52 47l6 2q20 -2 81 -20q6 -2 35 -10t40 -8q5 0 13 6t17 16l21 19h4z" />
    <glyph glyph-name="divide" unicode="&#xf7;" horiz-adv-x="480" 
d="M456 277l-2 -17h-397l-3 3l2 17h397zM278.5 102.5q5.5 -5.5 5.5 -14.5t-5.5 -14.5t-14.5 -5.5t-14.5 5.5t-5.5 14.5t5.5 14.5t14.5 5.5t14.5 -5.5zM278.5 465.5q5.5 -5.5 5.5 -14.5t-5.5 -14.5t-14.5 -5.5t-14.5 5.5t-5.5 14.5t5.5 14.5t14.5 5.5t14.5 -5.5z" />
    <glyph glyph-name="oslash" unicode="&#xf8;" horiz-adv-x="487" 
d="M407 351.5q22 -51.5 22 -121.5q0 -109 -50.5 -172t-139.5 -63q-44 0 -80 17l-53 -119l-16 3l-2 4l54 122q-41 26 -63.5 77.5t-22.5 122.5q0 109 50.5 172t139.5 63q46 0 82 -18l40 91l15 -2l2 -5l-41 -93q41 -27 63 -78.5zM95.5 112.5q19.5 -46.5 55.5 -71.5l168 379
q-32 17 -73 17q-79 0 -124.5 -57t-45.5 -158q0 -63 19.5 -109.5zM363.5 72q45.5 57 45.5 158q0 63 -19 109.5t-55 71.5l-168 -380q34 -16 72 -16q79 0 124.5 57z" />
    <glyph glyph-name="ugrave" unicode="&#xf9;" horiz-adv-x="504" 
d="M475 29l-4 -18q-20 -14 -45 -14q-28 0 -41 20t-13 62h-4q-77 -83 -160 -83q-57 0 -87.5 35.5t-30.5 100.5v317l20 4v-320q0 -56 26 -86.5t75 -30.5q40 0 81 23.5t80 68.5v341l20 4v-374q0 -32 8.5 -47t27.5 -15q23 0 41 15zM335 532l-11 -13l-5 -1q-75 66 -144 135l-1 5
l10 10l5 1q77 -79 146 -137z" />
    <glyph glyph-name="uacute" unicode="&#xfa;" horiz-adv-x="504" 
d="M475 29l-4 -18q-20 -14 -45 -14q-28 0 -41 20t-13 62h-4q-77 -83 -160 -83q-57 0 -87.5 35.5t-30.5 100.5v317l20 4v-320q0 -56 26 -86.5t75 -30.5q40 0 81 23.5t80 68.5v341l20 4v-374q0 -32 8.5 -47t27.5 -15q23 0 41 15zM356 668l10 -10l-1 -5q-69 -69 -144 -135l-5 1
l-11 13q69 58 146 137z" />
    <glyph glyph-name="ucircumflex" unicode="&#xfb;" horiz-adv-x="504" 
d="M475 29l-4 -18q-20 -14 -45 -14q-28 0 -41 20t-13 62h-4q-77 -83 -160 -83q-57 0 -87.5 35.5t-30.5 100.5v317l20 4v-320q0 -56 26 -86.5t75 -30.5q40 0 81 23.5t80 68.5v341l20 4v-374q0 -32 8.5 -47t27.5 -15q23 0 41 15zM144 532q38 43 101 126h18q63 -83 101 -126
l-9 -12h-5q-48 53 -96 117q-48 -64 -96 -117h-5z" />
    <glyph glyph-name="udieresis" unicode="&#xfc;" horiz-adv-x="504" 
d="M475 29l-4 -18q-20 -14 -45 -14q-28 0 -41 20t-13 62h-4q-77 -83 -160 -83q-57 0 -87.5 35.5t-30.5 100.5v317l20 4v-320q0 -56 26 -86.5t75 -30.5q40 0 81 23.5t80 68.5v341l20 4v-374q0 -32 8.5 -47t27.5 -15q23 0 41 15zM198.5 609.5q5.5 -5.5 5.5 -14.5t-5.5 -14.5
t-14.5 -5.5t-14.5 5.5t-5.5 14.5t5.5 14.5t14.5 5.5t14.5 -5.5zM338.5 609.5q5.5 -5.5 5.5 -14.5t-5.5 -14.5t-14.5 -5.5t-14.5 5.5t-5.5 14.5t5.5 14.5t14.5 5.5t14.5 -5.5z" />
    <glyph glyph-name="thorn" unicode="&#xfe;" horiz-adv-x="503" 
d="M400.5 398.5q44.5 -57.5 44.5 -161.5q0 -116 -55.5 -179.5t-156.5 -63.5q-51 0 -108 10v-189h-20v883l20 4v-317h3q29 34 68 52.5t80 18.5q80 0 124.5 -57.5zM375 72.5q50 58.5 50 164.5q0 95 -39 147t-110 52q-42 0 -81 -21.5t-70 -61.5v-327q62 -12 108 -12
q92 0 142 58.5z" />
    <glyph glyph-name="ydieresis" unicode="&#xff;" horiz-adv-x="405" 
d="M54 409l140 -373h5l146 373l15 43h24l-177 -452q-26 -67 -53 -104t-63 -55.5t-95 -30.5h-5q-4 4 -8 12v6q60 12 95 29.5t59.5 50t47.5 92.5l-166 450l21 4zM149.5 609.5q5.5 -5.5 5.5 -14.5t-5.5 -14.5t-14.5 -5.5t-14.5 5.5t-5.5 14.5t5.5 14.5t14.5 5.5t14.5 -5.5z
M289.5 609.5q5.5 -5.5 5.5 -14.5t-5.5 -14.5t-14.5 -5.5t-14.5 5.5t-5.5 14.5t5.5 14.5t14.5 5.5t14.5 -5.5z" />
    <glyph glyph-name="Amacron" unicode="&#x100;" horiz-adv-x="554" 
d="M526 0h-23l-13 43l-63 170h-302l-68 -170l-14 -43h-24l254 637h20zM284 603h-4l-147 -370h287zM423 789l-2 -17h-287l-3 3l2 17h287z" />
    <glyph glyph-name="amacron" unicode="&#x101;" horiz-adv-x="442" 
d="M302.5 427.5q30.5 -29.5 30.5 -83.5q0 -33 -5 -133l-5 -138q0 -29 8.5 -42.5t27.5 -13.5q10 0 21.5 4t20.5 11l6 -3l-4 -18q-20 -14 -45 -14q-28 0 -41 17.5t-14 58.5h-3q-30 -35 -64 -56t-67 -22q-54 0 -83.5 29.5t-29.5 82.5q0 36 21.5 61t60.5 34l172 40l3 98
q0 47 -25.5 72t-73.5 25q-30 0 -65.5 -17t-71.5 -48l-6 2l-5 15q37 33 75.5 50.5t73.5 17.5q57 0 87.5 -29.5zM143 182q-32 -8 -49.5 -27t-17.5 -48q0 -43 24.5 -67.5t67.5 -24.5q33 0 68.5 24t67.5 67l5 115zM357 604l-2 -17h-287l-3 3l2 17h287z" />
    <glyph glyph-name="Abreve" unicode="&#x102;" horiz-adv-x="554" 
d="M526 0h-23l-13 43l-63 170h-302l-68 -170l-14 -43h-24l254 637h20zM284 603h-4l-147 -370h287zM378 802q-11 -36 -37.5 -55t-64.5 -19t-64 19t-36 55l13 11h5q8 -32 28.5 -48.5t53.5 -16.5t54.5 16.5t29.5 48.5h5z" />
    <glyph glyph-name="abreve" unicode="&#x103;" horiz-adv-x="442" 
d="M302.5 427.5q30.5 -29.5 30.5 -83.5q0 -33 -5 -133l-5 -138q0 -29 8.5 -42.5t27.5 -13.5q10 0 21.5 4t20.5 11l6 -3l-4 -18q-20 -14 -45 -14q-28 0 -41 17.5t-14 58.5h-3q-30 -35 -64 -56t-67 -22q-54 0 -83.5 29.5t-29.5 82.5q0 36 21.5 61t60.5 34l172 40l3 98
q0 47 -25.5 72t-73.5 25q-30 0 -65.5 -17t-71.5 -48l-6 2l-5 15q37 33 75.5 50.5t73.5 17.5q57 0 87.5 -29.5zM143 182q-32 -8 -49.5 -27t-17.5 -48q0 -43 24.5 -67.5t67.5 -24.5q33 0 68.5 24t67.5 67l5 115zM312 627q-10 -54 -34.5 -79.5t-66.5 -25.5t-66.5 25.5
t-34.5 79.5l13 13h5q7 -50 27 -74t56 -24t56 24t27 74h5z" />
    <glyph glyph-name="Aogonek" unicode="&#x104;" horiz-adv-x="554" 
d="M526 0h-23l-13 43l-63 170h-302l-68 -170l-14 -43h-24l254 637h20zM284 603h-4l-147 -370h287zM461 -107.5q-14 -26.5 -14 -40.5q0 -13 7 -19.5t19 -6.5q28 0 44 42h2l15 -11q-11 -26 -26.5 -38t-36.5 -12q-20 0 -32 11.5t-12 31.5q0 19 15.5 47.5t65.5 102.5h18
q-51 -81 -65 -107.5z" />
    <glyph glyph-name="aogonek" unicode="&#x105;" horiz-adv-x="442" 
d="M302.5 427.5q30.5 -29.5 30.5 -83.5q0 -33 -5 -133l-5 -138q0 -29 8.5 -42.5t27.5 -13.5q10 0 21.5 4t20.5 11l6 -3l-4 -18q-20 -14 -45 -14q-28 0 -41 17.5t-14 58.5h-3q-30 -35 -64 -56t-67 -22q-54 0 -83.5 29.5t-29.5 82.5q0 36 21.5 61t60.5 34l172 40l3 98
q0 47 -25.5 72t-73.5 25q-30 0 -65.5 -17t-71.5 -48l-6 2l-5 15q37 33 75.5 50.5t73.5 17.5q57 0 87.5 -29.5zM143 182q-32 -8 -49.5 -27t-17.5 -48q0 -43 24.5 -67.5t67.5 -24.5q33 0 68.5 24t67.5 67l5 115zM299 -191.5q-17 15.5 -17 42.5q0 17 6.5 32.5t27 44t50.5 67.5
q14 18 13 16h24q-37 -47 -61 -79t-31.5 -47.5t-7.5 -30.5q0 -40 43 -40q41 0 77 52h2l11 -16q-42 -57 -92 -57q-28 0 -45 15.5z" />
    <glyph glyph-name="Cacute" unicode="&#x106;" horiz-adv-x="523" 
d="M406 625.5q46 -15.5 83 -43.5l-7 -17h-7q-34 27 -75.5 41.5t-86.5 14.5q-119 0 -182 -79t-63 -226q0 -145 60 -223t173 -78q48 0 95.5 17.5t87.5 49.5l7 -2l-2 -18q-42 -32 -91 -49.5t-96 -17.5q-123 0 -188.5 83.5t-65.5 238.5q0 156 68.5 240t196.5 84q47 0 93 -15.5z
M422 834l7 -12l-2 -5q-67 -38 -174 -93l-5 3l-7 15q91 44 176 94z" />
    <glyph glyph-name="cacute" unicode="&#x107;" horiz-adv-x="386" 
d="M302 445.5q35 -11.5 60 -30.5l-7 -17h-6q-22 17 -53.5 28t-62.5 11q-71 0 -114 -58.5t-43 -156.5q0 -94 42.5 -150.5t114.5 -56.5q33 0 67 11.5t60 31.5l6 -2l-2 -18q-26 -19 -61 -31t-71 -12q-80 0 -128 62t-48 165q0 71 22 124t62 82t93 29q34 0 69 -11.5zM335 668
l10 -10l-1 -5q-69 -69 -144 -135l-5 1l-11 13q69 58 146 137z" />
    <glyph glyph-name="Ccircumflex" unicode="&#x108;" horiz-adv-x="523" 
d="M406 625.5q46 -15.5 83 -43.5l-7 -17h-7q-34 27 -75.5 41.5t-86.5 14.5q-119 0 -182 -79t-63 -226q0 -145 60 -223t173 -78q48 0 95.5 17.5t87.5 49.5l7 -2l-2 -18q-42 -32 -91 -49.5t-96 -17.5q-123 0 -188.5 83.5t-65.5 238.5q0 156 68.5 240t196.5 84q47 0 93 -15.5z
M206 752q47 33 98 76h16q66 -52 100 -76l-7 -14h-5q-46 32 -95 70q-49 -38 -95 -70h-5z" />
    <glyph glyph-name="ccircumflex" unicode="&#x109;" horiz-adv-x="386" 
d="M302 445.5q35 -11.5 60 -30.5l-7 -17h-6q-22 17 -53.5 28t-62.5 11q-71 0 -114 -58.5t-43 -156.5q0 -94 42.5 -150.5t114.5 -56.5q33 0 67 11.5t60 31.5l6 -2l-2 -18q-26 -19 -61 -31t-71 -12q-80 0 -128 62t-48 165q0 71 22 124t62 82t93 29q34 0 69 -11.5zM123 532
q38 43 101 126h18q63 -83 101 -126l-9 -12h-5q-48 53 -96 117q-48 -64 -96 -117h-5z" />
    <glyph glyph-name="Cdotaccent" unicode="&#x10a;" horiz-adv-x="523" 
d="M406 625.5q46 -15.5 83 -43.5l-7 -17h-7q-34 27 -75.5 41.5t-86.5 14.5q-119 0 -182 -79t-63 -226q0 -145 60 -223t173 -78q48 0 95.5 17.5t87.5 49.5l7 -2l-2 -18q-42 -32 -91 -49.5t-96 -17.5q-123 0 -188.5 83.5t-65.5 238.5q0 156 68.5 240t196.5 84q47 0 93 -15.5z
M327.5 810.5q5.5 -5.5 5.5 -14.5t-5.5 -14.5t-14.5 -5.5t-14.5 5.5t-5.5 14.5t5.5 14.5t14.5 5.5t14.5 -5.5z" />
    <glyph glyph-name="cdotaccent" unicode="&#x10b;" horiz-adv-x="386" 
d="M302 445.5q35 -11.5 60 -30.5l-7 -17h-6q-22 17 -53.5 28t-62.5 11q-71 0 -114 -58.5t-43 -156.5q0 -94 42.5 -150.5t114.5 -56.5q33 0 67 11.5t60 31.5l6 -2l-2 -18q-26 -19 -61 -31t-71 -12q-80 0 -128 62t-48 165q0 71 22 124t62 82t93 29q34 0 69 -11.5zM247.5 625.5
q5.5 -5.5 5.5 -14.5t-5.5 -14.5t-14.5 -5.5t-14.5 5.5t-5.5 14.5t5.5 14.5t14.5 5.5t14.5 -5.5z" />
    <glyph glyph-name="Ccaron" unicode="&#x10c;" horiz-adv-x="523" 
d="M406 625.5q46 -15.5 83 -43.5l-7 -17h-7q-34 27 -75.5 41.5t-86.5 14.5q-119 0 -182 -79t-63 -226q0 -145 60 -223t173 -78q48 0 95.5 17.5t87.5 49.5l7 -2l-2 -18q-42 -32 -91 -49.5t-96 -17.5q-123 0 -188.5 83.5t-65.5 238.5q0 156 68.5 240t196.5 84q47 0 93 -15.5z
M420 805q-47 -33 -98 -76h-16q-66 52 -100 76l7 14h5q46 -32 95 -70q49 38 95 70h5z" />
    <glyph glyph-name="ccaron" unicode="&#x10d;" horiz-adv-x="386" 
d="M302 445.5q35 -11.5 60 -30.5l-7 -17h-6q-22 17 -53.5 28t-62.5 11q-71 0 -114 -58.5t-43 -156.5q0 -94 42.5 -150.5t114.5 -56.5q33 0 67 11.5t60 31.5l6 -2l-2 -18q-26 -19 -61 -31t-71 -12q-80 0 -128 62t-48 165q0 71 22 124t62 82t93 29q34 0 69 -11.5zM343 646
q-38 -43 -101 -126h-18q-63 83 -101 126l9 12h5q48 -53 96 -117q48 64 96 117h5z" />
    <glyph glyph-name="Dcaron" unicode="&#x10e;" horiz-adv-x="637" 
d="M517 563.5q72 -78.5 72 -224.5q0 -166 -74.5 -255t-213.5 -89q-34 0 -90 1.5t-101 3.5v637l201 5q134 0 206 -78.5zM499.5 99q69.5 84 69.5 240q0 137 -67 210t-191 73q-31 0 -84.5 -1.5t-96.5 -3.5v-597q42 -2 91.5 -3.5t79.5 -1.5q129 0 198.5 84zM426 805
q-47 -33 -98 -76h-16q-66 52 -100 76l7 14h5q46 -32 95 -70q49 38 95 70h5z" />
    <glyph glyph-name="dcaron" unicode="&#x10f;" horiz-adv-x="527" 
d="M396 75q0 -30 8 -44t27 -14q23 0 41 15l6 -3l-4 -18q-20 -14 -44 -14q-27 0 -40 17t-14 55h-3q-32 -37 -67 -55.5t-77 -18.5q-78 0 -125.5 59t-47.5 163q0 115 55.5 177.5t156.5 62.5q51 0 108 -17v258l20 4v-627zM504 651l-12 -144l-17 -2l-3 4l12 144l17 2zM126 379.5
q-50 -57.5 -50 -162.5q0 -94 42.5 -148t111.5 -54q84 0 146 86v317q-55 19 -108 19q-92 0 -142 -57.5z" />
    <glyph glyph-name="Dcroat" unicode="&#x110;" horiz-adv-x="654" 
d="M534 563.5q72 -78.5 72 -224.5q0 -166 -74.5 -255t-213.5 -89q-34 0 -90 1.5t-101 3.5v637l201 5q134 0 206 -78.5zM516.5 99q69.5 84 69.5 240q0 137 -67 210t-191 73q-31 0 -84.5 -1.5t-96.5 -3.5v-597q42 -2 91.5 -3.5t79.5 -1.5q129 0 198.5 84zM321.188 336
l-1.2002 -17h-310.187l-1.80078 3l1.2002 17h310.188z" />
    <glyph glyph-name="dcroat" unicode="&#x111;" horiz-adv-x="508" 
d="M396 75q0 -30 8 -44t27 -14q23 0 41 15l6 -3l-4 -18q-20 -14 -44 -14q-27 0 -40 17t-14 55h-3q-32 -37 -67 -55.5t-77 -18.5q-78 0 -125.5 59t-47.5 163q0 115 55.5 177.5t156.5 62.5q51 0 108 -17v121h-134l-3 3l2 17h135v117l20 4v-121h82l3 -3l-2 -17h-83v-486z
M268 437q-92 0 -142 -57.5t-50 -162.5q0 -94 42.5 -148t111.5 -54q84 0 146 86v317q-55 19 -108 19z" />
    <glyph glyph-name="Emacron" unicode="&#x112;" horiz-adv-x="454" 
d="M425 16l-4 -16h-311v637h308l3 -4l-4 -16h-287v-277h238l3 -4l-4 -16h-237v-300h292zM412 789l-2 -17h-287l-3 3l2 17h287z" />
    <glyph glyph-name="emacron" unicode="&#x113;" horiz-adv-x="446" 
d="M349.5 413.5q38.5 -43.5 38.5 -121.5q0 -20 -1 -30l-6 -7l-304 -4q-1 -10 -1 -30q0 -95 43.5 -150.5t118.5 -55.5q37 0 72 11.5t61 31.5l6 -2l-3 -20q-62 -41 -138 -41q-83 0 -131.5 61t-48.5 165q0 108 50.5 172t135.5 64q69 0 107.5 -43.5zM369 296q0 66 -34.5 103.5
t-93.5 37.5q-65 0 -108 -44.5t-54 -121.5l289 4zM376 604l-2 -17h-287l-3 3l2 17h287z" />
    <glyph glyph-name="Ebreve" unicode="&#x114;" horiz-adv-x="454" 
d="M425 16l-4 -16h-311v637h308l3 -4l-4 -16h-287v-277h238l3 -4l-4 -16h-237v-300h292zM367 802q-11 -36 -37.5 -55t-64.5 -19t-64 19t-36 55l13 11h5q8 -32 28.5 -48.5t53.5 -16.5t54.5 16.5t29.5 48.5h5z" />
    <glyph glyph-name="ebreve" unicode="&#x115;" horiz-adv-x="446" 
d="M349.5 413.5q38.5 -43.5 38.5 -121.5q0 -20 -1 -30l-6 -7l-304 -4q-1 -10 -1 -30q0 -95 43.5 -150.5t118.5 -55.5q37 0 72 11.5t61 31.5l6 -2l-3 -20q-62 -41 -138 -41q-83 0 -131.5 61t-48.5 165q0 108 50.5 172t135.5 64q69 0 107.5 -43.5zM369 296q0 66 -34.5 103.5
t-93.5 37.5q-65 0 -108 -44.5t-54 -121.5l289 4zM331 627q-10 -54 -34.5 -79.5t-66.5 -25.5t-66.5 25.5t-34.5 79.5l13 13h5q7 -50 27 -74t56 -24t56 24t27 74h5z" />
    <glyph glyph-name="Edotaccent" unicode="&#x116;" horiz-adv-x="454" 
d="M425 16l-4 -16h-311v637h308l3 -4l-4 -16h-287v-277h238l3 -4l-4 -16h-237v-300h292zM280.5 810.5q5.5 -5.5 5.5 -14.5t-5.5 -14.5t-14.5 -5.5t-14.5 5.5t-5.5 14.5t5.5 14.5t14.5 5.5t14.5 -5.5z" />
    <glyph glyph-name="edotaccent" unicode="&#x117;" horiz-adv-x="446" 
d="M349.5 413.5q38.5 -43.5 38.5 -121.5q0 -20 -1 -30l-6 -7l-304 -4q-1 -10 -1 -30q0 -95 43.5 -150.5t118.5 -55.5q37 0 72 11.5t61 31.5l6 -2l-3 -20q-62 -41 -138 -41q-83 0 -131.5 61t-48.5 165q0 108 50.5 172t135.5 64q69 0 107.5 -43.5zM369 296q0 66 -34.5 103.5
t-93.5 37.5q-65 0 -108 -44.5t-54 -121.5l289 4zM244.5 625.5q5.5 -5.5 5.5 -14.5t-5.5 -14.5t-14.5 -5.5t-14.5 5.5t-5.5 14.5t5.5 14.5t14.5 5.5t14.5 -5.5z" />
    <glyph glyph-name="Eogonek" unicode="&#x118;" horiz-adv-x="454" 
d="M425 16l-4 -16h-311v637h308l3 -4l-4 -16h-287v-277h238l3 -4l-4 -16h-237v-300h292zM278 -182.5q-17 15.5 -17 42.5q0 17 6.5 32.5t27 44t50.5 67.5q14 18 13 16h24q-37 -47 -61 -79t-31.5 -47.5t-7.5 -30.5q0 -40 43 -40q41 0 77 52h2l11 -16q-42 -57 -92 -57
q-28 0 -45 15.5z" />
    <glyph glyph-name="eogonek" unicode="&#x119;" horiz-adv-x="446" 
d="M349.5 413.5q38.5 -43.5 38.5 -121.5q0 -20 -1 -30l-6 -7l-304 -4q-1 -10 -1 -30q0 -95 43.5 -150.5t118.5 -55.5q37 0 72 11.5t61 31.5l6 -2l-3 -20q-62 -41 -138 -41q-83 0 -131.5 61t-48.5 165q0 108 50.5 172t135.5 64q69 0 107.5 -43.5zM369 296q0 66 -34.5 103.5
t-93.5 37.5q-65 0 -108 -44.5t-54 -121.5l289 4zM270 -166.5q-17 15.5 -17 42.5q0 17 6.5 32.5t27 44t50.5 67.5q14 18 13 16h24q-37 -47 -61 -79t-31.5 -47.5t-7.5 -30.5q0 -40 43 -40q41 0 77 52h2l11 -16q-42 -57 -92 -57q-28 0 -45 15.5z" />
    <glyph glyph-name="Ecaron" unicode="&#x11a;" horiz-adv-x="454" 
d="M425 16l-4 -16h-311v637h308l3 -4l-4 -16h-287v-277h238l3 -4l-4 -16h-237v-300h292zM373 805q-47 -33 -98 -76h-16q-66 52 -100 76l7 14h5q46 -32 95 -70q49 38 95 70h5z" />
    <glyph glyph-name="ecaron" unicode="&#x11b;" horiz-adv-x="446" 
d="M349.5 413.5q38.5 -43.5 38.5 -121.5q0 -20 -1 -30l-6 -7l-304 -4q-1 -10 -1 -30q0 -95 43.5 -150.5t118.5 -55.5q37 0 72 11.5t61 31.5l6 -2l-3 -20q-62 -41 -138 -41q-83 0 -131.5 61t-48.5 165q0 108 50.5 172t135.5 64q69 0 107.5 -43.5zM369 296q0 66 -34.5 103.5
t-93.5 37.5q-65 0 -108 -44.5t-54 -121.5l289 4zM340 646q-38 -43 -101 -126h-18q-63 83 -101 126l9 12h5q48 -53 96 -117q48 64 96 117h5z" />
    <glyph glyph-name="Gcircumflex" unicode="&#x11c;" horiz-adv-x="603" 
d="M432.5 627q46.5 -14 90.5 -40l-6 -18h-7q-87 52 -167 52q-132 0 -203.5 -80t-71.5 -229q0 -143 62 -220t177 -77q47 0 86.5 6.5t102.5 23.5v201l20 2v-218q-66 -19 -109.5 -26.5t-98.5 -8.5q-125 0 -192.5 82.5t-67.5 235.5q0 158 76.5 243t218.5 85q43 0 89.5 -14z
M218 752q47 33 98 76h16q66 -52 100 -76l-7 -14h-5q-46 32 -95 70q-49 -38 -95 -70h-5z" />
    <glyph glyph-name="gcircumflex" unicode="&#x11d;" horiz-adv-x="472" 
d="M346 416l-2 -3q39 -41 39 -109q0 -71 -42 -112.5t-115 -41.5q-42 0 -75 14q-31 -20 -43 -33t-12 -24q0 -23 30.5 -33.5t97.5 -21.5q60 -9 98.5 -18.5t65.5 -31t27 -57.5t-27.5 -67.5t-73.5 -50.5t-98 -19q-71 0 -113.5 32.5t-42.5 82.5q5 34 29 60.5t73 54.5v5
q-42 9 -64.5 25t-22.5 43q5 25 57 60v3q-29 20 -45 52.5t-16 74.5q0 73 42 114t116 41q55 0 94 -25q74 14 128 29l4 -3v-18q-47 -12 -109 -23zM327 205.5q37 35.5 37 98.5q0 62 -36 97t-99 35q-65 0 -102 -36t-37 -99q0 -61 36 -96t100 -35t101 35.5zM372.5 -9
q-22.5 17 -55 25t-86.5 16q-13 1 -34 5q-55 -28 -86 -57t-31 -62q0 -37 37 -63.5t99 -26.5q48 0 89 17t65.5 44t24.5 56t-22.5 46zM127 522q38 43 101 126h18q63 -83 101 -126l-9 -12h-5q-48 53 -96 117q-48 -64 -96 -117h-5z" />
    <glyph glyph-name="Gbreve" unicode="&#x11e;" horiz-adv-x="603" 
d="M432.5 627q46.5 -14 90.5 -40l-6 -18h-7q-87 52 -167 52q-132 0 -203.5 -80t-71.5 -229q0 -143 62 -220t177 -77q47 0 86.5 6.5t102.5 23.5v201l20 2v-218q-66 -19 -109.5 -26.5t-98.5 -8.5q-125 0 -192.5 82.5t-67.5 235.5q0 158 76.5 243t218.5 85q43 0 89.5 -14z
M426 802q-11 -36 -37.5 -55t-64.5 -19t-64 19t-36 55l13 11h5q8 -32 28.5 -48.5t53.5 -16.5t54.5 16.5t29.5 48.5h5z" />
    <glyph glyph-name="gbreve" unicode="&#x11f;" horiz-adv-x="472" 
d="M346 416l-2 -3q39 -41 39 -109q0 -71 -42 -112.5t-115 -41.5q-42 0 -75 14q-31 -20 -43 -33t-12 -24q0 -23 30.5 -33.5t97.5 -21.5q60 -9 98.5 -18.5t65.5 -31t27 -57.5t-27.5 -67.5t-73.5 -50.5t-98 -19q-71 0 -113.5 32.5t-42.5 82.5q5 34 29 60.5t73 54.5v5
q-42 9 -64.5 25t-22.5 43q5 25 57 60v3q-29 20 -45 52.5t-16 74.5q0 73 42 114t116 41q55 0 94 -25q74 14 128 29l4 -3v-18q-47 -12 -109 -23zM327 205.5q37 35.5 37 98.5q0 62 -36 97t-99 35q-65 0 -102 -36t-37 -99q0 -61 36 -96t100 -35t101 35.5zM372.5 -9
q-22.5 17 -55 25t-86.5 16q-13 1 -34 5q-55 -28 -86 -57t-31 -62q0 -37 37 -63.5t99 -26.5q48 0 89 17t65.5 44t24.5 56t-22.5 46zM338 617q-10 -54 -34.5 -79.5t-66.5 -25.5t-66.5 25.5t-34.5 79.5l13 13h5q7 -50 27 -74t56 -24t56 24t27 74h5z" />
    <glyph glyph-name="Gdotaccent" unicode="&#x120;" horiz-adv-x="603" 
d="M432.5 627q46.5 -14 90.5 -40l-6 -18h-7q-87 52 -167 52q-132 0 -203.5 -80t-71.5 -229q0 -143 62 -220t177 -77q47 0 86.5 6.5t102.5 23.5v201l20 2v-218q-66 -19 -109.5 -26.5t-98.5 -8.5q-125 0 -192.5 82.5t-67.5 235.5q0 158 76.5 243t218.5 85q43 0 89.5 -14z
M339.5 810.5q5.5 -5.5 5.5 -14.5t-5.5 -14.5t-14.5 -5.5t-14.5 5.5t-5.5 14.5t5.5 14.5t14.5 5.5t14.5 -5.5z" />
    <glyph glyph-name="gdotaccent" unicode="&#x121;" horiz-adv-x="472" 
d="M346 416l-2 -3q39 -41 39 -109q0 -71 -42 -112.5t-115 -41.5q-42 0 -75 14q-31 -20 -43 -33t-12 -24q0 -23 30.5 -33.5t97.5 -21.5q60 -9 98.5 -18.5t65.5 -31t27 -57.5t-27.5 -67.5t-73.5 -50.5t-98 -19q-71 0 -113.5 32.5t-42.5 82.5q5 34 29 60.5t73 54.5v5
q-42 9 -64.5 25t-22.5 43q5 25 57 60v3q-29 20 -45 52.5t-16 74.5q0 73 42 114t116 41q55 0 94 -25q74 14 128 29l4 -3v-18q-47 -12 -109 -23zM327 205.5q37 35.5 37 98.5q0 62 -36 97t-99 35q-65 0 -102 -36t-37 -99q0 -61 36 -96t100 -35t101 35.5zM372.5 -9
q-22.5 17 -55 25t-86.5 16q-13 1 -34 5q-55 -28 -86 -57t-31 -62q0 -37 37 -63.5t99 -26.5q48 0 89 17t65.5 44t24.5 56t-22.5 46zM251.5 615.5q5.5 -5.5 5.5 -14.5t-5.5 -14.5t-14.5 -5.5t-14.5 5.5t-5.5 14.5t5.5 14.5t14.5 5.5t14.5 -5.5z" />
    <glyph glyph-name="Gcommaaccent" unicode="&#x122;" horiz-adv-x="603" 
d="M432.5 627q46.5 -14 90.5 -40l-6 -18h-7q-87 52 -167 52q-132 0 -203.5 -80t-71.5 -229q0 -143 62 -220t177 -77q47 0 86.5 6.5t102.5 23.5v201l20 2v-218q-66 -19 -109.5 -26.5t-98.5 -8.5q-125 0 -192.5 82.5t-67.5 235.5q0 158 76.5 243t218.5 85q43 0 89.5 -14z
M350 -118q0 -20 -17 -44t-49 -49l-10 11l1 3q26 19 40 39.5t14 38.5q0 20 -30 34v4q5 7 13 11q38 -17 38 -48z" />
    <glyph glyph-name="gcommaaccent" unicode="&#x123;" horiz-adv-x="472" 
d="M346 416l-2 -3q39 -41 39 -109q0 -71 -42 -112.5t-115 -41.5q-42 0 -75 14q-31 -20 -43 -33t-12 -24q0 -23 30.5 -33.5t97.5 -21.5q60 -9 98.5 -18.5t65.5 -31t27 -57.5t-27.5 -67.5t-73.5 -50.5t-98 -19q-71 0 -113.5 32.5t-42.5 82.5q5 34 29 60.5t73 54.5v5
q-42 9 -64.5 25t-22.5 43q5 25 57 60v3q-29 20 -45 52.5t-16 74.5q0 73 42 114t116 41q55 0 94 -25q74 14 128 29l4 -3v-18q-47 -12 -109 -23zM327 205.5q37 35.5 37 98.5q0 62 -36 97t-99 35q-65 0 -102 -36t-37 -99q0 -61 36 -96t100 -35t101 35.5zM372.5 -9
q-22.5 17 -55 25t-86.5 16q-13 1 -34 5q-55 -28 -86 -57t-31 -62q0 -37 37 -63.5t99 -26.5q48 0 89 17t65.5 44t24.5 56t-22.5 46zM197 574q0 46 53 102l13 -11v-4q-44 -47 -44 -83q0 -30 38 -39v-4q-1 -3 -10 -16q-50 12 -50 55z" />
    <glyph glyph-name="Hcircumflex" unicode="&#x124;" horiz-adv-x="670" 
d="M560 637v-637h-20v314h-410v-314h-20v637h20v-303h410v303h20zM228 752q47 33 98 76h16q66 -52 100 -76l-7 -14h-5q-46 32 -95 70q-49 -38 -95 -70h-5z" />
    <glyph glyph-name="hcircumflex" unicode="&#x125;" horiz-adv-x="506" 
d="M382.5 421.5q34.5 -35.5 33.5 -100.5l-1 -127l-1 -194h-20l2 320q0 55 -29 86t-82 31q-39 0 -80.5 -25.5t-79.5 -70.5v-341h-20v698l20 4v-328h4q37 40 77.5 61.5t78.5 21.5q63 0 97.5 -35.5zM8 755q47 33 98 76h16q66 -52 100 -76l-7 -14h-5q-46 32 -95 70
q-49 -38 -95 -70h-5z" />
    <glyph glyph-name="Hbar" unicode="&#x126;" horiz-adv-x="700" 
d="M643 484h-68v-484h-20v314h-410v-314h-20v484h-66l-4 3l2 17h68v133h20v-133h410v133h20v-133h66l4 -3zM555 484h-410v-150h410v150z" />
    <glyph glyph-name="hbar" unicode="&#x127;" horiz-adv-x="495" 
d="M371.5 421.5q34.5 -35.5 33.5 -100.5l-1 -127l-1 -194h-20l2 320q0 55 -29 86t-82 31q-39 0 -80.5 -25.5t-79.5 -70.5v-341h-20v556h-72l-3 3l2 17h73v122l20 4v-126h161l3 -3l-2 -17h-162v-182h4q37 40 77.5 61.5t78.5 21.5q63 0 97.5 -35.5z" />
    <glyph glyph-name="Imacron" unicode="&#x12a;" horiz-adv-x="240" 
d="M130 0h-20v637h20v-637zM226 789l-2 -17h-207l-3 3l2 17h207z" />
    <glyph glyph-name="imacron" unicode="&#x12b;" horiz-adv-x="222" 
d="M101 449l20 4v-453h-20v449zM217 604l-2 -17h-207l-3 3l2 17h207z" />
    <glyph glyph-name="Ibreve" unicode="&#x12c;" horiz-adv-x="240" 
d="M130 0h-20v637h20v-637zM221 802q-11 -36 -37.5 -55t-64.5 -19t-64 19t-36 55l13 11h5q8 -32 28.5 -48.5t53.5 -16.5t54.5 16.5t29.5 48.5h5z" />
    <glyph glyph-name="ibreve" unicode="&#x12d;" horiz-adv-x="222" 
d="M101 449l20 4v-453h-20v449zM212 627q-10 -54 -34.5 -79.5t-66.5 -25.5t-66.5 25.5t-34.5 79.5l13 13h5q7 -50 27 -74t56 -24t56 24t27 74h5z" />
    <glyph glyph-name="Iogonek" unicode="&#x12e;" horiz-adv-x="240" 
d="M130 0h-20v637h20v-637zM65 -107.5q-14 -26.5 -14 -40.5q0 -13 7 -19.5t19 -6.5q28 0 44 42h2l15 -11q-11 -26 -26.5 -38t-36.5 -12q-20 0 -32 11.5t-12 31.5q0 19 15.5 47.5t65.5 102.5h18q-51 -81 -65 -107.5z" />
    <glyph glyph-name="iogonek" unicode="&#x12f;" horiz-adv-x="222" 
d="M101 449l20 4v-453h-20v449zM125.5 625.5q5.5 -5.5 5.5 -14.5t-5.5 -14.5t-14.5 -5.5t-14.5 5.5t-5.5 14.5t5.5 14.5t14.5 5.5t14.5 -5.5zM56 -107.5q-14 -26.5 -14 -40.5q0 -13 7 -19.5t19 -6.5q28 0 44 42h2l15 -11q-11 -26 -26.5 -38t-36.5 -12q-20 0 -32 11.5
t-12 31.5q0 19 15.5 47.5t65.5 102.5h18q-51 -81 -65 -107.5z" />
    <glyph glyph-name="Idotaccent" unicode="&#x130;" horiz-adv-x="240" 
d="M130 0h-20v637h20v-637zM134.5 810.5q5.5 -5.5 5.5 -14.5t-5.5 -14.5t-14.5 -5.5t-14.5 5.5t-5.5 14.5t5.5 14.5t14.5 5.5t14.5 -5.5z" />
    <glyph glyph-name="dotlessi" unicode="&#x131;" horiz-adv-x="222" 
d="M101 449l20 4v-453h-20v449z" />
    <glyph glyph-name="IJ" unicode="&#x132;" horiz-adv-x="508" 
d="M130 0h-20v637h20v-637zM400 115q0 -70 -29.5 -118.5t-99.5 -94.5l-11 11v6q64 42 92 87t28 107v504h-128l-4 4l3 16h149v-522z" />
    <glyph glyph-name="ij" unicode="&#x133;" horiz-adv-x="444" 
d="M101 449l20 4v-453h-20v449zM125.5 625.5q5.5 -5.5 5.5 -14.5t-5.5 -14.5t-14.5 -5.5t-14.5 5.5t-5.5 14.5t5.5 14.5t14.5 5.5t14.5 -5.5zM350 451v-439q0 -78 -19.5 -120.5t-73.5 -83.5l-10 10v6q48 37 65.5 76.5t17.5 107.5v424h-84l-4 4l3 16h83l20 1zM339.5 625.5
q5.5 -5.5 5.5 -14.5t-5.5 -14.5t-14.5 -5.5t-14.5 5.5t-5.5 14.5t5.5 14.5t14.5 5.5t14.5 -5.5z" />
    <glyph glyph-name="Jcircumflex" unicode="&#x134;" horiz-adv-x="268" 
d="M160 115q0 -70 -29.5 -118.5t-99.5 -94.5l-11 11v6q64 42 92 87t28 107v504h-128l-4 4l3 16h149v-522zM1 752q47 33 98 76h16q66 -52 100 -76l-7 -14h-5q-46 32 -95 70q-49 -38 -95 -70h-5z" />
    <glyph glyph-name="jcircumflex" unicode="&#x135;" horiz-adv-x="222" 
d="M128 451v-439q0 -78 -19.5 -120.5t-73.5 -83.5l-10 10v6q48 37 65.5 76.5t17.5 107.5v424h-84l-4 4l3 16h83l20 1zM-7 532q38 43 101 126h18q63 -83 101 -126l-9 -12h-5q-48 53 -96 117q-48 -64 -96 -117h-5z" />
    <glyph glyph-name="Kcommaaccent" unicode="&#x136;" horiz-adv-x="507" 
d="M130 0h-20v637h20v-637zM186 340q146 -176 312 -335v-4q-3 -3 -14 -8l-4 1q-183 178 -321 344v3l249 249l43 47h31zM312 -118q0 -20 -17 -44t-49 -49l-10 11l1 3q26 19 40 39.5t14 38.5q0 20 -30 34v4q5 7 13 11q38 -17 38 -48z" />
    <glyph glyph-name="kcommaaccent" unicode="&#x137;" horiz-adv-x="418" 
d="M125 0h-20v698l20 4v-702zM181 241q110 -124 227 -236v-4q-2 -3 -15 -8l-4 1q-125 122 -234 244v5l177 175l29 34h31zM276 -118q0 -20 -17 -44t-49 -49l-10 11l1 3q26 19 40 39.5t14 38.5q0 20 -30 34v4q5 7 13 11q38 -17 38 -48z" />
    <glyph glyph-name="kgreenlandic" unicode="&#x138;" horiz-adv-x="412" 
d="M100 449l20 4v-453h-20v449zM175 241q109 -124 227 -236v-4q-3 -3 -14 -8l-4 1q-121 118 -235 244v5l178 175l29 34h30z" />
    <glyph glyph-name="Lacute" unicode="&#x139;" horiz-adv-x="398" 
d="M393 16l-4 -16h-280v637h20v-617h261zM228 834l7 -12l-2 -5q-67 -38 -174 -93l-5 3l-7 15q91 44 176 94z" />
    <glyph glyph-name="lacute" unicode="&#x13a;" horiz-adv-x="230" 
d="M125 0h-20v698l20 4v-702zM224 877l7 -12l-2 -5q-67 -38 -174 -93l-5 3l-7 15q91 44 176 94z" />
    <glyph glyph-name="Lcommaaccent" unicode="&#x13b;" horiz-adv-x="398" 
d="M393 16l-4 -16h-280v637h20v-617h261zM274 -118q0 -20 -17 -44t-49 -49l-10 11l1 3q26 19 40 39.5t14 38.5q0 20 -30 34v4q5 7 13 11q38 -17 38 -48z" />
    <glyph glyph-name="lcommaaccent" unicode="&#x13c;" horiz-adv-x="230" 
d="M125 0h-20v698l20 4v-702zM153 -118q0 -20 -17 -44t-49 -49l-10 11l1 3q26 19 40 39.5t14 38.5q0 20 -30 34v4q5 7 13 11q38 -17 38 -48z" />
    <glyph glyph-name="Lcaron" unicode="&#x13d;" horiz-adv-x="409" 
d="M393 16l-4 -16h-280v637h20v-617h261zM326 429l-3 4l12 144l17 2l3 -4l-12 -144z" />
    <glyph glyph-name="lcaron" unicode="&#x13e;" horiz-adv-x="250" 
d="M125 0h-20v698l20 4v-702zM243 641l-12 -144l-17 -2l-3 4l12 144l17 2z" />
    <glyph glyph-name="Ldot" unicode="&#x13f;" horiz-adv-x="398" 
d="M393 16l-4 -16h-280v637h20v-617h261zM323.5 381.5q5.5 -5.5 5.5 -14.5t-5.5 -14.5t-14.5 -5.5t-14.5 5.5t-5.5 14.5t5.5 14.5t14.5 5.5t14.5 -5.5z" />
    <glyph glyph-name="ldot" unicode="&#x140;" horiz-adv-x="230" 
d="M125 0h-20v698l20 4v-702zM241.5 281.5q5.5 -5.5 5.5 -14.5t-5.5 -14.5t-14.5 -5.5t-14.5 5.5t-5.5 14.5t5.5 14.5t14.5 5.5t14.5 -5.5z" />
    <glyph glyph-name="Lslash" unicode="&#x141;" horiz-adv-x="408" 
d="M403 16l-4 -16h-280v333l-86 -47l-5 3l-6 15l97 53v280h20v-270l160 87l5 -2l6 -15l-171 -93v-324h261z" />
    <glyph glyph-name="lslash" unicode="&#x142;" horiz-adv-x="230" 
d="M125 386v-386h-20v376l-93 -48l-5 3l-5 15l103 53v299l20 4v-293l96 50l5 -2l5 -15z" />
    <glyph glyph-name="Nacute" unicode="&#x143;" horiz-adv-x="670" 
d="M559 176l-1 -176h-19l-404 595h-4l-1 -396v-199h-20v190l1 447h19l404 -595h4l2 594l20 2zM440 834l7 -12l-2 -5q-67 -38 -174 -93l-5 3l-7 15q91 44 176 94z" />
    <glyph glyph-name="nacute" unicode="&#x144;" horiz-adv-x="501" 
d="M377 421.5q34 -35.5 34 -100.5v-321h-22l2 320q0 55 -29 86t-82 31q-39 0 -80.5 -25.5t-79.5 -70.5v-341h-20v449l20 4v-79h4q37 40 77.5 61.5t78.5 21.5q63 0 97 -35.5zM364 668l10 -10l-1 -5q-69 -69 -144 -135l-5 1l-11 13q69 58 146 137z" />
    <glyph glyph-name="Ncommaaccent" unicode="&#x145;" horiz-adv-x="670" 
d="M559 176l-1 -176h-19l-404 595h-4l-1 -396v-199h-20v190l1 447h19l404 -595h4l2 594l20 2zM368 -118q0 -20 -17 -44t-49 -49l-10 11l1 3q26 19 40 39.5t14 38.5q0 20 -30 34v4q5 7 13 11q38 -17 38 -48z" />
    <glyph glyph-name="ncommaaccent" unicode="&#x146;" horiz-adv-x="501" 
d="M377 421.5q34 -35.5 34 -100.5v-321h-22l2 320q0 55 -29 86t-82 31q-39 0 -80.5 -25.5t-79.5 -70.5v-341h-20v449l20 4v-79h4q37 40 77.5 61.5t78.5 21.5q63 0 97 -35.5zM287 -118q0 -20 -17 -44t-49 -49l-10 11l1 3q26 19 40 39.5t14 38.5q0 20 -30 34v4q5 7 13 11
q38 -17 38 -48z" />
    <glyph glyph-name="Ncaron" unicode="&#x147;" horiz-adv-x="670" 
d="M559 176l-1 -176h-19l-404 595h-4l-1 -396v-199h-20v190l1 447h19l404 -595h4l2 594l20 2zM438 805q-47 -33 -98 -76h-16q-66 52 -100 76l7 14h5q46 -32 95 -70q49 38 95 70h5z" />
    <glyph glyph-name="ncaron" unicode="&#x148;" horiz-adv-x="501" 
d="M377 421.5q34 -35.5 34 -100.5v-321h-22l2 320q0 55 -29 86t-82 31q-39 0 -80.5 -25.5t-79.5 -70.5v-341h-20v449l20 4v-79h4q37 40 77.5 61.5t78.5 21.5q63 0 97 -35.5zM372 646q-38 -43 -101 -126h-18q-63 83 -101 126l9 12h5q48 -53 96 -117q48 64 96 117h5z" />
    <glyph glyph-name="Eng" unicode="&#x14a;" horiz-adv-x="670" 
d="M559 176l-1 -137q0 -59 -29 -100t-100 -83l-11 11v6q57 34 84 64t33 68l-400 590h-4l-1 -396v-199h-20v190l1 447h19l404 -595h4l2 594l20 2z" />
    <glyph glyph-name="eng" unicode="&#x14b;" horiz-adv-x="505" 
d="M377 421.5q34 -35.5 34 -100.5v-309q0 -78 -19 -120.5t-71 -83.5l-11 11v6q47 38 64 76.5t17 106.5v312q0 55 -29 86t-82 31q-39 0 -80.5 -25.5t-79.5 -70.5v-341h-20v449l20 4v-79h4q37 40 77.5 61.5t78.5 21.5q63 0 97 -35.5z" />
    <glyph glyph-name="Omacron" unicode="&#x14c;" horiz-adv-x="627" 
d="M511.5 561q67.5 -81 67.5 -232q0 -161 -70 -247.5t-201 -86.5q-125 0 -192.5 83.5t-67.5 238.5q0 157 70 241t200 84q126 0 193.5 -81zM132.5 543q-64.5 -79 -64.5 -226q0 -145 62 -223.5t178 -78.5q121 0 186 81.5t65 232.5q0 141 -62.5 217t-178.5 76
q-121 0 -185.5 -79zM460 789l-2 -17h-287l-3 3l2 17h287z" />
    <glyph glyph-name="omacron" unicode="&#x14d;" horiz-adv-x="487" 
d="M380 396.5q49 -60.5 49 -166.5q0 -109 -50.5 -172t-139.5 -63q-85 0 -134 60.5t-49 166.5q0 109 50.5 172t139.5 63q85 0 134 -60.5zM121.5 380q-45.5 -57 -45.5 -158q0 -97 43.5 -152t119.5 -55q79 0 124.5 57t45.5 158q0 97 -43.5 152t-119.5 55q-79 0 -124.5 -57z
M389 604l-2 -17h-287l-3 3l2 17h287z" />
    <glyph glyph-name="Obreve" unicode="&#x14e;" horiz-adv-x="627" 
d="M511.5 561q67.5 -81 67.5 -232q0 -161 -70 -247.5t-201 -86.5q-125 0 -192.5 83.5t-67.5 238.5q0 157 70 241t200 84q126 0 193.5 -81zM132.5 543q-64.5 -79 -64.5 -226q0 -145 62 -223.5t178 -78.5q121 0 186 81.5t65 232.5q0 141 -62.5 217t-178.5 76
q-121 0 -185.5 -79zM415 802q-11 -36 -37.5 -55t-64.5 -19t-64 19t-36 55l13 11h5q8 -32 28.5 -48.5t53.5 -16.5t54.5 16.5t29.5 48.5h5z" />
    <glyph glyph-name="obreve" unicode="&#x14f;" horiz-adv-x="487" 
d="M380 396.5q49 -60.5 49 -166.5q0 -109 -50.5 -172t-139.5 -63q-85 0 -134 60.5t-49 166.5q0 109 50.5 172t139.5 63q85 0 134 -60.5zM121.5 380q-45.5 -57 -45.5 -158q0 -97 43.5 -152t119.5 -55q79 0 124.5 57t45.5 158q0 97 -43.5 152t-119.5 55q-79 0 -124.5 -57z
M344 627q-10 -54 -34.5 -79.5t-66.5 -25.5t-66.5 25.5t-34.5 79.5l13 13h5q7 -50 27 -74t56 -24t56 24t27 74h5z" />
    <glyph glyph-name="Ohungarumlaut" unicode="&#x150;" horiz-adv-x="627" 
d="M511.5 561q67.5 -81 67.5 -232q0 -161 -70 -247.5t-201 -86.5q-125 0 -192.5 83.5t-67.5 238.5q0 157 70 241t200 84q126 0 193.5 -81zM132.5 543q-64.5 -79 -64.5 -226q0 -145 62 -223.5t178 -78.5q121 0 186 81.5t65 232.5q0 141 -62.5 217t-178.5 76
q-121 0 -185.5 -79zM249 757q75 70 89 84l5 -1l10 -10l-1 -5q-35 -35 -112 -105l-5 1l-11 13zM379 757q75 70 89 84l5 -1l10 -10l-1 -5q-35 -35 -112 -105l-5 1l-11 13z" />
    <glyph glyph-name="ohungarumlaut" unicode="&#x151;" horiz-adv-x="487" 
d="M380 396.5q49 -60.5 49 -166.5q0 -109 -50.5 -172t-139.5 -63q-85 0 -134 60.5t-49 166.5q0 109 50.5 172t139.5 63q85 0 134 -60.5zM121.5 380q-45.5 -57 -45.5 -158q0 -97 43.5 -152t119.5 -55q79 0 124.5 57t45.5 158q0 97 -43.5 152t-119.5 55q-79 0 -124.5 -57z
M269 667l5 -1l10 -10l-1 -5q-70 -69 -144 -135l-5 1l-11 13q76 67 146 137zM399 667l5 -1l10 -10l-1 -5q-71 -69 -144 -135l-5 1l-11 13q77 68 146 137z" />
    <glyph glyph-name="OE" unicode="&#x152;" horiz-adv-x="833" 
d="M434 643q50 -6 77 -6h286l3 -4l-4 -16h-287v-277h238l3 -4l-4 -16h-237v-300h292l3 -4l-4 -16h-289q-31 0 -87 -6q-52 -6 -76 -6q-143 0 -221.5 86.5t-78.5 242.5q0 157 81 244.5t229 87.5q26 0 76 -6zM144 547q-76 -82 -76 -231q0 -146 73 -227t212 -81q45 0 108 10
q17 3 22.5 8t5.5 17l-2 543q0 18 -3 24t-11 8q-62 11 -115 11q-138 0 -214 -82z" />
    <glyph glyph-name="oe" unicode="&#x153;" horiz-adv-x="780" 
d="M695.5 414q39.5 -43 39.5 -118l-2 -27l-6 -7l-304 -10q-1 -10 -1 -31q0 -94 43 -150t119 -56q34 0 66.5 12t56.5 34l6 -2l-3 -20q-57 -44 -128 -44q-66 0 -110.5 39t-60.5 109q-17 -70 -63.5 -109t-115.5 -39q-85 0 -134 60.5t-49 166.5q0 109 50.5 172t139.5 63
q68 0 113 -39t61 -110q17 70 63 109.5t112 39.5q68 0 107.5 -43zM356.5 72q45.5 57 45.5 158q0 97 -43.5 152t-119.5 55q-79 0 -124.5 -57t-45.5 -158q0 -97 43.5 -152t119.5 -55q79 0 124.5 57zM715 296q0 66 -34.5 103.5t-93.5 37.5q-64 0 -107 -44t-54 -121l288 10z" />
    <glyph glyph-name="Racute" unicode="&#x154;" horiz-adv-x="518" 
d="M466 5v-4q-5 -5 -12 -8l-6 2q-107 140 -184 268h-134v-263h-20v637l141 2q87 0 134 -45t47 -130q0 -74 -38 -124.5t-109 -72.5q78 -128 181 -262zM130 283h142q67 17 103.5 64t36.5 117q0 74 -40 114t-114 40h-128v-335zM361 853l10 -10l-1 -5q-69 -69 -144 -135l-5 1
l-11 13q69 58 146 137z" />
    <glyph glyph-name="racute" unicode="&#x155;" horiz-adv-x="297" 
d="M287 450v-19l-5 -2q-15 3 -27 3q-35 0 -68 -32t-67 -99v-301h-20v449l20 4v-111h4q31 56 64 83t72 27q13 0 27 -2zM287 668l10 -10l-1 -5q-69 -69 -144 -135l-5 1l-11 13q69 58 146 137z" />
    <glyph glyph-name="Rcommaaccent" unicode="&#x156;" horiz-adv-x="518" 
d="M466 5v-4q-5 -5 -12 -8l-6 2q-107 140 -184 268h-134v-263h-20v637l141 2q87 0 134 -45t47 -130q0 -74 -38 -124.5t-109 -72.5q78 -128 181 -262zM130 283h142q67 17 103.5 64t36.5 117q0 74 -40 114t-114 40h-128v-335zM297 -118q0 -20 -17 -44t-49 -49l-10 11l1 3
q26 19 40 39.5t14 38.5q0 20 -30 34v4q5 7 13 11q38 -17 38 -48z" />
    <glyph glyph-name="rcommaaccent" unicode="&#x157;" horiz-adv-x="297" 
d="M287 450v-19l-5 -2q-15 3 -27 3q-35 0 -68 -32t-67 -99v-301h-20v449l20 4v-111h4q31 56 64 83t72 27q13 0 27 -2zM149 -118q0 -20 -17 -44t-49 -49l-10 11l1 3q26 19 40 39.5t14 38.5q0 20 -30 34v4q5 7 13 11q38 -17 38 -48z" />
    <glyph glyph-name="Rcaron" unicode="&#x158;" horiz-adv-x="518" 
d="M466 5v-4q-5 -5 -12 -8l-6 2q-107 140 -184 268h-134v-263h-20v637l141 2q87 0 134 -45t47 -130q0 -74 -38 -124.5t-109 -72.5q78 -128 181 -262zM130 283h142q67 17 103.5 64t36.5 117q0 74 -40 114t-114 40h-128v-335zM366 805q-47 -33 -98 -76h-16q-66 52 -100 76
l7 14h5q46 -32 95 -70q49 38 95 70h5z" />
    <glyph glyph-name="rcaron" unicode="&#x159;" horiz-adv-x="297" 
d="M287 450v-19l-5 -2q-15 3 -27 3q-35 0 -68 -32t-67 -99v-301h-20v449l20 4v-111h4q31 56 64 83t72 27q13 0 27 -2zM295 646q-38 -43 -101 -126h-18q-63 83 -101 126l9 12h5q48 -53 96 -117q48 64 96 117h5z" />
    <glyph glyph-name="Sacute" unicode="&#x15a;" horiz-adv-x="445" 
d="M368 611l-4 -18l-7 -1q-28 14 -58 21t-55 7q-48 0 -84 -20.5t-55 -53t-19 -66.5q0 -35 19 -60.5t46.5 -42t76.5 -40.5q54 -27 85.5 -47t54 -51.5t22.5 -76.5q0 -44 -24 -82.5t-66.5 -61t-95.5 -22.5q-39 0 -80 12t-72 35l1 19l5 2q30 -24 69 -36t76 -12q49 0 87.5 21
t59 54.5t20.5 70.5q0 38 -20 65t-48.5 45t-78.5 42q-53 26 -83.5 45.5t-52 50t-21.5 73.5t23 79t64 57t93 21q60 0 122 -29zM335 853l10 -10l-1 -5q-69 -69 -144 -135l-5 1l-11 13q69 58 146 137z" />
    <glyph glyph-name="sacute" unicode="&#x15b;" horiz-adv-x="357" 
d="M287 435l-5 -19l-6 -1q-41 20 -84 20q-50 0 -81 -27t-31 -66q0 -37 26 -58t80 -46q38 -18 61 -32t39 -36t16 -53q0 -33 -18 -61t-50.5 -44.5t-73.5 -16.5q-31 0 -61.5 9.5t-53.5 25.5l3 17l5 3q47 -35 106 -35q56 0 89.5 30t33.5 71q0 36 -25.5 57t-78.5 46
q-39 18 -62.5 32.5t-39.5 37t-16 54.5q0 49 36.5 80.5t96.5 31.5q46 0 94 -20zM277 668l10 -10l-1 -5q-69 -69 -144 -135l-5 1l-11 13q69 58 146 137z" />
    <glyph glyph-name="Scircumflex" unicode="&#x15c;" horiz-adv-x="445" 
d="M368 611l-4 -18l-7 -1q-28 14 -58 21t-55 7q-48 0 -84 -20.5t-55 -53t-19 -66.5q0 -35 19 -60.5t46.5 -42t76.5 -40.5q54 -27 85.5 -47t54 -51.5t22.5 -76.5q0 -44 -24 -82.5t-66.5 -61t-95.5 -22.5q-39 0 -80 12t-72 35l1 19l5 2q30 -24 69 -36t76 -12q49 0 87.5 21
t59 54.5t20.5 70.5q0 38 -20 65t-48.5 45t-78.5 42q-53 26 -83.5 45.5t-52 50t-21.5 73.5t23 79t64 57t93 21q60 0 122 -29zM123 717q38 43 101 126h18q63 -83 101 -126l-9 -12h-5q-48 53 -96 117q-48 -64 -96 -117h-5z" />
    <glyph glyph-name="scircumflex" unicode="&#x15d;" horiz-adv-x="357" 
d="M287 435l-5 -19l-6 -1q-41 20 -84 20q-50 0 -81 -27t-31 -66q0 -37 26 -58t80 -46q38 -18 61 -32t39 -36t16 -53q0 -33 -18 -61t-50.5 -44.5t-73.5 -16.5q-31 0 -61.5 9.5t-53.5 25.5l3 17l5 3q47 -35 106 -35q56 0 89.5 30t33.5 71q0 36 -25.5 57t-78.5 46
q-39 18 -62.5 32.5t-39.5 37t-16 54.5q0 49 36.5 80.5t96.5 31.5q46 0 94 -20zM65 532q38 43 101 126h18q63 -83 101 -126l-9 -12h-5q-48 53 -96 117q-48 -64 -96 -117h-5z" />
    <glyph glyph-name="Scedilla" unicode="&#x15e;" horiz-adv-x="445" 
d="M368 611l-4 -18l-7 -1q-28 14 -58 21t-55 7q-48 0 -84 -20.5t-55 -53t-19 -66.5q0 -35 19 -60.5t46.5 -42t76.5 -40.5q54 -27 85.5 -47t54 -51.5t22.5 -76.5q0 -44 -24 -82.5t-66.5 -61t-95.5 -22.5q-39 0 -80 12t-72 35l1 19l5 2q30 -24 69 -36t76 -12q49 0 87.5 21
t59 54.5t20.5 70.5q0 38 -20 65t-48.5 45t-78.5 42q-53 26 -83.5 45.5t-52 50t-21.5 73.5t23 79t64 57t93 21q60 0 122 -29zM213 -55l31 -20q17 -11 25 -22.5t8 -27.5q0 -24 -17.5 -38.5t-42.5 -14.5q-37 0 -59 33l6 18h4q10 -16 21 -23.5t28 -7.5q18 0 29 8.5t11 24.5
q0 11 -5.5 17.5t-18.5 15.5l-44 28l25 75h20z" />
    <glyph glyph-name="scedilla" unicode="&#x15f;" horiz-adv-x="357" 
d="M287 435l-5 -19l-6 -1q-41 20 -84 20q-50 0 -81 -27t-31 -66q0 -37 26 -58t80 -46q38 -18 61 -32t39 -36t16 -53q0 -33 -18 -61t-50.5 -44.5t-73.5 -16.5q-31 0 -61.5 9.5t-53.5 25.5l3 17l5 3q47 -35 106 -35q56 0 89.5 30t33.5 71q0 36 -25.5 57t-78.5 46
q-39 18 -62.5 32.5t-39.5 37t-16 54.5q0 49 36.5 80.5t96.5 31.5q46 0 94 -20zM159 -55l31 -20q17 -11 25 -22.5t8 -27.5q0 -24 -17.5 -38.5t-42.5 -14.5q-37 0 -59 33l6 18h4q10 -16 21 -23.5t28 -7.5q18 0 29 8.5t11 24.5q0 11 -5.5 17.5t-18.5 15.5l-44 28l25 75h20z" />
    <glyph glyph-name="Scaron" unicode="&#x160;" horiz-adv-x="445" 
d="M368 611l-4 -18l-7 -1q-28 14 -58 21t-55 7q-48 0 -84 -20.5t-55 -53t-19 -66.5q0 -35 19 -60.5t46.5 -42t76.5 -40.5q54 -27 85.5 -47t54 -51.5t22.5 -76.5q0 -44 -24 -82.5t-66.5 -61t-95.5 -22.5q-39 0 -80 12t-72 35l1 19l5 2q30 -24 69 -36t76 -12q49 0 87.5 21
t59 54.5t20.5 70.5q0 38 -20 65t-48.5 45t-78.5 42q-53 26 -83.5 45.5t-52 50t-21.5 73.5t23 79t64 57t93 21q60 0 122 -29zM340 805q-47 -33 -98 -76h-16q-66 52 -100 76l7 14h5q46 -32 95 -70q49 38 95 70h5z" />
    <glyph glyph-name="scaron" unicode="&#x161;" horiz-adv-x="357" 
d="M287 435l-5 -19l-6 -1q-41 20 -84 20q-50 0 -81 -27t-31 -66q0 -37 26 -58t80 -46q38 -18 61 -32t39 -36t16 -53q0 -33 -18 -61t-50.5 -44.5t-73.5 -16.5q-31 0 -61.5 9.5t-53.5 25.5l3 17l5 3q47 -35 106 -35q56 0 89.5 30t33.5 71q0 36 -25.5 57t-78.5 46
q-39 18 -62.5 32.5t-39.5 37t-16 54.5q0 49 36.5 80.5t96.5 31.5q46 0 94 -20zM285 646q-38 -43 -101 -126h-18q-63 83 -101 126l9 12h5q48 -53 96 -117q48 64 96 117h5z" />
    <glyph glyph-name="uni0162" unicode="&#x162;" horiz-adv-x="475" 
d="M447 633l-4 -16h-195v-617l-19 -55l31 -20q17 -11 25 -22.5t8 -27.5q0 -24 -17.5 -38.5t-42.5 -14.5q-37 0 -59 33l6 18h4q10 -16 21 -23.5t28 -7.5q18 0 29 8.5t11 24.5q0 11 -5.5 17.5t-18.5 15.5l-44 28l23 64v617h-197l-3 4l4 16h412z" />
    <glyph glyph-name="uni0163" unicode="&#x163;" horiz-adv-x="298" 
d="M278 42l4 -3l-2 -18q-44 -25 -80 -25q-45 0 -69.5 30t-24.5 86v320h-62l-4 4l3 16h63v108l16 6l4 -3v-111h155l3 -4l-3 -16h-155v-319q0 -47 19 -72t55 -25q38 0 78 26zM198 -55l31 -20q17 -11 25 -22.5t8 -27.5q0 -24 -17.5 -38.5t-42.5 -14.5q-37 0 -59 33l6 18h4
q10 -16 21 -23.5t28 -7.5q18 0 29 8.5t11 24.5q0 11 -5.5 17.5t-18.5 15.5l-44 28l25 75h20z" />
    <glyph glyph-name="Tcaron" unicode="&#x164;" horiz-adv-x="475" 
d="M447 633l-4 -16h-195v-617h-20v617h-197l-3 4l4 16h412zM349 805q-47 -33 -98 -76h-16q-66 52 -100 76l7 14h5q46 -32 95 -70q49 38 95 70h5z" />
    <glyph glyph-name="tcaron" unicode="&#x165;" horiz-adv-x="323" 
d="M278 42l4 -3l-2 -18q-44 -25 -80 -25q-45 0 -69.5 30t-24.5 86v320h-62l-4 4l3 16h63v108l16 6l4 -3v-111h155l3 -4l-3 -16h-155v-319q0 -47 19 -72t55 -25q38 0 78 26zM244 651l-12 -144l-17 -2l-3 4l12 144l17 2z" />
    <glyph glyph-name="Tbar" unicode="&#x166;" horiz-adv-x="475" 
d="M248 350h104l3 -3l-2 -17h-105v-330h-20v330h-97l-3 3l2 17h98v267h-197l-3 4l4 16h412l3 -4l-4 -16h-195v-267z" />
    <glyph glyph-name="tbar" unicode="&#x167;" horiz-adv-x="302" 
d="M280 42l4 -3l-2 -18q-44 -25 -80 -25q-45 0 -69.5 30t-24.5 86v152h-64l-3 3l2 17h65v148h-62l-4 4l3 16h63v108l16 6l4 -3v-111h155l3 -4l-3 -16h-155v-148h137l3 -3l-2 -17h-138v-151q0 -47 19 -72t55 -25q38 0 78 26z" />
    <glyph glyph-name="Umacron" unicode="&#x16a;" horiz-adv-x="612" 
d="M526 229q3 -110 -55 -171.5t-165 -61.5t-163.5 60t-56.5 173v408h20v-408q-1 -103 51 -158t149 -55t148.5 55t51.5 158v408h20v-408zM456 789l-2 -17h-287l-3 3l2 17h287z" />
    <glyph glyph-name="umacron" unicode="&#x16b;" horiz-adv-x="504" 
d="M475 29l-4 -18q-20 -14 -45 -14q-28 0 -41 20t-13 62h-4q-77 -83 -160 -83q-57 0 -87.5 35.5t-30.5 100.5v317l20 4v-320q0 -56 26 -86.5t75 -30.5q40 0 81 23.5t80 68.5v341l20 4v-374q0 -32 8.5 -47t27.5 -15q23 0 41 15zM400 604l-2 -17h-287l-3 3l2 17h287z" />
    <glyph glyph-name="Ubreve" unicode="&#x16c;" horiz-adv-x="612" 
d="M526 229q3 -110 -55 -171.5t-165 -61.5t-163.5 60t-56.5 173v408h20v-408q-1 -103 51 -158t149 -55t148.5 55t51.5 158v408h20v-408zM411 812q-10 -54 -34.5 -79.5t-66.5 -25.5t-66.5 25.5t-34.5 79.5l13 13h5q7 -50 27 -74t56 -24t56 24t27 74h5z" />
    <glyph glyph-name="ubreve" unicode="&#x16d;" horiz-adv-x="504" 
d="M475 29l-4 -18q-20 -14 -45 -14q-28 0 -41 20t-13 62h-4q-77 -83 -160 -83q-57 0 -87.5 35.5t-30.5 100.5v317l20 4v-320q0 -56 26 -86.5t75 -30.5q40 0 81 23.5t80 68.5v341l20 4v-374q0 -32 8.5 -47t27.5 -15q23 0 41 15zM355 627q-10 -54 -34.5 -79.5t-66.5 -25.5
t-66.5 25.5t-34.5 79.5l13 13h5q7 -50 27 -74t56 -24t56 24t27 74h5z" />
    <glyph glyph-name="Uring" unicode="&#x16e;" horiz-adv-x="612" 
d="M526 229q3 -110 -55 -171.5t-165 -61.5t-163.5 60t-56.5 173v408h20v-408q-1 -103 51 -158t149 -55t148.5 55t51.5 158v408h20v-408zM360 832q19 -21 19 -49q0 -31 -21.5 -50t-49.5 -19t-49 19.5t-21 50.5q0 30 19.5 49.5t50.5 19.5q33 0 52 -21zM271.5 819.5
q-13.5 -13.5 -13.5 -35.5q0 -23 14.5 -36.5t35.5 -13.5t36 13t15 36q0 21 -13.5 35.5t-37.5 14.5q-23 0 -36.5 -13.5z" />
    <glyph glyph-name="uring" unicode="&#x16f;" horiz-adv-x="504" 
d="M475 29l-4 -18q-20 -14 -45 -14q-28 0 -41 20t-13 62h-4q-77 -83 -160 -83q-57 0 -87.5 35.5t-30.5 100.5v317l20 4v-320q0 -56 26 -86.5t75 -30.5q40 0 81 23.5t80 68.5v341l20 4v-374q0 -32 8.5 -47t27.5 -15q23 0 41 15zM304 647q19 -21 19 -49q0 -31 -21.5 -50
t-49.5 -19t-49 19.5t-21 50.5q0 30 19.5 49.5t50.5 19.5q33 0 52 -21zM215.5 634.5q-13.5 -13.5 -13.5 -35.5q0 -23 14.5 -36.5t35.5 -13.5t36 13t15 36q0 21 -13.5 35.5t-37.5 14.5q-23 0 -36.5 -13.5z" />
    <glyph glyph-name="Uhungarumlaut" unicode="&#x170;" horiz-adv-x="612" 
d="M526 229q3 -110 -55 -171.5t-165 -61.5t-163.5 60t-56.5 173v408h20v-408q-1 -103 51 -158t149 -55t148.5 55t51.5 158v408h20v-408zM245 757q75 70 89 84l5 -1l10 -10l-1 -5q-35 -35 -112 -105l-5 1l-11 13zM375 757q75 70 89 84l5 -1l10 -10l-1 -5q-35 -35 -112 -105
l-5 1l-11 13z" />
    <glyph glyph-name="uhungarumlaut" unicode="&#x171;" horiz-adv-x="504" 
d="M475 29l-4 -18q-20 -14 -45 -14q-28 0 -41 20t-13 62h-4q-77 -83 -160 -83q-57 0 -87.5 35.5t-30.5 100.5v317l20 4v-320q0 -56 26 -86.5t75 -30.5q40 0 81 23.5t80 68.5v341l20 4v-374q0 -32 8.5 -47t27.5 -15q23 0 41 15zM280 667l5 -1l10 -10l-1 -5q-70 -69 -144 -135
l-5 1l-11 13q76 67 146 137zM410 667l5 -1l10 -10l-1 -5q-71 -69 -144 -135l-5 1l-11 13q77 68 146 137z" />
    <glyph glyph-name="Uogonek" unicode="&#x172;" horiz-adv-x="612" 
d="M526 229q3 -110 -55 -171.5t-165 -61.5t-163.5 60t-56.5 173v408h20v-408q-1 -103 51 -158t149 -55t148.5 55t51.5 158v408h20v-408zM323 -176.5q-17 15.5 -17 42.5q0 17 6.5 32.5t27 44t50.5 67.5q14 18 13 16h24q-37 -47 -61 -79t-31.5 -47.5t-7.5 -30.5q0 -40 43 -40
q41 0 77 52h2l11 -16q-42 -57 -92 -57q-28 0 -45 15.5z" />
    <glyph glyph-name="uogonek" unicode="&#x173;" horiz-adv-x="504" 
d="M475 29l-4 -18q-20 -14 -45 -14q-28 0 -41 20t-13 62h-4q-77 -83 -160 -83q-57 0 -87.5 35.5t-30.5 100.5v317l20 4v-320q0 -56 26 -86.5t75 -30.5q40 0 81 23.5t80 68.5v341l20 4v-374q0 -32 8.5 -47t27.5 -15q23 0 41 15zM367 -191.5q-17 15.5 -17 42.5q0 17 6.5 32.5
t27 44t50.5 67.5q14 18 13 16h24q-37 -47 -61 -79t-31.5 -47.5t-7.5 -30.5q0 -40 43 -40q41 0 77 52h2l11 -16q-42 -57 -92 -57q-28 0 -45 15.5z" />
    <glyph glyph-name="Wcircumflex" unicode="&#x174;" horiz-adv-x="884" 
d="M622 0h-20l-156 438h-4l-170 -438h-20l-229 637h23l13 -43l202 -560h4l169 437l-60 166h22l13 -43l202 -560h4l219 560l14 43h23zM327 752q47 33 98 76h16q66 -52 100 -76l-7 -14h-5q-46 32 -95 70q-49 -38 -95 -70h-5z" />
    <glyph glyph-name="wcircumflex" unicode="&#x175;" horiz-adv-x="632" 
d="M52 409l112 -377h4l128 377l14 43h23l11 -43l111 -377h4l129 377l14 43h23l-158 -452h-22l-123 416h-4l-142 -416h-22l-135 450l21 4zM208 532q38 43 101 126h18q63 -83 101 -126l-9 -12h-5q-48 53 -96 117q-48 -64 -96 -117h-5z" />
    <glyph glyph-name="Ycircumflex" unicode="&#x176;" horiz-adv-x="495" 
d="M248 245v-245h-20v246l-202 391h26l11 -26l173 -334h5l188 334l11 26h26zM132 752q47 33 98 76h16q66 -52 100 -76l-7 -14h-5q-46 32 -95 70q-49 -38 -95 -70h-5z" />
    <glyph glyph-name="ycircumflex" unicode="&#x177;" horiz-adv-x="405" 
d="M54 409l140 -373h5l146 373l15 43h24l-177 -452q-26 -67 -53 -104t-63 -55.5t-95 -30.5h-5q-4 4 -8 12v6q60 12 95 29.5t59.5 50t47.5 92.5l-166 450l21 4zM95 532q38 43 101 126h18q63 -83 101 -126l-9 -12h-5q-48 53 -96 117q-48 -64 -96 -117h-5z" />
    <glyph glyph-name="Ydieresis" unicode="&#x178;" horiz-adv-x="495" 
d="M248 245v-245h-20v246l-202 391h26l11 -26l173 -334h5l188 334l11 26h26zM183.5 794.5q5.5 -5.5 5.5 -14.5t-5.5 -14.5t-14.5 -5.5t-14.5 5.5t-5.5 14.5t5.5 14.5t14.5 5.5t14.5 -5.5zM323.5 794.5q5.5 -5.5 5.5 -14.5t-5.5 -14.5t-14.5 -5.5t-14.5 5.5t-5.5 14.5
t5.5 14.5t14.5 5.5t14.5 -5.5z" />
    <glyph glyph-name="Zacute" unicode="&#x179;" horiz-adv-x="507" 
d="M460 620l-401 -600h331l68 1l4 -5l-3 -16h-391l-36 -1v18l401 600h-320l-58 -1l-4 5l3 17l65 -1h304l37 1v-18zM363 834l7 -12l-2 -5q-67 -38 -174 -93l-5 3l-7 15q91 44 176 94z" />
    <glyph glyph-name="zacute" unicode="&#x17a;" horiz-adv-x="399" 
d="M107 452h224l25 1l1 -17l-291 -416h237l53 1l3 -4l-4 -18l-57 1h-233l-27 -1v17l291 416h-228l-46 -1l-4 4l4 18zM302 668l10 -10l-1 -5q-69 -69 -144 -135l-5 1l-11 13q69 58 146 137z" />
    <glyph glyph-name="Zdotaccent" unicode="&#x17b;" horiz-adv-x="507" 
d="M460 620l-401 -600h331l68 1l4 -5l-3 -16h-391l-36 -1v18l401 600h-320l-58 -1l-4 5l3 17l65 -1h304l37 1v-18zM268.5 810.5q5.5 -5.5 5.5 -14.5t-5.5 -14.5t-14.5 -5.5t-14.5 5.5t-5.5 14.5t5.5 14.5t14.5 5.5t14.5 -5.5z" />
    <glyph glyph-name="zdotaccent" unicode="&#x17c;" horiz-adv-x="399" 
d="M107 452h224l25 1l1 -17l-291 -416h237l53 1l3 -4l-4 -18l-57 1h-233l-27 -1v17l291 416h-228l-46 -1l-4 4l4 18zM214.5 625.5q5.5 -5.5 5.5 -14.5t-5.5 -14.5t-14.5 -5.5t-14.5 5.5t-5.5 14.5t5.5 14.5t14.5 5.5t14.5 -5.5z" />
    <glyph glyph-name="Zcaron" unicode="&#x17d;" horiz-adv-x="507" 
d="M460 620l-401 -600h331l68 1l4 -5l-3 -16h-391l-36 -1v18l401 600h-320l-58 -1l-4 5l3 17l65 -1h304l37 1v-18zM361 805q-47 -33 -98 -76h-16q-66 52 -100 76l7 14h5q46 -32 95 -70q49 38 95 70h5z" />
    <glyph glyph-name="zcaron" unicode="&#x17e;" horiz-adv-x="399" 
d="M107 452h224l25 1l1 -17l-291 -416h237l53 1l3 -4l-4 -18l-57 1h-233l-27 -1v17l291 416h-228l-46 -1l-4 4l4 18zM310 646q-38 -43 -101 -126h-18q-63 83 -101 126l9 12h5q48 -53 96 -117q48 64 96 117h5z" />
    <glyph glyph-name="uni018F" unicode="&#x18f;" horiz-adv-x="615" 
d="M497.5 558q69.5 -83 69.5 -234q0 -100 -32 -174t-91.5 -114.5t-139.5 -40.5q-70 0 -124 28.5t-84 79.5t-30 118q0 23 3 42l7 9l469 6q2 30 2 46q0 142 -64.5 219.5t-181.5 77.5q-54 0 -106.5 -16t-88.5 -43l-7 2l2 19q43 28 95.5 43t105.5 15q126 0 195.5 -83zM464.5 80
q63.5 64 78.5 177l-457 -5l-1 -32q0 -60 27.5 -106.5t77 -72t114.5 -25.5q97 0 160.5 64z" />
    <glyph glyph-name="florin" unicode="&#x192;" horiz-adv-x="235" 
d="M330 603l-5 -19l-3 -2q-23 9 -53 9q-100 0 -115 -115l-14 -111h114l3 -4l-2 -16h-117l-38 -304q-7 -65 -27 -103t-72 -87l-12 10l1 5q47 46 65 81t25 92l18 146l20 160h-63l-4 4l2 16h67l14 111q7 65 42 100t92 35q24 0 62 -8z" />
    <glyph glyph-name="Ohorn" unicode="&#x1a0;" horiz-adv-x="630" 
d="M554.5 484q24.5 -66 24.5 -158q0 -158 -70.5 -244.5t-199.5 -86.5q-126 0 -193.5 83t-67.5 237q0 156 69 241.5t195 85.5q37 0 63.5 -6t58.5 -17q4 -1 21.5 -6.5t32.5 -5.5q24 0 40.5 14t16.5 35q0 34 -32 69l2 5q8 5 12 5q13 0 25.5 -26t12.5 -52q0 -33 -22.5 -52
t-59.5 -18q47 -37 71.5 -103zM493.5 96.5q65.5 81.5 65.5 229.5q0 144 -62 220t-180 76q-120 0 -184.5 -79t-64.5 -227q0 -145 62.5 -223t178.5 -78q119 0 184.5 81.5z" />
    <glyph glyph-name="ohorn" unicode="&#x1a1;" horiz-adv-x="513" 
d="M437.5 437.5q-28.5 -23.5 -76.5 -22.5q68 -61 68 -186q0 -109 -50.5 -171.5t-138.5 -62.5q-86 0 -135 60.5t-49 166.5q0 109 51 172t139 63q32 0 72 -12q34 -10 53 -10q35 0 55 16.5t20 45.5q0 35 -34 71l2 5q8 5 13 5q13 0 26 -25.5t13 -50.5q0 -41 -28.5 -64.5z
M365.5 382.5q-43.5 54.5 -120.5 54.5q-79 0 -124 -57.5t-45 -157.5q0 -98 43.5 -152.5t120.5 -54.5q79 0 124 57.5t45 157.5q0 98 -43.5 152.5z" />
    <glyph glyph-name="Uhorn" unicode="&#x1af;" horiz-adv-x="622" 
d="M526 229q3 -110 -55 -171.5t-165 -61.5t-163.5 60t-56.5 173v408h20v-408q-1 -103 51 -158t149 -55t148.5 55t51.5 158v408h10q31 0 50 14.5t19 38.5q0 28 -34 61l2 5q8 5 12 5q6 0 15.5 -10t17 -26.5t7.5 -34.5q0 -31 -21.5 -50.5t-57.5 -22.5v-388z" />
    <glyph glyph-name="uhorn" unicode="&#x1b0;" horiz-adv-x="531" 
d="M470.5 587.5q9.5 -10.5 16.5 -28t7 -36.5q0 -35 -24 -56.5t-75 -31.5v-356q0 -32 8.5 -47t27.5 -15q10 0 21.5 4t20.5 11l6 -3l-4 -18q-20 -14 -45 -14q-28 0 -41.5 19.5t-13.5 62.5h-4q-79 -83 -163 -83q-56 0 -87 35t-31 101v317l20 4v-320q0 -56 26.5 -86.5
t74.5 -30.5q82 0 164 92v341l16 3q43 8 63 24t20 42q0 15 -8.5 33.5t-25.5 36.5l2 5q7 5 13 5t15.5 -10.5z" />
    <glyph glyph-name="uni01C4" unicode="&#x1c4;" horiz-adv-x="1144" 
d="M517 563.5q72 -78.5 72 -224.5q0 -166 -74.5 -255t-213.5 -89q-34 0 -90 1.5t-101 3.5v637l201 5q134 0 206 -78.5zM499.5 99q69.5 84 69.5 240q0 137 -67 210t-191 73q-31 0 -84.5 -1.5t-96.5 -3.5v-597q42 -2 91.5 -3.5t79.5 -1.5q129 0 198.5 84zM1097 620l-401 -600
h331l68 1l4 -5l-3 -16h-391l-36 -1v18l401 600h-320l-58 -1l-4 5l3 17l65 -1h304l37 1v-18zM998 805q-47 -33 -98 -76h-16q-66 52 -100 76l7 14h5q46 -32 95 -70q49 38 95 70h5z" />
    <glyph glyph-name="uni01C5" unicode="&#x1c5;" horiz-adv-x="1036" 
d="M517 563.5q72 -78.5 72 -224.5q0 -166 -74.5 -255t-213.5 -89q-34 0 -90 1.5t-101 3.5v637l201 5q134 0 206 -78.5zM499.5 99q69.5 84 69.5 240q0 137 -67 210t-191 73q-31 0 -84.5 -1.5t-96.5 -3.5v-597q42 -2 91.5 -3.5t79.5 -1.5q129 0 198.5 84zM744 452h224l25 1
l1 -17l-291 -416h237l53 1l3 -4l-4 -18l-57 1h-233l-27 -1v17l291 416h-228l-46 -1l-4 4l4 18zM947 646q-38 -43 -101 -126h-18q-63 83 -101 126l9 12h5q48 -53 96 -117q48 64 96 117h5z" />
    <glyph glyph-name="uni01C6" unicode="&#x1c6;" horiz-adv-x="906" 
d="M396 75q0 -30 8 -44t27 -14q23 0 41 15l6 -3l-4 -18q-20 -14 -44 -14q-27 0 -40 17t-14 55h-3q-32 -37 -67 -55.5t-77 -18.5q-78 0 -125.5 59t-47.5 163q0 115 55.5 177.5t156.5 62.5q51 0 108 -17v258l20 4v-627zM126 379.5q-50 -57.5 -50 -162.5q0 -94 42.5 -148
t111.5 -54q84 0 146 86v317q-55 19 -108 19q-92 0 -142 -57.5zM614 452h224l25 1l1 -17l-291 -416h237l53 1l3 -4l-4 -18l-57 1h-233l-27 -1v17l291 416h-228l-46 -1l-4 4l4 18zM817 646q-38 -43 -101 -126h-18q-63 83 -101 126l9 12h5q48 -53 96 -117q48 64 96 117h5z" />
    <glyph glyph-name="uni01C7" unicode="&#x1c7;" horiz-adv-x="666" 
d="M393 16l-4 -16h-280v637h20v-617h261zM558 115q0 -70 -29.5 -118.5t-99.5 -94.5l-11 11v6q64 42 92 87t28 107v504h-128l-4 4l3 16h149v-522z" />
    <glyph glyph-name="uni01C8" unicode="&#x1c8;" horiz-adv-x="620" 
d="M393 16l-4 -16h-280v637h20v-617h261zM526 451v-439q0 -78 -19.5 -120.5t-73.5 -83.5l-10 10v6q48 37 65.5 76.5t17.5 107.5v424h-84l-4 4l3 16h83l20 1zM515.5 625.5q5.5 -5.5 5.5 -14.5t-5.5 -14.5t-14.5 -5.5t-14.5 5.5t-5.5 14.5t5.5 14.5t14.5 5.5t14.5 -5.5z" />
    <glyph glyph-name="uni01C9" unicode="&#x1c9;" horiz-adv-x="452" 
d="M125 0h-20v698l20 4v-702zM358 451v-439q0 -78 -19.5 -120.5t-73.5 -83.5l-10 10v6q48 37 65.5 76.5t17.5 107.5v424h-84l-4 4l3 16h83l20 1zM347.5 625.5q5.5 -5.5 5.5 -14.5t-5.5 -14.5t-14.5 -5.5t-14.5 5.5t-5.5 14.5t5.5 14.5t14.5 5.5t14.5 -5.5z" />
    <glyph glyph-name="uni01CA" unicode="&#x1ca;" horiz-adv-x="938" 
d="M559 176l-1 -176h-19l-404 595h-4l-1 -396v-199h-20v190l1 447h19l404 -595h4l2 594l20 2zM830 115q0 -70 -29.5 -118.5t-99.5 -94.5l-11 11v6q64 42 92 87t28 107v504h-128l-4 4l3 16h149v-522z" />
    <glyph glyph-name="uni01CB" unicode="&#x1cb;" horiz-adv-x="892" 
d="M559 176l-1 -176h-19l-404 595h-4l-1 -396v-199h-20v190l1 447h19l404 -595h4l2 594l20 2zM798 451v-439q0 -78 -19.5 -120.5t-73.5 -83.5l-10 10v6q48 37 65.5 76.5t17.5 107.5v424h-84l-4 4l3 16h83l20 1zM787.5 625.5q5.5 -5.5 5.5 -14.5t-5.5 -14.5t-14.5 -5.5
t-14.5 5.5t-5.5 14.5t5.5 14.5t14.5 5.5t14.5 -5.5z" />
    <glyph glyph-name="uni01CC" unicode="&#x1cc;" horiz-adv-x="723" 
d="M377 421.5q34 -35.5 34 -100.5v-321h-22l2 320q0 55 -29 86t-82 31q-39 0 -80.5 -25.5t-79.5 -70.5v-341h-20v449l20 4v-79h4q37 40 77.5 61.5t78.5 21.5q63 0 97 -35.5zM629 451v-439q0 -78 -19.5 -120.5t-73.5 -83.5l-10 10v6q48 37 65.5 76.5t17.5 107.5v424h-84l-4 4
l3 16h83l20 1zM618.5 625.5q5.5 -5.5 5.5 -14.5t-5.5 -14.5t-14.5 -5.5t-14.5 5.5t-5.5 14.5t5.5 14.5t14.5 5.5t14.5 -5.5z" />
    <glyph glyph-name="uni01CD" unicode="&#x1cd;" horiz-adv-x="554" 
d="M526 0h-23l-13 43l-63 170h-302l-68 -170l-14 -43h-24l254 637h20zM284 603h-4l-147 -370h287zM384 805q-47 -33 -98 -76h-16q-66 52 -100 76l7 14h5q46 -32 95 -70q49 38 95 70h5z" />
    <glyph glyph-name="uni01CE" unicode="&#x1ce;" horiz-adv-x="442" 
d="M302.5 427.5q30.5 -29.5 30.5 -83.5q0 -33 -5 -133l-5 -138q0 -29 8.5 -42.5t27.5 -13.5q10 0 21.5 4t20.5 11l6 -3l-4 -18q-20 -14 -45 -14q-28 0 -41 17.5t-14 58.5h-3q-30 -35 -64 -56t-67 -22q-54 0 -83.5 29.5t-29.5 82.5q0 36 21.5 61t60.5 34l172 40l3 98
q0 47 -25.5 72t-73.5 25q-30 0 -65.5 -17t-71.5 -48l-6 2l-5 15q37 33 75.5 50.5t73.5 17.5q57 0 87.5 -29.5zM143 182q-32 -8 -49.5 -27t-17.5 -48q0 -43 24.5 -67.5t67.5 -24.5q33 0 68.5 24t67.5 67l5 115zM321 646q-38 -43 -101 -126h-18q-63 83 -101 126l9 12h5
q48 -53 96 -117q48 64 96 117h5z" />
    <glyph glyph-name="uni01CF" unicode="&#x1cf;" horiz-adv-x="240" 
d="M130 0h-20v637h20v-637zM227 805q-47 -33 -98 -76h-16q-66 52 -100 76l7 14h5q46 -32 95 -70q49 38 95 70h5z" />
    <glyph glyph-name="uni01D0" unicode="&#x1d0;" horiz-adv-x="222" 
d="M101 449l20 4v-453h-20v449zM221 646q-38 -43 -101 -126h-18q-63 83 -101 126l9 12h5q48 -53 96 -117q48 64 96 117h5z" />
    <glyph glyph-name="uni01D1" unicode="&#x1d1;" horiz-adv-x="627" 
d="M511.5 561q67.5 -81 67.5 -232q0 -161 -70 -247.5t-201 -86.5q-125 0 -192.5 83.5t-67.5 238.5q0 157 70 241t200 84q126 0 193.5 -81zM132.5 543q-64.5 -79 -64.5 -226q0 -145 62 -223.5t178 -78.5q121 0 186 81.5t65 232.5q0 141 -62.5 217t-178.5 76
q-121 0 -185.5 -79zM421 805q-47 -33 -98 -76h-16q-66 52 -100 76l7 14h5q46 -32 95 -70q49 38 95 70h5z" />
    <glyph glyph-name="uni01D2" unicode="&#x1d2;" horiz-adv-x="487" 
d="M380 396.5q49 -60.5 49 -166.5q0 -109 -50.5 -172t-139.5 -63q-85 0 -134 60.5t-49 166.5q0 109 50.5 172t139.5 63q85 0 134 -60.5zM121.5 380q-45.5 -57 -45.5 -158q0 -97 43.5 -152t119.5 -55q79 0 124.5 57t45.5 158q0 97 -43.5 152t-119.5 55q-79 0 -124.5 -57z
M353 646q-38 -43 -101 -126h-18q-63 83 -101 126l9 12h5q48 -53 96 -117q48 64 96 117h5z" />
    <glyph glyph-name="uni01D3" unicode="&#x1d3;" horiz-adv-x="612" 
d="M526 229q3 -110 -55 -171.5t-165 -61.5t-163.5 60t-56.5 173v408h20v-408q-1 -103 51 -158t149 -55t148.5 55t51.5 158v408h20v-408zM417 805q-47 -33 -98 -76h-16q-66 52 -100 76l7 14h5q46 -32 95 -70q49 38 95 70h5z" />
    <glyph glyph-name="uni01D4" unicode="&#x1d4;" horiz-adv-x="504" 
d="M475 29l-4 -18q-20 -14 -45 -14q-28 0 -41 20t-13 62h-4q-77 -83 -160 -83q-57 0 -87.5 35.5t-30.5 100.5v317l20 4v-320q0 -56 26 -86.5t75 -30.5q40 0 81 23.5t80 68.5v341l20 4v-374q0 -32 8.5 -47t27.5 -15q23 0 41 15zM364 646q-38 -43 -101 -126h-18
q-63 83 -101 126l9 12h5q48 -53 96 -117q48 64 96 117h5z" />
    <glyph glyph-name="uni01D5" unicode="&#x1d5;" horiz-adv-x="612" 
d="M526 229q3 -110 -55 -171.5t-165 -61.5t-163.5 60t-56.5 173v408h20v-408q-1 -103 51 -158t149 -55t148.5 55t51.5 158v408h20v-408zM414 873l-2 -17h-200l-3 3l2 17h200zM253.5 774.5q5.5 -5.5 5.5 -14.5t-5.5 -14.5t-14.5 -5.5t-14.5 5.5t-5.5 14.5t5.5 14.5t14.5 5.5
t14.5 -5.5zM393.5 774.5q5.5 -5.5 5.5 -14.5t-5.5 -14.5t-14.5 -5.5t-14.5 5.5t-5.5 14.5t5.5 14.5t14.5 5.5t14.5 -5.5z" />
    <glyph glyph-name="uni01D6" unicode="&#x1d6;" horiz-adv-x="504" 
d="M475 29l-4 -18q-20 -14 -45 -14q-28 0 -41 20t-13 62h-4q-77 -83 -160 -83q-57 0 -87.5 35.5t-30.5 100.5v317l20 4v-320q0 -56 26 -86.5t75 -30.5q40 0 81 23.5t80 68.5v341l20 4v-374q0 -32 8.5 -47t27.5 -15q23 0 41 15zM358 688l-2 -17h-200l-3 3l2 17h200z
M197.5 589.5q5.5 -5.5 5.5 -14.5t-5.5 -14.5t-14.5 -5.5t-14.5 5.5t-5.5 14.5t5.5 14.5t14.5 5.5t14.5 -5.5zM337.5 589.5q5.5 -5.5 5.5 -14.5t-5.5 -14.5t-14.5 -5.5t-14.5 5.5t-5.5 14.5t5.5 14.5t14.5 5.5t14.5 -5.5z" />
    <glyph glyph-name="uni01D7" unicode="&#x1d7;" horiz-adv-x="612" 
d="M526 229q3 -110 -55 -171.5t-165 -61.5t-163.5 60t-56.5 173v408h20v-408q-1 -103 51 -158t149 -55t148.5 55t51.5 158v408h20v-408zM406 908l5 -13l-3 -5q-80 -29 -187 -61l-5 4l-4 16q93 26 190 62zM253.5 774.5q5.5 -5.5 5.5 -14.5t-5.5 -14.5t-14.5 -5.5t-14.5 5.5
t-5.5 14.5t5.5 14.5t14.5 5.5t14.5 -5.5zM393.5 774.5q5.5 -5.5 5.5 -14.5t-5.5 -14.5t-14.5 -5.5t-14.5 5.5t-5.5 14.5t5.5 14.5t14.5 5.5t14.5 -5.5z" />
    <glyph glyph-name="uni01D8" unicode="&#x1d8;" horiz-adv-x="504" 
d="M475 29l-4 -18q-20 -14 -45 -14q-28 0 -41 20t-13 62h-4q-77 -83 -160 -83q-57 0 -87.5 35.5t-30.5 100.5v317l20 4v-320q0 -56 26 -86.5t75 -30.5q40 0 81 23.5t80 68.5v341l20 4v-374q0 -32 8.5 -47t27.5 -15q23 0 41 15zM348 723l5 -13l-3 -5q-80 -29 -187 -61l-5 4
l-4 16q93 26 190 62zM195.5 589.5q5.5 -5.5 5.5 -14.5t-5.5 -14.5t-14.5 -5.5t-14.5 5.5t-5.5 14.5t5.5 14.5t14.5 5.5t14.5 -5.5zM335.5 589.5q5.5 -5.5 5.5 -14.5t-5.5 -14.5t-14.5 -5.5t-14.5 5.5t-5.5 14.5t5.5 14.5t14.5 5.5t14.5 -5.5z" />
    <glyph glyph-name="uni01D9" unicode="&#x1d9;" horiz-adv-x="612" 
d="M526 229q3 -110 -55 -171.5t-165 -61.5t-163.5 60t-56.5 173v408h20v-408q-1 -103 51 -158t149 -55t148.5 55t51.5 158v408h20v-408zM417 889q-47 -33 -98 -76h-16q-66 52 -100 76l7 14h5q46 -32 95 -70q49 38 95 70h5zM253.5 774.5q5.5 -5.5 5.5 -14.5t-5.5 -14.5
t-14.5 -5.5t-14.5 5.5t-5.5 14.5t5.5 14.5t14.5 5.5t14.5 -5.5zM393.5 774.5q5.5 -5.5 5.5 -14.5t-5.5 -14.5t-14.5 -5.5t-14.5 5.5t-5.5 14.5t5.5 14.5t14.5 5.5t14.5 -5.5z" />
    <glyph glyph-name="uni01DA" unicode="&#x1da;" horiz-adv-x="504" 
d="M475 29l-4 -18q-20 -14 -45 -14q-28 0 -41 20t-13 62h-4q-77 -83 -160 -83q-57 0 -87.5 35.5t-30.5 100.5v317l20 4v-320q0 -56 26 -86.5t75 -30.5q40 0 81 23.5t80 68.5v341l20 4v-374q0 -32 8.5 -47t27.5 -15q23 0 41 15zM361 704q-47 -33 -98 -76h-16q-66 52 -100 76
l7 14h5q46 -32 95 -70q49 38 95 70h5zM197.5 589.5q5.5 -5.5 5.5 -14.5t-5.5 -14.5t-14.5 -5.5t-14.5 5.5t-5.5 14.5t5.5 14.5t14.5 5.5t14.5 -5.5zM337.5 589.5q5.5 -5.5 5.5 -14.5t-5.5 -14.5t-14.5 -5.5t-14.5 5.5t-5.5 14.5t5.5 14.5t14.5 5.5t14.5 -5.5z" />
    <glyph glyph-name="uni01DB" unicode="&#x1db;" horiz-adv-x="612" 
d="M526 229q3 -110 -55 -171.5t-165 -61.5t-163.5 60t-56.5 173v408h20v-408q-1 -103 51 -158t149 -55t148.5 55t51.5 158v408h20v-408zM411 859l-4 -16l-5 -4q-107 32 -187 61l-3 5l5 13l4 3q97 -36 190 -62zM253.5 774.5q5.5 -5.5 5.5 -14.5t-5.5 -14.5t-14.5 -5.5
t-14.5 5.5t-5.5 14.5t5.5 14.5t14.5 5.5t14.5 -5.5zM393.5 774.5q5.5 -5.5 5.5 -14.5t-5.5 -14.5t-14.5 -5.5t-14.5 5.5t-5.5 14.5t5.5 14.5t14.5 5.5t14.5 -5.5z" />
    <glyph glyph-name="uni01DC" unicode="&#x1dc;" horiz-adv-x="504" 
d="M475 29l-4 -18q-20 -14 -45 -14q-28 0 -41 20t-13 62h-4q-77 -83 -160 -83q-57 0 -87.5 35.5t-30.5 100.5v317l20 4v-320q0 -56 26 -86.5t75 -30.5q40 0 81 23.5t80 68.5v341l20 4v-374q0 -32 8.5 -47t27.5 -15q23 0 41 15zM159 705l-3 5l5 13l4 3q97 -36 190 -62l-4 -16
l-5 -4q-107 32 -187 61zM168.5 560.5q-5.5 5.5 -5.5 14.5t5.5 14.5t14.5 5.5t14.5 -5.5t5.5 -14.5t-5.5 -14.5t-14.5 -5.5t-14.5 5.5zM308.5 560.5q-5.5 5.5 -5.5 14.5t5.5 14.5t14.5 5.5t14.5 -5.5t5.5 -14.5t-5.5 -14.5t-14.5 -5.5t-14.5 5.5z" />
    <glyph glyph-name="Gcaron" unicode="&#x1e6;" horiz-adv-x="603" 
d="M432.5 627q46.5 -14 90.5 -40l-6 -18h-7q-87 52 -167 52q-132 0 -203.5 -80t-71.5 -229q0 -143 62 -220t177 -77q47 0 86.5 6.5t102.5 23.5v201l20 2v-218q-66 -19 -109.5 -26.5t-98.5 -8.5q-125 0 -192.5 82.5t-67.5 235.5q0 158 76.5 243t218.5 85q43 0 89.5 -14z
M432 805q-47 -33 -98 -76h-16q-66 52 -100 76l7 14h5q46 -32 95 -70q49 38 95 70h5z" />
    <glyph glyph-name="gcaron" unicode="&#x1e7;" horiz-adv-x="472" 
d="M346 416l-2 -3q39 -41 39 -109q0 -71 -42 -112.5t-115 -41.5q-42 0 -75 14q-31 -20 -43 -33t-12 -24q0 -23 30.5 -33.5t97.5 -21.5q60 -9 98.5 -18.5t65.5 -31t27 -57.5t-27.5 -67.5t-73.5 -50.5t-98 -19q-71 0 -113.5 32.5t-42.5 82.5q5 34 29 60.5t73 54.5v5
q-42 9 -64.5 25t-22.5 43q5 25 57 60v3q-29 20 -45 52.5t-16 74.5q0 73 42 114t116 41q55 0 94 -25q74 14 128 29l4 -3v-18q-47 -12 -109 -23zM327 205.5q37 35.5 37 98.5q0 62 -36 97t-99 35q-65 0 -102 -36t-37 -99q0 -61 36 -96t100 -35t101 35.5zM372.5 -9
q-22.5 17 -55 25t-86.5 16q-13 1 -34 5q-55 -28 -86 -57t-31 -62q0 -37 37 -63.5t99 -26.5q48 0 89 17t65.5 44t24.5 56t-22.5 46zM347 636q-38 -43 -101 -126h-18q-63 83 -101 126l9 12h5q48 -53 96 -117q48 64 96 117h5z" />
    <glyph glyph-name="uni01EA" unicode="&#x1ea;" horiz-adv-x="627" 
d="M511.5 561q67.5 -81 67.5 -232q0 -161 -70 -247.5t-201 -86.5q-125 0 -192.5 83.5t-67.5 238.5q0 157 70 241t200 84q126 0 193.5 -81zM132.5 543q-64.5 -79 -64.5 -226q0 -145 62 -223.5t178 -78.5q121 0 186 81.5t65 232.5q0 141 -62.5 217t-178.5 76
q-121 0 -185.5 -79zM321 -182.5q-17 15.5 -17 42.5q0 17 6.5 32.5t27 44t50.5 67.5q14 18 13 16h24q-37 -47 -61 -79t-31.5 -47.5t-7.5 -30.5q0 -40 43 -40q41 0 77 52h2l11 -16q-42 -57 -92 -57q-28 0 -45 15.5z" />
    <glyph glyph-name="uni01EB" unicode="&#x1eb;" horiz-adv-x="487" 
d="M380 396.5q49 -60.5 49 -166.5q0 -109 -50.5 -172t-139.5 -63q-85 0 -134 60.5t-49 166.5q0 109 50.5 172t139.5 63q85 0 134 -60.5zM121.5 380q-45.5 -57 -45.5 -158q0 -97 43.5 -152t119.5 -55q79 0 124.5 57t45.5 158q0 97 -43.5 152t-119.5 55q-79 0 -124.5 -57z
M230 -179.5q-17 15.5 -17 42.5q0 17 6.5 32.5t27 44t50.5 67.5q14 18 13 16h24q-37 -47 -61 -79t-31.5 -47.5t-7.5 -30.5q0 -40 43 -40q41 0 77 52h2l11 -16q-42 -57 -92 -57q-28 0 -45 15.5z" />
    <glyph glyph-name="Aringacute" unicode="&#x1fa;" horiz-adv-x="554" 
d="M210 777l-5 16q93 26 190 62l5 -3l4 -13l-2 -5q-74 -27 -188 -61zM526 0h-23l-13 43l-63 170h-302l-68 -170l-14 -43h-24l247 619q-22 6 -37.5 24t-15.5 44q0 30 19.5 49.5t50.5 19.5q33 0 52 -21t19 -49q0 -26 -15.5 -44t-38.5 -23zM247.5 650.5q14.5 -13.5 35.5 -13.5
t36 13t15 36q0 21 -13.5 35.5t-37.5 14.5q-23 0 -36.5 -13.5t-13.5 -35.5q0 -23 14.5 -36.5zM284 603h-4l-147 -370h287z" />
    <glyph glyph-name="aringacute" unicode="&#x1fb;" horiz-adv-x="442" 
d="M302.5 427.5q30.5 -29.5 30.5 -83.5q0 -33 -5 -133l-5 -138q0 -29 8.5 -42.5t27.5 -13.5q10 0 21.5 4t20.5 11l6 -3l-4 -18q-20 -14 -45 -14q-28 0 -41 17.5t-14 58.5h-3q-30 -35 -64 -56t-67 -22q-54 0 -83.5 29.5t-29.5 82.5q0 36 21.5 61t60.5 34l172 40l3 98
q0 47 -25.5 72t-73.5 25q-30 0 -65.5 -17t-71.5 -48l-6 2l-5 15q37 33 75.5 50.5t73.5 17.5q57 0 87.5 -29.5zM143 182q-32 -8 -49.5 -27t-17.5 -48q0 -43 24.5 -67.5t67.5 -24.5q33 0 68.5 24t67.5 67l5 115zM261 647q19 -21 19 -49q0 -31 -21.5 -50t-49.5 -19t-49 19.5
t-21 50.5q0 30 19.5 49.5t50.5 19.5q33 0 52 -21zM172.5 634.5q-13.5 -13.5 -13.5 -35.5q0 -23 14.5 -36.5t35.5 -13.5t36 13t15 36q0 21 -13.5 35.5t-37.5 14.5q-23 0 -36.5 -13.5zM325.54 763.875l4.80664 -13.0381l-2.83984 -4.57715q-72.6064 -25.7705 -187.57 -61.3252
l-4.40332 3.82422l-4.28516 15.9932q97.291 27.5049 189.715 61.9629z" />
    <glyph glyph-name="AEacute" unicode="&#x1fc;" horiz-adv-x="791" 
d="M766 16l-4 -16h-304l-5 43l-42 247l-261 -43l-117 -204l-21 -43h-27l368 637h301l3 -4l-5 -16h-275l51 -304l236 39l3 -3l-3 -17l-233 -38l46 -274h287zM408 310l-50 292h-3l-191 -332zM602 834l7 -12l-2 -5q-67 -38 -174 -93l-5 3l-7 15q91 44 176 94z" />
    <glyph glyph-name="aeacute" unicode="&#x1fd;" horiz-adv-x="662" 
d="M619 294l-296 -69q2 -100 41.5 -155t112.5 -55q35 0 69 12.5t58 33.5l6 -2l-3 -20q-29 -21 -63.5 -32.5t-68.5 -11.5q-55 0 -94 28.5t-59 82.5q-47 -59 -82.5 -84.5t-75.5 -26.5q-53 0 -83 31t-30 82q0 40 20.5 62.5t61.5 31.5l171 39v99q0 46 -24.5 71.5t-67.5 25.5
q-65 0 -140 -65l-6 2l-5 15q78 68 153 68q52 0 80 -28t29 -81q55 109 155 109q65 0 103 -41t43 -115zM401 413.5q-36 -23.5 -57 -63t-21 -84.5v-20l279 65q-5 58 -38 92t-84 34q-43 0 -79 -23.5zM235 41q35 26 80 85q-11 53 -11 94l-166 -38q-36 -9 -51.5 -26.5t-15.5 -47.5
q0 -41 24.5 -67t67.5 -26q37 0 72 26zM439 668l10 -10l-1 -5q-69 -69 -144 -135l-5 1l-11 13q69 58 146 137z" />
    <glyph glyph-name="Oslashacute" unicode="&#x1fe;" horiz-adv-x="627" 
d="M547 503.5q32 -71.5 32 -174.5q0 -161 -70 -247.5t-201 -86.5q-72 0 -126 28l-51 -110l-16 3l-2 4l52 113q-57 38 -87 110t-30 174q0 157 70 241t200 84q66 0 117 -23l42 90l16 -3l2 -5l-42 -91q62 -35 94 -106.5zM95 154.5q27 -67.5 79 -102.5l253 548q-45 22 -109 22
q-121 0 -185.5 -79t-64.5 -226q0 -95 27 -162.5zM494 96.5q65 81.5 65 232.5q0 96 -29.5 162.5t-85.5 99.5l-253 -549q50 -27 117 -27q121 0 186 81.5zM421 834l7 -12l-2 -5q-67 -38 -174 -93l-5 3l-7 15q91 44 176 94z" />
    <glyph glyph-name="oslashacute" unicode="&#x1ff;" horiz-adv-x="487" 
d="M407 351.5q22 -51.5 22 -121.5q0 -109 -50.5 -172t-139.5 -63q-44 0 -80 17l-53 -119l-16 3l-2 4l54 122q-41 26 -63.5 77.5t-22.5 122.5q0 109 50.5 172t139.5 63q46 0 82 -18l40 91l15 -2l2 -5l-41 -93q41 -27 63 -78.5zM95.5 112.5q19.5 -46.5 55.5 -71.5l168 379
q-32 17 -73 17q-79 0 -124.5 -57t-45.5 -158q0 -63 19.5 -109.5zM363.5 72q45.5 57 45.5 158q0 63 -19 109.5t-55 71.5l-168 -380q34 -16 72 -16q79 0 124.5 57zM345 668l10 -10l-1 -5q-69 -69 -144 -135l-5 1l-11 13q69 58 146 137z" />
    <glyph glyph-name="uni0200" unicode="&#x200;" horiz-adv-x="554" 
d="M526 0h-23l-13 43l-63 170h-302l-68 -170l-14 -43h-24l254 637h20zM284 603h-4l-147 -370h287zM226 721l-5 -1q-77 70 -112 105l-1 5l10 10l5 1q14 -14 89 -84l25 -23zM356 721l-5 -1q-77 70 -112 105l-1 5l10 10l5 1q14 -14 89 -84l25 -23z" />
    <glyph glyph-name="uni0201" unicode="&#x201;" horiz-adv-x="442" 
d="M302.5 427.5q30.5 -29.5 30.5 -83.5q0 -33 -5 -133l-5 -138q0 -29 8.5 -42.5t27.5 -13.5q10 0 21.5 4t20.5 11l6 -3l-4 -18q-20 -14 -45 -14q-28 0 -41 17.5t-14 58.5h-3q-30 -35 -64 -56t-67 -22q-54 0 -83.5 29.5t-29.5 82.5q0 36 21.5 61t60.5 34l172 40l3 98
q0 47 -25.5 72t-73.5 25q-30 0 -65.5 -17t-71.5 -48l-6 2l-5 15q37 33 75.5 50.5t73.5 17.5q57 0 87.5 -29.5zM143 182q-32 -8 -49.5 -27t-17.5 -48q0 -43 24.5 -67.5t67.5 -24.5q33 0 68.5 24t67.5 67l5 115zM60 667l-5 -1l-10 -10l1 -5q70 -69 144 -135l5 1l11 13
q-76 68 -146 137zM190 667l-5 -1l-10 -10l1 -5q71 -69 144 -135l5 1l11 13q-76 68 -146 137z" />
    <glyph glyph-name="uni0202" unicode="&#x202;" horiz-adv-x="554" 
d="M526 0h-23l-13 43l-63 170h-302l-68 -170l-14 -43h-24l254 637h20zM284 603h-4l-147 -370h287zM176 730q10 54 34.5 79.5t66.5 25.5t66.5 -25.5t34.5 -79.5l-13 -13h-5q-7 50 -27 74t-56 24t-56 -24t-27 -74h-5z" />
    <glyph glyph-name="uni0203" unicode="&#x203;" horiz-adv-x="442" 
d="M302.5 427.5q30.5 -29.5 30.5 -83.5q0 -33 -5 -133l-5 -138q0 -29 8.5 -42.5t27.5 -13.5q10 0 21.5 4t20.5 11l6 -3l-4 -18q-20 -14 -45 -14q-28 0 -41 17.5t-14 58.5h-3q-30 -35 -64 -56t-67 -22q-54 0 -83.5 29.5t-29.5 82.5q0 36 21.5 61t60.5 34l172 40l3 98
q0 47 -25.5 72t-73.5 25q-30 0 -65.5 -17t-71.5 -48l-6 2l-5 15q37 33 75.5 50.5t73.5 17.5q57 0 87.5 -29.5zM143 182q-32 -8 -49.5 -27t-17.5 -48q0 -43 24.5 -67.5t67.5 -24.5q33 0 68.5 24t67.5 67l5 115zM110 545q10 54 34.5 79.5t66.5 25.5t66.5 -25.5t34.5 -79.5
l-13 -13h-5q-7 50 -27 74t-56 24t-56 -24t-27 -74h-5z" />
    <glyph glyph-name="uni0204" unicode="&#x204;" horiz-adv-x="454" 
d="M425 16l-4 -16h-311v637h308l3 -4l-4 -16h-287v-277h238l3 -4l-4 -16h-237v-300h292zM215 721l-5 -1q-77 70 -112 105l-1 5l10 10l5 1q14 -14 89 -84l25 -23zM345 721l-5 -1q-77 70 -112 105l-1 5l10 10l5 1q14 -14 89 -84l25 -23z" />
    <glyph glyph-name="uni0205" unicode="&#x205;" horiz-adv-x="446" 
d="M349.5 413.5q38.5 -43.5 38.5 -121.5q0 -20 -1 -30l-6 -7l-304 -4q-1 -10 -1 -30q0 -95 43.5 -150.5t118.5 -55.5q37 0 72 11.5t61 31.5l6 -2l-3 -20q-62 -41 -138 -41q-83 0 -131.5 61t-48.5 165q0 108 50.5 172t135.5 64q69 0 107.5 -43.5zM369 296q0 66 -34.5 103.5
t-93.5 37.5q-65 0 -108 -44.5t-54 -121.5l289 4zM79 667l-5 -1l-10 -10l1 -5q70 -69 144 -135l5 1l11 13q-76 68 -146 137zM209 667l-5 -1l-10 -10l1 -5q71 -69 144 -135l5 1l11 13q-76 68 -146 137z" />
    <glyph glyph-name="uni0206" unicode="&#x206;" horiz-adv-x="454" 
d="M425 16l-4 -16h-311v637h308l3 -4l-4 -16h-287v-277h238l3 -4l-4 -16h-237v-300h292zM165 730q10 54 34.5 79.5t66.5 25.5t66.5 -25.5t34.5 -79.5l-13 -13h-5q-7 50 -27 74t-56 24t-56 -24t-27 -74h-5z" />
    <glyph glyph-name="uni0207" unicode="&#x207;" horiz-adv-x="446" 
d="M349.5 413.5q38.5 -43.5 38.5 -121.5q0 -20 -1 -30l-6 -7l-304 -4q-1 -10 -1 -30q0 -95 43.5 -150.5t118.5 -55.5q37 0 72 11.5t61 31.5l6 -2l-3 -20q-62 -41 -138 -41q-83 0 -131.5 61t-48.5 165q0 108 50.5 172t135.5 64q69 0 107.5 -43.5zM369 296q0 66 -34.5 103.5
t-93.5 37.5q-65 0 -108 -44.5t-54 -121.5l289 4zM129 545q10 54 34.5 79.5t66.5 25.5t66.5 -25.5t34.5 -79.5l-13 -13h-5q-7 50 -27 74t-56 24t-56 -24t-27 -74h-5z" />
    <glyph glyph-name="uni0208" unicode="&#x208;" horiz-adv-x="240" 
d="M130 0h-20v637h20v-637zM69 721l-5 -1q-77 70 -112 105l-1 5l10 10l5 1q14 -14 89 -84l25 -23zM199 721l-5 -1q-77 70 -112 105l-1 5l10 10l5 1q14 -14 89 -84l25 -23z" />
    <glyph glyph-name="uni0209" unicode="&#x209;" horiz-adv-x="222" 
d="M101 449l20 4v-453h-20v449zM-40 667l-5 -1l-10 -10l1 -5q70 -69 144 -135l5 1l11 13q-76 68 -146 137zM90 667l-5 -1l-10 -10l1 -5q71 -69 144 -135l5 1l11 13q-76 68 -146 137z" />
    <glyph glyph-name="uni020A" unicode="&#x20a;" horiz-adv-x="240" 
d="M130 0h-20v637h20v-637zM19 730q10 54 34.5 79.5t66.5 25.5t66.5 -25.5t34.5 -79.5l-13 -13h-5q-7 50 -27 74t-56 24t-56 -24t-27 -74h-5z" />
    <glyph glyph-name="uni020B" unicode="&#x20b;" horiz-adv-x="222" 
d="M101 449l20 4v-453h-20v449zM10 545q10 54 34.5 79.5t66.5 25.5t66.5 -25.5t34.5 -79.5l-13 -13h-5q-7 50 -27 74t-56 24t-56 -24t-27 -74h-5z" />
    <glyph glyph-name="uni020C" unicode="&#x20c;" horiz-adv-x="627" 
d="M511.5 561q67.5 -81 67.5 -232q0 -161 -70 -247.5t-201 -86.5q-125 0 -192.5 83.5t-67.5 238.5q0 157 70 241t200 84q126 0 193.5 -81zM132.5 543q-64.5 -79 -64.5 -226q0 -145 62 -223.5t178 -78.5q121 0 186 81.5t65 232.5q0 141 -62.5 217t-178.5 76
q-121 0 -185.5 -79zM263 721l-5 -1q-77 70 -112 105l-1 5l10 10l5 1q14 -14 89 -84l25 -23zM393 721l-5 -1q-77 70 -112 105l-1 5l10 10l5 1q14 -14 89 -84l25 -23z" />
    <glyph glyph-name="uni020D" unicode="&#x20d;" horiz-adv-x="487" 
d="M380 396.5q49 -60.5 49 -166.5q0 -109 -50.5 -172t-139.5 -63q-85 0 -134 60.5t-49 166.5q0 109 50.5 172t139.5 63q85 0 134 -60.5zM121.5 380q-45.5 -57 -45.5 -158q0 -97 43.5 -152t119.5 -55q79 0 124.5 57t45.5 158q0 97 -43.5 152t-119.5 55q-79 0 -124.5 -57z
M92 667l-5 -1l-10 -10l1 -5q70 -69 144 -135l5 1l11 13q-76 68 -146 137zM222 667l-5 -1l-10 -10l1 -5q71 -69 144 -135l5 1l11 13q-76 68 -146 137z" />
    <glyph glyph-name="uni020E" unicode="&#x20e;" horiz-adv-x="627" 
d="M511.5 561q67.5 -81 67.5 -232q0 -161 -70 -247.5t-201 -86.5q-125 0 -192.5 83.5t-67.5 238.5q0 157 70 241t200 84q126 0 193.5 -81zM132.5 543q-64.5 -79 -64.5 -226q0 -145 62 -223.5t178 -78.5q121 0 186 81.5t65 232.5q0 141 -62.5 217t-178.5 76
q-121 0 -185.5 -79zM213 730q10 54 34.5 79.5t66.5 25.5t66.5 -25.5t34.5 -79.5l-13 -13h-5q-7 50 -27 74t-56 24t-56 -24t-27 -74h-5z" />
    <glyph glyph-name="uni020F" unicode="&#x20f;" horiz-adv-x="487" 
d="M380 396.5q49 -60.5 49 -166.5q0 -109 -50.5 -172t-139.5 -63q-85 0 -134 60.5t-49 166.5q0 109 50.5 172t139.5 63q85 0 134 -60.5zM121.5 380q-45.5 -57 -45.5 -158q0 -97 43.5 -152t119.5 -55q79 0 124.5 57t45.5 158q0 97 -43.5 152t-119.5 55q-79 0 -124.5 -57z
M142 545q10 54 34.5 79.5t66.5 25.5t66.5 -25.5t34.5 -79.5l-13 -13h-5q-7 50 -27 74t-56 24t-56 -24t-27 -74h-5z" />
    <glyph glyph-name="uni0210" unicode="&#x210;" horiz-adv-x="518" 
d="M466 5v-4q-5 -5 -12 -8l-6 2q-107 140 -184 268h-134v-263h-20v637l141 2q87 0 134 -45t47 -130q0 -74 -38 -124.5t-109 -72.5q78 -128 181 -262zM130 283h142q67 17 103.5 64t36.5 117q0 74 -40 114t-114 40h-128v-335zM208 721l-5 -1q-77 70 -112 105l-1 5l10 10l5 1
q14 -14 89 -84l25 -23zM338 721l-5 -1q-77 70 -112 105l-1 5l10 10l5 1q14 -14 89 -84l25 -23z" />
    <glyph glyph-name="uni0211" unicode="&#x211;" horiz-adv-x="297" 
d="M287 450v-19l-5 -2q-15 3 -27 3q-35 0 -68 -32t-67 -99v-301h-20v449l20 4v-111h4q31 56 64 83t72 27q13 0 27 -2zM34 667l-5 -1l-10 -10l1 -5q70 -69 144 -135l5 1l11 13q-76 68 -146 137zM164 667l-5 -1l-10 -10l1 -5q71 -69 144 -135l5 1l11 13q-76 68 -146 137z" />
    <glyph glyph-name="uni0212" unicode="&#x212;" horiz-adv-x="518" 
d="M466 5v-4q-5 -5 -12 -8l-6 2q-107 140 -184 268h-134v-263h-20v637l141 2q87 0 134 -45t47 -130q0 -74 -38 -124.5t-109 -72.5q78 -128 181 -262zM130 283h142q67 17 103.5 64t36.5 117q0 74 -40 114t-114 40h-128v-335zM158 730q10 54 34.5 79.5t66.5 25.5t66.5 -25.5
t34.5 -79.5l-13 -13h-5q-7 50 -27 74t-56 24t-56 -24t-27 -74h-5z" />
    <glyph glyph-name="uni0213" unicode="&#x213;" horiz-adv-x="297" 
d="M287 450v-19l-5 -2q-15 3 -27 3q-35 0 -68 -32t-67 -99v-301h-20v449l20 4v-111h4q31 56 64 83t72 27q13 0 27 -2zM84 545q10 54 34.5 79.5t66.5 25.5t66.5 -25.5t34.5 -79.5l-13 -13h-5q-7 50 -27 74t-56 24t-56 -24t-27 -74h-5z" />
    <glyph glyph-name="uni0214" unicode="&#x214;" horiz-adv-x="612" 
d="M526 229q3 -110 -55 -171.5t-165 -61.5t-163.5 60t-56.5 173v408h20v-408q-1 -103 51 -158t149 -55t148.5 55t51.5 158v408h20v-408zM259 721l-5 -1q-77 70 -112 105l-1 5l10 10l5 1q14 -14 89 -84l25 -23zM389 721l-5 -1q-77 70 -112 105l-1 5l10 10l5 1q14 -14 89 -84
l25 -23z" />
    <glyph glyph-name="uni0215" unicode="&#x215;" horiz-adv-x="504" 
d="M475 29l-4 -18q-20 -14 -45 -14q-28 0 -41 20t-13 62h-4q-77 -83 -160 -83q-57 0 -87.5 35.5t-30.5 100.5v317l20 4v-320q0 -56 26 -86.5t75 -30.5q40 0 81 23.5t80 68.5v341l20 4v-374q0 -32 8.5 -47t27.5 -15q23 0 41 15zM103 667l-5 -1l-10 -10l1 -5q70 -69 144 -135
l5 1l11 13q-76 68 -146 137zM233 667l-5 -1l-10 -10l1 -5q71 -69 144 -135l5 1l11 13q-76 68 -146 137z" />
    <glyph glyph-name="uni0216" unicode="&#x216;" horiz-adv-x="612" 
d="M526 229q3 -110 -55 -171.5t-165 -61.5t-163.5 60t-56.5 173v408h20v-408q-1 -103 51 -158t149 -55t148.5 55t51.5 158v408h20v-408zM209 730q10 54 34.5 79.5t66.5 25.5t66.5 -25.5t34.5 -79.5l-13 -13h-5q-7 50 -27 74t-56 24t-56 -24t-27 -74h-5z" />
    <glyph glyph-name="uni0217" unicode="&#x217;" horiz-adv-x="504" 
d="M475 29l-4 -18q-20 -14 -45 -14q-28 0 -41 20t-13 62h-4q-77 -83 -160 -83q-57 0 -87.5 35.5t-30.5 100.5v317l20 4v-320q0 -56 26 -86.5t75 -30.5q40 0 81 23.5t80 68.5v341l20 4v-374q0 -32 8.5 -47t27.5 -15q23 0 41 15zM153 545q10 54 34.5 79.5t66.5 25.5
t66.5 -25.5t34.5 -79.5l-13 -13h-5q-7 50 -27 74t-56 24t-56 -24t-27 -74h-5z" />
    <glyph glyph-name="Scommaaccent" unicode="&#x218;" horiz-adv-x="445" 
d="M368 611l-4 -18l-7 -1q-28 14 -58 21t-55 7q-48 0 -84 -20.5t-55 -53t-19 -66.5q0 -35 19 -60.5t46.5 -42t76.5 -40.5q54 -27 85.5 -47t54 -51.5t22.5 -76.5q0 -44 -24 -82.5t-66.5 -61t-95.5 -22.5q-39 0 -80 12t-72 35l1 19l5 2q30 -24 69 -36t76 -12q49 0 87.5 21
t59 54.5t20.5 70.5q0 38 -20 65t-48.5 45t-78.5 42q-53 26 -83.5 45.5t-52 50t-21.5 73.5t23 79t64 57t93 21q60 0 122 -29zM252 -118q0 -20 -17 -44t-49 -49l-10 11l1 3q26 19 40 39.5t14 38.5q0 20 -30 34v4q5 7 13 11q38 -17 38 -48z" />
    <glyph glyph-name="scommaaccent" unicode="&#x219;" horiz-adv-x="357" 
d="M287 435l-5 -19l-6 -1q-41 20 -84 20q-50 0 -81 -27t-31 -66q0 -37 26 -58t80 -46q38 -18 61 -32t39 -36t16 -53q0 -33 -18 -61t-50.5 -44.5t-73.5 -16.5q-31 0 -61.5 9.5t-53.5 25.5l3 17l5 3q47 -35 106 -35q56 0 89.5 30t33.5 71q0 36 -25.5 57t-78.5 46
q-39 18 -62.5 32.5t-39.5 37t-16 54.5q0 49 36.5 80.5t96.5 31.5q46 0 94 -20zM198 -118q0 -20 -17 -44t-49 -49l-10 11l1 3q26 19 40 39.5t14 38.5q0 20 -30 34v4q5 7 13 11q38 -17 38 -48z" />
    <glyph glyph-name="uni021A" unicode="&#x21a;" horiz-adv-x="475" 
d="M447 633l-4 -16h-195v-617h-20v617h-197l-3 4l4 16h412zM268 -118q0 -20 -17 -44t-49 -49l-10 11l1 3q26 19 40 39.5t14 38.5q0 20 -30 34v4q5 7 13 11q38 -17 38 -48z" />
    <glyph glyph-name="uni021B" unicode="&#x21b;" horiz-adv-x="298" 
d="M278 42l4 -3l-2 -18q-44 -25 -80 -25q-45 0 -69.5 30t-24.5 86v320h-62l-4 4l3 16h63v108l16 6l4 -3v-111h155l3 -4l-3 -16h-155v-319q0 -47 19 -72t55 -25q38 0 78 26zM237 -118q0 -20 -17 -44t-49 -49l-10 11l1 3q26 19 40 39.5t14 38.5q0 20 -30 34v4q5 7 13 11
q38 -17 38 -48z" />
    <glyph glyph-name="uni022A" unicode="&#x22a;" horiz-adv-x="627" 
d="M511.5 561q67.5 -81 67.5 -232q0 -161 -70 -247.5t-201 -86.5q-125 0 -192.5 83.5t-67.5 238.5q0 157 70 241t200 84q126 0 193.5 -81zM132.5 543q-64.5 -79 -64.5 -226q0 -145 62 -223.5t178 -78.5q121 0 186 81.5t65 232.5q0 141 -62.5 217t-178.5 76
q-121 0 -185.5 -79zM418 873l-2 -17h-200l-3 3l2 17h200zM257.5 774.5q5.5 -5.5 5.5 -14.5t-5.5 -14.5t-14.5 -5.5t-14.5 5.5t-5.5 14.5t5.5 14.5t14.5 5.5t14.5 -5.5zM397.5 774.5q5.5 -5.5 5.5 -14.5t-5.5 -14.5t-14.5 -5.5t-14.5 5.5t-5.5 14.5t5.5 14.5t14.5 5.5
t14.5 -5.5z" />
    <glyph glyph-name="uni022B" unicode="&#x22b;" horiz-adv-x="487" 
d="M380 396.5q49 -60.5 49 -166.5q0 -109 -50.5 -172t-139.5 -63q-85 0 -134 60.5t-49 166.5q0 109 50.5 172t139.5 63q85 0 134 -60.5zM121.5 380q-45.5 -57 -45.5 -158q0 -97 43.5 -152t119.5 -55q79 0 124.5 57t45.5 158q0 97 -43.5 152t-119.5 55q-79 0 -124.5 -57z
M347 688l-2 -17h-200l-3 3l2 17h200zM186.5 589.5q5.5 -5.5 5.5 -14.5t-5.5 -14.5t-14.5 -5.5t-14.5 5.5t-5.5 14.5t5.5 14.5t14.5 5.5t14.5 -5.5zM326.5 589.5q5.5 -5.5 5.5 -14.5t-5.5 -14.5t-14.5 -5.5t-14.5 5.5t-5.5 14.5t5.5 14.5t14.5 5.5t14.5 -5.5z" />
    <glyph glyph-name="uni022C" unicode="&#x22c;" horiz-adv-x="627" 
d="M511.5 561q67.5 -81 67.5 -232q0 -161 -70 -247.5t-201 -86.5q-125 0 -192.5 83.5t-67.5 238.5q0 157 70 241t200 84q126 0 193.5 -81zM132.5 543q-64.5 -79 -64.5 -226q0 -145 62 -223.5t178 -78.5q121 0 186 81.5t65 232.5q0 141 -62.5 217t-178.5 76
q-121 0 -185.5 -79zM438 782v-4l-47 -47l-6 -2q-16 2 -72 20q-54 18 -65 18q-5 0 -13 -7t-17 -17l-16 -16h-3l-9 11v4l47 47l6 2q16 -2 72 -20q54 -18 65 -18q5 0 12 6t15 15l19 19h3zM420 881l-2 -17h-207l-3 3l2 17h207z" />
    <glyph glyph-name="uni022D" unicode="&#x22d;" horiz-adv-x="487" 
d="M380 396.5q49 -60.5 49 -166.5q0 -109 -50.5 -172t-139.5 -63q-85 0 -134 60.5t-49 166.5q0 109 50.5 172t139.5 63q85 0 134 -60.5zM121.5 380q-45.5 -57 -45.5 -158q0 -97 43.5 -152t119.5 -55q79 0 124.5 57t45.5 158q0 97 -43.5 152t-119.5 55q-79 0 -124.5 -57z
M367 597v-4l-47 -47l-6 -2q-16 2 -72 20q-54 18 -65 18q-5 0 -13 -7t-17 -17l-16 -16h-3l-9 11v4l47 47l6 2q16 -2 72 -20q54 -18 65 -18q5 0 12 6t15 15l19 19h3zM349 696l-2 -17h-207l-3 3l2 17h207z" />
    <glyph glyph-name="uni0230" unicode="&#x230;" horiz-adv-x="627" 
d="M511.5 561q67.5 -81 67.5 -232q0 -161 -70 -247.5t-201 -86.5q-125 0 -192.5 83.5t-67.5 238.5q0 157 70 241t200 84q126 0 193.5 -81zM132.5 543q-64.5 -79 -64.5 -226q0 -145 62 -223.5t178 -78.5q121 0 186 81.5t65 232.5q0 141 -62.5 217t-178.5 76
q-121 0 -185.5 -79zM328.5 774.5q5.5 -5.5 5.5 -14.5t-5.5 -14.5t-14.5 -5.5t-14.5 5.5t-5.5 14.5t5.5 14.5t14.5 5.5t14.5 -5.5zM420 852l-2 -17h-207l-3 3l2 17h207z" />
    <glyph glyph-name="uni0231" unicode="&#x231;" horiz-adv-x="487" 
d="M380 396.5q49 -60.5 49 -166.5q0 -109 -50.5 -172t-139.5 -63q-85 0 -134 60.5t-49 166.5q0 109 50.5 172t139.5 63q85 0 134 -60.5zM121.5 380q-45.5 -57 -45.5 -158q0 -97 43.5 -152t119.5 -55q79 0 124.5 57t45.5 158q0 97 -43.5 152t-119.5 55q-79 0 -124.5 -57z
M257.5 589.5q5.5 -5.5 5.5 -14.5t-5.5 -14.5t-14.5 -5.5t-14.5 5.5t-5.5 14.5t5.5 14.5t14.5 5.5t14.5 -5.5zM349 667l-2 -17h-207l-3 3l2 17h207z" />
    <glyph glyph-name="uni0232" unicode="&#x232;" horiz-adv-x="495" 
d="M248 245v-245h-20v246l-202 391h26l11 -26l173 -334h5l188 334l11 26h26zM385 789l-2 -17h-287l-3 3l2 17h287z" />
    <glyph glyph-name="uni0233" unicode="&#x233;" horiz-adv-x="405" 
d="M54 409l140 -373h5l146 373l15 43h24l-177 -452q-26 -67 -53 -104t-63 -55.5t-95 -30.5h-5q-4 4 -8 12v6q60 12 95 29.5t59.5 50t47.5 92.5l-166 450l21 4zM351 604l-2 -17h-287l-3 3l2 17h287z" />
    <glyph glyph-name="uni0237" unicode="&#x237;" horiz-adv-x="222" 
d="M128 451v-439q0 -78 -19.5 -120.5t-73.5 -83.5l-10 10v6q48 37 65.5 76.5t17.5 107.5v424h-84l-4 4l3 16h83l20 1z" />
    <glyph glyph-name="uni0259" unicode="&#x259;" horiz-adv-x="446" 
d="M341.5 396q48.5 -61 48.5 -165q0 -108 -50.5 -172t-135.5 -64q-69 0 -107.5 43.5t-38.5 121.5q0 20 1 30l6 7l304 4q1 10 1 30q0 95 -43.5 150.5t-118.5 55.5q-37 0 -72 -11.5t-61 -31.5l-6 2l3 20q62 41 138 41q83 0 131.5 -61zM313 59.5q43 44.5 54 121.5l-289 -4
l-1 -21q0 -66 34.5 -103.5t93.5 -37.5q65 0 108 44.5z" />
    <glyph glyph-name="uni02B0" unicode="&#x2b0;" horiz-adv-x="347" 
d="M261 620.5q23 -22.5 23 -63.5l-1 -82v-125h-22l2 202q0 34 -18.5 53t-52.5 19q-23 0 -49.5 -15t-50.5 -41v-92l1 -126h-22v446l22 3l-1 -208h3q24 25 50 38.5t51 13.5q42 0 65 -22.5z" />
    <glyph glyph-name="uni02B2" unicode="&#x2b2;" horiz-adv-x="150" 
d="M74.5 754.5q4.5 -4.5 4.5 -12.5q0 -7 -4.5 -12t-12.5 -5q-7 0 -12 5t-5 12q0 8 5 12.5t13 4.5q7 0 11.5 -4.5zM77 640l-1 -164l1 -117q0 -50 -14 -78t-50 -54l-10 11v4q30 23 41.5 47.5t11.5 66.5v265h-53l-3 3l2 16h52l21 1z" />
    <glyph glyph-name="uni02B7" unicode="&#x2b7;" horiz-adv-x="420" 
d="M42 611l70 -232h3l80 231l9 30h24l7 -29l69 -232h3l80 231l10 30h22l-103 -290h-23l-77 257h-3l-89 -257h-23l-88 289l21 3z" />
    <glyph glyph-name="uni02B8" unicode="&#x2b8;" horiz-adv-x="245" 
d="M24 611l88 -230h4l92 229l10 30h22l-115 -288q-25 -62 -53 -87t-82 -37h-4q-5 5 -9 13v5q52 11 78 31.5t48 72.5l-110 289l22 3z" />
    <glyph glyph-name="uni02B9" unicode="&#x2b9;" horiz-adv-x="125" 
d="M79 631l-12 -144l-17 -2l-3 4l12 144l17 2z" />
    <glyph glyph-name="uni02BB" unicode="&#x2bb;" horiz-adv-x="124" 
d="M32 534q0 46 53 102l13 -11v-4q-44 -47 -44 -83q0 -30 38 -39v-4q-1 -3 -10 -16q-50 12 -50 55z" />
    <glyph glyph-name="uni02BC" unicode="&#x2bc;" horiz-adv-x="124" 
d="M96 579q0 -46 -53 -102l-13 11v4q44 47 44 83q0 30 -38 39v4q1 3 10 16q50 -12 50 -55z" />
    <glyph glyph-name="uni02BE" unicode="&#x2be;" horiz-adv-x="249" 
d="M84 509q25 0 40 13t15 36t-14.5 36.5t-40.5 13.5v20q34 0 54.5 -19t20.5 -51q0 -30 -21 -49.5t-54 -19.5v20z" />
    <glyph glyph-name="uni02BF" unicode="&#x2bf;" horiz-adv-x="249" 
d="M165 608q-25 0 -40 -13t-15 -36t14.5 -36.5t40.5 -13.5v-20q-34 0 -54.5 19.5t-20.5 50.5q0 30 21 49.5t54 19.5v-20z" />
    <glyph glyph-name="circumflex" unicode="&#x2c6;" horiz-adv-x="390" 
d="M85 532q38 43 101 126h18q63 -83 101 -126l-9 -12h-5q-48 53 -96 117q-48 -64 -96 -117h-5z" />
    <glyph glyph-name="caron" unicode="&#x2c7;" horiz-adv-x="390" 
d="M305 646q-38 -43 -101 -126h-18q-63 83 -101 126l9 12h5q48 -53 96 -117q48 64 96 117h5z" />
    <glyph glyph-name="uni02C8" unicode="&#x2c8;" horiz-adv-x="265" 
d="M102 633h20v-169h-20v169z" />
    <glyph glyph-name="uni02C9" unicode="&#x2c9;" horiz-adv-x="390" 
d="M341 604l-2 -17h-287l-3 3l2 17h287z" />
    <glyph glyph-name="uni02CA" unicode="&#x2ca;" horiz-adv-x="390" 
d="M266 668l10 -10l-1 -5q-69 -69 -144 -135l-5 1l-11 13q69 58 146 137z" />
    <glyph glyph-name="uni02CB" unicode="&#x2cb;" horiz-adv-x="390" 
d="M276 532l-11 -13l-5 -1q-75 66 -144 135l-1 5l10 10l5 1q77 -79 146 -137z" />
    <glyph glyph-name="uni02CC" unicode="&#x2cc;" horiz-adv-x="224" 
d="M102 -61h20v-169h-20v169z" />
    <glyph glyph-name="breve" unicode="&#x2d8;" horiz-adv-x="390" 
d="M296 627q-10 -54 -34.5 -79.5t-66.5 -25.5t-66.5 25.5t-34.5 79.5l13 13h5q7 -50 27 -74t56 -24t56 24t27 74h5z" />
    <glyph glyph-name="dotaccent" unicode="&#x2d9;" horiz-adv-x="232" 
d="M129.5 625.5q5.5 -5.5 5.5 -14.5t-5.5 -14.5t-14.5 -5.5t-14.5 5.5t-5.5 14.5t5.5 14.5t14.5 5.5t14.5 -5.5z" />
    <glyph glyph-name="ring" unicode="&#x2da;" horiz-adv-x="390" 
d="M245 647q19 -21 19 -49q0 -31 -21.5 -50t-49.5 -19t-49 19.5t-21 50.5q0 30 19.5 49.5t50.5 19.5q33 0 52 -21zM156.5 634.5q-13.5 -13.5 -13.5 -35.5q0 -23 14.5 -36.5t35.5 -13.5t36 13t15 36q0 21 -13.5 35.5t-37.5 14.5q-23 0 -36.5 -13.5z" />
    <glyph glyph-name="ogonek" unicode="&#x2db;" horiz-adv-x="285" 
d="M88 -181.5q-17 15.5 -17 42.5q0 17 6.5 32.5t27 44t50.5 67.5q14 18 13 16h24q-37 -47 -61 -79t-31.5 -47.5t-7.5 -30.5q0 -40 43 -40q41 0 77 52h2l11 -16q-42 -57 -92 -57q-28 0 -45 15.5z" />
    <glyph glyph-name="tilde" unicode="&#x2dc;" horiz-adv-x="390" 
d="M334 620v-4l-52 -47l-6 -2q-20 2 -81 20q-6 2 -35 10t-40 8q-5 0 -13 -6t-17 -16l-21 -19h-4l-9 11v4l52 47l6 2q20 -2 81 -20q6 -2 35 -10t40 -8q5 0 13 6t17 16l21 19h4z" />
    <glyph glyph-name="hungarumlaut" unicode="&#x2dd;" horiz-adv-x="390" 
d="M195 667l5 -1l10 -10l-1 -5q-70 -69 -144 -135l-5 1l-11 13q76 67 146 137zM325 667l5 -1l10 -10l-1 -5q-71 -69 -144 -135l-5 1l-11 13q77 68 146 137z" />
    <glyph glyph-name="uni02E1" unicode="&#x2e1;" horiz-adv-x="150" 
d="M92 476l1 -126h-22v446l22 3z" />
    <glyph glyph-name="uni02E2" unicode="&#x2e2;" horiz-adv-x="244" 
d="M195 630l-4 -18l-5 -1q-29 14 -56 14q-32 0 -51.5 -16t-19.5 -42q0 -21 16 -33t50 -28q39 -17 59.5 -33.5t20.5 -46.5q0 -33 -27.5 -56.5t-71.5 -23.5q-19 0 -40 6t-37 16l3 18l4 2q32 -24 71 -24q36 0 57 18t21 42q0 22 -16.5 35t-51.5 29q-38 17 -58 33t-20 45
q0 35 25 56t67 21q29 0 64 -13z" />
    <glyph glyph-name="uni02E3" unicode="&#x2e3;" horiz-adv-x="271" 
d="M59 620l76 -106l74 103l14 23h25l-101 -142l105 -146l-25 -4l-15 25l-79 111l-81 -113l-13 -21h-25l106 149l-99 139l25 4z" />
    <glyph glyph-name="gravecomb" unicode="&#x300;" 
d="M-114 532l-11 -13l-5 -1q-75 66 -144 135l-1 5l10 10l5 1q77 -79 146 -137z" />
    <glyph glyph-name="acutecomb" unicode="&#x301;" 
d="M-124 668l10 -10l-1 -5q-69 -69 -144 -135l-5 1l-11 13q69 58 146 137z" />
    <glyph glyph-name="uni0302" unicode="&#x302;" 
d="M-305 532q38 43 101 126h18q63 -83 101 -126l-9 -12h-5q-48 53 -96 117q-48 -64 -96 -117h-5z" />
    <glyph glyph-name="tildecomb" unicode="&#x303;" 
d="M-56 619v-4l-53 -47l-6 -2q-24 3 -81 21q-62 18 -74 18q-5 0 -13 -6t-17 -16l-21 -19h-4l-8 11v4l53 47l6 2q20 -2 79 -20q61 -19 76 -19q5 0 12 6t16 15l22 20h4z" />
    <glyph glyph-name="uni0304" unicode="&#x304;" 
d="M-49 604l-2 -17h-287l-3 3l2 17h287z" />
    <glyph glyph-name="uni0306" unicode="&#x306;" 
d="M-94 627q-10 -54 -34.5 -79.5t-66.5 -25.5t-66.5 25.5t-34.5 79.5l13 13h5q7 -50 27 -74t56 -24t56 24t27 74h5z" />
    <glyph glyph-name="uni0307" unicode="&#x307;" 
d="M-102.5 625.5q5.5 -5.5 5.5 -14.5t-5.5 -14.5t-14.5 -5.5t-14.5 5.5t-5.5 14.5t5.5 14.5t14.5 5.5t14.5 -5.5z" />
    <glyph glyph-name="uni0308" unicode="&#x308;" 
d="M-251.5 609.5q5.5 -5.5 5.5 -14.5t-5.5 -14.5t-14.5 -5.5t-14.5 5.5t-5.5 14.5t5.5 14.5t14.5 5.5t14.5 -5.5zM-111.5 609.5q5.5 -5.5 5.5 -14.5t-5.5 -14.5t-14.5 -5.5t-14.5 5.5t-5.5 14.5t5.5 14.5t14.5 5.5t14.5 -5.5z" />
    <glyph glyph-name="hookabovecomb" unicode="&#x309;" 
d="M-154 552q25 16 38 31.5t13 26.5q0 9 -7 14.5t-19 5.5q-26 0 -54 -23l-8 14q34 29 64 29q19 0 31.5 -11t12.5 -27q0 -29 -48 -65l16 -29l-17 -7z" />
    <glyph glyph-name="uni030A" unicode="&#x30a;" 
d="M-145 647q19 -21 19 -49q0 -31 -21.5 -50t-49.5 -19t-49 19.5t-21 50.5q0 30 19.5 49.5t50.5 19.5q33 0 52 -21zM-233.5 634.5q-13.5 -13.5 -13.5 -35.5q0 -23 14.5 -36.5t35.5 -13.5t36 13t15 36q0 21 -13.5 35.5t-37.5 14.5q-23 0 -36.5 -13.5z" />
    <glyph glyph-name="uni030B" unicode="&#x30b;" 
d="M-195 667l5 -1l10 -10l-1 -5q-70 -69 -144 -135l-5 1l-11 13q76 67 146 137zM-65 667l5 -1l10 -10l-1 -5q-71 -69 -144 -135l-5 1l-11 13q77 68 146 137z" />
    <glyph glyph-name="uni030C" unicode="&#x30c;" 
d="M-85 646q-38 -43 -101 -126h-18q-63 83 -101 126l9 12h5q48 -53 96 -117q48 64 96 117h5z" />
    <glyph glyph-name="uni030F" unicode="&#x30f;" 
d="M-325 667l-5 -1l-10 -10l1 -5q70 -69 144 -135l5 1l11 13q-76 68 -146 137zM-195 667l-5 -1l-10 -10l1 -5q71 -69 144 -135l5 1l11 13q-76 68 -146 137z" />
    <glyph glyph-name="uni0311" unicode="&#x311;" 
d="M-296 545q10 54 34.5 79.5t66.5 25.5t66.5 -25.5t34.5 -79.5l-13 -13h-5q-7 50 -27 74t-56 24t-56 -24t-27 -74h-5z" />
    <glyph glyph-name="uni0312" unicode="&#x312;" 
d="M-92 534q0 46 53 102l13 -11v-4q-44 -47 -44 -83q0 -30 38 -39v-4q-1 -3 -10 -16q-50 12 -50 55z" />
    <glyph glyph-name="uni031B" unicode="&#x31b;" 
d="M-193 452q34 0 59 17.5t25 48.5q0 36 -34 72l2 5q7 5 13 5t15.5 -10.5t16.5 -28.5t7 -39q0 -41 -28.5 -64t-75.5 -24v18z" />
    <glyph glyph-name="dotbelowcomb" unicode="&#x323;" 
d="M-100.5 -93.5q5.5 -5.5 5.5 -14.5t-5.5 -14.5t-14.5 -5.5t-14.5 5.5t-5.5 14.5t5.5 14.5t14.5 5.5t14.5 -5.5z" />
    <glyph glyph-name="uni0324" unicode="&#x324;" 
d="M-251.5 -120.5q5.5 -5.5 5.5 -14.5t-5.5 -14.5t-14.5 -5.5t-14.5 5.5t-5.5 14.5t5.5 14.5t14.5 5.5t14.5 -5.5zM-111.5 -120.5q5.5 -5.5 5.5 -14.5t-5.5 -14.5t-14.5 -5.5t-14.5 5.5t-5.5 14.5t5.5 14.5t14.5 5.5t14.5 -5.5z" />
    <glyph glyph-name="uni0326" unicode="&#x326;" 
d="M-81 -118q0 -20 -17 -44t-49 -49l-10 11l1 3q26 19 40 39.5t14 38.5q0 20 -30 34v4q5 7 13 11q38 -17 38 -48z" />
    <glyph glyph-name="uni0327" unicode="&#x327;" 
d="M-201 -55l31 -20q17 -11 25 -22.5t8 -27.5q0 -24 -17.5 -38.5t-42.5 -14.5q-37 0 -59 33l6 18h4q10 -16 21 -23.5t28 -7.5q18 0 29 8.5t11 24.5q0 11 -5.5 17.5t-18.5 15.5l-44 28l25 75h20z" />
    <glyph glyph-name="uni0328" unicode="&#x328;" 
d="M-197 -181.5q-17 15.5 -17 42.5q0 17 6.5 32.5t27 44t50.5 67.5q14 18 13 16h24q-37 -47 -61 -79t-31.5 -47.5t-7.5 -30.5q0 -40 43 -40q41 0 77 52h2l11 -16q-42 -57 -92 -57q-28 0 -45 15.5z" />
    <glyph glyph-name="uni032E" unicode="&#x32e;" 
d="M-83 -75q-10 -54 -34.5 -79.5t-66.5 -25.5t-66.5 25.5t-34.5 79.5l13 13h5q7 -50 27 -74t56 -24t56 24t27 74h5z" />
    <glyph glyph-name="uni0331" unicode="&#x331;" 
d="M-49 -131l-2 -17h-227l-3 3l2 17h227z" />
    <glyph glyph-name="uni0335" unicode="&#x335;" 
d="M-79 261l-2 -17h-317l-3 3l2 17h317z" />
    <glyph glyph-name="uni0342" unicode="&#x342;" 
d="M-56 620v-4l-45 -47l-4 -2q-18 2 -69 20q-5 2 -29 10t-34 8q-5 0 -12 -6.5t-15 -15.5q-10 -12 -17 -19h-3l-9 11v4l45 46l5 2q18 -2 69 -20q5 -2 29 -10t34 -8q5 0 12 6.5t15 15.5q10 12 17 19h3z" />
    <glyph glyph-name="uni0343" unicode="&#x343;" 
d="M-67 619q0 -47 -52 -100l-12 10v4q43 47 43 82q0 29 -37 38v4q1 6 9 15q49 -10 49 -53z" />
    <glyph glyph-name="uni0344" unicode="&#x344;" 
d="M-175 546q20 43 45 113l5 1l13 -4l2 -6l-46 -109l-5 -1zM-235.5 559.5q-5.5 5.5 -5.5 14.5t5.5 14.5t14.5 5.5t14.5 -5.5t5.5 -14.5t-5.5 -14.5t-14.5 -5.5t-14.5 5.5zM-95.5 559.5q-5.5 5.5 -5.5 14.5t5.5 14.5t14.5 5.5t14.5 -5.5t5.5 -14.5t-5.5 -14.5t-14.5 -5.5
t-14.5 5.5z" />
    <glyph glyph-name="uni0345" unicode="&#x345;" 
d="M-114 -209l2 171l14 1l2 -3l4 -169l-19 -3z" />
    <glyph glyph-name="uni0374" unicode="&#x374;" horiz-adv-x="125" 
d="M79 631l-12 -144l-17 -2l-3 4l12 144l17 2z" />
    <glyph glyph-name="uni0375" unicode="&#x375;" horiz-adv-x="125" 
d="M46 -131l12 144l17 2l3 -4l-12 -144l-17 -2z" />
    <glyph glyph-name="uni037A" unicode="&#x37a;" horiz-adv-x="207" 
d="M93 -209l2 171l14 1l2 -3l4 -169l-19 -3z" />
    <glyph glyph-name="uni037E" unicode="&#x37e;" horiz-adv-x="230" 
d="M145 -7q0 -20 -17 -44t-49 -49l-10 11l1 3q26 19 40 39.5t14 38.5q0 20 -30 34v4q5 7 13 11q38 -17 38 -48zM125.5 309.5q5.5 -5.5 5.5 -14.5t-5.5 -14.5t-14.5 -5.5t-14.5 5.5t-5.5 14.5t5.5 14.5t14.5 5.5t14.5 -5.5z" />
    <glyph glyph-name="tonos" unicode="&#x384;" horiz-adv-x="227" 
d="M138 675l13 -4l2 -6q-24 -60 -60 -144l-5 -1l-13 6q24 55 58 148z" />
    <glyph glyph-name="dieresistonos" unicode="&#x385;" horiz-adv-x="292" 
d="M117 546q20 43 45 113l5 1l13 -4l2 -6l-46 -109l-5 -1zM56.5 559.5q-5.5 5.5 -5.5 14.5t5.5 14.5t14.5 5.5t14.5 -5.5t5.5 -14.5t-5.5 -14.5t-14.5 -5.5t-14.5 5.5zM196.5 559.5q-5.5 5.5 -5.5 14.5t5.5 14.5t14.5 5.5t14.5 -5.5t5.5 -14.5t-5.5 -14.5t-14.5 -5.5
t-14.5 5.5z" />
    <glyph glyph-name="Alphatonos" unicode="&#x386;" horiz-adv-x="609" 
d="M581 0h-23l-13 43l-63 170h-302l-68 -170l-14 -43h-24l254 637h20zM339 603h-4l-147 -370h287zM171 651l13 -4l2 -6q-24 -60 -60 -144l-5 -1l-13 6q24 55 58 148z" />
    <glyph glyph-name="anoteleia" unicode="&#x387;" horiz-adv-x="230" 
d="M129.5 312.5q5.5 -5.5 5.5 -14.5t-5.5 -14.5t-14.5 -5.5t-14.5 5.5t-5.5 14.5t5.5 14.5t14.5 5.5t14.5 -5.5z" />
    <glyph glyph-name="Epsilontonos" unicode="&#x388;" horiz-adv-x="532" 
d="M503 16l-4 -16h-311v637h308l3 -4l-4 -16h-287v-277h238l3 -4l-4 -16h-237v-300h292zM84 651l13 -4l2 -6q-24 -60 -60 -144l-5 -1l-13 6q24 55 58 148z" />
    <glyph glyph-name="Etatonos" unicode="&#x389;" horiz-adv-x="748" 
d="M638 637v-637h-20v314h-410v-314h-20v637h20v-303h410v303h20zM84 651l13 -4l2 -6q-24 -60 -60 -144l-5 -1l-13 6q24 55 58 148z" />
    <glyph glyph-name="Iotatonos" unicode="&#x38a;" horiz-adv-x="318" 
d="M208 0h-20v637h20v-637zM84 651l13 -4l2 -6q-24 -60 -60 -144l-5 -1l-13 6q24 55 58 148z" />
    <glyph glyph-name="Omicrontonos" unicode="&#x38c;" horiz-adv-x="690" 
d="M574.5 561q67.5 -81 67.5 -232q0 -161 -70 -247.5t-201 -86.5q-125 0 -192.5 83.5t-67.5 238.5q0 157 70 241t200 84q126 0 193.5 -81zM195.5 543q-64.5 -79 -64.5 -226q0 -145 62 -223.5t178 -78.5q121 0 186 81.5t65 232.5q0 141 -62.5 217t-178.5 76
q-121 0 -185.5 -79zM69 651l13 -4l2 -6q-24 -60 -60 -144l-5 -1l-13 6q24 55 58 148z" />
    <glyph glyph-name="Upsilontonos" unicode="&#x38e;" horiz-adv-x="633" 
d="M386 245v-245h-20v246l-202 391h26l11 -26l173 -334h5l188 334l11 26h26zM84 651l13 -4l2 -6q-24 -60 -60 -144l-5 -1l-13 6q24 55 58 148z" />
    <glyph glyph-name="Omegatonos" unicode="&#x38f;" horiz-adv-x="797" 
d="M165 3l4 18l61 -1h105v3q-83 57 -122 132.5t-39 179.5q0 145 69 226t194 81q124 0 194 -80.5t70 -222.5q0 -104 -39.5 -181.5t-121.5 -134.5v-3h110l57 2l3 -4l-4 -18h-160l-41 -1l-2 2v19q92 61 135.5 139t43.5 181q0 131 -65.5 206.5t-179.5 75.5t-179 -76t-65 -209
q0 -103 42 -177.5t137 -139.5v-19l-2 -2l-41 1h-104l-57 -1zM123 651l13 -4l2 -6q-24 -60 -60 -144l-5 -1l-13 6q24 55 58 148z" />
    <glyph glyph-name="iotadieresistonos" unicode="&#x390;" horiz-adv-x="237" 
d="M110 12.5q-13 15.5 -13 52.5v384l20 4v-387q0 -29 8.5 -39t26.5 -10q17 0 43 14l5 -3l-4 -17q-28 -14 -48 -14q-25 0 -38 15.5zM95 546q20 43 45 113l5 1l13 -4l2 -6l-46 -109l-5 -1zM34.5 559.5q-5.5 5.5 -5.5 14.5t5.5 14.5t14.5 5.5t14.5 -5.5t5.5 -14.5t-5.5 -14.5
t-14.5 -5.5t-14.5 5.5zM174.5 559.5q-5.5 5.5 -5.5 14.5t5.5 14.5t14.5 5.5t14.5 -5.5t5.5 -14.5t-5.5 -14.5t-14.5 -5.5t-14.5 5.5z" />
    <glyph glyph-name="Alpha" unicode="&#x391;" horiz-adv-x="554" 
d="M526 0h-23l-13 43l-63 170h-302l-68 -170l-14 -43h-24l254 637h20zM284 603h-4l-147 -370h287z" />
    <glyph glyph-name="Beta" unicode="&#x392;" horiz-adv-x="492" 
d="M408.5 284.5q38.5 -39.5 38.5 -108.5q0 -85 -59 -132t-169 -47q-58 0 -109 3v637l123 2q79 0 121.5 -38.5t42.5 -109.5q0 -60 -25 -99.5t-71 -57.5q69 -10 107.5 -49.5zM130 618v-275l130 -3q56 11 86 50t30 101q0 58 -37 92.5t-99 34.5h-110zM372 59q55 42 55 117
q0 64 -41 101t-117 43h-139v-300q39 -3 85 -3q102 0 157 42z" />
    <glyph glyph-name="Gamma" unicode="&#x393;" horiz-adv-x="413" 
d="M401 633l-4 -16h-267v-617h-20v637h288z" />
    <glyph glyph-name="uni0394" unicode="&#x394;" horiz-adv-x="554" 
d="M27 17l247 620h20l227 -620v-17h-494v17zM499 20l-213 583h-5l-233 -583h451z" />
    <glyph glyph-name="Epsilon" unicode="&#x395;" horiz-adv-x="454" 
d="M425 16l-4 -16h-311v637h308l3 -4l-4 -16h-287v-277h238l3 -4l-4 -16h-237v-300h292z" />
    <glyph glyph-name="Zeta" unicode="&#x396;" horiz-adv-x="507" 
d="M460 620l-401 -600h331l68 1l4 -5l-3 -16h-391l-36 -1v18l401 600h-320l-58 -1l-4 5l3 17l65 -1h304l37 1v-18z" />
    <glyph glyph-name="Eta" unicode="&#x397;" horiz-adv-x="670" 
d="M560 637v-637h-20v314h-410v-314h-20v637h20v-303h410v303h20z" />
    <glyph glyph-name="Theta" unicode="&#x398;" horiz-adv-x="627" 
d="M511.5 561q67.5 -81 67.5 -232q0 -161 -70 -247.5t-201 -86.5q-125 0 -192.5 83.5t-67.5 238.5q0 157 70 241t200 84q126 0 193.5 -81zM132.5 543q-64.5 -79 -64.5 -226q0 -145 62 -223.5t178 -78.5q121 0 186 81.5t65 232.5q0 141 -62.5 217t-178.5 76
q-121 0 -185.5 -79zM162 306l2 17l297 10l3 -3l-2 -17l-297 -10z" />
    <glyph glyph-name="Iota" unicode="&#x399;" horiz-adv-x="240" 
d="M130 0h-20v637h20v-637z" />
    <glyph glyph-name="Kappa" unicode="&#x39a;" horiz-adv-x="507" 
d="M130 0h-20v637h20v-637zM186 340q146 -176 312 -335v-4q-3 -3 -14 -8l-4 1q-183 178 -321 344v3l249 249l43 47h31z" />
    <glyph glyph-name="Lambda" unicode="&#x39b;" horiz-adv-x="546" 
d="M518 0h-23l-13 43l-202 560h-4l-219 -560l-14 -43h-24l250 637h20z" />
    <glyph glyph-name="Mu" unicode="&#x39c;" horiz-adv-x="781" 
d="M705 0h-21l-20 195l-44 394h-5l-214 -508h-25l-210 508h-5l-43 -394l-21 -195h-21l70 637h23l40 -99l177 -428h4l187 439l37 88h23z" />
    <glyph glyph-name="Nu" unicode="&#x39d;" horiz-adv-x="670" 
d="M559 176l-1 -176h-19l-404 595h-4l-1 -396v-199h-20v190l1 447h19l404 -595h4l2 594l20 2z" />
    <glyph glyph-name="Xi" unicode="&#x39e;" horiz-adv-x="544" 
d="M79 619l4 18h381l3 -4l-4 -18h-381zM114 323l4 18h306l3 -4l-4 -18l-170 1l-136 -1zM75 18l3 4h389l4 -4l-5 -18h-387z" />
    <glyph glyph-name="Omicron" unicode="&#x39f;" horiz-adv-x="627" 
d="M511.5 561q67.5 -81 67.5 -232q0 -161 -70 -247.5t-201 -86.5q-125 0 -192.5 83.5t-67.5 238.5q0 157 70 241t200 84q126 0 193.5 -81zM132.5 543q-64.5 -79 -64.5 -226q0 -145 62 -223.5t178 -78.5q121 0 186 81.5t65 232.5q0 141 -62.5 217t-178.5 76
q-121 0 -185.5 -79z" />
    <glyph glyph-name="Pi" unicode="&#x3a0;" horiz-adv-x="610" 
d="M500 0h-20v617h-350v-617h-20v637h390v-637z" />
    <glyph glyph-name="Rho" unicode="&#x3a1;" horiz-adv-x="484" 
d="M385 592.5q47 -46.5 47 -132.5q0 -102 -55 -156.5t-158 -54.5h-89v-249h-20v637l141 2q87 0 134 -46.5zM369.5 326.5q42.5 50.5 42.5 133.5q0 74 -40 115t-114 44l-128 -1v-349h119q78 7 120.5 57.5z" />
    <glyph glyph-name="Sigma" unicode="&#x3a3;" horiz-adv-x="495" 
d="M456 633l-3 -17l-62 1h-304l202 -285v-7l-211 -305h297l69 1l4 -5l-3 -16h-393v18l215 310l-206 291v18h330l61 1z" />
    <glyph glyph-name="Tau" unicode="&#x3a4;" horiz-adv-x="475" 
d="M447 633l-4 -16h-195v-617h-20v617h-197l-3 4l4 16h412z" />
    <glyph glyph-name="Upsilon" unicode="&#x3a5;" horiz-adv-x="495" 
d="M248 245v-245h-20v246l-202 391h26l11 -26l173 -334h5l188 334l11 26h26z" />
    <glyph glyph-name="Phi" unicode="&#x3a6;" horiz-adv-x="708" 
d="M577 149.5q-75 -66.5 -213 -70.5v-88h-20v88q-140 1 -214.5 64.5t-74.5 186.5q0 122 74 186t215 67v69h20v-69q288 -2 288 -244q0 -123 -75 -189.5zM562.5 164.5q69.5 61.5 69.5 174.5q0 222 -268 224v-464q129 4 198.5 65.5zM144.5 158q69.5 -58 199.5 -59v464
q-132 -3 -200.5 -62t-68.5 -172t69.5 -171z" />
    <glyph glyph-name="Chi" unicode="&#x3a7;" horiz-adv-x="570" 
d="M298 330l231 -330h-27l-24 38l-193 276l-193 -278l-22 -36h-27l229 330l-215 307h28l22 -35l178 -256l174 251l24 40h27z" />
    <glyph glyph-name="Psi" unicode="&#x3a8;" horiz-adv-x="675" 
d="M530 192.5q-64 -59.5 -183 -61.5v-131h-19v131q-120 2 -182 60t-62 168v278h20v-278q0 -100 57 -153t167 -55v486h19v-486q109 2 166.5 55t57.5 153v278h20v-278q3 -107 -61 -166.5z" />
    <glyph glyph-name="uni03A9" unicode="&#x3a9;" horiz-adv-x="719" 
d="M87 3l4 18l61 -1h105v3q-83 57 -122 132.5t-39 179.5q0 145 69 226t194 81q124 0 194 -80.5t70 -222.5q0 -104 -39.5 -181.5t-121.5 -134.5v-3h110l57 2l3 -4l-4 -18h-160l-41 -1l-2 2v19q92 61 135.5 139t43.5 181q0 131 -65.5 206.5t-179.5 75.5t-179 -76t-65 -209
q0 -103 42 -177.5t137 -139.5v-19l-2 -2l-41 1h-104l-57 -1z" />
    <glyph glyph-name="Iotadieresis" unicode="&#x3aa;" horiz-adv-x="240" 
d="M130 0h-20v637h20v-637zM64.5 794.5q5.5 -5.5 5.5 -14.5t-5.5 -14.5t-14.5 -5.5t-14.5 5.5t-5.5 14.5t5.5 14.5t14.5 5.5t14.5 -5.5zM204.5 794.5q5.5 -5.5 5.5 -14.5t-5.5 -14.5t-14.5 -5.5t-14.5 5.5t-5.5 14.5t5.5 14.5t14.5 5.5t14.5 -5.5z" />
    <glyph glyph-name="Upsilondieresis" unicode="&#x3ab;" horiz-adv-x="495" 
d="M248 245v-245h-20v246l-202 391h26l11 -26l173 -334h5l188 334l11 26h26zM192.5 794.5q5.5 -5.5 5.5 -14.5t-5.5 -14.5t-14.5 -5.5t-14.5 5.5t-5.5 14.5t5.5 14.5t14.5 5.5t14.5 -5.5zM332.5 794.5q5.5 -5.5 5.5 -14.5t-5.5 -14.5t-14.5 -5.5t-14.5 5.5t-5.5 14.5
t5.5 14.5t14.5 5.5t14.5 -5.5z" />
    <glyph glyph-name="alphatonos" unicode="&#x3ac;" horiz-adv-x="508" 
d="M470 29l-4 -18q-20 -14 -45 -14q-49 0 -52 67h-3q-59 -69 -140 -69q-80 0 -126 59t-46 163q0 113 55 177t153 64q56 -6 103 -38l4 1v28l20 4v-379q0 -30 8 -43.5t26 -13.5q23 0 41 15zM369 97v298q-31 22 -59 32t-59 10q-81 0 -129 -60t-48 -161q0 -93 41.5 -147
t112.5 -54q83 0 141 82zM301 675l13 -4l2 -6q-24 -60 -60 -144l-5 -1l-13 6q24 55 58 148z" />
    <glyph glyph-name="epsilontonos" unicode="&#x3ad;" horiz-adv-x="426" 
d="M378 56l-1 -18q-78 -44 -157 -44q-72 0 -116.5 32t-44.5 92q0 48 26.5 79.5t77.5 40.5q-40 15 -61.5 42.5t-21.5 64.5q0 50 42.5 81t104.5 31q35 0 73.5 -10t73.5 -30l-7 -16h-4q-70 37 -139 37q-54 0 -89 -25.5t-35 -68.5q0 -36 24.5 -62t67.5 -37h120l3 -4l-3 -16h-105
q-60 0 -94.5 -29t-34.5 -76q0 -52 39 -78.5t105 -26.5q77 0 151 42zM260 675l13 -4l2 -6q-24 -60 -60 -144l-5 -1l-13 6q24 55 58 148z" />
    <glyph glyph-name="etatonos" unicode="&#x3ae;" horiz-adv-x="506" 
d="M378 421.5q34 -35.5 34 -100.5v-506h-22l2 505q0 55 -29 86t-82 31q-39 0 -80.5 -25.5t-79.5 -70.5v-341h-20v449l20 4v-79h4q37 40 77.5 61.5t78.5 21.5q63 0 97 -35.5zM300 675l13 -4l2 -6q-24 -60 -60 -144l-5 -1l-13 6q24 55 58 148z" />
    <glyph glyph-name="iotatonos" unicode="&#x3af;" horiz-adv-x="237" 
d="M110 12.5q-13 15.5 -13 52.5v384l20 4v-387q0 -29 8.5 -39t26.5 -10q17 0 43 14l5 -3l-4 -17q-28 -14 -48 -14q-25 0 -38 15.5zM166 675l13 -4l2 -6q-24 -60 -60 -144l-5 -1l-13 6q24 55 58 148z" />
    <glyph glyph-name="upsilondieresistonos" unicode="&#x3b0;" horiz-adv-x="486" 
d="M123.5 44.5q-42.5 47.5 -40.5 127.5l1 57v220l21 4l-2 -280q-1 -72 36 -114.5t104 -42.5q66 0 102 42t36 115v276l21 4l-1 -281q2 -79 -40.5 -127t-118.5 -48t-118.5 47.5zM219 546q20 43 45 113l5 1l13 -4l2 -6l-46 -109l-5 -1zM158.5 559.5q-5.5 5.5 -5.5 14.5
t5.5 14.5t14.5 5.5t14.5 -5.5t5.5 -14.5t-5.5 -14.5t-14.5 -5.5t-14.5 5.5zM298.5 559.5q-5.5 5.5 -5.5 14.5t5.5 14.5t14.5 5.5t14.5 -5.5t5.5 -14.5t-5.5 -14.5t-14.5 -5.5t-14.5 5.5z" />
    <glyph glyph-name="alpha" unicode="&#x3b1;" horiz-adv-x="508" 
d="M470 29l-4 -18q-20 -14 -45 -14q-49 0 -52 67h-3q-59 -69 -140 -69q-80 0 -126 59t-46 163q0 113 55 177t153 64q56 -6 103 -38l4 1v28l20 4v-379q0 -30 8 -43.5t26 -13.5q23 0 41 15zM369 97v298q-31 22 -59 32t-59 10q-81 0 -129 -60t-48 -161q0 -93 41.5 -147
t112.5 -54q83 0 141 82z" />
    <glyph glyph-name="beta" unicode="&#x3b2;" horiz-adv-x="503" 
d="M405.5 315q39.5 -47 39.5 -123q0 -91 -56.5 -143t-155.5 -52q-47 0 -104 11v-193h-20v654q0 119 41 177t124 58q68 0 105.5 -37.5t37.5 -107.5q0 -125 -121 -189q70 -8 109.5 -55zM373 63q52 46 52 127q0 75 -43.5 119.5t-116.5 44.5h-51l-3 3l1 17h51q66 29 100 75.5
t34 107.5q0 60 -33 93.5t-92 33.5q-72 0 -107.5 -53t-35.5 -160v-444q49 -10 101 -10q91 0 143 46z" />
    <glyph glyph-name="gamma" unicode="&#x3b3;" horiz-adv-x="404" 
d="M367 424q0 -38 -16.5 -88.5t-58.5 -142.5l-88 -194v-184h-20v186l-155 449l21 4l13 -45l130 -378h4l78 173q40 89 55.5 136t15.5 83q0 8 -2 26l1 2l20 1q2 -18 2 -28z" />
    <glyph glyph-name="delta" unicode="&#x3b4;" horiz-adv-x="467" 
d="M162.5 528.5q26.5 -26.5 83.5 -65.5q55 -37 89.5 -67.5t59.5 -78t25 -112.5q0 -62 -23.5 -110t-66 -74t-97.5 -26q-84 0 -133.5 57.5t-49.5 154.5q0 82 40.5 140.5t128.5 104.5l1 3q-52 37 -78 67.5t-26 73.5q0 50 41.5 79.5t109.5 29.5q55 0 113 -19l-5 -19l-6 -1
q-53 19 -102 19q-57 0 -94 -25t-37 -67q0 -38 26.5 -64.5zM354 67.5q46 52.5 46 137.5q0 59 -22.5 102t-55 72t-83.5 63q-90 -46 -129.5 -101.5t-39.5 -133.5q0 -88 44 -140t119 -52t121 52.5z" />
    <glyph glyph-name="epsilon" unicode="&#x3b5;" horiz-adv-x="426" 
d="M378 56l-1 -18q-78 -44 -157 -44q-72 0 -116.5 32t-44.5 92q0 48 26.5 79.5t77.5 40.5q-40 15 -61.5 42.5t-21.5 64.5q0 50 42.5 81t104.5 31q35 0 73.5 -10t73.5 -30l-7 -16h-4q-70 37 -139 37q-54 0 -89 -25.5t-35 -68.5q0 -36 24.5 -62t67.5 -37h120l3 -4l-3 -16h-105
q-60 0 -94.5 -29t-34.5 -76q0 -52 39 -78.5t105 -26.5q77 0 151 42z" />
    <glyph glyph-name="zeta" unicode="&#x3b6;" horiz-adv-x="344" 
d="M200 -140l1 4q69 25 98.5 48.5t29.5 54.5q0 18 -12.5 30.5t-37.5 17.5l-110 24q-67 15 -96.5 49t-29.5 95q0 74 69 188t232 309h-201l-65 -1l-4 5l4 17l72 -1h182l41 1l-1 -18q-170 -205 -239.5 -317.5t-69.5 -181.5q0 -54 26 -83t90 -43l103 -23q67 -15 67 -68
q0 -38 -32.5 -66t-109.5 -57z" />
    <glyph glyph-name="eta" unicode="&#x3b7;" horiz-adv-x="506" 
d="M378 421.5q34 -35.5 34 -100.5v-506h-22l2 505q0 55 -29 86t-82 31q-39 0 -80.5 -25.5t-79.5 -70.5v-341h-20v449l20 4v-79h4q37 40 77.5 61.5t78.5 21.5q63 0 97 -35.5z" />
    <glyph glyph-name="theta" unicode="&#x3b8;" horiz-adv-x="495" 
d="M342.5 664.5q38.5 -42.5 59 -121.5t20.5 -187q0 -112 -21.5 -194t-61.5 -126t-94 -44q-52 0 -90.5 42.5t-59.5 122t-21 187.5q0 111 21.5 193t62 126t94.5 44q52 0 90.5 -42.5zM170 646q-35 -41 -55 -117t-21 -177l308 11q0 98 -19 171t-52.5 113t-78.5 40q-47 0 -82 -41
zM326.5 52.5q34.5 40.5 54.5 115t21 175.5l-308 -11q1 -97 19.5 -169.5t52.5 -111.5t79 -39q47 0 81.5 40.5z" />
    <glyph glyph-name="iota" unicode="&#x3b9;" horiz-adv-x="237" 
d="M110 12.5q-13 15.5 -13 52.5v384l20 4v-387q0 -29 8.5 -39t26.5 -10q17 0 43 14l5 -3l-4 -17q-28 -14 -48 -14q-25 0 -38 15.5z" />
    <glyph glyph-name="kappa" unicode="&#x3ba;" horiz-adv-x="421" 
d="M279.5 114.5q80.5 -71.5 98.5 -87.5l25 -22v-4q-7 -6 -14 -8l-4 1l-88 80q-122 108 -176 163v-237h-20v449l20 4v-209l200 174l34 34h32l-243 -211q55 -55 135.5 -126.5z" />
    <glyph glyph-name="lambda" unicode="&#x3bb;" horiz-adv-x="428" 
d="M427 24l-4 -18q-17 -8 -37 -8q-35 0 -50 44l-123 373h-4l-153 -372l-15 -45l-21 4l181 448l-25 77q-20 63 -34.5 95.5t-30 46t-36.5 13.5q-8 0 -28 -4l-2 4l3 16q16 4 32 4q25 0 42.5 -15t34.5 -51t39 -104l160 -483q10 -31 33 -31q14 0 33 9z" />
    <glyph glyph-name="uni03BC" unicode="&#x3bc;" horiz-adv-x="527" 
d="M490 29l-4 -18q-20 -14 -45 -14q-28 0 -41 20t-13 62h-4q-77 -83 -160 -83q-70 0 -100 53l2 -234h-20v634l20 4v-320q0 -56 26 -86.5t75 -30.5q40 0 81 23.5t80 68.5v341l20 4v-374q0 -32 8.5 -47t27.5 -15q23 0 41 15z" />
    <glyph glyph-name="nu" unicode="&#x3bd;" horiz-adv-x="404" 
d="M367 425q0 -37 -16.5 -87.5t-58.5 -144.5l-87 -193h-22l-154 450l21 4l13 -45l130 -378h4l78 173q40 89 55.5 136t15.5 83q0 8 -2 26l1 2l20 1q2 -18 2 -27z" />
    <glyph glyph-name="xi" unicode="&#x3be;" horiz-adv-x="383" 
d="M380 675l-7 -17h-8q-45 26 -101 26q-80 0 -125.5 -38t-45.5 -105q0 -59 38.5 -98t114.5 -61h91l3 -6l-3 -14h-75q-88 0 -139 -42t-51 -113q0 -58 34.5 -96t104.5 -60l78 -24q36 -11 52.5 -28.5t16.5 -43.5q0 -77 -154 -128l-5 16l1 4q138 47 138 109q0 19 -12 31t-40 20
l-85 25q-149 44 -149 174q0 70 42 114t119 55q-140 44 -140 165q0 77 50.5 120.5t139.5 43.5q66 0 117 -29z" />
    <glyph glyph-name="omicron" unicode="&#x3bf;" horiz-adv-x="483" 
d="M379 396.5q49 -60.5 49 -166.5q0 -109 -50.5 -172t-139.5 -63q-85 0 -134 60.5t-49 166.5q0 109 50.5 172t139.5 63q85 0 134 -60.5zM120.5 380q-45.5 -57 -45.5 -158q0 -97 43.5 -152t119.5 -55q79 0 124.5 57t45.5 158q0 97 -43.5 152t-119.5 55q-79 0 -124.5 -57z" />
    <glyph glyph-name="pi" unicode="&#x3c0;" horiz-adv-x="564" 
d="M412 432v-355q0 -33 9.5 -46.5t32.5 -13.5q11 0 21 3t31 13l6 -3l-4 -18q-22 -10 -32 -13t-23 -3q-32 0 -46.5 18.5t-14.5 60.5v357h-236v-432h-20v432h-7q-57 0 -109 -34l-4 1l-7 11l1 4q53 38 119 38h397l3 -4l-4 -16h-113z" />
    <glyph glyph-name="rho" unicode="&#x3c1;" horiz-adv-x="487" 
d="M385.5 401.5q43.5 -55.5 43.5 -162.5q0 -119 -50.5 -181.5t-150.5 -62.5q-29 0 -61.5 10.5t-61.5 27.5v-218h-20v421q0 108 45.5 164.5t128.5 56.5t126.5 -55.5zM409 240q0 96 -38 146.5t-111 50.5q-74 0 -114.5 -51t-40.5 -148v-183q67 -40 123 -40q181 0 181 225z" />
    <glyph glyph-name="uni03C2" unicode="&#x3c2;" horiz-adv-x="379" 
d="M191 -158l1 4q65 25 95.5 51.5t30.5 58.5q0 17 -14 30.5t-39 21.5l-77 24q-73 23 -106.5 68.5t-33.5 128.5q0 105 48 166.5t129 61.5q34 0 69 -11.5t60 -30.5l-7 -17h-6q-22 18 -53 28.5t-62 10.5q-72 0 -115 -56.5t-43 -152.5q0 -75 29.5 -115.5t94.5 -60.5l77 -24
q69 -20 69 -73q0 -39 -34 -70t-106 -59z" />
    <glyph glyph-name="sigma" unicode="&#x3c3;" horiz-adv-x="511" 
d="M351 432l-1 -4q64 -93 64 -202q0 -111 -48 -171t-136 -60q-83 0 -129 61t-46 173q0 223 211 223h213l3 -4l-4 -16h-127zM376 330.5q-18 53.5 -51 101.5h-64q-92 0 -139 -51.5t-47 -153.5q0 -100 40.5 -156t113.5 -56q78 0 121.5 55t43.5 153q0 54 -18 107.5z" />
    <glyph glyph-name="tau" unicode="&#x3c4;" horiz-adv-x="354" 
d="M172 432v-348q0 -37 12 -52.5t41 -15.5q32 0 69 20l6 -3l-4 -18q-41 -19 -74 -19q-36 0 -53 21t-17 66v349h-36q-57 0 -109 -34l-4 1l-7 11l1 4q53 38 119 38h216l3 -4l-4 -16h-159z" />
    <glyph glyph-name="upsilon" unicode="&#x3c5;" horiz-adv-x="486" 
d="M123.5 44.5q-42.5 47.5 -40.5 127.5l1 57v220l21 4l-2 -280q-1 -72 36 -114.5t104 -42.5q66 0 102 42t36 115v276l21 4l-1 -281q2 -79 -40.5 -127t-118.5 -48t-118.5 47.5z" />
    <glyph glyph-name="phi" unicode="&#x3c6;" horiz-adv-x="596" 
d="M478 61.5q-63 -64.5 -178 -66.5v-180h-20v180q-113 3 -171.5 61t-58.5 169q0 82 34 136.5t108 91.5l10 -14v-3q-70 -36 -101 -85t-31 -125q0 -206 210 -211l1 314q0 59 27 93.5t80 34.5q72 0 112.5 -54.5t40.5 -154.5q0 -122 -63 -186.5zM463.5 75.5
q57.5 58.5 57.5 170.5q0 90 -36 140.5t-98 50.5q-43 0 -64.5 -29.5t-21.5 -82.5l-1 -310q106 2 163.5 60.5z" />
    <glyph glyph-name="chi" unicode="&#x3c7;" horiz-adv-x="408" 
d="M418 -166l-3 -16q-15 -6 -27 -6q-14 0 -24.5 9.5t-21.5 31.5l-134 272l-136 -268l-21 -42h-24l169 327l-121 245q-14 28 -23.5 37t-23.5 9q-11 0 -18 -1l-3 4l3 15q14 2 20 2q20 0 33.5 -12.5t29.5 -44.5l117 -239l128 253l21 42h24l-161 -310l137 -280q8 -16 15.5 -23
t17.5 -7q7 0 22 5z" />
    <glyph glyph-name="psi" unicode="&#x3c8;" horiz-adv-x="603" 
d="M468 51.5q-58 -50.5 -158 -51.5v-185h-20v185q-101 2 -158 52t-55 135l1 42v220l21 4l-2 -265q-1 -77 50.5 -122t143.5 -47v520l20 4v-524q90 1 141.5 46t51.5 123v261l20 4v-266q2 -85 -56 -135.5z" />
    <glyph glyph-name="omega" unicode="&#x3c9;" horiz-adv-x="621" 
d="M530 350q29 -60 29 -153q0 -103 -33.5 -156t-98.5 -53q-49 0 -77.5 30.5t-40.5 95.5q-12 -65 -40 -95.5t-76 -30.5q-65 0 -98.5 53t-33.5 156q0 93 29 153t94 102l10 -11l-1 -6q-58 -37 -85 -94.5t-27 -141.5q0 -92 29.5 -141.5t83.5 -49.5q107 0 107 214v72l17 5l2 -1
v-76q0 -214 106 -214q54 0 83.5 49.5t29.5 141.5q0 85 -27 141.5t-85 94.5l-1 6l10 11q65 -42 94 -102z" />
    <glyph glyph-name="iotadieresis" unicode="&#x3ca;" horiz-adv-x="237" 
d="M110 12.5q-13 15.5 -13 52.5v384l20 4v-387q0 -29 8.5 -39t26.5 -10q17 0 43 14l5 -3l-4 -17q-28 -14 -48 -14q-25 0 -38 15.5zM63.5 609.5q5.5 -5.5 5.5 -14.5t-5.5 -14.5t-14.5 -5.5t-14.5 5.5t-5.5 14.5t5.5 14.5t14.5 5.5t14.5 -5.5zM203.5 609.5q5.5 -5.5 5.5 -14.5
t-5.5 -14.5t-14.5 -5.5t-14.5 5.5t-5.5 14.5t5.5 14.5t14.5 5.5t14.5 -5.5z" />
    <glyph glyph-name="upsilondieresis" unicode="&#x3cb;" horiz-adv-x="486" 
d="M123.5 44.5q-42.5 47.5 -40.5 127.5l1 57v220l21 4l-2 -280q-1 -72 36 -114.5t104 -42.5q66 0 102 42t36 115v276l21 4l-1 -281q2 -79 -40.5 -127t-118.5 -48t-118.5 47.5zM187.5 609.5q5.5 -5.5 5.5 -14.5t-5.5 -14.5t-14.5 -5.5t-14.5 5.5t-5.5 14.5t5.5 14.5t14.5 5.5
t14.5 -5.5zM327.5 609.5q5.5 -5.5 5.5 -14.5t-5.5 -14.5t-14.5 -5.5t-14.5 5.5t-5.5 14.5t5.5 14.5t14.5 5.5t14.5 -5.5z" />
    <glyph glyph-name="omicrontonos" unicode="&#x3cc;" horiz-adv-x="483" 
d="M379 396.5q49 -60.5 49 -166.5q0 -109 -50.5 -172t-139.5 -63q-85 0 -134 60.5t-49 166.5q0 109 50.5 172t139.5 63q85 0 134 -60.5zM120.5 380q-45.5 -57 -45.5 -158q0 -97 43.5 -152t119.5 -55q79 0 124.5 57t45.5 158q0 97 -43.5 152t-119.5 55q-79 0 -124.5 -57z
M289 675l13 -4l2 -6q-24 -60 -60 -144l-5 -1l-13 6q24 55 58 148z" />
    <glyph glyph-name="upsilontonos" unicode="&#x3cd;" horiz-adv-x="486" 
d="M123.5 44.5q-42.5 47.5 -40.5 127.5l1 57v220l21 4l-2 -280q-1 -72 36 -114.5t104 -42.5q66 0 102 42t36 115v276l21 4l-1 -281q2 -79 -40.5 -127t-118.5 -48t-118.5 47.5zM290 675l13 -4l2 -6q-24 -60 -60 -144l-5 -1l-13 6q24 55 58 148z" />
    <glyph glyph-name="omegatonos" unicode="&#x3ce;" horiz-adv-x="621" 
d="M530 350q29 -60 29 -153q0 -103 -33.5 -156t-98.5 -53q-49 0 -77.5 30.5t-40.5 95.5q-12 -65 -40 -95.5t-76 -30.5q-65 0 -98.5 53t-33.5 156q0 93 29 153t94 102l10 -11l-1 -6q-58 -37 -85 -94.5t-27 -141.5q0 -92 29.5 -141.5t83.5 -49.5q107 0 107 214v72l17 5l2 -1
v-76q0 -214 106 -214q54 0 83.5 49.5t29.5 141.5q0 85 -27 141.5t-85 94.5l-1 6l10 11q65 -42 94 -102zM358 675l13 -4l2 -6q-24 -60 -60 -144l-5 -1l-13 6q24 55 58 148z" />
    <glyph glyph-name="uni03CF" unicode="&#x3cf;" horiz-adv-x="551" 
d="M150 637v-637h-20v637h20zM518 5v-4q-39 -110 -83 -158.5t-108 -48.5q-27 0 -55 7q-5 10 -5 21l2 2q33 -9 59 -9q55 0 93.5 42.5t74.5 140.5l-4 1q-179 177 -313 339v3l249 249l43 47h31l-296 -297q146 -176 312 -335z" />
    <glyph glyph-name="uni03D1" unicode="&#x3d1;" horiz-adv-x="495" 
d="M342.5 664.5q38.5 -42.5 59 -121.5t20.5 -187q0 -112 -21.5 -194t-61.5 -126t-94 -44q-52 0 -90.5 42.5t-59.5 122t-21 187.5q0 111 21.5 193t62 126t94.5 44q52 0 90.5 -42.5zM170 646q-35 -41 -55 -117t-21 -177l308 11q0 98 -19 171t-52.5 113t-78.5 40q-47 0 -82 -41
zM326.5 52.5q34.5 40.5 54.5 115t21 175.5l-308 -11q1 -97 19.5 -169.5t52.5 -111.5t79 -39q47 0 81.5 40.5z" />
    <glyph glyph-name="uni03D5" unicode="&#x3d5;" horiz-adv-x="596" 
d="M478 61.5q-63 -64.5 -178 -66.5v-180h-20v180q-113 3 -171.5 61t-58.5 169q0 82 34 136.5t108 91.5l10 -14v-3q-70 -36 -101 -85t-31 -125q0 -206 210 -211l1 314q0 59 27 93.5t80 34.5q72 0 112.5 -54.5t40.5 -154.5q0 -122 -63 -186.5zM463.5 75.5
q57.5 58.5 57.5 170.5q0 90 -36 140.5t-98 50.5q-43 0 -64.5 -29.5t-21.5 -82.5l-1 -310q106 2 163.5 60.5z" />
    <glyph glyph-name="uni03D6" unicode="&#x3d6;" horiz-adv-x="564" 
d="M412 432v-355q0 -33 9.5 -46.5t32.5 -13.5q11 0 21 3t31 13l6 -3l-4 -18q-22 -10 -32 -13t-23 -3q-32 0 -46.5 18.5t-14.5 60.5v357h-236v-432h-20v432h-7q-57 0 -109 -34l-4 1l-7 11l1 4q53 38 119 38h397l3 -4l-4 -16h-113z" />
    <glyph glyph-name="uni03D7" unicode="&#x3d7;" horiz-adv-x="424" 
d="M279.5 114.5q80.5 -71.5 98.5 -87.5l25 -22v-4q-32 -85 -69 -122.5t-90 -37.5q-17 0 -44 5q-4 7 -6 20l2 2q31 -7 49 -7q45 0 76 32t61 107l-4 1q-44 40 -86 77q-127 114 -171 159v-237h-20v449l20 4v-209l200 174l34 34h32l-243 -211q55 -55 135.5 -126.5z" />
    <glyph glyph-name="uni03F0" unicode="&#x3f0;" horiz-adv-x="421" 
d="M279.5 114.5q80.5 -71.5 98.5 -87.5l25 -22v-4q-7 -6 -14 -8l-4 1l-88 80q-122 108 -176 163v-237h-20v449l20 4v-209l200 174l34 34h32l-243 -211q55 -55 135.5 -126.5z" />
    <glyph glyph-name="uni0400" unicode="&#x400;" horiz-adv-x="500" 
d="M446 16l-4 -16h-311v637h308l3 -4l-4 -16h-287v-277h238l3 -4l-4 -16h-237v-300h292zM379 742l-7 -15l-5 -3q-107 55 -174 93l-2 5l7 12l5 2q85 -50 176 -94z" />
    <glyph glyph-name="uni0401" unicode="&#x401;" horiz-adv-x="500" 
d="M446 16l-4 -16h-311v637h308l3 -4l-4 -16h-287v-277h238l3 -4l-4 -16h-237v-300h292zM231.5 794.5q5.5 -5.5 5.5 -14.5t-5.5 -14.5t-14.5 -5.5t-14.5 5.5t-5.5 14.5t5.5 14.5t14.5 5.5t14.5 -5.5zM371.5 794.5q5.5 -5.5 5.5 -14.5t-5.5 -14.5t-14.5 -5.5t-14.5 5.5
t-5.5 14.5t5.5 14.5t14.5 5.5t14.5 -5.5z" />
    <glyph glyph-name="uni0402" unicode="&#x402;" horiz-adv-x="622" 
d="M484.5 390.5q32.5 -23.5 47 -77t14.5 -145.5q0 -132 -29 -216.5t-94 -140.5l-11 7v6q60 56 87 137.5t27 207.5q0 85 -12.5 133.5t-41.5 70t-79 21.5q-101 0 -191 -86v-308h-20v617h-167l-3 4l4 16h416l3 -4l-4 -16h-229v-282h4q44 40 90 59.5t99 19.5q57 0 89.5 -23.5z
" />
    <glyph glyph-name="uni0403" unicode="&#x403;" horiz-adv-x="434" 
d="M422 633l-4 -16h-267v-617h-20v637h288zM383 834l7 -12l-2 -5q-67 -38 -174 -93l-5 3l-7 15q91 44 176 94z" />
    <glyph glyph-name="uni0404" unicode="&#x404;" horiz-adv-x="580" 
d="M523 80l-2 -18q-42 -32 -91.5 -49.5t-97.5 -17.5q-124 0 -189.5 80.5t-65.5 235.5q0 157 69 243.5t198 86.5q48 0 94.5 -15.5t82.5 -43.5l-7 -17h-8q-33 27 -75 41.5t-87 14.5q-113 0 -176 -73t-70 -206h343l5 -4l-2 -16h-347v-12q0 -145 60.5 -220t174.5 -75
q48 0 96.5 17.5t87.5 49.5z" />
    <glyph glyph-name="uni0405" unicode="&#x405;" horiz-adv-x="460" 
d="M377 611l-4 -18l-7 -1q-28 14 -58 21t-55 7q-48 0 -84 -20.5t-55 -53t-19 -66.5q0 -35 19 -60.5t46.5 -42t76.5 -40.5q54 -27 85.5 -47t54 -51.5t22.5 -76.5q0 -44 -24 -82.5t-66.5 -61t-95.5 -22.5q-39 0 -80 12t-72 35l1 19l5 2q30 -24 69 -36t76 -12q49 0 87.5 21
t59 54.5t20.5 70.5q0 38 -20 65t-48.5 45t-78.5 42q-53 26 -83.5 45.5t-52 50t-21.5 73.5t23 79t64 57t93 21q60 0 122 -29z" />
    <glyph glyph-name="uni0406" unicode="&#x406;" horiz-adv-x="282" 
d="M151 0h-20v637h20v-637z" />
    <glyph glyph-name="uni0407" unicode="&#x407;" horiz-adv-x="240" 
d="M130 0h-20v637h20v-637zM64.5 794.5q5.5 -5.5 5.5 -14.5t-5.5 -14.5t-14.5 -5.5t-14.5 5.5t-5.5 14.5t5.5 14.5t14.5 5.5t14.5 -5.5zM204.5 794.5q5.5 -5.5 5.5 -14.5t-5.5 -14.5t-14.5 -5.5t-14.5 5.5t-5.5 14.5t5.5 14.5t14.5 5.5t14.5 -5.5z" />
    <glyph glyph-name="uni0408" unicode="&#x408;" horiz-adv-x="315" 
d="M187 115q0 -70 -29.5 -118.5t-99.5 -94.5l-11 11v6q64 42 92 87t28 107v504h-128l-4 4l3 16h149v-522z" />
    <glyph glyph-name="uni0409" unicode="&#x409;" horiz-adv-x="804" 
d="M714 308.5q45 -42.5 45 -122.5q0 -91 -57.5 -138.5t-167.5 -47.5h-110v617h-221l-5 -71q-13 -192 -32 -304.5t-49 -169.5t-77 -79l-13 -6l-7 16q49 23 78.5 77t48 163t31.5 305l6 86l-1 3h261v-286h139q86 0 131 -42.5zM694.5 69q44.5 42 44.5 116q0 71 -40.5 108.5
t-118.5 37.5h-136v-311h120q86 7 130.5 49z" />
    <glyph glyph-name="uni040A" unicode="&#x40a;" horiz-adv-x="939" 
d="M850 303.5q45 -41.5 45 -120.5q0 -90 -57.5 -136.5t-167.5 -46.5h-109v324h-410v-324h-20v637h20v-293h410v293h20v-292h138q86 0 131 -41.5zM875 182q0 71 -40 107t-119 36h-135v-305h119q175 14 175 162z" />
    <glyph glyph-name="uni040B" unicode="&#x40b;" horiz-adv-x="623" 
d="M507.5 366.5q38.5 -47.5 38.5 -146.5v-220h-21v217q0 177 -134 177q-51 0 -97 -20.5t-92 -65.5v-308h-20v617h-167l-3 4l4 16h416l3 -4l-4 -16h-229v-282h4q86 79 182 79q81 0 119.5 -47.5z" />
    <glyph glyph-name="uni040C" unicode="&#x40c;" horiz-adv-x="549" 
d="M150 0h-20v637h20v-637zM206 340q146 -176 312 -335v-4q-3 -3 -14 -8l-4 1q-183 178 -321 344v3l249 249l43 47h31zM383 834l7 -12l-2 -5q-67 -38 -174 -93l-5 3l-7 15q91 44 176 94z" />
    <glyph glyph-name="uni040D" unicode="&#x40d;" horiz-adv-x="708" 
d="M131 636l20 2v-596h5l402 595h19v-637h-20v595h-5l-402 -595h-19v636zM446 742l-7 -15l-5 -3q-107 55 -174 93l-2 5l7 12l5 2q85 -50 176 -94z" />
    <glyph glyph-name="uni040E" unicode="&#x40e;" horiz-adv-x="541" 
d="M513 636l-204 -453q-35 -78 -58.5 -113t-54 -50.5t-89.5 -25.5h-6q-3 9 -4 16l2 3q55 11 83 24t49 41t49 89l-244 469l25 1l19 -44l208 -396h6l177 396l18 43h24zM385 768q-13 -36 -47 -55t-82 -19t-81 19t-46 55l12 10h7q9 -32 37 -48.5t71 -16.5t71 16.5t39 48.5h7z
" />
    <glyph glyph-name="uni040F" unicode="&#x40f;" horiz-adv-x="678" 
d="M547 637v-637h-198v-131l-20 -4v135h-198v637h20v-617h376v617h20z" />
    <glyph glyph-name="uni0410" unicode="&#x410;" horiz-adv-x="576" 
d="M540 0h-23l-13 43l-63 170h-302l-68 -170l-14 -43h-24l254 637h20zM298 603h-4l-147 -370h287z" />
    <glyph glyph-name="uni0411" unicode="&#x411;" horiz-adv-x="544" 
d="M431.5 308.5q46.5 -42.5 46.5 -122.5q0 -91 -60 -138.5t-174 -47.5h-113v637h322l3 -4l-4 -16h-301v-266h144q90 0 136.5 -42.5zM411.5 69q46.5 42 46.5 116q0 71 -42 108.5t-124 37.5h-141v-311h124q90 7 136.5 49z" />
    <glyph glyph-name="uni0412" unicode="&#x412;" horiz-adv-x="539" 
d="M429.5 284.5q38.5 -39.5 38.5 -108.5q0 -85 -59 -132t-169 -47q-58 0 -109 3v637l123 2q79 0 121.5 -38.5t42.5 -109.5q0 -60 -25 -99.5t-71 -57.5q69 -10 107.5 -49.5zM151 618v-275l130 -3q56 11 86 50t30 101q0 58 -37 92.5t-99 34.5h-110zM393 59q55 42 55 117
q0 64 -41 101t-117 43h-139v-300q39 -3 85 -3q102 0 157 42z" />
    <glyph glyph-name="uni0413" unicode="&#x413;" horiz-adv-x="434" 
d="M422 633l-4 -16h-267v-617h-20v637h288z" />
    <glyph glyph-name="uni0414" unicode="&#x414;" horiz-adv-x="610" 
d="M549 -111l-20 -4v115h-492v-111l-20 -4v135h56q38 28 62 86t39.5 162t27.5 280l6 89h253v-617h88v-131zM441 617h-214l-5 -71q-11 -167 -26.5 -271.5t-38.5 -165t-57 -89.5h341v597z" />
    <glyph glyph-name="uni0415" unicode="&#x415;" horiz-adv-x="500" 
d="M446 16l-4 -16h-311v637h308l3 -4l-4 -16h-287v-277h238l3 -4l-4 -16h-237v-300h292z" />
    <glyph glyph-name="uni0416" unicode="&#x416;" horiz-adv-x="772" 
d="M33 1v4q159 164 290 335l-275 297h30l40 -47l231 -249v-3q-128 -168 -298 -344l-4 -1q-11 5 -14 8zM376 637h20v-637h-20v637zM721 -6q-170 176 -298 344v3l231 249l40 47h30l-275 -297q131 -171 290 -335v-4q-3 -3 -14 -8z" />
    <glyph glyph-name="uni0417" unicode="&#x417;" horiz-adv-x="493" 
d="M381.5 280q36.5 -41 36.5 -104q0 -53 -26 -94.5t-71.5 -65t-102.5 -23.5q-48 0 -90.5 16.5t-71.5 45.5l7 15l5 1q28 -28 66.5 -43t82.5 -15q52 0 93 20.5t64.5 57t23.5 83.5q0 61 -39 100t-107 48h-114l-5 4l2 16h117q48 17 78 59.5t30 94.5q0 57 -37.5 90.5t-100.5 33.5
q-44 0 -85.5 -16.5t-73.5 -46.5l-7 1l1 18q37 31 80.5 48t87.5 17q69 0 112.5 -39.5t43.5 -103.5q0 -52 -27 -96.5t-74 -66.5q65 -14 101.5 -55z" />
    <glyph glyph-name="uni0418" unicode="&#x418;" horiz-adv-x="708" 
d="M131 636l20 2v-596h5l402 595h19v-637h-20v595h-5l-402 -595h-19v636z" />
    <glyph glyph-name="uni0419" unicode="&#x419;" horiz-adv-x="708" 
d="M131 636l20 2v-596h5l402 595h19v-637h-20v595h-5l-402 -595h-19v636zM468 768q-13 -36 -47 -55t-82 -19t-81 19t-46 55l12 10h7q9 -32 37 -48.5t71 -16.5t71 16.5t39 48.5h7z" />
    <glyph glyph-name="uni041A" unicode="&#x41a;" horiz-adv-x="549" 
d="M150 0h-20v637h20v-637zM206 340q146 -176 312 -335v-4q-3 -3 -14 -8l-4 1q-183 178 -321 344v3l249 249l43 47h31z" />
    <glyph glyph-name="uni041B" unicode="&#x41b;" horiz-adv-x="575" 
d="M444 0h-20v617h-221l-5 -71q-13 -193 -32.5 -305t-49 -169t-76.5 -79l-13 -6l-7 16q49 23 78.5 77t48 163t31.5 305l6 86l-1 3h261v-637z" />
    <glyph glyph-name="uni041C" unicode="&#x41c;" horiz-adv-x="822" 
d="M725 0h-21l-20 195l-44 394h-5l-214 -508h-25l-210 508h-5l-43 -394l-21 -195h-21l70 637h23l40 -99l177 -428h4l187 439l37 88h23z" />
    <glyph glyph-name="uni041D" unicode="&#x41d;" horiz-adv-x="712" 
d="M581 637v-637h-20v314h-410v-314h-20v637h20v-303h410v303h20z" />
    <glyph glyph-name="uni041E" unicode="&#x41e;" horiz-adv-x="685" 
d="M540.5 561q67.5 -81 67.5 -232q0 -161 -70 -247.5t-201 -86.5q-125 0 -192.5 83.5t-67.5 238.5q0 157 70 241t200 84q126 0 193.5 -81zM161.5 543q-64.5 -79 -64.5 -226q0 -145 62 -223.5t178 -78.5q121 0 186 81.5t65 232.5q0 141 -62.5 217t-178.5 76
q-121 0 -185.5 -79z" />
    <glyph glyph-name="uni041F" unicode="&#x41f;" horiz-adv-x="652" 
d="M521 0h-20v617h-350v-617h-20v637h390v-637z" />
    <glyph glyph-name="uni0420" unicode="&#x420;" horiz-adv-x="503" 
d="M406 592.5q47 -46.5 47 -132.5q0 -102 -55 -156.5t-158 -54.5h-89v-249h-20v637l141 2q87 0 134 -46.5zM390.5 326.5q42.5 50.5 42.5 133.5q0 74 -40 115t-114 44l-128 -1v-349h119q78 7 120.5 57.5z" />
    <glyph glyph-name="uni0421" unicode="&#x421;" horiz-adv-x="568" 
d="M435 625.5q46 -15.5 83 -43.5l-7 -17h-7q-34 27 -75.5 41.5t-86.5 14.5q-119 0 -182 -79t-63 -226q0 -145 60 -223t173 -78q48 0 95.5 17.5t87.5 49.5l7 -2l-2 -18q-42 -32 -91 -49.5t-96 -17.5q-123 0 -188.5 83.5t-65.5 238.5q0 156 68.5 240t196.5 84q47 0 93 -15.5z
" />
    <glyph glyph-name="uni0422" unicode="&#x422;" horiz-adv-x="443" 
d="M431 633l-4 -16h-195v-617h-20v617h-197l-3 4l4 16h412z" />
    <glyph glyph-name="uni0423" unicode="&#x423;" horiz-adv-x="541" 
d="M513 636l-204 -453q-35 -78 -58.5 -113t-54 -50.5t-89.5 -25.5h-6q-3 9 -4 16l2 3q55 11 83 24t49 41t49 89l-244 469l25 1l19 -44l208 -396h6l177 396l18 43h24z" />
    <glyph glyph-name="uni0424" unicode="&#x424;" horiz-adv-x="709" 
d="M578 149.5q-75 -66.5 -213 -70.5v-88h-20v88q-140 1 -214.5 64.5t-74.5 186.5q0 122 74 186t215 67v69h20v-69q288 -2 288 -244q0 -123 -75 -189.5zM563.5 164.5q69.5 61.5 69.5 174.5q0 222 -268 224v-464q129 4 198.5 65.5zM145.5 158q69.5 -58 199.5 -59v464
q-132 -3 -200.5 -62t-68.5 -172t69.5 -171z" />
    <glyph glyph-name="uni0425" unicode="&#x425;" horiz-adv-x="570" 
d="M298 330l231 -330h-27l-24 38l-193 276l-193 -278l-22 -36h-27l229 330l-215 307h28l22 -35l178 -256l174 251l24 40h27z" />
    <glyph glyph-name="uni0426" unicode="&#x426;" horiz-adv-x="693" 
d="M643 -111l-20 -4v115h-492v637h20v-617h368v617h20v-617h104v-131z" />
    <glyph glyph-name="uni0427" unicode="&#x427;" horiz-adv-x="571" 
d="M439 195l1 -195h-21v305h-4q-81 -79 -178 -79q-83 0 -122.5 37.5t-39.5 116.5v257h20v-254q0 -69 34.5 -103t104.5 -34q51 0 96 21.5t89 67.5v302h21z" />
    <glyph glyph-name="uni0428" unicode="&#x428;" horiz-adv-x="916" 
d="M785 637v-637h-654v637h20v-617h297v617h20v-617h297v617h20z" />
    <glyph glyph-name="uni0429" unicode="&#x429;" horiz-adv-x="919" 
d="M872 -111l-20 -4v115h-721v637h20v-617h297v617h20v-617h297v617h20v-617h87v-131z" />
    <glyph glyph-name="uni042A" unicode="&#x42a;" horiz-adv-x="575" 
d="M486 308.5q44 -42.5 44 -122.5q0 -91 -56 -138.5t-162 -47.5h-107v617h-190l-3 4l4 16h209v-286h134q83 0 127 -42.5zM466.5 69q43.5 42 43.5 116q0 71 -39.5 108.5t-114.5 37.5h-131v-311h115q83 7 126.5 49z" />
    <glyph glyph-name="uni042B" unicode="&#x42b;" horiz-adv-x="689" 
d="M378.5 308.5q42.5 -42.5 42.5 -122.5q0 -91 -55 -138.5t-160 -47.5h-102v637h20v-286h131q81 0 123.5 -42.5zM558 637v-637h-20v637h20zM359 69q42 42 42 116q0 71 -38 108.5t-111 37.5h-128v-311h112q81 7 123 49z" />
    <glyph glyph-name="uni042C" unicode="&#x42c;" horiz-adv-x="510" 
d="M420 308.5q45 -42.5 45 -122.5q0 -91 -57.5 -138.5t-167.5 -47.5h-109v637h20v-286h138q86 0 131 -42.5zM400.5 69q44.5 42 44.5 116q0 71 -40.5 108.5t-118.5 37.5h-135v-311h119q86 7 130.5 49z" />
    <glyph glyph-name="uni042D" unicode="&#x42d;" horiz-adv-x="579" 
d="M436.5 560.5q65.5 -80.5 65.5 -235.5q0 -157 -69 -243.5t-198 -86.5q-48 0 -94.5 15.5t-82.5 43.5l7 17h8q33 -27 75 -41.5t87 -14.5q119 0 182.5 80t64.5 227h-344l-5 4l2 16h347q-4 138 -64 208.5t-171 70.5q-48 0 -96.5 -17.5t-87.5 -49.5l-7 2l2 18q42 32 91.5 49.5
t97.5 17.5q124 0 189.5 -80.5z" />
    <glyph glyph-name="uni042E" unicode="&#x42e;" horiz-adv-x="862" 
d="M720 561q63 -81 63 -232q0 -161 -65 -247.5t-186 -86.5q-116 0 -178.5 82.5t-63.5 236.5h-139v-314h-20v637h20v-303h139q4 149 68.5 228.5t181.5 79.5t180 -81zM703 96.5q60 81.5 60 232.5q0 141 -58 217t-165 76q-110 0 -170 -79t-60 -226q0 -145 57.5 -223.5
t164.5 -78.5q111 0 171 81.5z" />
    <glyph glyph-name="uni042F" unicode="&#x42f;" horiz-adv-x="544" 
d="M414 637v-637h-20v263h-133q-83 -135 -185 -268l-6 -2q-7 3 -12 8v4q113 147 181 261q-70 16 -108 64t-38 120q0 87 51.5 138t138.5 51zM394 283v334l-118 1q-73 0 -118 -46t-45 -122q0 -68 36 -111.5t103 -55.5h142z" />
    <glyph glyph-name="uni0430" unicode="&#x430;" horiz-adv-x="439" 
d="M300.5 427.5q30.5 -29.5 30.5 -83.5q0 -33 -5 -133l-5 -138q0 -29 8.5 -42.5t27.5 -13.5q10 0 21.5 4t20.5 11l6 -3l-4 -18q-20 -14 -45 -14q-28 0 -41 17.5t-14 58.5h-3q-30 -35 -64 -56t-67 -22q-54 0 -83.5 29.5t-29.5 82.5q0 36 21.5 61t60.5 34l172 40l3 98
q0 47 -25.5 72t-73.5 25q-30 0 -65.5 -17t-71.5 -48l-6 2l-5 15q37 33 75.5 50.5t73.5 17.5q57 0 87.5 -29.5zM141 182q-32 -8 -49.5 -27t-17.5 -48q0 -43 24.5 -67.5t67.5 -24.5q33 0 68.5 24t67.5 67l5 115z" />
    <glyph glyph-name="uni0431" unicode="&#x431;" horiz-adv-x="498" 
d="M400.5 383q42.5 -56 42.5 -163q0 -106 -49 -165.5t-137 -59.5q-92 0 -136 74t-44 230q0 94 14 154t44.5 96.5t83.5 56.5l95 37q34 13 58 27t55 41h5l5 -18q-29 -24 -55 -39.5t-60 -28.5l-95 -37q-66 -25 -97 -83.5t-32 -160.5l3 -1q34 44 82.5 70t94.5 26q80 0 122.5 -56
zM379.5 69.5q43.5 54.5 43.5 151.5q0 98 -37 148t-110 50q-46 0 -94.5 -29.5t-83.5 -79.5v-17q0 -143 39 -210.5t121 -67.5q78 0 121.5 54.5z" />
    <glyph glyph-name="uni0432" unicode="&#x432;" horiz-adv-x="441" 
d="M356.5 199.5q28.5 -28.5 28.5 -74.5q0 -62 -48 -94.5t-141 -32.5l-72 1q-7 1 -23 1v452l107 1q72 0 110.5 -27t38.5 -78q0 -39 -21.5 -67.5t-62.5 -42.5q55 -10 83.5 -38.5zM121 433v-188l109 -2q51 8 78 35t27 69q0 40 -32.5 63t-88.5 23h-93zM320 45q44 28 44 81
q0 44 -32 69t-94 29h-117v-205q38 -2 72 -2q83 0 127 28z" />
    <glyph glyph-name="uni0433" unicode="&#x433;" horiz-adv-x="321" 
d="M327 449l-4 -16h-202v-433h-20v452h223z" />
    <glyph glyph-name="uni0434" unicode="&#x434;" horiz-adv-x="467" 
d="M421 -97l-20 -4v101h-369v-97l-20 -4v121h39q30 20 48 60t29.5 111.5t21.5 195.5l5 65h191v-432h75v-117zM326 433h-152l-4 -49q-13 -169 -33.5 -250.5t-58.5 -113.5h248v413z" />
    <glyph glyph-name="uni0435" unicode="&#x435;" horiz-adv-x="444" 
d="M347.5 413.5q38.5 -43.5 38.5 -121.5q0 -20 -1 -30l-6 -7l-304 -4q-1 -10 -1 -30q0 -95 43.5 -150.5t118.5 -55.5q37 0 72 11.5t61 31.5l6 -2l-3 -20q-62 -41 -138 -41q-83 0 -131.5 61t-48.5 165q0 108 50.5 172t135.5 64q69 0 107.5 -43.5zM367 296q0 66 -34.5 103.5
t-93.5 37.5q-65 0 -108 -44.5t-54 -121.5l289 4z" />
    <glyph glyph-name="uni0436" unicode="&#x436;" horiz-adv-x="578" 
d="M19 1v4q89 86 223 236l-207 211h30l29 -34l174 -175v-5q-96 -109 -231 -244l-4 -1q-11 5 -14 8zM279 452h20v-452h-20v452zM541 -6q-135 135 -231 244v5l174 175l29 34h30l-207 -211q134 -150 223 -236v-4q-3 -3 -14 -8z" />
    <glyph glyph-name="uni0437" unicode="&#x437;" horiz-adv-x="380" 
d="M295.5 199q26.5 -29 26.5 -74q0 -58 -42.5 -94t-108.5 -36q-35 0 -66.5 11.5t-53.5 31.5l6 17l4 1q43 -41 110 -41q57 0 93.5 31t36.5 79q0 41 -27.5 67.5t-75.5 33.5h-86l-4 3l2 16h87q34 11 55.5 40t21.5 65q0 39 -27.5 62t-72.5 23q-65 0 -117 -44l-5 1l1 19
q28 21 60 32.5t63 11.5q53 0 86 -28.5t33 -74.5q0 -36 -20 -67t-54 -47q48 -10 74.5 -39z" />
    <glyph glyph-name="uni0438" unicode="&#x438;" horiz-adv-x="510" 
d="M101 451l20 2v-411h4l263 410h21v-452h-20v410h-4l-263 -410h-21v451z" />
    <glyph glyph-name="uni0439" unicode="&#x439;" horiz-adv-x="510" 
d="M101 451l20 2v-411h4l263 410h21v-452h-20v410h-4l-263 -410h-21v451zM372 603q-12 -36 -42.5 -55t-73.5 -19q-44 0 -73.5 19t-41.5 55l12 10h6q8 -32 33 -48.5t64 -16.5q38 0 63 16.5t35 48.5h6z" />
    <glyph glyph-name="uni043A" unicode="&#x43a;" horiz-adv-x="422" 
d="M101 449l20 4v-453h-20v449zM176 241q109 -124 227 -236v-4q-3 -3 -14 -8l-4 1q-121 118 -235 244v5l178 175l29 34h30z" />
    <glyph glyph-name="uni043B" unicode="&#x43b;" horiz-adv-x="441" 
d="M340 0h-20v433h-158l-4 -49q-10 -135 -25.5 -214t-40 -118.5t-61.5 -56.5l-9 -4l-6 17q39 15 61.5 52.5t36.5 113t25 213.5l5 65h196v-452z" />
    <glyph glyph-name="uni043C" unicode="&#x43c;" horiz-adv-x="602" 
d="M127 452h22l29 -72l119 -294h4l127 301l27 65h22l47 -452h-20l-16 145l-27 264h-3l-148 -352h-23l-142 352h-3l-28 -253l-17 -156h-20z" />
    <glyph glyph-name="uni043D" unicode="&#x43d;" horiz-adv-x="518" 
d="M417 452v-452h-20v220h-276v-220h-20v452h20v-213h276v213h20z" />
    <glyph glyph-name="uni043E" unicode="&#x43e;" horiz-adv-x="483" 
d="M379 396.5q49 -60.5 49 -166.5q0 -109 -50.5 -172t-139.5 -63q-85 0 -134 60.5t-49 166.5q0 109 50.5 172t139.5 63q85 0 134 -60.5zM120.5 380q-45.5 -57 -45.5 -158q0 -97 43.5 -152t119.5 -55q79 0 124.5 57t45.5 158q0 97 -43.5 152t-119.5 55q-79 0 -124.5 -57z" />
    <glyph glyph-name="uni043F" unicode="&#x43f;" horiz-adv-x="504" 
d="M403 0h-21l1 138l-1 294h-260v-432h-21v452h302v-452z" />
    <glyph glyph-name="uni0440" unicode="&#x440;" horiz-adv-x="501" 
d="M400.5 399.5q44.5 -57.5 44.5 -161.5q0 -116 -55.5 -179.5t-156.5 -63.5q-64 0 -108 10v-190h-20v634l20 4v-67h3q29 34 68 52.5t80 18.5q80 0 124.5 -57.5zM375 73.5q50 58.5 50 164.5q0 95 -39 147t-110 52q-42 0 -81 -21.5t-70 -61.5v-328q61 -11 108 -11
q92 0 142 58.5z" />
    <glyph glyph-name="uni0441" unicode="&#x441;" horiz-adv-x="402" 
d="M301 445.5q35 -11.5 60 -30.5l-7 -17h-6q-22 17 -53.5 28t-62.5 11q-71 0 -114 -58.5t-43 -156.5q0 -94 42.5 -150.5t114.5 -56.5q33 0 67 11.5t60 31.5l6 -2l-2 -18q-26 -19 -61 -31t-71 -12q-80 0 -128 62t-48 165q0 71 22 124t62 82t93 29q34 0 69 -11.5z" />
    <glyph glyph-name="uni0442" unicode="&#x442;" horiz-adv-x="327" 
d="M333 449l-3 -17l-76 1h-80v-433h-20v433h-79l-78 -1l-2 4l3 16h332z" />
    <glyph glyph-name="uni0443" unicode="&#x443;" horiz-adv-x="413" 
d="M61 409l140 -373h5l146 373l15 43h24l-177 -452q-26 -67 -53 -104t-63 -55.5t-95 -30.5h-5q-4 4 -8 12v6q60 12 95 29.5t59.5 50t47.5 92.5l-166 450l21 4z" />
    <glyph glyph-name="uni0444" unicode="&#x444;" horiz-adv-x="554" 
d="M447 60q-56 -61 -160 -65v-180h-20v180q-104 1 -160 60t-56 167q0 109 56 170t160 65v176l20 4v-180q104 -1 160 -60t56 -167q0 -109 -56 -170zM432.5 75q50.5 55 50.5 155q0 98 -50.5 152t-145.5 55v-422q95 5 145.5 60zM121.5 70q50.5 -54 145.5 -55v422
q-95 -5 -145.5 -60t-50.5 -155q0 -98 50.5 -152z" />
    <glyph glyph-name="uni0445" unicode="&#x445;" horiz-adv-x="425" 
d="M92 423l122 -175l119 170l21 34h27l-155 -221l161 -228l-24 -5l-22 35l-128 183l-129 -185l-20 -31h-27l164 233l-152 216l24 5z" />
    <glyph glyph-name="uni0446" unicode="&#x446;" horiz-adv-x="519" 
d="M473 -97l-20 -4v101h-352v452h20v-431l256 -1v432h20v-432h76v-117z" />
    <glyph glyph-name="uni0447" unicode="&#x447;" horiz-adv-x="437" 
d="M336 452v-452h-20v214h-4q-59 -53 -135 -56q-67 0 -96.5 29t-29.5 93v172h20v-168q0 -54 24.5 -80t78.5 -26q78 0 142 63v211h20z" />
    <glyph glyph-name="uni0448" unicode="&#x448;" horiz-adv-x="679" 
d="M578 452v-452h-477v452h20v-433h209v433h20v-433h208v433h20z" />
    <glyph glyph-name="uni0449" unicode="&#x449;" horiz-adv-x="702" 
d="M662 -97l-20 -4v101h-541v452h20v-433h209v433h20v-433h208v433h20v-432h84v-117z" />
    <glyph glyph-name="uni044A" unicode="&#x44a;" horiz-adv-x="424" 
d="M366 221.5q34 -30.5 34 -87.5q0 -65 -44 -99.5t-127 -34.5h-86v433h-140l-2 3l3 16h159v-200h105q64 0 98 -30.5zM378 132q0 49 -28.5 75t-85.5 26h-101v-214h89q126 9 126 113z" />
    <glyph glyph-name="uni044B" unicode="&#x44b;" horiz-adv-x="544" 
d="M443 453v-453h-20v449zM312 221.5q32 -30.5 32 -87.5q0 -65 -41.5 -99.5t-119.5 -34.5h-82v452h20v-200h99q60 0 92 -30.5zM322 132q0 49 -27 75t-79 26h-95v-214h84q117 9 117 113z" />
    <glyph glyph-name="uni044C" unicode="&#x44c;" horiz-adv-x="389" 
d="M330 221.5q35 -30.5 35 -87.5q0 -65 -45 -99.5t-131 -34.5h-88v452h20v-200h108q66 0 101 -30.5zM310 52q33 29 33 80q0 49 -30 75t-88 26h-104v-214h92q64 4 97 33z" />
    <glyph glyph-name="uni044D" unicode="&#x44d;" horiz-adv-x="418" 
d="M314.5 395q48.5 -62 48.5 -165q0 -107 -48.5 -171t-129.5 -64q-35 0 -70.5 11.5t-60.5 30.5l8 17h6q21 -17 53 -28t64 -11q71 0 114 56.5t44 151.5h-236l-4 3l1 17h239q-3 89 -45.5 141.5t-112.5 52.5q-34 0 -68.5 -11.5t-60.5 -31.5l-6 2l2 18q27 19 62 31t71 12
q81 0 129.5 -62z" />
    <glyph glyph-name="uni044E" unicode="&#x44e;" horiz-adv-x="639" 
d="M536 396.5q45 -60.5 45 -166.5q0 -110 -47 -172.5t-129 -62.5q-78 0 -122.5 60t-45.5 165h-116v-220h-20v452h20v-213h116q4 102 50 160t125 58t124 -60.5zM519.5 72q41.5 57 41.5 158q0 97 -39.5 152t-109.5 55q-73 0 -114 -57t-41 -158q0 -97 39.5 -152t108.5 -55
q73 0 114.5 57z" />
    <glyph glyph-name="uni044F" unicode="&#x44f;" horiz-adv-x="427" 
d="M326 452v-452h-20v184h-102q-59 -90 -139 -187l-6 -2q-7 1 -14 7v3q92 110 138 182q-54 13 -82 46.5t-28 84.5q0 62 39.5 98.5t107.5 36.5zM120.5 241q26.5 -30 77.5 -38h108v229l-89 1q-56 0 -89.5 -31t-33.5 -84q0 -47 26.5 -77z" />
    <glyph glyph-name="uni0450" unicode="&#x450;" horiz-adv-x="444" 
d="M347.5 413.5q38.5 -43.5 38.5 -121.5q0 -20 -1 -30l-6 -7l-304 -4q-1 -10 -1 -30q0 -95 43.5 -150.5t118.5 -55.5q37 0 72 11.5t61 31.5l6 -2l-3 -20q-62 -41 -138 -41q-83 0 -131.5 61t-48.5 165q0 108 50.5 172t135.5 64q69 0 107.5 -43.5zM367 296q0 66 -34.5 103.5
t-93.5 37.5q-65 0 -108 -44.5t-54 -121.5l289 4zM309 532l-11 -13l-5 -1q-75 66 -144 135l-1 5l10 10l5 1q77 -79 146 -137z" />
    <glyph glyph-name="uni0451" unicode="&#x451;" horiz-adv-x="444" 
d="M347.5 413.5q38.5 -43.5 38.5 -121.5q0 -20 -1 -30l-6 -7l-304 -4q-1 -10 -1 -30q0 -95 43.5 -150.5t118.5 -55.5q37 0 72 11.5t61 31.5l6 -2l-3 -20q-62 -41 -138 -41q-83 0 -131.5 61t-48.5 165q0 108 50.5 172t135.5 64q69 0 107.5 -43.5zM367 296q0 66 -34.5 103.5
t-93.5 37.5q-65 0 -108 -44.5t-54 -121.5l289 4zM172.5 609.5q5.5 -5.5 5.5 -14.5t-5.5 -14.5t-14.5 -5.5t-14.5 5.5t-5.5 14.5t5.5 14.5t14.5 5.5t14.5 -5.5zM312.5 609.5q5.5 -5.5 5.5 -14.5t-5.5 -14.5t-14.5 -5.5t-14.5 5.5t-5.5 14.5t5.5 14.5t14.5 5.5t14.5 -5.5z" />
    <glyph glyph-name="uni0452" unicode="&#x452;" horiz-adv-x="506" 
d="M366.5 436q28.5 -21 40.5 -71t12 -144q0 -110 -11.5 -182.5t-38 -123t-73.5 -91.5l-11 7v6q44 42 68.5 90.5t35 117.5t10.5 177q0 85 -10 130.5t-34.5 65t-69.5 19.5q-39 0 -80.5 -25.5t-79.5 -70.5v-341h-20v556h-72l-3 3l2 17h73v122l20 4v-126h161l3 -3l-2 -17h-162
v-182h4q37 40 77.5 61.5t78.5 21.5q53 0 81.5 -21z" />
    <glyph glyph-name="uni0453" unicode="&#x453;" horiz-adv-x="321" 
d="M327 449l-4 -16h-202v-433h-20v452h223zM301 668l10 -10l-1 -5q-69 -69 -144 -135l-5 1l-11 13q69 58 146 137z" />
    <glyph glyph-name="uni0454" unicode="&#x454;" horiz-adv-x="418" 
d="M368 56l-2 -18q-27 -19 -62 -31t-71 -12q-81 0 -129.5 62t-48.5 165q0 107 48.5 171t129.5 64q35 0 70.5 -11.5t60.5 -30.5l-8 -17h-6q-21 17 -53 28t-64 11q-68 0 -110 -52.5t-47 -141.5h233l5 -3v-17h-239v-1q0 -94 43 -150.5t115 -56.5q34 0 68.5 11.5t60.5 31.5z" />
    <glyph glyph-name="uni0455" unicode="&#x455;" horiz-adv-x="354" 
d="M289 435l-5 -19l-6 -1q-41 20 -84 20q-50 0 -81 -27t-31 -66q0 -37 26 -58t80 -46q38 -18 61 -32t39 -36t16 -53q0 -33 -18 -61t-50.5 -44.5t-73.5 -16.5q-31 0 -61.5 9.5t-53.5 25.5l3 17l5 3q47 -35 106 -35q56 0 89.5 30t33.5 71q0 36 -25.5 57t-78.5 46
q-39 18 -62.5 32.5t-39.5 37t-16 54.5q0 49 36.5 80.5t96.5 31.5q46 0 94 -20z" />
    <glyph glyph-name="uni0456" unicode="&#x456;" horiz-adv-x="222" 
d="M102 449l20 4v-453h-20v449zM126.5 625.5q5.5 -5.5 5.5 -14.5t-5.5 -14.5t-14.5 -5.5t-14.5 5.5t-5.5 14.5t5.5 14.5t14.5 5.5t14.5 -5.5z" />
    <glyph glyph-name="uni0457" unicode="&#x457;" horiz-adv-x="222" 
d="M101 449l20 4v-453h-20v449zM75.5 609.5q5.5 -5.5 5.5 -14.5t-5.5 -14.5t-14.5 -5.5t-14.5 5.5t-5.5 14.5t5.5 14.5t14.5 5.5t14.5 -5.5zM175.5 609.5q5.5 -5.5 5.5 -14.5t-5.5 -14.5t-14.5 -5.5t-14.5 5.5t-5.5 14.5t5.5 14.5t14.5 5.5t14.5 -5.5z" />
    <glyph glyph-name="uni0458" unicode="&#x458;" horiz-adv-x="250" 
d="M145 451v-439q0 -78 -19.5 -120.5t-73.5 -83.5l-10 10v6q48 37 65.5 76.5t17.5 107.5v424h-84l-4 4l3 16h83l20 1zM134.5 625.5q5.5 -5.5 5.5 -14.5t-5.5 -14.5t-14.5 -5.5t-14.5 5.5t-5.5 14.5t5.5 14.5t14.5 5.5t14.5 -5.5z" />
    <glyph glyph-name="uni0459" unicode="&#x459;" horiz-adv-x="604" 
d="M546 221.5q35 -30.5 35 -87.5q0 -65 -45 -99.5t-131 -34.5h-88v433h-159l-4 -49q-10 -138 -24 -216.5t-35.5 -118t-55.5 -54.5l-9 -4l-6 17q35 15 55 52.5t32.5 112.5t23.5 214l5 65h197v-200h108q66 0 101 -30.5zM526 52q33 29 33 80q0 49 -30 75t-88 26h-104v-214h92
q64 4 97 33z" />
    <glyph glyph-name="uni045A" unicode="&#x45a;" horiz-adv-x="684" 
d="M626.5 215.5q34.5 -28.5 34.5 -85.5q0 -65 -45 -97.5t-131 -32.5h-88v224h-276v-224h-20v452h20v-209h276v209h20v-208h108q67 0 101.5 -28.5zM639 128q0 97 -118 97h-104v-206h92q130 9 130 109z" />
    <glyph glyph-name="uni045B" unicode="&#x45b;" horiz-adv-x="506" 
d="M383.5 421.5q34.5 -35.5 33.5 -100.5l-1 -127l-1 -194h-20l2 320q0 55 -29 86t-82 31q-39 0 -80.5 -25.5t-79.5 -70.5v-341h-20v556h-72l-3 3l2 17h73v122l20 4v-126h161l3 -3l-2 -17h-162v-182h4q37 40 77.5 61.5t78.5 21.5q63 0 97.5 -35.5z" />
    <glyph glyph-name="uni045C" unicode="&#x45c;" horiz-adv-x="422" 
d="M101 449l20 4v-453h-20v449zM176 241q109 -124 227 -236v-4q-3 -3 -14 -8l-4 1q-121 118 -235 244v5l178 175l29 34h30zM309 668l10 -10l-1 -5q-69 -69 -144 -135l-5 1l-11 13q69 58 146 137z" />
    <glyph glyph-name="uni045D" unicode="&#x45d;" horiz-adv-x="510" 
d="M101 451l20 2v-411h4l263 410h21v-452h-20v410h-4l-263 -410h-21v451zM338 532l-11 -13l-5 -1q-75 66 -144 135l-1 5l10 10l5 1q77 -79 146 -137z" />
    <glyph glyph-name="uni045E" unicode="&#x45e;" horiz-adv-x="413" 
d="M61 409l140 -373h5l146 373l15 43h24l-177 -452q-26 -67 -53 -104t-63 -55.5t-95 -30.5h-5q-4 4 -8 12v6q60 12 95 29.5t59.5 50t47.5 92.5l-166 450l21 4zM327 603q-12 -36 -42.5 -55t-73.5 -19q-44 0 -73.5 19t-41.5 55l12 10h6q8 -32 33 -48.5t64 -16.5q38 0 63 16.5
t35 48.5h6z" />
    <glyph glyph-name="uni045F" unicode="&#x45f;" horiz-adv-x="498" 
d="M397 452v-452h-135v-117l-20 -4v121h-141v452h20v-431l256 -1v432h20z" />
    <glyph glyph-name="uni0462" unicode="&#x462;" horiz-adv-x="570" 
d="M520 176q0 -176 -225 -176h-109v565h-167l-3 4l4 16h166v115h20v-115h226l3 -4l-4 -16h-225v-234h138q176 0 176 -155zM456.5 64.5q43.5 37.5 43.5 110.5q0 70 -39.5 103t-119.5 33h-135v-291h119q88 7 131.5 44.5z" />
    <glyph glyph-name="uni0463" unicode="&#x463;" horiz-adv-x="440" 
d="M368 221.5q35 -30.5 35 -87.5q0 -65 -45 -99.5t-131 -34.5h-88v433h-54l-78 -1l-2 4l3 16h131v246l20 4v-250h171l3 -3l-3 -17l-76 1h-95v-181h108q66 0 101 -30.5zM348 52q33 29 33 80q0 49 -30 75t-88 26h-104v-214h92q64 4 97 33z" />
    <glyph glyph-name="uni046A" unicode="&#x46a;" horiz-adv-x="726" 
d="M696 5v-4q-4 -4 -14 -8l-4 1q-127 139 -207 246q-27 36 -45.5 47t-52.5 12v-299h-20v299q-35 -1 -53 -12t-45 -47q-80 -107 -207 -246l-4 -1q-10 4 -14 8v4q85 89 198 235q32 44 53.5 59.5t54.5 18.5l-265 302v17h584v-17l-265 -302q32 -3 53.5 -19t54.5 -59
q86 -112 198 -235zM361 319h2h2l261 298h-526z" />
    <glyph glyph-name="uni046B" unicode="&#x46b;" horiz-adv-x="545" 
d="M525 5l-1 -4q-2 -1 -16 -6l-4 1q-86 89 -151 172q-20 25 -33 32.5t-38 8.5v-70l1 -139h-21v209q-25 -1 -38.5 -9t-33.5 -32q-73 -91 -150 -172l-3 -1q-2 0 -17 6v4q66 66 145 164q26 32 42 44t39 14l-194 209v16h440v-16l-194 -209q23 -3 39 -15t42 -43q73 -88 146 -164z
M270 228h2h2l190 205h-384z" />
    <glyph glyph-name="uni0472" unicode="&#x472;" horiz-adv-x="685" 
d="M540.5 561q67.5 -81 67.5 -232q0 -161 -70 -247.5t-201 -86.5q-125 0 -192.5 83.5t-67.5 238.5q0 157 70 241t200 84q126 0 193.5 -81zM163.5 544.5q-64.5 -77.5 -66.5 -221.5l491 10q-1 139 -63.5 214t-177.5 75q-119 0 -183.5 -77.5zM519.5 92q64.5 77 68.5 221
l-491 -10q3 -139 65 -213.5t175 -74.5q118 0 182.5 77z" />
    <glyph glyph-name="uni0473" unicode="&#x473;" horiz-adv-x="494" 
d="M389.5 396.5q50.5 -60.5 50.5 -166.5q0 -109 -52.5 -172t-144.5 -63q-89 0 -139.5 60.5t-50.5 166.5q0 109 52.5 172t144.5 63q89 0 139.5 -60.5zM122.5 382.5q-47.5 -54.5 -49.5 -150.5l347 7q-2 93 -47.5 145.5t-122.5 52.5q-80 0 -127.5 -54.5zM370 69.5
q47 54.5 50 149.5l-347 -7q2 -92 47.5 -144.5t122.5 -52.5q80 0 127 54.5z" />
    <glyph glyph-name="uni0474" unicode="&#x474;" horiz-adv-x="586" 
d="M36 637h23l13 -43l205 -560h3l195 503q23 60 41.5 81t46.5 19l2 -18l-3 -4q-22 1 -36 -16t-34 -68l-204 -531h-20z" />
    <glyph glyph-name="uni0475" unicode="&#x475;" horiz-adv-x="407" 
d="M395 436l-2 -3q-16 0 -25.5 -12t-22.5 -48l-140 -373h-22l-154 451l20 4l14 -45l130 -379h4l131 349q16 44 29.5 59t35.5 14z" />
    <glyph glyph-name="uni0490" unicode="&#x490;" horiz-adv-x="447" 
d="M434 736l-6 -119h-277v-617h-20v637h279l5 98z" />
    <glyph glyph-name="uni0491" unicode="&#x491;" horiz-adv-x="324" 
d="M328 550l-6 -117h-201v-433h-20v452h202l6 97z" />
    <glyph glyph-name="uni0492" unicode="&#x492;" horiz-adv-x="458" 
d="M433 633l-4 -16h-267v-617h-20v637h288zM327.718 326l-1.65234 -17h-261.955l-2.47852 3l1.65234 17h261.955z" />
    <glyph glyph-name="uni0493" unicode="&#x493;" horiz-adv-x="321" 
d="M327 449l-4 -16h-202v-433h-20v452h223zM260.332 232l-1.46094 -17h-231.403l-2.19043 3l1.46094 17h231.403z" />
    </font>
</defs>
</svg>
