<?xml version="1.0" standalone="no"?>
<!DOCTYPE svg PUBLIC "-//W3C//DTD SVG 1.1//EN" "http://www.w3.org/Graphics/SVG/1.1/DTD/svg11.dtd" >
<svg xmlns="http://www.w3.org/2000/svg" xmlns:xlink="http://www.w3.org/1999/xlink" version="1.1">
<metadata>
Created by FontForge 20170731 at Thu Nov  9 17:49:00 2017
 By Aleksey,,,
Copyright 2013 The Alegreya Sans Project Authors (https://github.com/huertatipografica/Alegreya-Sans)
</metadata>
<defs>
<font id="AlegreyaSans-ThinItalic" horiz-adv-x="0" >
  <font-face 
    font-family="Alegreya Sans Thin"
    font-weight="250"
    font-style="italic"
    font-stretch="normal"
    units-per-em="1000"
    panose-1="0 0 3 0 0 0 0 0 0 0"
    ascent="800"
    descent="-200"
    x-height="455"
    cap-height="637"
    bbox="-363 -265 1116 956"
    underline-thickness="42"
    underline-position="-232"
    slope="-7"
    unicode-range="U+000D-FB02"
  />
<missing-glyph horiz-adv-x="180" 
 />
    <glyph glyph-name="Idieresis" unicode="&#xa8;I" horiz-adv-x="235" 
d="M125 195l-25 -195h-20l25 195l55 442h20zM149.5 795.5q5.5 -5.5 5.5 -14.5t-5.5 -14.5t-14.5 -5.5t-14.5 5.5t-5.5 14.5t5.5 14.5t14.5 5.5t14.5 -5.5zM251.5 795.5q5.5 -5.5 5.5 -14.5t-5.5 -14.5t-14.5 -5.5t-14.5 5.5t-5.5 14.5t5.5 14.5t14.5 5.5t14.5 -5.5z" />
    <glyph glyph-name="Odieresis" unicode="&#xa8;O" horiz-adv-x="599" 
d="M513.5 577q54.5 -65 54.5 -186q0 -122 -35.5 -211t-103 -137t-162.5 -48q-102 0 -156.5 67t-54.5 191q0 121 35 208.5t102.5 134t161.5 46.5q104 0 158.5 -65zM205 578q-62 -44 -95 -126.5t-33 -195.5q0 -115 49.5 -178t141.5 -63q87 0 150 45.5t96 129t33 197.5
q0 113 -49 174t-144 61q-87 0 -149 -44zM307.5 795.5q5.5 -5.5 5.5 -14.5t-5.5 -14.5t-14.5 -5.5t-14.5 5.5t-5.5 14.5t5.5 14.5t14.5 5.5t14.5 -5.5zM457.5 795.5q5.5 -5.5 5.5 -14.5t-5.5 -14.5t-14.5 -5.5t-14.5 5.5t-5.5 14.5t5.5 14.5t14.5 5.5t14.5 -5.5z" />
    <glyph glyph-name="Yacute" unicode="&#xb4;Y" horiz-adv-x="469" 
d="M238 247l-7 -52l-24 -195h-20l24 195l7 50l-141 392h25l7 -26l120 -334h5l218 334l14 26h26zM392 834l7 -12l-2 -5q-67 -38 -174 -93l-5 3l-7 15q91 44 176 94z" />
    <glyph glyph-name="idieresis" unicode="&#xa8;i" horiz-adv-x="203" 
d="M95 106l-7 -106l-27 -4l49 366l6 90l25 4zM110.5 610.5q5.5 -5.5 5.5 -14.5t-5.5 -14.5t-14.5 -5.5t-14.5 5.5t-5.5 14.5t5.5 14.5t14.5 5.5t14.5 -5.5zM212.5 610.5q5.5 -5.5 5.5 -14.5t-5.5 -14.5t-14.5 -5.5t-14.5 5.5t-5.5 14.5t5.5 14.5t14.5 5.5t14.5 -5.5z" />
    <glyph glyph-name="odieresis" unicode="&#xa8;o" horiz-adv-x="396" 
d="M253 458q50 -4 72.5 -37t22.5 -101q0 -91 -24 -163.5t-69 -115.5t-106 -47h-5q-50 3 -73 36.5t-23 103.5q0 91 24.5 164.5t69.5 116t106 43.5h5zM154.5 398q-40.5 -39 -63.5 -107.5t-23 -153.5q0 -62 19.5 -92t60.5 -30q52 0 93 39.5t63.5 108.5t22.5 154q0 62 -19 91
t-60 29q-53 0 -93.5 -39zM188.5 610.5q5.5 -5.5 5.5 -14.5t-5.5 -14.5t-14.5 -5.5t-14.5 5.5t-5.5 14.5t5.5 14.5t14.5 5.5t14.5 -5.5zM338.5 610.5q5.5 -5.5 5.5 -14.5t-5.5 -14.5t-14.5 -5.5t-14.5 5.5t-5.5 14.5t5.5 14.5t14.5 5.5t14.5 -5.5z" />
    <glyph glyph-name="yacute" unicode="&#xb4;y" horiz-adv-x="379" 
d="M362 373q0 -49 -39 -115l-164 -277q-56 -95 -99 -135.5t-91 -40.5q-27 0 -60 12l2 19l5 2q30 -12 55 -12q41 0 79 37.5t91 126.5l13 22l-80 438l23 6l12 -74l59 -340h4l134 226q36 60 36 106q0 32 -28 70l1 5l18 6q29 -41 29 -82zM308 668l10 -10l-1 -5
q-69 -69 -144 -135l-5 1l-11 13q69 58 146 137z" />
    <glyph glyph-name="Itilde" unicode="&#x7e;I" horiz-adv-x="235" 
d="M125 195l-25 -195h-20l25 195l55 442h20zM309 792v-4l-47 -47l-6 -2q-16 2 -72 20q-54 18 -65 18q-5 0 -13 -7t-17 -17l-16 -16h-3l-9 11v4l47 47l6 2q16 -2 72 -20q54 -18 65 -18q5 0 12 6t15 15l19 19h3z" />
    <glyph glyph-name="itilde" unicode="&#x7e;i" horiz-adv-x="203" 
d="M95 106l-7 -106l-27 -4l49 366l6 90l25 4zM270 607v-4l-47 -47l-6 -2q-16 2 -72 20q-54 18 -65 18q-5 0 -13 -7t-17 -17l-16 -16h-3l-9 11v4l47 47l6 2q16 -2 72 -20q54 -18 65 -18q5 0 12 6t15 15l19 19h3z" />
    <glyph glyph-name="Utilde" unicode="&#x7e;U" horiz-adv-x="583" 
d="M510 312l-10 -83q-11 -111 -72.5 -172t-161.5 -61q-89 0 -137 46.5t-48 133.5q0 29 4 53l13 93l40 315h20l-53 -408q-4 -34 -4 -49q0 -79 42.5 -121.5t121.5 -42.5q91 0 146 55t69 158l51 408h20zM499 805v-4l-52 -47l-6 -2q-20 2 -81 20q-6 2 -35 10t-40 8q-5 0 -13 -6
t-17 -16l-21 -19h-4l-9 11v4l52 47l6 2q20 -2 81 -20q6 -2 35 -10t40 -8q5 0 13 6t17 16l21 19h4z" />
    <glyph glyph-name="utilde" unicode="&#x7e;u" horiz-adv-x="454" 
d="M392 456l-46 -350l-9 -106l-25 -4l36 271h-5q-65 -112 -114.5 -179t-98.5 -99h-11q-24 7 -38 30.5t-13 54.5l1 13l43 263l12 101l25 4l-59 -365l-1 -15q-1 -25 10 -42.5t24 -17.5q26 0 90.5 85t142.5 230l4 32l7 90zM412 620v-4l-53 -48l-6 -2q-24 3 -81 21
q-62 18 -74 18q-5 0 -13 -6t-17 -16l-21 -19h-4l-9 11v4l53 48l6 2q24 -3 81 -21q62 -18 74 -18q5 0 13 6t17 16l21 19h4z" />
    <glyph glyph-name="uni1EBC" unicode="&#x7e;E" horiz-adv-x="432" 
d="M143 340h223l3 -4l-6 -16h-222l-16 -125l-22 -175h273l3 -4l-6 -16h-293l25 195l55 442h291l2 -4l-6 -16h-269zM468 805v-4l-52 -47l-6 -2q-20 2 -81 20q-6 2 -35 10t-40 8q-5 0 -13 -6t-17 -16l-21 -19h-4l-9 11v4l52 47l6 2q20 -2 81 -20q6 -2 35 -10t40 -8q5 0 13 6
t17 16l21 19h4z" />
    <glyph glyph-name="uni1EBD" unicode="&#x7e;e" horiz-adv-x="354" 
d="M284 118l9 -13q-30 -50 -64.5 -77t-80.5 -33h-9q-49 6 -70.5 41.5t-21.5 106.5q0 88 25.5 159t70.5 112.5t99 42.5h5q75 -6 75 -69q0 -57 -64 -111t-190 -101q-1 -9 -1 -28q0 -68 19.5 -100t59.5 -32q37 0 70.5 26.5t60.5 75.5h7zM163.5 405.5q-37.5 -30.5 -62 -84.5
t-31.5 -123q111 41 171 90t60 97q0 23 -14.5 37t-42.5 14q-43 0 -80.5 -30.5zM390 620v-4l-52 -47l-6 -2q-20 2 -81 20q-6 2 -35 10t-40 8q-5 0 -13 -6t-17 -16l-21 -19h-4l-9 11v4l52 47l6 2q20 -2 81 -20q6 -2 35 -10t40 -8q5 0 13 6t17 16l21 19h4z" />
    <glyph glyph-name="uni1EF8" unicode="&#x7e;Y" horiz-adv-x="469" 
d="M238 247l-7 -52l-24 -195h-20l24 195l7 50l-141 392h25l7 -26l120 -334h5l218 334l14 26h26zM442 805v-4l-52 -47l-6 -2q-20 2 -81 20q-6 2 -35 10t-40 8q-5 0 -13 -6t-17 -16l-21 -19h-4l-9 11v4l52 47l6 2q20 -2 81 -20q6 -2 35 -10t40 -8q5 0 13 6t17 16l21 19h4z" />
    <glyph glyph-name="uni1EF9" unicode="&#x7e;y" horiz-adv-x="379" 
d="M362 373q0 -49 -39 -115l-164 -277q-56 -95 -99 -135.5t-91 -40.5q-27 0 -60 12l2 19l5 2q30 -12 55 -12q41 0 79 37.5t91 126.5l13 22l-80 438l23 6l12 -74l59 -340h4l134 226q36 60 36 106q0 32 -28 70l1 5l18 6q29 -41 29 -82zM374 620v-4l-52 -47l-6 -2q-20 2 -81 20
q-6 2 -35 10t-40 8q-5 0 -13 -6t-17 -16l-21 -19h-4l-9 11v4l52 47l6 2q20 -2 81 -20q6 -2 35 -10t40 -8q5 0 13 6t17 16l21 19h4z" />
    <glyph glyph-name="fi" unicode="fi" horiz-adv-x="454" 
d="M226.5 650.5q-35.5 -34.5 -46.5 -99.5l-13 -102h209l18 6l3 -3l-45 -346l-7 -106l-27 -4l49 366l5 67h-208l-30 -237l-27 -216l-9 -106l-25 -4l41 324l30 239h-69l-4 4l4 16h72l13 102q13 74 56.5 114t111.5 40l76 -20l2 -3l-7 -20h-6q-15 10 -36 16.5t-39 6.5
q-56 0 -91.5 -34.5z" />
    <glyph glyph-name="fl" unicode="fl" horiz-adv-x="495" 
d="M420 695l-6 -20l-4 -2q-48 12 -92 12q-59 0 -94.5 -34t-43.5 -100l-13 -102h116l3 -4l-4 -16h-118l-30 -237l-27 -216l-9 -106l-25 -4l41 324l30 239h-69l-4 4l4 16h72l13 102q10 76 52 115t112 39l94 -7zM369 106l-9 -106l-26 -4l82 612l6 90l26 4z" />
    <glyph glyph-name="f_j" unicode="fj" horiz-adv-x="459" 
d="M226.5 650.5q-35.5 -34.5 -46.5 -99.5l-13 -102h209l18 6l3 -3l-44 -359l-11 -75q-10 -81 -35.5 -125t-82.5 -85l-10 11l1 6q52 37 74 76t31 107l47 354l5 67h-208l-30 -237l-27 -216l-9 -106l-25 -4l41 324l30 239h-69l-4 4l4 16h72l13 102q13 74 56.5 114t111.5 40
l76 -20l2 -3l-7 -20h-6q-15 10 -36 16.5t-39 6.5q-56 0 -91.5 -34.5z" />
    <glyph glyph-name="Gtilde" unicode="&#x7e;G" horiz-adv-x="575" 
d="M461.5 627q42.5 -14 80.5 -40l-8 -18h-7q-76 52 -152 52q-94 0 -161.5 -44t-103 -127t-35.5 -198q0 -114 49 -175.5t142 -61.5q44 0 82.5 6.5t98.5 23.5l15 113l10 89l20 2l-10 -91l-17 -128q-67 -20 -108 -27t-91 -7q-103 0 -157 66t-54 188t38.5 210t111 134.5
t173.5 46.5q41 0 83.5 -14zM501 805v-4l-52 -47l-6 -2q-20 2 -81 20q-6 2 -35 10t-40 8q-5 0 -13 -6t-17 -16l-21 -19h-4l-9 11v4l52 47l6 2q20 -2 81 -20q6 -2 35 -10t40 -8q5 0 13 6t17 16l21 19h4z" />
    <glyph glyph-name="gtilde" unicode="&#x7e;g" horiz-adv-x="414" 
d="M352 456l-41 -323l-12 -98q-15 -116 -72 -174t-145 -58q-55 0 -90.5 27.5t-49.5 77.5l2 7l150 122v5q-18 18 -26.5 45t-8.5 71q0 80 25.5 146t74 106.5t114.5 44.5h4l59 -3l11 7zM170.5 398q-44.5 -38 -68.5 -101t-24 -135q0 -37 6.5 -60.5t15 -34t14.5 -10.5
q7 0 38 36.5t75.5 102t91.5 148.5l3 26l5 64l-53 2q-59 0 -103.5 -38zM311 286h-4q-63 -100 -104.5 -157.5t-85.5 -97.5l-144 -117q-3 -2 -4.5 -4.5t-1.5 -5.5q2 -15 15 -34t38.5 -33t61.5 -14q78 0 130 53t66 155zM394 620v-4l-52 -47l-6 -2q-20 2 -81 20q-6 2 -35 10
t-40 8q-5 0 -13 -6t-17 -16l-21 -19h-4l-9 11v4l52 47l6 2q20 -2 81 -20q6 -2 35 -10t40 -8q5 0 13 6t17 16l21 19h4z" />
    <glyph glyph-name=".notdef" horiz-adv-x="180" 
 />
    <glyph glyph-name=".null" 
 />
    <glyph glyph-name="nonmarkingreturn" unicode="&#xd;" horiz-adv-x="161" 
 />
    <glyph glyph-name="space" unicode=" " horiz-adv-x="161" 
 />
    <glyph glyph-name="exclam" unicode="!" horiz-adv-x="249" 
d="M199 651l-63 -453h-16l-4 5l63 448l4 3h14zM117.5 32.5q5.5 -5.5 5.5 -14.5t-5.5 -14.5t-14.5 -5.5t-14.5 5.5t-5.5 14.5t5.5 14.5t14.5 5.5t14.5 -5.5z" />
    <glyph glyph-name="quotedbl" unicode="&#x22;" horiz-adv-x="222" 
d="M129 631l-30 -144l-17 -2l-2 4l29 144l18 2zM226 631l-30 -144l-17 -2l-2 4l29 144l18 2z" />
    <glyph glyph-name="numbersign" unicode="#" horiz-adv-x="480" 
d="M330 374l-32 -129h121l3 -3l-2 -17h-127l-49 -193h-16l-3 4l48 189h-118l-49 -193h-16l-3 4l48 189h-112l-3 3l2 17h118l33 129h-112l-3 3l2 17h118l46 181h16l2 -5l-44 -176h118l46 181h16l2 -5l-44 -176h121l3 -3l-2 -17h-128zM311 374h-119l-32 -129h118z" />
    <glyph glyph-name="dollar" unicode="$" horiz-adv-x="392" 
d="M343 471l-7 -18l-6 -1q-36 19 -83 21l-31 -218q50 -25 77.5 -51t27.5 -70q0 -51 -39.5 -90t-100.5 -46l-18 -122h-15l-4 4l17 117h-2q-31 0 -63.5 9.5t-55.5 26.5l2 20l5 1q23 -18 53.5 -27.5t59.5 -9.5h3l31 225q-52 26 -79 52t-27 69q0 50 39 87.5t101 41.5l20 138h16
l4 -5l-18 -132q51 -2 93 -22zM130.5 307.5q22.5 -21.5 66.5 -43.5l29 208q-53 -5 -85.5 -37.5t-32.5 -72.5q0 -33 22.5 -54.5zM278.5 189.5q-22.5 21.5 -65.5 43.5l-29 -214q52 7 84.5 41t32.5 75q0 33 -22.5 54.5z" />
    <glyph glyph-name="percent" unicode="%" horiz-adv-x="799" 
d="M679 664l2 -8l-577 -746l-8 4l-3 9l576 746zM327.5 603q29.5 -35 29.5 -101q0 -96 -42.5 -151t-120.5 -55q-57 0 -86.5 35t-29.5 101q0 96 43.5 151t120.5 55q56 0 85.5 -35zM134 570.5q-37 -48.5 -37 -134.5q0 -59 26 -90t76 -31q66 0 103 48.5t37 134.5q0 59 -26 90
t-76 31q-66 0 -103 -48.5zM713.5 304q29.5 -35 29.5 -101q0 -96 -42.5 -151t-120.5 -55q-57 0 -86.5 35t-29.5 101q0 96 43.5 151t120.5 55q56 0 85.5 -35zM520 271.5q-37 -48.5 -37 -134.5q0 -59 26 -90t76 -31q66 0 103 48.5t37 134.5q0 59 -26 90t-76 31
q-66 0 -103 -48.5z" />
    <glyph glyph-name="ampersand" unicode="&#x26;" horiz-adv-x="601" 
d="M393.5 632.5q36.5 -10.5 73.5 -32.5l-8 -19h-7q-33 22 -66 32t-72 10q-78 0 -121.5 -38t-43.5 -105q0 -57 32 -94t86 -41l300 15l69 8l2 -4l-8 -20l-189 -10l-1 -4q18 -25 28.5 -59.5t10.5 -72.5q0 -93 -60.5 -148.5t-164.5 -55.5q-89 0 -140 40.5t-51 108.5q0 60 40 109
t113 82v4q-41 17 -64 54t-23 88q0 75 49.5 119t136.5 44q42 0 78.5 -10.5zM241 323q-74 -29 -116 -74t-42 -102q0 -60 46 -96.5t126 -36.5q94 0 149 50.5t55 135.5q0 42 -13.5 76.5t-37.5 55.5z" />
    <glyph glyph-name="quotesingle" unicode="'" horiz-adv-x="125" 
d="M129 631l-30 -144l-17 -2l-2 4l29 144l18 2z" />
    <glyph glyph-name="parenleft" unicode="(" horiz-adv-x="280" 
d="M318 652l-1 -4q-126 -84 -170.5 -212.5t-44.5 -290.5q0 -95 28.5 -159.5t91.5 -113.5l-1 -4l-10 -11h-4q-66 54 -95.5 120t-29.5 165q0 170 47 302t177 219h4z" />
    <glyph glyph-name="parenright" unicode=")" horiz-adv-x="314" 
d="M-27 -132l1 4q126 84 170.5 212.5t44.5 290.5q0 95 -28.5 159.5t-91.5 113.5l1 4l10 11h4q66 -54 95.5 -120t29.5 -165q0 -170 -47 -302t-177 -219h-4z" />
    <glyph glyph-name="asterisk" unicode="*" horiz-adv-x="365" 
d="M241 713l-11 -113l-14 -2l-3 5l5 109q10 3 21 3zM193 583l-3 -14l-5 -1l-102 38q0 14 3 21l3 2zM369 597l-1 -2l-111 -25l-5 13l3 4l104 29q6 -7 10 -19zM253 542l60 -90q-7 -10 -15 -15h-3l-58 98l11 9zM210 536l-1 -6l-67 -85q-10 3 -19 10l-1 3l76 85z" />
    <glyph glyph-name="plus" unicode="+" horiz-adv-x="478" 
d="M279 468l-23 -188h187l3 -3l-4 -17h-189l-23 -189l-17 -2l-3 3l23 188h-187l-3 3l4 17h189l23 189l17 2z" />
    <glyph glyph-name="comma" unicode="," horiz-adv-x="230" 
d="M121 -7q0 -20 -17 -44t-49 -49l-10 11l1 3q26 19 40 39.5t14 38.5q0 20 -30 34v4q5 7 13 11q38 -17 38 -48z" />
    <glyph glyph-name="hyphen" unicode="-" horiz-adv-x="312" 
d="M286 277l-1 -16l-250 -33l-3 4l2 16l249 33z" />
    <glyph glyph-name="period" unicode="." horiz-adv-x="230" 
d="M103.5 32.5q5.5 -5.5 5.5 -14.5t-5.5 -14.5t-14.5 -5.5t-14.5 5.5t-5.5 14.5t5.5 14.5t14.5 5.5t14.5 -5.5z" />
    <glyph glyph-name="slash" unicode="/" horiz-adv-x="291" 
d="M297 670l-258 -780h-16l-3 4l258 781h16z" />
    <glyph glyph-name="zero" unicode="0" horiz-adv-x="539" 
d="M439.5 441.5q48.5 -53.5 48.5 -153.5q0 -139 -63.5 -215.5t-180.5 -76.5q-90 0 -139 52.5t-49 149.5q0 140 63.5 218.5t181.5 78.5q90 0 138.5 -53.5zM135 403q-59 -72 -59 -200q0 -90 43.5 -138.5t126.5 -48.5q106 0 164 70.5t58 196.5q0 92 -43.5 142t-125.5 50
q-105 0 -164 -72z" />
    <glyph glyph-name="one" unicode="1" horiz-adv-x="328" 
d="M218 489l-34 -283l-26 -206h-20l25 201l32 265l-151 -45l-5 3l2 16l174 53z" />
    <glyph glyph-name="two" unicode="2" horiz-adv-x="439" 
d="M322 467q29 -25 29 -64q0 -42 -34 -92.5t-111 -132.5l-145 -155l2 -3h234l78 1l2 -4l-6 -18l-82 1h-222l-38 -1l-2 2l2 16l162 174q76 82 108 126.5t32 81.5q0 31 -23 52t-64 21q-39 0 -78 -20t-72 -57h-4l-2 17q33 37 74 58.5t84 21.5q47 0 76 -25z" />
    <glyph glyph-name="three" unicode="3" horiz-adv-x="392" 
d="M293.5 464q32.5 -29 32.5 -76q0 -49 -35 -94t-90 -70l-1 -3q58 -13 88.5 -47t30.5 -85q0 -54 -29.5 -97t-81 -67t-116.5 -24q-44 0 -86 8l-1 17l3 3q43 -8 86 -8q60 0 106.5 21t72.5 59t26 87q0 55 -39.5 86t-114.5 35h-47l-3 3l3 16h43q33 0 72 21t65.5 57t26.5 78
q0 40 -27 64t-71 24q-34 0 -67.5 -15.5t-70.5 -47.5h-4l-1 19q40 33 74 49t70 16q53 0 85.5 -29z" />
    <glyph glyph-name="four" unicode="4" horiz-adv-x="458" 
d="M408 115l-6 -17l-71 1h-34l-24 -191l-2 -3l-16 -3l-2 3l24 194h-215l-42 -1l-3 4l2 17l303 372h22l-45 -372h105zM279 119l41 333h-4l-271 -333h234z" />
    <glyph glyph-name="five" unicode="5" horiz-adv-x="403" 
d="M377 490l-4 -18l-4 -2l-41 1h-195l-27 -206l64 -15q83 -19 122.5 -55t39.5 -92q0 -58 -31 -104t-87 -72t-128 -26q-34 0 -72 7l-2 17l4 3q39 -7 74 -7q65 0 115.5 23t78.5 64t28 93q0 47 -37 78.5t-114 50.5l-72 17l-3 5l29 232l10 8l49 -1h136l65 1z" />
    <glyph glyph-name="six" unicode="6" horiz-adv-x="455" 
d="M197 451q-79 -79 -107 -172l3 -3q73 59 157 59q69 0 108 -37t39 -106q0 -44 -17 -89t-59.5 -77t-113.5 -32q-75 0 -114 46t-39 130q0 74 32 153.5t110.5 152.5t208.5 116h4l7 -11v-4q-140 -47 -219 -126zM82 247q-8 -35 -8 -74q0 -76 34 -117.5t100 -41.5q63 0 101 28
t53 68t15 80q0 60 -33.5 92.5t-94.5 32.5q-88 0 -167 -68z" />
    <glyph glyph-name="seven" unicode="7" horiz-adv-x="401" 
d="M128 491h238l37 1l-2 -18l-283 -493l-46 -86l-20 6v4l325 566h-257l-58 -1l-3 5l5 17z" />
    <glyph glyph-name="eight" unicode="8" horiz-adv-x="456" 
d="M363 557.5q35 -31.5 35 -89.5q0 -63 -38.5 -100.5t-99.5 -60.5v-3q41 -18 67 -34t42.5 -42.5t16.5 -66.5q0 -47 -23 -84.5t-65 -59t-96 -21.5q-71 0 -112.5 36.5t-41.5 98.5q0 117 158 174v3q-49 22 -74 51.5t-25 79.5q0 67 45.5 108.5t116.5 41.5q59 0 94 -31.5z
M165.5 533q-39.5 -36 -39.5 -94q0 -48 27 -73.5t80 -49.5q64 20 104.5 55t40.5 96q0 49 -29 75.5t-81 26.5q-63 0 -102.5 -36zM113.5 235q-45.5 -36 -45.5 -103q0 -54 36 -85t99 -31q73 0 118 40.5t45 102.5q0 38 -18 62.5t-42.5 38.5t-75.5 36q-71 -25 -116.5 -61z" />
    <glyph glyph-name="nine" unicode="9" horiz-adv-x="455" 
d="M263 41q79 79 107 172l-3 3q-73 -59 -157 -59q-69 0 -108 37t-39 106q0 44 17 89t59.5 77t113.5 32q75 0 114 -46t39 -130q0 -74 -32 -153.5t-110.5 -152.5t-208.5 -116h-4l-7 11v4q140 47 219 126zM378 245q8 35 8 74q0 76 -34 117.5t-100 41.5q-63 0 -101 -28t-53 -68
t-15 -80q0 -60 33.5 -92.5t94.5 -32.5q88 0 167 68z" />
    <glyph glyph-name="colon" unicode=":" horiz-adv-x="229" 
d="M103.5 32.5q5.5 -5.5 5.5 -14.5t-5.5 -14.5t-14.5 -5.5t-14.5 5.5t-5.5 14.5t5.5 14.5t14.5 5.5t14.5 -5.5zM137.5 309.5q5.5 -5.5 5.5 -14.5t-5.5 -14.5t-14.5 -5.5t-14.5 5.5t-5.5 14.5t5.5 14.5t14.5 5.5t14.5 -5.5z" />
    <glyph glyph-name="semicolon" unicode=";" horiz-adv-x="230" 
d="M120 -7q0 -20 -17 -44t-49 -49l-10 11l1 3q26 19 40 39.5t14 38.5q0 20 -30 34v4q5 7 13 11q38 -17 38 -48zM136.5 309.5q5.5 -5.5 5.5 -14.5t-5.5 -14.5t-14.5 -5.5t-14.5 5.5t-5.5 14.5t5.5 14.5t14.5 5.5t14.5 -5.5z" />
    <glyph glyph-name="less" unicode="&#x3c;" horiz-adv-x="500" 
d="M457 441l-3 -5l-390 -164l-1 -4l355 -153l-8 -15l-4 -2l-370 160l3 22l3 4l410 171z" />
    <glyph glyph-name="equal" unicode="=" horiz-adv-x="479" 
d="M460 349l-2 -17h-397l-3 3l2 17h397zM442 205l-2 -17h-397l-3 3l2 17h397z" />
    <glyph glyph-name="greater" unicode="&#x3e;" horiz-adv-x="501" 
d="M473 284l2 -4l-3 -22l-409 -160l-4 2l-4 15l393 153v4l-350 164l-2 5l9 14z" />
    <glyph glyph-name="question" unicode="?" horiz-adv-x="323" 
d="M292 609q55 -37 55 -96q0 -40 -24.5 -76t-69.5 -65l-104 -66l-2 -3l-8 -108l-17 -1l-2 4l7 112l6 9l110 69q83 52 83 121q0 54 -51 87t-147 39l-2 3l7 13l7 3q97 -8 152 -45zM132.5 32.5q5.5 -5.5 5.5 -14.5t-5.5 -14.5t-14.5 -5.5t-14.5 5.5t-5.5 14.5t5.5 14.5
t14.5 5.5t14.5 -5.5z" />
    <glyph glyph-name="at" unicode="@" horiz-adv-x="805" 
d="M611 553q73 -39 112.5 -108.5t39.5 -160.5q0 -132 -77 -205.5t-223 -82.5l36 276v-1h-5q-45 -85 -97 -156t-105 -119h-11q-27 20 -39.5 52t-12.5 89q0 85 26.5 156t78 115t122.5 49h4l65 -5l13 7l5 -3l-46 -350l-8 -90q124 12 189 80.5t65 187.5q0 86 -36.5 151t-105 101
t-160.5 36q-112 0 -197.5 -48t-132.5 -133.5t-47 -196.5t47.5 -192t135 -124t203.5 -43l1 -4l-13 -16q-117 2 -206 49t-138.5 131t-49.5 195q0 119 49.5 210.5t139.5 141.5t208 50q97 0 170 -39zM333 64q36 40 83 111t92 161l3 26l7 70l-60 5q-63 -1 -110.5 -42.5t-73 -109
t-25.5 -144.5q0 -41 7 -67t16.5 -38t16.5 -12q8 0 44 40z" />
    <glyph glyph-name="A" unicode="A" horiz-adv-x="524" 
d="M470 0h-23l-6 43l-37 170h-283l-85 -170l-20 -43h-24l319 637h21zM318 603h-3l-184 -370h268z" />
    <glyph glyph-name="B" unicode="B" horiz-adv-x="471" 
d="M391.5 290.5q31.5 -34.5 31.5 -92.5q0 -95 -62 -148t-177 -53q-56 0 -104 3l25 195l56 442l116 2q66 0 102 -33t36 -93q0 -67 -29 -112.5t-83 -66.5q57 -9 88.5 -43.5zM144 343l121 -3q62 13 95.5 57.5t33.5 110.5q0 51 -30 80.5t-82 29.5h-103zM344 64q58 47 58 131
q0 55 -33.5 87.5t-96.5 37.5h-131l-16 -125l-22 -175q38 -3 78 -3q105 0 163 47z" />
    <glyph glyph-name="C" unicode="C" horiz-adv-x="497" 
d="M437 625.5q42 -15.5 73 -43.5l-9 -17h-7q-59 56 -146 56q-86 0 -147.5 -44.5t-93.5 -127t-32 -196.5q0 -115 47.5 -176.5t138.5 -61.5q45 0 92 17.5t88 49.5l7 -2l-4 -18q-44 -32 -92 -49.5t-92 -17.5q-100 0 -152.5 66.5t-52.5 189.5q0 121 35 208.5t101 134.5t159 47
q45 0 87 -15.5z" />
    <glyph glyph-name="D" unicode="D" horiz-adv-x="609" 
d="M520 577.5q59 -64.5 59 -184.5q0 -121 -37.5 -210.5t-109.5 -138.5t-172 -49q-32 0 -85 1.5t-95 3.5l25 195l55 442l190 5q111 0 170 -64.5zM421.5 61q66.5 46 101.5 130.5t35 198.5q0 112 -54 172t-156 60q-30 0 -80.5 -1.5t-89.5 -3.5l-53 -422l-23 -176l56 -2l105 -2
q92 0 158.5 46z" />
    <glyph glyph-name="E" unicode="E" horiz-adv-x="432" 
d="M143 340h223l3 -4l-6 -16h-222l-16 -125l-22 -175h273l3 -4l-6 -16h-293l25 195l55 442h291l2 -4l-6 -16h-269z" />
    <glyph glyph-name="F" unicode="F" horiz-adv-x="394" 
d="M142 330h214l2 -4l-6 -16h-213l-14 -115l-25 -195h-20l25 195l55 442h281l3 -4l-6 -16h-260z" />
    <glyph glyph-name="G" unicode="G" horiz-adv-x="575" 
d="M461.5 627q42.5 -14 80.5 -40l-8 -18h-7q-76 52 -152 52q-94 0 -161.5 -44t-103 -127t-35.5 -198q0 -114 49 -175.5t142 -61.5q44 0 82.5 6.5t98.5 23.5l15 113l10 89l20 2l-10 -91l-17 -128q-67 -20 -108 -27t-91 -7q-103 0 -157 66t-54 188t38.5 210t111 134.5
t173.5 46.5q41 0 83.5 -14z" />
    <glyph glyph-name="H" unicode="H" horiz-adv-x="640" 
d="M585 637l-55 -442l-25 -195h-20l25 195l15 119h-385l-15 -119l-25 -195h-20l25 195l55 442h20l-38 -303h385l38 303h20z" />
    <glyph glyph-name="I" unicode="I" horiz-adv-x="235" 
d="M125 195l-25 -195h-20l25 195l55 442h20z" />
    <glyph glyph-name="J" unicode="J" horiz-adv-x="260" 
d="M147 212l-12 -97q-9 -70 -44 -118.5t-109 -94.5l-9 11v6q68 42 102 88t41 108l11 93l51 409h-125l-4 4l5 16h146z" />
    <glyph glyph-name="K" unicode="K" horiz-adv-x="483" 
d="M125 195l-25 -195h-20l25 195l56 442h20zM198 339q116 -177 248 -334v-4q-4 -4 -14 -8l-4 1q-149 179 -258 345v3l265 248l47 47h32z" />
    <glyph glyph-name="L" unicode="L" horiz-adv-x="382" 
d="M351 16l-6 -16h-264l25 195l55 442h20l-55 -442l-22 -175h244z" />
    <glyph glyph-name="M" unicode="M" horiz-adv-x="742" 
d="M640 0h-21l6 195l8 394h-4l-265 -508h-25l-133 508h-4l-90 -394l-44 -195h-21l146 637h23l26 -99l110 -428h4l231 439l46 88h24z" />
    <glyph glyph-name="N" unicode="N" horiz-adv-x="640" 
d="M526 176l-23 -176h-19l-304 595h-4l-51 -396l-25 -199h-20l24 190l57 447h19l304 -595h4l77 594l20 2z" />
    <glyph glyph-name="O" unicode="O" horiz-adv-x="599" 
d="M513.5 577q54.5 -65 54.5 -186q0 -122 -35.5 -211t-103 -137t-162.5 -48q-102 0 -156.5 67t-54.5 191q0 121 35 208.5t102.5 134t161.5 46.5q104 0 158.5 -65zM205 578q-62 -44 -95 -126.5t-33 -195.5q0 -115 49.5 -178t141.5 -63q87 0 150 45.5t96 129t33 197.5
q0 113 -49 174t-144 61q-87 0 -149 -44z" />
    <glyph glyph-name="P" unicode="P" horiz-adv-x="464" 
d="M405 600q39 -39 39 -111q0 -113 -60 -176.5t-170 -63.5h-82l-7 -54l-25 -195h-20l25 195l55 442l133 2q73 0 112 -39zM376.5 335.5q47.5 58.5 47.5 149.5q0 62 -32.5 96.5t-93.5 37.5l-120 -1l-44 -349h112q83 8 130.5 66.5z" />
    <glyph glyph-name="Q" unicode="Q" horiz-adv-x="592" 
d="M475 -110q88 -42 187 -54l-1 -6q-9 -12 -10 -12h-4q-101 13 -192 59t-163 119q-8 -1 -25 -1q-102 0 -156.5 67t-54.5 191q0 121 35 208.5t102.5 134t161.5 46.5q104 0 158.5 -65t54.5 -186q0 -167 -65.5 -270t-184.5 -122q69 -67 157 -109zM126.5 78q49.5 -63 141.5 -63
q87 0 150 45.5t96 129t33 197.5q0 113 -49 174t-144 61q-87 0 -149 -44t-95 -126.5t-33 -195.5q0 -115 49.5 -178z" />
    <glyph glyph-name="R" unicode="R" horiz-adv-x="494" 
d="M402 348.5q-43 -58.5 -122 -82.5q60 -134 137 -261l-1 -4q-5 -5 -13 -8l-5 2q-81 137 -140 268h-125l-8 -68l-25 -195h-20l25 195l55 442l133 2q73 0 112.5 -38.5t39.5 -109.5q0 -84 -43 -142.5zM136 283h134q74 20 114.5 73.5t40.5 131.5q0 60 -32.5 94t-94.5 37
l-120 -1z" />
    <glyph glyph-name="S" unicode="S" horiz-adv-x="423" 
d="M398 611l-6 -18l-7 -1q-46 28 -104 28q-48 0 -86 -20.5t-59 -53.5t-21 -69q0 -33 16 -58t38.5 -42.5t62.5 -41.5q44 -26 70 -46t44 -50.5t18 -71.5q0 -46 -26.5 -85.5t-72 -62.5t-99.5 -23q-37 0 -74 12t-64 35l3 19l6 2q26 -24 61 -36t70 -12q50 0 90.5 21t63 55
t22.5 73q0 35 -16.5 61.5t-40 44.5t-64.5 43q-43 27 -68 46t-42.5 48.5t-17.5 69.5q0 45 25 82t68 58.5t96 21.5q61 0 114 -29z" />
    <glyph glyph-name="T" unicode="T" horiz-adv-x="450" 
d="M474 633l-6 -16h-183l-54 -422l-24 -195h-20l24 195l54 422h-185l-3 4l6 16h388z" />
    <glyph glyph-name="U" unicode="U" horiz-adv-x="583" 
d="M510 312l-10 -83q-11 -111 -72.5 -172t-161.5 -61q-89 0 -137 46.5t-48 133.5q0 29 4 53l13 93l40 315h20l-53 -408q-4 -34 -4 -49q0 -79 42.5 -121.5t121.5 -42.5q91 0 146 55t69 158l51 408h20z" />
    <glyph glyph-name="V" unicode="V" horiz-adv-x="508" 
d="M232 0h-22l-139 637h23l7 -43l122 -560h4l280 560l18 43h24z" />
    <glyph glyph-name="W" unicode="W" horiz-adv-x="834" 
d="M559 0h-20l-91 438h-4l-213 -438h-22l-135 637h23l7 -43l119 -560h4l213 437l-36 166h22l7 -43l118 -560h4l276 560l19 43h23z" />
    <glyph glyph-name="X" unicode="X" horiz-adv-x="537" 
d="M290 329l173 -329h-25l-16 38l-148 276l-215 -278l-25 -36h-27l257 331l-161 306h26l16 -35l134 -256l195 251l27 40h27z" />
    <glyph glyph-name="Y" unicode="Y" horiz-adv-x="469" 
d="M238 247l-7 -52l-24 -195h-20l24 195l7 50l-141 392h25l7 -26l120 -334h5l218 334l14 26h26z" />
    <glyph glyph-name="Z" unicode="Z" horiz-adv-x="482" 
d="M487 620l-453 -600h310l65 1l4 -5l-6 -16h-368l-34 -1l2 18l453 600h-300l-55 -1l-4 5l6 17l61 -1h286l35 1z" />
    <glyph glyph-name="bracketleft" unicode="[" horiz-adv-x="282" 
d="M315 642l-2 -15l-131 -9l-88 -723l128 -9l-1 -15l-5 -4l-145 10l47 380l47 379l147 10z" />
    <glyph glyph-name="backslash" unicode="\" horiz-adv-x="360" 
d="M84 670l3 5h16l204 -781l-3 -4h-16z" />
    <glyph glyph-name="bracketright" unicode="]" horiz-adv-x="282" 
d="M-26 -129l2 15l131 9l88 723l-128 9l1 15l5 4l145 -10l-47 -380l-47 -379l-147 -10z" />
    <glyph glyph-name="asciicircum" unicode="^" horiz-adv-x="407" 
d="M369 121l-2 -4l-16 -5l-110 350h-4l-207 -346l-5 -3l-13 7l216 364l4 3h22z" />
    <glyph glyph-name="underscore" unicode="_" horiz-adv-x="455" 
d="M431 -89l-4 -17h-480l-2 3l4 17h480z" />
    <glyph glyph-name="grave" unicode="`" horiz-adv-x="405" 
d="M329 532l-11 -13l-5 -1q-75 66 -144 135l-1 5l10 10l5 1q77 -79 146 -137z" />
    <glyph glyph-name="a" unicode="a" horiz-adv-x="422" 
d="M359 456l-46 -350l-9 -106l-25 -4l36 275h-4q-45 -85 -97 -156t-105 -119h-11q-27 20 -39.5 52t-12.5 89q0 85 26.5 156t78 115t122.5 49h4l65 -5l12 7zM149.5 64q35.5 40 82.5 110t91 159l4 29l7 70l-59 5q-63 -1 -110.5 -42.5t-73 -109t-25.5 -144.5q0 -41 7 -67
t16.5 -38t16.5 -12q8 0 43.5 40z" />
    <glyph glyph-name="b" unicode="b" horiz-adv-x="423" 
d="M365 402q12 -30 12 -85q0 -86 -27.5 -157.5t-79.5 -115.5t-124 -48h-4l-69 17l-9 1l79 594l7 90l25 4l-70 -523h4q45 85 98 156t107 119h11q28 -22 40 -52zM256.5 57q48.5 41 74.5 109t26 146q0 40 -7 65.5t-16.5 37t-16.5 11.5q-8 0 -44 -39.5t-83.5 -109.5t-92.5 -159
l-10 -88l57 -14q64 0 112.5 41z" />
    <glyph glyph-name="c" unicode="c" horiz-adv-x="324" 
d="M319 437l5 -7l-6 -14l-5 -3q-37 23 -64 23q-85 -1 -133 -80t-48 -215q0 -66 18.5 -95.5t54.5 -29.5q32 0 64.5 23.5t60.5 78.5h6l9 -13q-31 -55 -64 -79.5t-75 -30.5h-8q-27 5 -45.5 17t-29.5 43t-11 87q0 141 54 227.5t161 86.5z" />
    <glyph glyph-name="d" unicode="d" horiz-adv-x="423" 
d="M394 702l-79 -596l-9 -106l-25 -4l37 275h-5q-46 -85 -99 -156.5t-107 -118.5h-11q-27 19 -39 50.5t-12 86.5q0 86 27.5 157.5t79.5 115.5t124 48h4l62 -3l21 157l6 90zM148.5 64q36.5 40 84.5 111t94 161l12 95l-61 3q-64 0 -112.5 -41t-74.5 -109t-26 -146
q0 -40 7 -65.5t16 -37t16 -11.5q8 0 44.5 40z" />
    <glyph glyph-name="e" unicode="e" horiz-adv-x="354" 
d="M284 118l9 -13q-30 -50 -64.5 -77t-80.5 -33h-9q-49 6 -70.5 41.5t-21.5 106.5q0 88 25.5 159t70.5 112.5t99 42.5h5q75 -6 75 -69q0 -57 -64 -111t-190 -101q-1 -9 -1 -28q0 -68 19.5 -100t59.5 -32q37 0 70.5 26.5t60.5 75.5h7zM163.5 405.5q-37.5 -30.5 -62 -84.5
t-31.5 -123q111 41 171 90t60 97q0 23 -14.5 37t-42.5 14q-43 0 -80.5 -30.5z" />
    <glyph glyph-name="f" unicode="f" horiz-adv-x="257" 
d="M384 690l-7 -20h-6q-39 15 -69 15q-104 0 -122 -134l-13 -102h116l3 -4l-4 -16h-118l-30 -237l-27 -216l-9 -106l-25 -4l41 324l30 239h-69l-4 4l4 16h72l13 102q10 76 47.5 115t100.5 39l74 -12z" />
    <glyph glyph-name="g" unicode="g" horiz-adv-x="414" 
d="M352 456l-41 -323l-12 -98q-15 -116 -72 -174t-145 -58q-55 0 -90.5 27.5t-49.5 77.5l2 7l150 122v5q-18 18 -26.5 45t-8.5 71q0 80 25.5 146t74 106.5t114.5 44.5h4l59 -3l11 7zM170.5 398q-44.5 -38 -68.5 -101t-24 -135q0 -37 6.5 -60.5t15 -34t14.5 -10.5
q7 0 38 36.5t75.5 102t91.5 148.5l3 26l5 64l-53 2q-59 0 -103.5 -38zM311 286h-4q-63 -100 -104.5 -157.5t-85.5 -97.5l-144 -117q-3 -2 -4.5 -4.5t-1.5 -5.5q2 -15 15 -34t38.5 -33t61.5 -14q78 0 130 53t66 155z" />
    <glyph glyph-name="h" unicode="h" horiz-adv-x="446" 
d="M373 431.5q14 -23.5 13 -54.5l-1 -13l-43 -263l-12 -101l-25 -4l59 365l1 15q1 25 -10 42.5t-24 17.5q-26 0 -90 -85t-143 -231l-2 -14l-9 -106l-26 -4l82 612l6 90l26 4l-69 -518h5q64 111 114 178.5t99 99.5h11q24 -7 38 -30.5z" />
    <glyph glyph-name="i" unicode="i" horiz-adv-x="203" 
d="M95 106l-7 -106l-27 -4l49 366l6 90l25 4zM163.5 625.5q5.5 -5.5 5.5 -14.5t-5.5 -14.5t-14.5 -5.5t-14.5 5.5t-5.5 14.5t5.5 14.5t14.5 5.5t14.5 -5.5z" />
    <glyph glyph-name="j" unicode="j" horiz-adv-x="212" 
d="M150 451l-45 -358l-11 -75q-10 -80 -36.5 -124.5t-86.5 -85.5l-11 11l1 6q55 37 78 76t32 107l49 358l5 63h-83l-4 4l4 16h87l19 3zM155.5 625.5q5.5 -5.5 5.5 -14.5t-5.5 -14.5t-14.5 -5.5t-14.5 5.5t-5.5 14.5t5.5 14.5t14.5 5.5t14.5 -5.5z" />
    <glyph glyph-name="k" unicode="k" horiz-adv-x="426" 
d="M226 183q70 -101 137 -183v-3l-16 -8l-4 2q-50 62 -142 190l1 9q173 95 173 189q0 28 -13.5 42.5t-28.5 14.5q-34 0 -93.5 -79.5t-141.5 -233.5l-2 -17l-9 -106l-26 -4l82 612l6 90l26 4l-68 -513h4q67 118 114 181.5t96 86.5l16 1q26 -5 42 -24t16 -52q0 -103 -169 -199
z" />
    <glyph glyph-name="l" unicode="l" horiz-adv-x="238" 
d="M112 106l-9 -106l-26 -4l82 612l6 90l26 4z" />
    <glyph glyph-name="m" unicode="m" horiz-adv-x="693" 
d="M620 431.5q14 -23.5 13 -54.5l-1 -13l-43 -263l-12 -101l-25 -4l59 365l1 15q1 25 -10 42.5t-24 17.5q-26 0 -91 -86t-145 -234l-2 -15l-12 -101l-25 -4l60 365l1 15q0 25 -11 42.5t-24 17.5q-26 0 -89.5 -85t-142.5 -231l-2 -14l-9 -106l-25 -4l48 366l7 90l25 4
l-36 -272h5q64 112 114 179t98 99h11q24 -7 38.5 -30.5t13.5 -54.5l-1 -13l-30 -180h5q64 112 114 179t98 99h11q24 -7 38 -30.5z" />
    <glyph glyph-name="n" unicode="n" horiz-adv-x="445" 
d="M372 431.5q14 -23.5 13 -54.5l-1 -13l-43 -263l-12 -101l-25 -4l59 365l1 15q1 25 -10 42.5t-24 17.5q-26 0 -90 -85t-143 -231l-2 -14l-9 -106l-25 -4l48 366l7 90l25 4l-36 -272h5q65 112 114.5 179t98.5 99h11q24 -7 38 -30.5z" />
    <glyph glyph-name="o" unicode="o" horiz-adv-x="396" 
d="M253 458q50 -4 72.5 -37t22.5 -101q0 -91 -24 -163.5t-69 -115.5t-106 -47h-5q-50 3 -73 36.5t-23 103.5q0 91 24.5 164.5t69.5 116t106 43.5h5zM154.5 398q-40.5 -39 -63.5 -107.5t-23 -153.5q0 -62 19.5 -92t60.5 -30q52 0 93 39.5t63.5 108.5t22.5 154q0 62 -19 91
t-60 29q-53 0 -93.5 -39z" />
    <glyph glyph-name="p" unicode="p" horiz-adv-x="422" 
d="M365 402q12 -30 12 -85q0 -86 -27 -157.5t-79.5 -115.5t-124.5 -48h-4l-58 14l-11 -89l-9 -106l-25 -4l71 551l6 90l25 4l-35 -277h4q45 84 98 155.5t106 119.5h11q28 -22 40 -52zM257 57q48 41 74 109t26 146q0 40 -6.5 65.5t-16 37t-16.5 11.5q-8 0 -44 -39.5
t-83.5 -109t-92.5 -157.5l-11 -89l58 -15q64 0 112 41z" />
    <glyph glyph-name="q" unicode="q" horiz-adv-x="421" 
d="M358 456l-68 -535l-9 -106l-25 -4l59 460h-4q-45 -84 -98 -155.5t-106 -119.5h-11q-27 19 -39 50.5t-12 86.5q0 86 27 157.5t79.5 115.5t123.5 48h4l61 -3l13 8zM147.5 63.5q35.5 39.5 83 109.5t92.5 158l4 31l6 70l-57 2q-63 0 -111 -41t-73.5 -109t-25.5 -146
q0 -40 6.5 -65.5t15.5 -37t16 -11.5q8 0 43.5 39.5z" />
    <glyph glyph-name="r" unicode="r" horiz-adv-x="307" 
d="M326 450l-3 -20l-3 -2l-11 2q-40 -7 -96 -90.5t-118 -235.5l-10 -104l-24 -4l47 366l8 90l23 4l-35 -275h5q54 123 106.5 193.5t94.5 77.5z" />
    <glyph glyph-name="s" unicode="s" horiz-adv-x="306" 
d="M279 435l-7 -19l-6 -1q-34 20 -69 20q-31 0 -56.5 -14t-40 -36.5t-14.5 -46.5q0 -28 18 -48.5t56 -49.5q43 -32 64 -57t21 -63q0 -34 -18.5 -62.5t-52.5 -46t-78 -17.5q-48 7 -86 34l3 18l7 4q41 -35 88 -35q50 0 83 30t33 72q0 33 -19.5 55.5t-58.5 51.5t-59.5 53
t-20.5 59q0 51 40.5 85.5t100.5 33.5q42 -4 72 -20z" />
    <glyph glyph-name="t" unicode="t" horiz-adv-x="316" 
d="M106 87l-2 -20q0 -25 10.5 -38.5t29.5 -13.5q21 0 48.5 28t54.5 77h7l9 -12q-36 -59 -60.5 -82.5t-54.5 -30.5q-31 0 -47.5 17.5t-16.5 51.5l2 22l47 276l10 67h-71l-4 4l3 16h75l19 131l22 10l3 -3l-23 -138h144l3 -4l-3 -16h-148z" />
    <glyph glyph-name="u" unicode="u" horiz-adv-x="454" 
d="M392 456l-46 -350l-9 -106l-25 -4l36 271h-5q-65 -112 -114.5 -179t-98.5 -99h-11q-24 7 -38 30.5t-13 54.5l1 13l43 263l12 101l25 4l-59 -365l-1 -15q-1 -25 10 -42.5t24 -17.5q26 0 90.5 85t142.5 230l4 32l7 90z" />
    <glyph glyph-name="v" unicode="v" horiz-adv-x="382" 
d="M365 373q0 -50 -41 -115l-164 -258h-21l-49 450l23 6l6 -74l36 -352h3l149 238q38 62 38 106q0 32 -28 70l1 5l18 6q29 -41 29 -82z" />
    <glyph glyph-name="w" unicode="w" horiz-adv-x="659" 
d="M448 0h-20l-50 418h-4l-203 -418h-26l-55 450l22 5l4 -46l46 -379h4l182 379l21 43h24l4 -43l46 -379h4l137 238q38 66 38 106q0 32 -28 70l1 5l18 6q29 -41 29 -82q0 -46 -41 -115z" />
    <glyph glyph-name="x" unicode="x" horiz-adv-x="414" 
d="M347 4l-21 -8l-19 40l-97 177l-147 -181l-23 -32h-28l187 233l-114 215l21 8l15 -33l91 -174l138 169l24 34h28l-178 -223z" />
    <glyph glyph-name="y" unicode="y" horiz-adv-x="379" 
d="M362 373q0 -49 -39 -115l-164 -277q-56 -95 -99 -135.5t-91 -40.5q-27 0 -60 12l2 19l5 2q30 -12 55 -12q41 0 79 37.5t91 126.5l13 22l-80 438l23 6l12 -74l59 -340h4l134 226q36 60 36 106q0 32 -28 70l1 5l18 6q29 -41 29 -82z" />
    <glyph glyph-name="z" unicode="z" horiz-adv-x="393" 
d="M358 455l-313 -416l27 5q21 0 44 -8t27 -9q43 -17 69 -17q52 0 79.5 39.5t32.5 119.5l9 1l10 -11q-9 -169 -133 -169q-26 0 -71 17q-18 6 -37.5 11t-34.5 5q-36 0 -61 -28h-3l-9 8l323 429h-200l-42 -1l-2 4l4 17l2 2l46 -2h205l17 12z" />
    <glyph glyph-name="braceleft" unicode="{" horiz-adv-x="282" 
d="M308 648l3 -3l-6 -17q-27 5 -39 5q-44 0 -64 -31.5t-20 -108.5l1 -95q0 -61 -20 -94.5t-61 -49.5v-2q54 -22 54 -87q0 -19 -5.5 -42.5t-16.5 -64.5q-12 -47 -17.5 -71.5t-5.5 -45.5q0 -68 62 -68q12 0 40 5l2 -17l-4 -3q-18 -5 -38 -5q-40 0 -61 22t-21 65q0 20 5 44.5
t11 47.5t8 31q11 38 16 60.5t5 39.5q0 36 -20 56t-63 25l2 18q57 7 82.5 38t25.5 100l-1 94q0 84 27.5 121.5t82.5 37.5q19 0 36 -5z" />
    <glyph glyph-name="bar" unicode="|" horiz-adv-x="321" 
d="M240 789l-62 -504l-68 -550h-17l-2 4l67 546l62 504l18 2z" />
    <glyph glyph-name="braceright" unicode="}" horiz-adv-x="282" 
d="M-20 -142l-3 3l6 17q27 -5 39 -5q44 0 64 31.5t20 108.5l-1 95q0 61 20 94.5t61 49.5v2q-54 23 -54 87q0 19 5.5 42.5t16.5 64.5q12 47 17.5 71.5t5.5 45.5q0 68 -62 68q-12 0 -40 -5l-2 17l4 3q18 5 38 5q40 0 61 -22t21 -65q0 -20 -5 -44.5t-11 -47.5t-8 -31
q-11 -38 -16 -60.5t-5 -39.5q0 -36 20 -56t63 -25l-2 -18q-57 -7 -82.5 -38t-25.5 -100l1 -94q0 -84 -27.5 -121.5t-82.5 -37.5q-19 0 -36 5z" />
    <glyph glyph-name="asciitilde" unicode="~" horiz-adv-x="481" 
d="M131 272.5q-9 -6.5 -28 -22.5l-19 -17h-6l-7 9v5l64 53l6 3q16 -2 48 -10.5t45 -11.5q79 -23 99 -23q8 0 18 7.5t24 20t21 18.5h6l7 -10v-4l-65 -54l-6 -2q-23 2 -101 24q-73 21 -90 21q-7 0 -16 -6.5z" />
    <glyph glyph-name="uni00A0" unicode="&#xa0;" horiz-adv-x="161" 
 />
    <glyph glyph-name="exclamdown" unicode="&#xa1;" horiz-adv-x="249" 
d="M48 -194l63 453h16l4 -5l-63 -448l-4 -3h-14zM129.5 424.5q-5.5 5.5 -5.5 14.5t5.5 14.5t14.5 5.5t14.5 -5.5t5.5 -14.5t-5.5 -14.5t-14.5 -5.5t-14.5 5.5z" />
    <glyph glyph-name="cent" unicode="&#xa2;" horiz-adv-x="380" 
d="M345 476l-6 -14l-5 -3q-40 23 -68 23q-12 0 -18 -1l-73 -419q65 13 113 100h6l8 -11q-29 -50 -60 -74.5t-70 -32.5l-28 -158h-15l-4 4l27 151h-5q-29 5 -48.5 17t-31.5 43.5t-12 89.5q0 122 44 204t131 102l26 153h16l5 -5l-26 -145q20 2 30 2l59 -19zM226 477
q-72 -17 -111.5 -92.5t-39.5 -194.5q0 -68 20 -99t59 -31h1z" />
    <glyph glyph-name="sterling" unicode="&#xa3;" horiz-adv-x="384" 
d="M371 572l-5 -19l-3 -2q-39 20 -89 20q-106 0 -122 -124l-15 -119h126l2 -4l-5 -16h-125l-22 -178q-9 -74 -53 -108v-2h188l69 1l3 -5l-5 -16h-307l-3 4l5 14q34 5 55.5 34t27.5 78l22 178h-67l-3 4l5 16h67l15 119q9 70 45 107t97 37q44 0 97 -19z" />
    <glyph glyph-name="currency" unicode="&#xa4;" horiz-adv-x="436" 
d="M417 520l-1 -5l-72 -64q22 -30 22 -71q0 -27 -11.5 -52t-31.5 -44l58 -66l-1 -5l-12 -10l-5 1l-57 65q-38 -32 -86 -32q-23 0 -44 8.5t-36 23.5l-74 -66l-5 1l-8 10l1 5l73 65q-10 13 -16 32t-6 39q0 53 43 96l-58 66l2 5l10 9h5l58 -66q38 32 86 32q46 0 80 -31l73 65
l5 -1zM188.5 460.5q-28.5 -16.5 -46 -44.5t-17.5 -60q0 -41 28 -70t69 -29q32 0 60.5 16.5t46 44.5t17.5 60q0 41 -28 70t-69 29q-32 0 -60.5 -16.5z" />
    <glyph glyph-name="yen" unicode="&#xa5;" horiz-adv-x="458" 
d="M433 280l3 -3l-5 -17h-153l-52 -75l-4 -35h195l3 -3l-5 -17h-196l-17 -130h-20l17 130h-181l-2 3l4 17h182l5 39l-29 71h-144l-2 3l4 17h134l-86 211h25l6 -21l103 -253h4l179 253l13 21h25l-147 -211h141z" />
    <glyph glyph-name="brokenbar" unicode="&#xa6;" horiz-adv-x="321" 
d="M240 789l-52 -421l-17 -2l-3 3l52 420l18 2zM162 155l-52 -420h-17l-2 4l51 418l17 3z" />
    <glyph glyph-name="section" unicode="&#xa7;" horiz-adv-x="383" 
d="M363 620l-6 -19l-6 -1q-41 20 -82 20q-37 0 -65 -15.5t-43 -39.5t-15 -49q0 -31 21.5 -57.5t67.5 -66.5q50 -44 76 -77.5t26 -74.5q0 -79 -106 -133q34 -41 34 -82q0 -34 -21 -64t-57 -48t-79 -18q-30 0 -59 9.5t-51 25.5l5 17l6 3q43 -35 102 -35q39 0 69.5 15.5t47 40
t16.5 51.5q0 34 -22.5 62t-69.5 69q-49 42 -74.5 74t-25.5 72t28.5 75t77.5 61q-33 40 -33 80q0 33 20 62t54 46t75 17q44 0 89 -20zM294 302.5q-23 28.5 -71 70.5q-36 32 -52 48q-47 -24 -73 -55.5t-26 -64.5t22.5 -61t70.5 -69q42 -37 53 -49q99 47 99 116q0 36 -23 64.5z
" />
    <glyph glyph-name="dieresis" unicode="&#xa8;" horiz-adv-x="401" 
d="M184.5 610.5q5.5 -5.5 5.5 -14.5t-5.5 -14.5t-14.5 -5.5t-14.5 5.5t-5.5 14.5t5.5 14.5t14.5 5.5t14.5 -5.5zM334.5 610.5q5.5 -5.5 5.5 -14.5t-5.5 -14.5t-14.5 -5.5t-14.5 5.5t-5.5 14.5t5.5 14.5t14.5 5.5t14.5 -5.5z" />
    <glyph glyph-name="copyright" unicode="&#xa9;" horiz-adv-x="688" 
d="M504 560q66 -38 102.5 -107t36.5 -160t-36.5 -160t-102.5 -107t-153 -38t-153 38t-102 107t-36 160t36 160t102 107t153 38t153 -38zM208.5 542.5q-61.5 -35.5 -95 -100t-33.5 -149.5t33.5 -149.5t95 -100t142.5 -35.5t142.5 35.5t95.5 100t34 149.5t-34 149.5t-95.5 100
t-142.5 35.5t-142.5 -35.5zM458 436l-5 -18h-5q-36 27 -88 27q-63 0 -96.5 -38.5t-33.5 -111.5t32.5 -111.5t92.5 -38.5q25 0 51.5 8.5t47.5 23.5l4 -1l-2 -19q-52 -32 -102 -32q-70 0 -107 44t-37 126t38.5 126t111.5 44q53 0 98 -29z" />
    <glyph glyph-name="ordfeminine" unicode="&#xaa;" horiz-adv-x="299" 
d="M285 643l-30 -225l-5 -68l-23 -3l22 169h-4q-57 -107 -127 -169h-8q-21 13 -29.5 34t-8.5 59q0 82 39.5 139.5t109.5 63.5h3l43 -4l14 6zM145 395.5q22 24.5 52 69t58 100.5l2 16l4 41l-40 3q-59 -1 -94.5 -53.5t-35.5 -126.5q0 -37 9 -55.5t17 -18.5q6 0 28 24.5z" />
    <glyph glyph-name="guillemotleft" unicode="&#xab;" horiz-adv-x="360" 
d="M212 220l2 11l175 165l11 -9l-1 -6l-164 -158l126 -158l-1 -6l-13 -9zM66 220l2 11l175 165l11 -9l-1 -6l-164 -158l126 -158l-1 -6l-13 -9z" />
    <glyph glyph-name="logicalnot" unicode="&#xac;" horiz-adv-x="480" 
d="M422 274l-25 -203l-17 -2l-3 3l23 188h-358l-2 3l4 17h373z" />
    <glyph glyph-name="uni00AD" unicode="&#xad;" horiz-adv-x="312" 
d="M286 277l-1 -16l-250 -33l-3 4l2 16l249 33z" />
    <glyph glyph-name="registered" unicode="&#xae;" horiz-adv-x="432" 
d="M345 654q48 -48 48 -128t-48 -128.5t-128 -48.5t-128.5 48.5t-48.5 128.5t48.5 128t128.5 48t128 -48zM331 411.5q43 43.5 43 114.5t-43 114t-114 43t-114.5 -43t-43.5 -114t43.5 -114.5t114.5 -43.5t114 43.5zM267.5 538q-10.5 -16 -30.5 -24q26 -41 53 -73v-3
q-3 -1 -10.5 -2t-10.5 -2l-3 2q-23 30 -51 74h-35v-13l1 -60h-22v192h59q60 0 60 -55q0 -20 -10.5 -36zM180 530l40 -2q36 12 36 44q0 18 -11 28t-32 11l-32 -1z" />
    <glyph glyph-name="macron" unicode="&#xaf;" horiz-adv-x="389" 
d="M386 604l-2 -17h-287l-3 3l2 17h287z" />
    <glyph glyph-name="degree" unicode="&#xb0;" horiz-adv-x="295" 
d="M275.5 611q30.5 -31 30.5 -77q0 -36 -19 -66t-50.5 -47.5t-67.5 -17.5q-47 0 -77.5 30.5t-30.5 76.5q0 36 19 66t51 48t68 18q46 0 76.5 -31zM140.5 607q-26.5 -15 -43 -40.5t-16.5 -53.5q0 -37 26.5 -63.5t64.5 -26.5q28 0 54.5 15t42.5 40t16 53q0 38 -26 64.5
t-63 26.5q-29 0 -55.5 -15z" />
    <glyph glyph-name="plusminus" unicode="&#xb1;" horiz-adv-x="479" 
d="M279 468l-23 -188h187l3 -3l-4 -17h-189l-23 -189l-17 -2l-3 3l23 188h-187l-3 3l4 17h189l23 189l17 2zM406 -48l-2 -17h-397l-3 3l2 17h397z" />
    <glyph glyph-name="uni00B2" unicode="&#xb2;" horiz-adv-x="336" 
d="M285.5 683.5q22.5 -18.5 22.5 -48.5q0 -31 -24.5 -65.5t-87.5 -101.5l-108 -116l2 -2h175l61 1l1 -4l-5 -17l-65 1h-169l-29 -1l-2 2l2 15l123 131q60 64 82.5 94.5t22.5 57.5q0 23 -17 38t-47 15t-59.5 -15t-54.5 -42h-3l-2 17q25 28 57 43.5t66 15.5q36 0 58.5 -18.5z
" />
    <glyph glyph-name="uni00B3" unicode="&#xb3;" horiz-adv-x="294" 
d="M248.5 684.5q22.5 -18.5 22.5 -49.5q0 -30 -23 -58t-60 -44v-2q38 -8 58.5 -29.5t20.5 -53.5q0 -52 -44 -85.5t-111 -33.5q-31 0 -59 6v16l2 2q32 -5 60 -5q58 0 95 27t37 72q0 33 -26 52t-74 21h-33l-2 2l3 15h29q21 0 46 12.5t42 34t17 46.5t-17.5 39.5t-46.5 14.5
q-43 0 -91 -39h-3l-2 17q51 41 100 41q37 0 59.5 -18.5z" />
    <glyph glyph-name="acute" unicode="&#xb4;" horiz-adv-x="375" 
d="M304 668l10 -10l-1 -5q-69 -69 -144 -135l-5 1l-11 13q69 58 146 137z" />
    <glyph glyph-name="uni00B5" unicode="&#xb5;" horiz-adv-x="450" 
d="M392 456l-46 -350l-9 -106l-25 -4l36 271h-5q-88 -145 -127 -199t-76 -79h-11q-34 9 -46 39l-20 -213l-25 -4l71 551l6 90l25 4l-48 -381q-1 -3 -1 -9q0 -20 12.5 -35.5t29.5 -15.5q47 0 223 316l4 31l7 90z" />
    <glyph glyph-name="paragraph" unicode="&#xb6;" horiz-adv-x="448" 
d="M462 633l-5 -16h-81l-55 -449l-6 -46q-7 -56 -42.5 -102t-104.5 -88l-9 11l1 6q63 38 96 79.5t39 89.5l5 40l56 459h-71q-88 -5 -137 -53.5t-49 -131.5q0 -66 40 -107.5t116 -55.5l-6 -20q-82 14 -126 59t-44 120q0 98 57 153.5t159 55.5h164z" />
    <glyph glyph-name="periodcentered" unicode="&#xb7;" horiz-adv-x="230" 
d="M130.5 252.5q5.5 -5.5 5.5 -14.5t-5.5 -14.5t-14.5 -5.5t-14.5 5.5t-5.5 14.5t5.5 14.5t14.5 5.5t14.5 -5.5z" />
    <glyph glyph-name="cedilla" unicode="&#xb8;" horiz-adv-x="388" 
d="M143 -55l31 -20q17 -11 25 -22.5t8 -27.5q0 -24 -17.5 -38.5t-42.5 -14.5q-37 0 -59 33l6 18h4q10 -16 21 -23.5t28 -7.5q18 0 29 8.5t11 24.5q0 11 -5.5 17.5t-18.5 15.5l-43 28l24 75h20z" />
    <glyph glyph-name="uni00B9" unicode="&#xb9;" horiz-adv-x="240" 
d="M197 701l-30 -240l-16 -130h-20l16 126l27 222l-101 -27l-4 2l2 16l123 35z" />
    <glyph glyph-name="ordmasculine" unicode="&#xba;" horiz-adv-x="282" 
d="M210 644q34 -3 50 -25t16 -66q0 -89 -36 -146t-98 -61h-4q-35 2 -51 24.5t-16 68.5q0 89 36.5 146.5t99.5 58.5h3zM122.5 574q-31.5 -52 -31.5 -133q0 -40 12.5 -58.5t39.5 -18.5q50 0 81.5 52.5t31.5 133.5q0 39 -12 57.5t-39 18.5q-51 0 -82.5 -52z" />
    <glyph glyph-name="guillemotright" unicode="&#xbb;" horiz-adv-x="360" 
d="M293 226l-2 -11l-175 -165l-11 9l1 6l164 158l-126 158l1 6l13 9zM147 226l-2 -11l-175 -165l-11 9l1 6l164 158l-126 158l1 6l13 9z" />
    <glyph glyph-name="onequarter" unicode="&#xbc;" horiz-adv-x="654" 
d="M189 638l-30 -240l-16 -130h-20l16 126l27 222l-101 -27l-4 2l2 16l123 35zM577 664l2 -8l-577 -746l-8 4l-3 9l576 746zM603 134l-5 -16l-50 1h-19l-13 -117l-3 -2l-16 -2l-2 2l15 119h-140l-31 -1l-3 3l2 15l203 233h19l-29 -232h69zM512 137l25 200h-3l-174 -200h152z
" />
    <glyph glyph-name="onehalf" unicode="&#xbd;" horiz-adv-x="655" 
d="M189 638l-30 -240l-16 -130h-20l16 126l27 222l-101 -27l-4 2l2 16l123 35zM577 664l2 -8l-577 -746l-8 4l-3 9l576 746zM563.5 352.5q22.5 -18.5 22.5 -48.5q0 -31 -24.5 -65.5t-87.5 -101.5l-108 -116l2 -2h175l61 1l1 -4l-5 -17l-65 1h-169l-29 -1l-2 2l2 15l123 131
q60 64 82.5 94.5t22.5 57.5q0 23 -17 38t-47 15t-59.5 -15t-54.5 -42h-3l-2 17q25 28 57 43.5t66 15.5q36 0 58.5 -18.5z" />
    <glyph glyph-name="threequarters" unicode="&#xbe;" horiz-adv-x="689" 
d="M240.5 621.5q22.5 -18.5 22.5 -49.5q0 -30 -23 -58t-60 -44v-2q38 -8 58.5 -29.5t20.5 -53.5q0 -52 -44 -85.5t-111 -33.5q-31 0 -59 6v16l2 2q32 -5 60 -5q58 0 95 27t37 72q0 33 -26 52t-74 21h-33l-2 2l3 15h29q21 0 46 12.5t42 34t17 46.5t-17.5 39.5t-46.5 14.5
q-43 0 -91 -39h-3l-2 17q51 41 100 41q37 0 59.5 -18.5zM612 664l2 -8l-577 -746l-8 4l-3 9l576 746zM638 134l-5 -16l-50 1h-19l-13 -117l-3 -2l-16 -2l-2 2l15 119h-140l-31 -1l-3 3l2 15l203 233h19l-29 -232h69zM547 137l25 200h-3l-174 -200h152z" />
    <glyph glyph-name="questiondown" unicode="&#xbf;" horiz-adv-x="323" 
d="M34 -152q-55 37 -55 96q0 40 24.5 76t69.5 65l104 66l2 3l8 108l17 1l2 -4l-7 -112l-6 -9l-110 -69q-83 -52 -83 -121q0 -54 51 -87t147 -39l2 -3l-7 -13l-7 -3q-97 8 -152 45zM193.5 424.5q-5.5 5.5 -5.5 14.5t5.5 14.5t14.5 5.5t14.5 -5.5t5.5 -14.5t-5.5 -14.5
t-14.5 -5.5t-14.5 5.5z" />
    <glyph glyph-name="Agrave" unicode="&#xc0;" horiz-adv-x="524" 
d="M470 0h-23l-6 43l-37 170h-283l-85 -170l-20 -43h-24l319 637h21zM318 603h-3l-184 -370h268zM413 742l-7 -15l-5 -3q-107 55 -174 93l-2 5l7 12l5 2q85 -50 176 -94z" />
    <glyph glyph-name="Aacute" unicode="&#xc1;" horiz-adv-x="524" 
d="M470 0h-23l-6 43l-37 170h-283l-85 -170l-20 -43h-24l319 637h21zM318 603h-3l-184 -370h268zM426 834l7 -12l-2 -5q-67 -38 -174 -93l-5 3l-7 15q91 44 176 94z" />
    <glyph glyph-name="Acircumflex" unicode="&#xc2;" horiz-adv-x="524" 
d="M470 0h-23l-6 43l-37 170h-283l-85 -170l-20 -43h-24l319 637h21zM318 603h-3l-184 -370h268zM225 743q37 24 105 76h16q52 -45 92 -76l-8 -14h-5q-40 29 -87 70q-47 -35 -103 -70h-5z" />
    <glyph glyph-name="Atilde" unicode="&#xc3;" horiz-adv-x="524" 
d="M470 0h-23l-6 43l-37 170h-283l-85 -170l-20 -43h-24l319 637h21zM318 603h-3l-184 -370h268zM476 805v-4l-52 -47l-6 -2q-20 2 -81 20q-6 2 -35 10t-40 8q-5 0 -13 -6t-17 -16l-21 -19h-4l-9 11v4l52 47l6 2q20 -2 81 -20q6 -2 35 -10t40 -8q5 0 13 6t17 16l21 19h4z
" />
    <glyph glyph-name="Adieresis" unicode="&#xc4;" horiz-adv-x="524" 
d="M470 0h-23l-6 43l-37 170h-283l-85 -170l-20 -43h-24l319 637h21zM318 603h-3l-184 -370h268zM276.5 795.5q5.5 -5.5 5.5 -14.5t-5.5 -14.5t-14.5 -5.5t-14.5 5.5t-5.5 14.5t5.5 14.5t14.5 5.5t14.5 -5.5zM426.5 795.5q5.5 -5.5 5.5 -14.5t-5.5 -14.5t-14.5 -5.5
t-14.5 5.5t-5.5 14.5t5.5 14.5t14.5 5.5t14.5 -5.5z" />
    <glyph glyph-name="Aring" unicode="&#xc5;" horiz-adv-x="524" 
d="M470 0h-23l-6 43l-37 170h-283l-85 -170l-20 -43h-24l319 637h21zM318 603h-3l-184 -370h268zM388 832q19 -21 19 -49q0 -31 -21.5 -50t-49.5 -19t-49 19.5t-21 50.5q0 30 19.5 49.5t50.5 19.5q33 0 52 -21zM299.5 819.5q-13.5 -13.5 -13.5 -35.5q0 -23 14.5 -36.5
t35.5 -13.5t36 13t15 36q0 21 -13.5 35.5t-37.5 14.5q-23 0 -36.5 -13.5z" />
    <glyph glyph-name="AE" unicode="&#xc6;" horiz-adv-x="744" 
d="M695 16l-6 -16h-286v43l-8 247l-249 -43l-135 -204l-26 -43h-27l426 637h285l2 -4l-7 -16h-258l9 -304l227 39l2 -3l-5 -17l-224 -38l8 -274h271zM394 310l-9 292h-3l-220 -332z" />
    <glyph glyph-name="Ccedilla" unicode="&#xc7;" horiz-adv-x="497" 
d="M437 625.5q42 -15.5 73 -43.5l-9 -17h-7q-59 56 -146 56q-86 0 -147.5 -44.5t-93.5 -127t-32 -196.5q0 -115 47.5 -176.5t138.5 -61.5q45 0 92 17.5t88 49.5l7 -2l-4 -18q-44 -32 -92 -49.5t-92 -17.5q-100 0 -152.5 66.5t-52.5 189.5q0 121 35 208.5t101 134.5t159 47
q45 0 87 -15.5zM268 -55l31 -20q17 -11 25 -22.5t8 -27.5q0 -24 -17.5 -38.5t-42.5 -14.5q-37 0 -59 33l6 18h4q10 -16 21 -23.5t28 -7.5q18 0 29 8.5t11 24.5q0 11 -5.5 17.5t-18.5 15.5l-43 28l24 75h20z" />
    <glyph glyph-name="Egrave" unicode="&#xc8;" horiz-adv-x="432" 
d="M143 340h223l3 -4l-6 -16h-222l-16 -125l-22 -175h273l3 -4l-6 -16h-293l25 195l55 442h291l2 -4l-6 -16h-269zM405 742l-7 -15l-5 -3q-107 55 -174 93l-2 5l7 12l5 2q85 -50 176 -94z" />
    <glyph glyph-name="Eacute" unicode="&#xc9;" horiz-adv-x="432" 
d="M143 340h223l3 -4l-6 -16h-222l-16 -125l-22 -175h273l3 -4l-6 -16h-293l25 195l55 442h291l2 -4l-6 -16h-269zM418 834l7 -12l-2 -5q-67 -38 -174 -93l-5 3l-7 15q91 44 176 94z" />
    <glyph glyph-name="Ecircumflex" unicode="&#xca;" horiz-adv-x="432" 
d="M143 340h223l3 -4l-6 -16h-222l-16 -125l-22 -175h273l3 -4l-6 -16h-293l25 195l55 442h291l2 -4l-6 -16h-269zM217 743q37 24 105 76h16q52 -45 92 -76l-8 -14h-5q-40 29 -87 70q-47 -35 -103 -70h-5z" />
    <glyph glyph-name="Edieresis" unicode="&#xcb;" horiz-adv-x="432" 
d="M143 340h223l3 -4l-6 -16h-222l-16 -125l-22 -175h273l3 -4l-6 -16h-293l25 195l55 442h291l2 -4l-6 -16h-269zM268.5 795.5q5.5 -5.5 5.5 -14.5t-5.5 -14.5t-14.5 -5.5t-14.5 5.5t-5.5 14.5t5.5 14.5t14.5 5.5t14.5 -5.5zM418.5 795.5q5.5 -5.5 5.5 -14.5t-5.5 -14.5
t-14.5 -5.5t-14.5 5.5t-5.5 14.5t5.5 14.5t14.5 5.5t14.5 -5.5z" />
    <glyph glyph-name="Igrave" unicode="&#xcc;" horiz-adv-x="235" 
d="M125 195l-25 -195h-20l25 195l55 442h20zM262 742l-7 -15l-5 -3q-107 55 -174 93l-2 5l7 12l5 2q85 -50 176 -94z" />
    <glyph glyph-name="Iacute" unicode="&#xcd;" horiz-adv-x="235" 
d="M125 195l-25 -195h-20l25 195l55 442h20zM275 834l7 -12l-2 -5q-67 -38 -174 -93l-5 3l-7 15q91 44 176 94z" />
    <glyph glyph-name="Icircumflex" unicode="&#xce;" horiz-adv-x="235" 
d="M125 195l-25 -195h-20l25 195l55 442h20zM74 743q37 24 105 76h16q52 -45 92 -76l-8 -14h-5q-40 29 -87 70q-47 -35 -103 -70h-5z" />
    <glyph glyph-name="Eth" unicode="&#xd0;" horiz-adv-x="630" 
d="M540 577.5q59 -64.5 59 -184.5q0 -121 -37.5 -210.5t-109.5 -138.5t-172 -49q-32 0 -85 1.5t-95 3.5l25 195l55 442l190 5q111 0 170 -64.5zM441.5 61q66.5 46 101.5 130.5t35 198.5q0 112 -54 172t-156 60q-30 0 -80.5 -1.5t-89.5 -3.5l-53 -422l-23 -176l56 -2l105 -2
q92 0 158.5 46zM344.588 336l-2.40039 -17h-310.188l-1.19922 3l2.39941 17h310.188z" />
    <glyph glyph-name="Ntilde" unicode="&#xd1;" horiz-adv-x="640" 
d="M526 176l-23 -176h-19l-304 595h-4l-51 -396l-25 -199h-20l24 190l57 447h19l304 -595h4l77 594l20 2zM528 805v-4l-52 -47l-6 -2q-20 2 -81 20q-6 2 -35 10t-40 8q-5 0 -13 -6t-17 -16l-21 -19h-4l-9 11v4l52 47l6 2q20 -2 81 -20q6 -2 35 -10t40 -8q5 0 13 6t17 16
l21 19h4z" />
    <glyph glyph-name="Ograve" unicode="&#xd2;" horiz-adv-x="599" 
d="M513.5 577q54.5 -65 54.5 -186q0 -122 -35.5 -211t-103 -137t-162.5 -48q-102 0 -156.5 67t-54.5 191q0 121 35 208.5t102.5 134t161.5 46.5q104 0 158.5 -65zM205 578q-62 -44 -95 -126.5t-33 -195.5q0 -115 49.5 -178t141.5 -63q87 0 150 45.5t96 129t33 197.5
q0 113 -49 174t-144 61q-87 0 -149 -44zM444 742l-7 -15l-5 -3q-107 55 -174 93l-2 5l7 12l5 2q85 -50 176 -94z" />
    <glyph glyph-name="Oacute" unicode="&#xd3;" horiz-adv-x="599" 
d="M513.5 577q54.5 -65 54.5 -186q0 -122 -35.5 -211t-103 -137t-162.5 -48q-102 0 -156.5 67t-54.5 191q0 121 35 208.5t102.5 134t161.5 46.5q104 0 158.5 -65zM205 578q-62 -44 -95 -126.5t-33 -195.5q0 -115 49.5 -178t141.5 -63q87 0 150 45.5t96 129t33 197.5
q0 113 -49 174t-144 61q-87 0 -149 -44zM457 834l7 -12l-2 -5q-67 -38 -174 -93l-5 3l-7 15q91 44 176 94z" />
    <glyph glyph-name="Ocircumflex" unicode="&#xd4;" horiz-adv-x="599" 
d="M513.5 577q54.5 -65 54.5 -186q0 -122 -35.5 -211t-103 -137t-162.5 -48q-102 0 -156.5 67t-54.5 191q0 121 35 208.5t102.5 134t161.5 46.5q104 0 158.5 -65zM205 578q-62 -44 -95 -126.5t-33 -195.5q0 -115 49.5 -178t141.5 -63q87 0 150 45.5t96 129t33 197.5
q0 113 -49 174t-144 61q-87 0 -149 -44zM256 743q37 24 105 76h16q52 -45 92 -76l-8 -14h-5q-40 29 -87 70q-47 -35 -103 -70h-5z" />
    <glyph glyph-name="Otilde" unicode="&#xd5;" horiz-adv-x="599" 
d="M513.5 577q54.5 -65 54.5 -186q0 -122 -35.5 -211t-103 -137t-162.5 -48q-102 0 -156.5 67t-54.5 191q0 121 35 208.5t102.5 134t161.5 46.5q104 0 158.5 -65zM205 578q-62 -44 -95 -126.5t-33 -195.5q0 -115 49.5 -178t141.5 -63q87 0 150 45.5t96 129t33 197.5
q0 113 -49 174t-144 61q-87 0 -149 -44zM507 805v-4l-52 -47l-6 -2q-20 2 -81 20q-6 2 -35 10t-40 8q-5 0 -13 -6t-17 -16l-21 -19h-4l-9 11v4l52 47l6 2q20 -2 81 -20q6 -2 35 -10t40 -8q5 0 13 6t17 16l21 19h4z" />
    <glyph glyph-name="multiply" unicode="&#xd7;" horiz-adv-x="481" 
d="M410 407l-1 -4l-149 -133l116 -133v-4l-14 -11l-118 134l-150 -134l-12 11v4l150 133l-117 133l1 4l14 11l117 -134l151 134z" />
    <glyph glyph-name="Oslash" unicode="&#xd8;" horiz-adv-x="600" 
d="M568 391q0 -122 -35.5 -211t-103 -137t-162.5 -48q-61 0 -105 24l-60 -106l-15 3l-2 4l61 109q-44 31 -67 88t-23 136q0 121 35 208.5t102.5 134t161.5 46.5q71 0 118 -30l55 97l16 -3l1 -5l-56 -100q79 -64 79 -210zM97.5 130q20.5 -53 59.5 -82l306 545q-44 29 -109 29
q-87 0 -149 -44t-95 -126.5t-33 -195.5q0 -73 20.5 -126zM418 60.5q63 45.5 96 129t33 197.5q0 137 -69 195l-306 -544q41 -23 96 -23q87 0 150 45.5z" />
    <glyph glyph-name="Ugrave" unicode="&#xd9;" horiz-adv-x="583" 
d="M510 312l-10 -83q-11 -111 -72.5 -172t-161.5 -61q-89 0 -137 46.5t-48 133.5q0 29 4 53l13 93l40 315h20l-53 -408q-4 -34 -4 -49q0 -79 42.5 -121.5t121.5 -42.5q91 0 146 55t69 158l51 408h20zM436 742l-7 -15l-5 -3q-107 55 -174 93l-2 5l7 12l5 2q85 -50 176 -94z
" />
    <glyph glyph-name="Uacute" unicode="&#xda;" horiz-adv-x="583" 
d="M510 312l-10 -83q-11 -111 -72.5 -172t-161.5 -61q-89 0 -137 46.5t-48 133.5q0 29 4 53l13 93l40 315h20l-53 -408q-4 -34 -4 -49q0 -79 42.5 -121.5t121.5 -42.5q91 0 146 55t69 158l51 408h20zM449 834l7 -12l-2 -5q-67 -38 -174 -93l-5 3l-7 15q91 44 176 94z" />
    <glyph glyph-name="Ucircumflex" unicode="&#xdb;" horiz-adv-x="583" 
d="M510 312l-10 -83q-11 -111 -72.5 -172t-161.5 -61q-89 0 -137 46.5t-48 133.5q0 29 4 53l13 93l40 315h20l-53 -408q-4 -34 -4 -49q0 -79 42.5 -121.5t121.5 -42.5q91 0 146 55t69 158l51 408h20zM248 743q37 24 105 76h16q52 -45 92 -76l-8 -14h-5q-40 29 -87 70
q-47 -35 -103 -70h-5z" />
    <glyph glyph-name="Udieresis" unicode="&#xdc;" horiz-adv-x="583" 
d="M510 312l-10 -83q-11 -111 -72.5 -172t-161.5 -61q-89 0 -137 46.5t-48 133.5q0 29 4 53l13 93l40 315h20l-53 -408q-4 -34 -4 -49q0 -79 42.5 -121.5t121.5 -42.5q91 0 146 55t69 158l51 408h20zM304.5 795.5q5.5 -5.5 5.5 -14.5t-5.5 -14.5t-14.5 -5.5t-14.5 5.5
t-5.5 14.5t5.5 14.5t14.5 5.5t14.5 -5.5zM454.5 795.5q5.5 -5.5 5.5 -14.5t-5.5 -14.5t-14.5 -5.5t-14.5 5.5t-5.5 14.5t5.5 14.5t14.5 5.5t14.5 -5.5z" />
    <glyph glyph-name="Thorn" unicode="&#xde;" horiz-adv-x="467" 
d="M390 477q39 -39 39 -111q0 -113 -60 -176.5t-170 -63.5h-83l-16 -126h-20l25 195l55 442h20l-15 -123l113 2q73 0 112 -39zM361.5 212.5q47.5 58.5 47.5 149.5q0 62 -32.5 96.5t-93.5 37.5l-121 -1l-37 -300l-6 -49h112q83 8 130.5 66.5z" />
    <glyph glyph-name="germandbls" unicode="&#xdf;" horiz-adv-x="516" 
d="M329.5 297.5q18.5 -24.5 54.5 -54.5q39 -35 58.5 -61t19.5 -64q0 -53 -41.5 -88t-105.5 -36q-48 7 -86 34l2 18l7 4q41 -35 89 -35q49 0 81.5 29.5t32.5 72.5q0 33 -17.5 55.5t-53.5 53.5q-39 32 -59 59t-20 68q0 38 18 63t55 58q37 32 55 57t18 63q0 46 -31 68t-82 22
q-64 0 -100 -35t-44 -95l-46 -362l-27 -216l-9 -106l-25 -4l41 324l30 239h-69l-4 4l4 16h72l13 105q9 72 52 111t113 39q60 0 96 -27t36 -81q0 -43 -20 -71.5t-59 -63.5q-34 -30 -50.5 -52.5t-16.5 -53.5q0 -33 18.5 -57.5z" />
    <glyph glyph-name="agrave" unicode="&#xe0;" horiz-adv-x="422" 
d="M359 456l-46 -350l-9 -106l-25 -4l36 275h-4q-45 -85 -97 -156t-105 -119h-11q-27 20 -39.5 52t-12.5 89q0 85 26.5 156t78 115t122.5 49h4l65 -5l12 7zM149.5 64q35.5 40 82.5 110t91 159l4 29l7 70l-59 5q-63 -1 -110.5 -42.5t-73 -109t-25.5 -144.5q0 -41 7 -67
t16.5 -38t16.5 -12q8 0 43.5 40zM312 532l-11 -13l-5 -1q-75 66 -144 135l-1 5l10 10l5 1q77 -79 146 -137z" />
    <glyph glyph-name="aacute" unicode="&#xe1;" horiz-adv-x="422" 
d="M359 456l-46 -350l-9 -106l-25 -4l36 275h-4q-45 -85 -97 -156t-105 -119h-11q-27 20 -39.5 52t-12.5 89q0 85 26.5 156t78 115t122.5 49h4l65 -5l12 7zM149.5 64q35.5 40 82.5 110t91 159l4 29l7 70l-59 5q-63 -1 -110.5 -42.5t-73 -109t-25.5 -144.5q0 -41 7 -67
t16.5 -38t16.5 -12q8 0 43.5 40zM343 668l10 -10l-1 -5q-69 -69 -144 -135l-5 1l-11 13q69 58 146 137z" />
    <glyph glyph-name="acircumflex" unicode="&#xe2;" horiz-adv-x="422" 
d="M359 456l-46 -350l-9 -106l-25 -4l36 275h-4q-45 -85 -97 -156t-105 -119h-11q-27 20 -39.5 52t-12.5 89q0 85 26.5 156t78 115t122.5 49h4l65 -5l12 7zM149.5 64q35.5 40 82.5 110t91 159l4 29l7 70l-59 5q-63 -1 -110.5 -42.5t-73 -109t-25.5 -144.5q0 -41 7 -67
t16.5 -38t16.5 -12q8 0 43.5 40zM151 532q42 41 115 126h18q49 -78 87 -126l-11 -12h-5q-39 50 -81 117q-59 -68 -110 -117h-5z" />
    <glyph glyph-name="atilde" unicode="&#xe3;" horiz-adv-x="422" 
d="M359 456l-46 -350l-9 -106l-25 -4l36 275h-4q-45 -85 -97 -156t-105 -119h-11q-27 20 -39.5 52t-12.5 89q0 85 26.5 156t78 115t122.5 49h4l65 -5l12 7zM149.5 64q35.5 40 82.5 110t91 159l4 29l7 70l-59 5q-63 -1 -110.5 -42.5t-73 -109t-25.5 -144.5q0 -41 7 -67
t16.5 -38t16.5 -12q8 0 43.5 40zM409 620v-4l-52 -47l-6 -2q-20 2 -81 20q-6 2 -35 10t-40 8q-5 0 -13 -6t-17 -16l-21 -19h-4l-9 11v4l52 47l6 2q20 -2 81 -20q6 -2 35 -10t40 -8q5 0 13 6t17 16l21 19h4z" />
    <glyph glyph-name="adieresis" unicode="&#xe4;" horiz-adv-x="422" 
d="M359 456l-46 -350l-9 -106l-25 -4l36 275h-4q-45 -85 -97 -156t-105 -119h-11q-27 20 -39.5 52t-12.5 89q0 85 26.5 156t78 115t122.5 49h4l65 -5l12 7zM149.5 64q35.5 40 82.5 110t91 159l4 29l7 70l-59 5q-63 -1 -110.5 -42.5t-73 -109t-25.5 -144.5q0 -41 7 -67
t16.5 -38t16.5 -12q8 0 43.5 40zM209.5 610.5q5.5 -5.5 5.5 -14.5t-5.5 -14.5t-14.5 -5.5t-14.5 5.5t-5.5 14.5t5.5 14.5t14.5 5.5t14.5 -5.5zM359.5 610.5q5.5 -5.5 5.5 -14.5t-5.5 -14.5t-14.5 -5.5t-14.5 5.5t-5.5 14.5t5.5 14.5t14.5 5.5t14.5 -5.5z" />
    <glyph glyph-name="aring" unicode="&#xe5;" horiz-adv-x="422" 
d="M359 456l-46 -350l-9 -106l-25 -4l36 275h-4q-45 -85 -97 -156t-105 -119h-11q-27 20 -39.5 52t-12.5 89q0 85 26.5 156t78 115t122.5 49h4l65 -5l12 7zM149.5 64q35.5 40 82.5 110t91 159l4 29l7 70l-59 5q-63 -1 -110.5 -42.5t-73 -109t-25.5 -144.5q0 -41 7 -67
t16.5 -38t16.5 -12q8 0 43.5 40zM321 647q19 -21 19 -49q0 -31 -21.5 -50t-49.5 -19t-49 19.5t-21 50.5q0 30 19.5 49.5t50.5 19.5q33 0 52 -21zM232.5 634.5q-13.5 -13.5 -13.5 -35.5q0 -23 14.5 -36.5t35.5 -13.5t36 13t15 36q0 21 -13.5 35.5t-37.5 14.5
q-23 0 -36.5 -13.5z" />
    <glyph glyph-name="ae" unicode="&#xe6;" horiz-adv-x="570" 
d="M458 457h5q75 -6 75 -69q0 -57 -64 -111t-190 -101l-1 -28q0 -68 19.5 -100t59.5 -32q37 0 70.5 26.5t60.5 75.5h7l9 -13q-30 -50 -64.5 -77t-80.5 -33h-9q-49 6 -70.5 41.5t-21.5 106.5q0 50 7 89q-77 -150 -161 -236h-11q-27 20 -39.5 52t-12.5 89q0 85 26.5 156
t78 115t122.5 49h4l102 -26q37 24 79 26zM164.5 394.5q-47.5 -41.5 -73 -109t-25.5 -144.5q0 -41 7 -67t16.5 -38t16.5 -12q8 0 41 42t75.5 113t79.5 156q25 50 57 79l-84 23q-63 -1 -110.5 -42.5zM379.5 405.5q-37.5 -30.5 -62 -84.5t-31.5 -123q111 41 171 90t60 97
q0 23 -14.5 37t-42.5 14q-43 0 -80.5 -30.5z" />
    <glyph glyph-name="ccedilla" unicode="&#xe7;" horiz-adv-x="324" 
d="M319 437l5 -7l-6 -14l-5 -3q-37 23 -64 23q-85 -1 -133 -80t-48 -215q0 -66 18.5 -95.5t54.5 -29.5q32 0 64.5 23.5t60.5 78.5h6l9 -13q-31 -55 -64 -79.5t-75 -30.5h-8q-27 5 -45.5 17t-29.5 43t-11 87q0 141 54 227.5t161 86.5zM149 -55l31 -20q17 -11 25 -22.5
t8 -27.5q0 -24 -17.5 -38.5t-42.5 -14.5q-37 0 -59 33l6 18h4q10 -16 21 -23.5t28 -7.5q18 0 29 8.5t11 24.5q0 11 -5.5 17.5t-18.5 15.5l-43 28l24 75h20z" />
    <glyph glyph-name="egrave" unicode="&#xe8;" horiz-adv-x="354" 
d="M284 118l9 -13q-30 -50 -64.5 -77t-80.5 -33h-9q-49 6 -70.5 41.5t-21.5 106.5q0 88 25.5 159t70.5 112.5t99 42.5h5q75 -6 75 -69q0 -57 -64 -111t-190 -101q-1 -9 -1 -28q0 -68 19.5 -100t59.5 -32q37 0 70.5 26.5t60.5 75.5h7zM163.5 405.5q-37.5 -30.5 -62 -84.5
t-31.5 -123q111 41 171 90t60 97q0 23 -14.5 37t-42.5 14q-43 0 -80.5 -30.5zM293 532l-11 -13l-5 -1q-75 66 -144 135l-1 5l10 10l5 1q77 -79 146 -137z" />
    <glyph glyph-name="eacute" unicode="&#xe9;" horiz-adv-x="354" 
d="M284 118l9 -13q-30 -50 -64.5 -77t-80.5 -33h-9q-49 6 -70.5 41.5t-21.5 106.5q0 88 25.5 159t70.5 112.5t99 42.5h5q75 -6 75 -69q0 -57 -64 -111t-190 -101q-1 -9 -1 -28q0 -68 19.5 -100t59.5 -32q37 0 70.5 26.5t60.5 75.5h7zM163.5 405.5q-37.5 -30.5 -62 -84.5
t-31.5 -123q111 41 171 90t60 97q0 23 -14.5 37t-42.5 14q-43 0 -80.5 -30.5zM324 668l10 -10l-1 -5q-69 -69 -144 -135l-5 1l-11 13q69 58 146 137z" />
    <glyph glyph-name="ecircumflex" unicode="&#xea;" horiz-adv-x="354" 
d="M284 118l9 -13q-30 -50 -64.5 -77t-80.5 -33h-9q-49 6 -70.5 41.5t-21.5 106.5q0 88 25.5 159t70.5 112.5t99 42.5h5q75 -6 75 -69q0 -57 -64 -111t-190 -101q-1 -9 -1 -28q0 -68 19.5 -100t59.5 -32q37 0 70.5 26.5t60.5 75.5h7zM163.5 405.5q-37.5 -30.5 -62 -84.5
t-31.5 -123q111 41 171 90t60 97q0 23 -14.5 37t-42.5 14q-43 0 -80.5 -30.5zM132 532q42 41 115 126h18q49 -78 87 -126l-11 -12h-5q-39 50 -81 117q-59 -68 -110 -117h-5z" />
    <glyph glyph-name="edieresis" unicode="&#xeb;" horiz-adv-x="354" 
d="M284 118l9 -13q-30 -50 -64.5 -77t-80.5 -33h-9q-49 6 -70.5 41.5t-21.5 106.5q0 88 25.5 159t70.5 112.5t99 42.5h5q75 -6 75 -69q0 -57 -64 -111t-190 -101q-1 -9 -1 -28q0 -68 19.5 -100t59.5 -32q37 0 70.5 26.5t60.5 75.5h7zM163.5 405.5q-37.5 -30.5 -62 -84.5
t-31.5 -123q111 41 171 90t60 97q0 23 -14.5 37t-42.5 14q-43 0 -80.5 -30.5zM190.5 610.5q5.5 -5.5 5.5 -14.5t-5.5 -14.5t-14.5 -5.5t-14.5 5.5t-5.5 14.5t5.5 14.5t14.5 5.5t14.5 -5.5zM340.5 610.5q5.5 -5.5 5.5 -14.5t-5.5 -14.5t-14.5 -5.5t-14.5 5.5t-5.5 14.5
t5.5 14.5t14.5 5.5t14.5 -5.5z" />
    <glyph glyph-name="igrave" unicode="&#xec;" horiz-adv-x="203" 
d="M95 106l-7 -106l-27 -4l49 366l6 90l25 4zM189 532l-11 -13l-5 -1q-75 66 -144 135l-1 5l10 10l5 1q77 -79 146 -137z" />
    <glyph glyph-name="iacute" unicode="&#xed;" horiz-adv-x="203" 
d="M95 106l-7 -106l-27 -4l49 366l6 90l25 4zM220 668l10 -10l-1 -5q-69 -69 -144 -135l-5 1l-11 13q69 58 146 137z" />
    <glyph glyph-name="icircumflex" unicode="&#xee;" horiz-adv-x="203" 
d="M95 106l-7 -106l-27 -4l49 366l6 90l25 4zM28 532q42 41 115 126h18q49 -78 87 -126l-11 -12h-5q-39 50 -81 117q-59 -68 -110 -117h-5z" />
    <glyph glyph-name="eth" unicode="&#xf0;" horiz-adv-x="422" 
d="M270 590q44 -54 67.5 -123t23.5 -147q0 -91 -24 -163.5t-69.5 -115.5t-106.5 -47h-5q-50 3 -73.5 36.5t-23.5 103.5q0 91 24.5 164.5t70 116t106.5 43.5h5q39 -3 59 -22q-23 83 -76 145l-139 -58l-3 3l-3 16l131 55q-57 57 -131 90v5l10 10h4q82 -34 139 -96l117 49l4 -3
l3 -16zM253.5 54.5q40.5 39.5 63.5 108.5t23 154q0 29 -3 57q-15 63 -77 63q-53 0 -94 -39t-64 -107.5t-23 -153.5q0 -63 19.5 -92.5t61.5 -29.5q53 0 93.5 39.5z" />
    <glyph glyph-name="ntilde" unicode="&#xf1;" horiz-adv-x="445" 
d="M372 431.5q14 -23.5 13 -54.5l-1 -13l-43 -263l-12 -101l-25 -4l59 365l1 15q1 25 -10 42.5t-24 17.5q-26 0 -90 -85t-143 -231l-2 -14l-9 -106l-25 -4l48 366l7 90l25 4l-36 -272h5q65 112 114.5 179t98.5 99h11q24 -7 38 -30.5zM412 620v-4l-52 -47l-6 -2q-20 2 -81 20
q-6 2 -35 10t-40 8q-5 0 -13 -6t-17 -16l-21 -19h-4l-9 11v4l52 47l6 2q20 -2 81 -20q6 -2 35 -10t40 -8q5 0 13 6t17 16l21 19h4z" />
    <glyph glyph-name="ograve" unicode="&#xf2;" horiz-adv-x="396" 
d="M253 458q50 -4 72.5 -37t22.5 -101q0 -91 -24 -163.5t-69 -115.5t-106 -47h-5q-50 3 -73 36.5t-23 103.5q0 91 24.5 164.5t69.5 116t106 43.5h5zM154.5 398q-40.5 -39 -63.5 -107.5t-23 -153.5q0 -62 19.5 -92t60.5 -30q52 0 93 39.5t63.5 108.5t22.5 154q0 62 -19 91
t-60 29q-53 0 -93.5 -39zM291 532l-11 -13l-5 -1q-75 66 -144 135l-1 5l10 10l5 1q77 -79 146 -137z" />
    <glyph glyph-name="oacute" unicode="&#xf3;" horiz-adv-x="396" 
d="M253 458q50 -4 72.5 -37t22.5 -101q0 -91 -24 -163.5t-69 -115.5t-106 -47h-5q-50 3 -73 36.5t-23 103.5q0 91 24.5 164.5t69.5 116t106 43.5h5zM154.5 398q-40.5 -39 -63.5 -107.5t-23 -153.5q0 -62 19.5 -92t60.5 -30q52 0 93 39.5t63.5 108.5t22.5 154q0 62 -19 91
t-60 29q-53 0 -93.5 -39zM322 668l10 -10l-1 -5q-69 -69 -144 -135l-5 1l-11 13q69 58 146 137z" />
    <glyph glyph-name="ocircumflex" unicode="&#xf4;" horiz-adv-x="396" 
d="M253 458q50 -4 72.5 -37t22.5 -101q0 -91 -24 -163.5t-69 -115.5t-106 -47h-5q-50 3 -73 36.5t-23 103.5q0 91 24.5 164.5t69.5 116t106 43.5h5zM154.5 398q-40.5 -39 -63.5 -107.5t-23 -153.5q0 -62 19.5 -92t60.5 -30q52 0 93 39.5t63.5 108.5t22.5 154q0 62 -19 91
t-60 29q-53 0 -93.5 -39zM130 532q42 41 115 126h18q49 -78 87 -126l-11 -12h-5q-39 50 -81 117q-59 -68 -110 -117h-5z" />
    <glyph glyph-name="otilde" unicode="&#xf5;" horiz-adv-x="396" 
d="M253 458q50 -4 72.5 -37t22.5 -101q0 -91 -24 -163.5t-69 -115.5t-106 -47h-5q-50 3 -73 36.5t-23 103.5q0 91 24.5 164.5t69.5 116t106 43.5h5zM154.5 398q-40.5 -39 -63.5 -107.5t-23 -153.5q0 -62 19.5 -92t60.5 -30q52 0 93 39.5t63.5 108.5t22.5 154q0 62 -19 91
t-60 29q-53 0 -93.5 -39zM388 620v-4l-52 -47l-6 -2q-20 2 -81 20q-6 2 -35 10t-40 8q-5 0 -13 -6t-17 -16l-21 -19h-4l-9 11v4l52 47l6 2q20 -2 81 -20q6 -2 35 -10t40 -8q5 0 13 6t17 16l21 19h4z" />
    <glyph glyph-name="divide" unicode="&#xf7;" horiz-adv-x="479" 
d="M445 277l-2 -17h-397l-3 3l2 17h397zM237.5 102.5q5.5 -5.5 5.5 -14.5t-5.5 -14.5t-14.5 -5.5t-14.5 5.5t-5.5 14.5t5.5 14.5t14.5 5.5t14.5 -5.5zM281.5 465.5q5.5 -5.5 5.5 -14.5t-5.5 -14.5t-14.5 -5.5t-14.5 5.5t-5.5 14.5t5.5 14.5t14.5 5.5t14.5 -5.5z" />
    <glyph glyph-name="oslash" unicode="&#xf8;" horiz-adv-x="396" 
d="M348 320q0 -91 -24 -163.5t-69 -115.5t-106 -47h-5q-17 1 -32 6l-46 -107l-15 3l-2 4l47 107q-25 15 -36.5 46t-11.5 81q0 91 24.5 164.5t69.5 116t106 43.5h5q22 -2 35 -8l35 80l15 -2l2 -5l-35 -81q43 -29 43 -122zM104 27l176 404q-13 6 -32 6q-53 0 -93.5 -39
t-63.5 -107.5t-23 -153.5q0 -84 36 -110zM241 54.5q41 39.5 63.5 108.5t22.5 154q0 78 -31 105l-175 -403q11 -4 27 -4q52 0 93 39.5z" />
    <glyph glyph-name="ugrave" unicode="&#xf9;" horiz-adv-x="454" 
d="M392 456l-46 -350l-9 -106l-25 -4l36 271h-5q-65 -112 -114.5 -179t-98.5 -99h-11q-24 7 -38 30.5t-13 54.5l1 13l43 263l12 101l25 4l-59 -365l-1 -15q-1 -25 10 -42.5t24 -17.5q26 0 90.5 85t142.5 230l4 32l7 90zM315 532l-11 -13l-5 -1q-75 66 -144 135l-1 5l10 10
l5 1q77 -79 146 -137z" />
    <glyph glyph-name="uacute" unicode="&#xfa;" horiz-adv-x="454" 
d="M392 456l-46 -350l-9 -106l-25 -4l36 271h-5q-65 -112 -114.5 -179t-98.5 -99h-11q-24 7 -38 30.5t-13 54.5l1 13l43 263l12 101l25 4l-59 -365l-1 -15q-1 -25 10 -42.5t24 -17.5q26 0 90.5 85t142.5 230l4 32l7 90zM346 668l10 -10l-1 -5q-69 -69 -144 -135l-5 1l-11 13
q69 58 146 137z" />
    <glyph glyph-name="ucircumflex" unicode="&#xfb;" horiz-adv-x="454" 
d="M392 456l-46 -350l-9 -106l-25 -4l36 271h-5q-65 -112 -114.5 -179t-98.5 -99h-11q-24 7 -38 30.5t-13 54.5l1 13l43 263l12 101l25 4l-59 -365l-1 -15q-1 -25 10 -42.5t24 -17.5q26 0 90.5 85t142.5 230l4 32l7 90zM154 532q42 41 115 126h18q49 -78 87 -126l-11 -12h-5
q-39 50 -81 117q-59 -68 -110 -117h-5z" />
    <glyph glyph-name="udieresis" unicode="&#xfc;" horiz-adv-x="454" 
d="M392 456l-46 -350l-9 -106l-25 -4l36 271h-5q-65 -112 -114.5 -179t-98.5 -99h-11q-24 7 -38 30.5t-13 54.5l1 13l43 263l12 101l25 4l-59 -365l-1 -15q-1 -25 10 -42.5t24 -17.5q26 0 90.5 85t142.5 230l4 32l7 90zM212.5 610.5q5.5 -5.5 5.5 -14.5t-5.5 -14.5
t-14.5 -5.5t-14.5 5.5t-5.5 14.5t5.5 14.5t14.5 5.5t14.5 -5.5zM362.5 610.5q5.5 -5.5 5.5 -14.5t-5.5 -14.5t-14.5 -5.5t-14.5 5.5t-5.5 14.5t5.5 14.5t14.5 5.5t14.5 -5.5z" />
    <glyph glyph-name="thorn" unicode="&#xfe;" horiz-adv-x="422" 
d="M365 402q12 -30 12 -85q0 -86 -27 -157.5t-79.5 -115.5t-124.5 -48h-4l-58 14l-12 -91l-9 -106l-25 -4l105 799l6 90l25 4l-68 -523h4q45 84 98 155.5t106 119.5h11q28 -22 40 -52zM257 57q48 41 74 109t26 146q0 40 -6.5 65.5t-16 37t-16.5 11.5q-8 0 -44 -39.5
t-83.5 -109.5t-92.5 -158l-11 -88l58 -15q64 0 112 41z" />
    <glyph glyph-name="ydieresis" unicode="&#xff;" horiz-adv-x="379" 
d="M362 373q0 -49 -39 -115l-164 -277q-56 -95 -99 -135.5t-91 -40.5q-27 0 -60 12l2 19l5 2q30 -12 55 -12q41 0 79 37.5t91 126.5l13 22l-80 438l23 6l12 -74l59 -340h4l134 226q36 60 36 106q0 32 -28 70l1 5l18 6q29 -41 29 -82zM174.5 610.5q5.5 -5.5 5.5 -14.5
t-5.5 -14.5t-14.5 -5.5t-14.5 5.5t-5.5 14.5t5.5 14.5t14.5 5.5t14.5 -5.5zM324.5 610.5q5.5 -5.5 5.5 -14.5t-5.5 -14.5t-14.5 -5.5t-14.5 5.5t-5.5 14.5t5.5 14.5t14.5 5.5t14.5 -5.5z" />
    <glyph glyph-name="Amacron" unicode="&#x100;" horiz-adv-x="524" 
d="M470 0h-23l-6 43l-37 170h-283l-85 -170l-20 -43h-24l319 637h21zM318 603h-3l-184 -370h268zM483 789l-2 -17h-287l-3 3l2 17h287z" />
    <glyph glyph-name="amacron" unicode="&#x101;" horiz-adv-x="422" 
d="M359 456l-46 -350l-9 -106l-25 -4l36 275h-4q-45 -85 -97 -156t-105 -119h-11q-27 20 -39.5 52t-12.5 89q0 85 26.5 156t78 115t122.5 49h4l65 -5l12 7zM149.5 64q35.5 40 82.5 110t91 159l4 29l7 70l-59 5q-63 -1 -110.5 -42.5t-73 -109t-25.5 -144.5q0 -41 7 -67
t16.5 -38t16.5 -12q8 0 43.5 40zM417 604l-2 -17h-287l-3 3l2 17h287z" />
    <glyph glyph-name="Abreve" unicode="&#x102;" horiz-adv-x="524" 
d="M470 0h-23l-6 43l-37 170h-283l-85 -170l-20 -43h-24l319 637h21zM318 603h-3l-184 -370h268zM434 802q-16 -36 -44 -55t-65 -19t-61.5 19t-30.5 55l14 11h5q4 -32 22.5 -48.5t51.5 -16.5q66 0 91 65h5z" />
    <glyph glyph-name="abreve" unicode="&#x103;" horiz-adv-x="422" 
d="M359 456l-46 -350l-9 -106l-25 -4l36 275h-4q-45 -85 -97 -156t-105 -119h-11q-27 20 -39.5 52t-12.5 89q0 85 26.5 156t78 115t122.5 49h4l65 -5l12 7zM149.5 64q35.5 40 82.5 110t91 159l4 29l7 70l-59 5q-63 -1 -110.5 -42.5t-73 -109t-25.5 -144.5q0 -41 7 -67
t16.5 -38t16.5 -12q8 0 43.5 40zM370 627q-16 -54 -44 -79.5t-70 -25.5t-63 25.5t-25 79.5l15 13h5q1 -50 18 -74t53 -24q35 0 58 24t36 74h5z" />
    <glyph glyph-name="Aogonek" unicode="&#x104;" horiz-adv-x="524" 
d="M470 0h-23l-6 43l-37 170h-283l-85 -170l-20 -43h-24l319 637h21zM318 603h-3l-184 -370h268zM407.5 -85.5q-23.5 -33.5 -29 -45.5t-5.5 -23t6.5 -17t17.5 -6q14 0 25 9.5t24 31.5h2l13 -13q-17 -26 -31.5 -37t-33.5 -11q-20 0 -32 10.5t-12 29.5q0 14 7 29t26.5 43
t64.5 85h20q-39 -52 -62.5 -85.5z" />
    <glyph glyph-name="aogonek" unicode="&#x105;" horiz-adv-x="422" 
d="M359 456l-46 -350l-9 -106l-25 -4l36 275h-4q-45 -85 -97 -156t-105 -119h-11q-27 20 -39.5 52t-12.5 89q0 85 26.5 156t78 115t122.5 49h4l65 -5l12 7zM149.5 64q35.5 40 82.5 110t91 159l4 29l7 70l-59 5q-63 -1 -110.5 -42.5t-73 -109t-25.5 -144.5q0 -41 7 -67
t16.5 -38t16.5 -12q8 0 43.5 40zM241.5 -85.5q-23.5 -33.5 -29 -45.5t-5.5 -23t6.5 -17t17.5 -6q14 0 25 9.5t24 31.5h2l13 -13q-17 -26 -31.5 -37t-33.5 -11q-20 0 -32 10.5t-12 29.5q0 14 7 29t26.5 43t64.5 85h20q-39 -52 -62.5 -85.5z" />
    <glyph glyph-name="Cacute" unicode="&#x106;" horiz-adv-x="497" 
d="M437 625.5q42 -15.5 73 -43.5l-9 -17h-7q-59 56 -146 56q-86 0 -147.5 -44.5t-93.5 -127t-32 -196.5q0 -115 47.5 -176.5t138.5 -61.5q45 0 92 17.5t88 49.5l7 -2l-4 -18q-44 -32 -92 -49.5t-92 -17.5q-100 0 -152.5 66.5t-52.5 189.5q0 121 35 208.5t101 134.5t159 47
q45 0 87 -15.5zM442 834l7 -12l-2 -5q-67 -38 -174 -93l-5 3l-7 15q91 44 176 94z" />
    <glyph glyph-name="cacute" unicode="&#x107;" horiz-adv-x="324" 
d="M319 437l5 -7l-6 -14l-5 -3q-37 23 -64 23q-85 -1 -133 -80t-48 -215q0 -66 18.5 -95.5t54.5 -29.5q32 0 64.5 23.5t60.5 78.5h6l9 -13q-31 -55 -64 -79.5t-75 -30.5h-8q-27 5 -45.5 17t-29.5 43t-11 87q0 141 54 227.5t161 86.5zM313 668l10 -10l-1 -5
q-69 -69 -144 -135l-5 1l-11 13q69 58 146 137z" />
    <glyph glyph-name="Ccircumflex" unicode="&#x108;" horiz-adv-x="497" 
d="M437 625.5q42 -15.5 73 -43.5l-9 -17h-7q-59 56 -146 56q-86 0 -147.5 -44.5t-93.5 -127t-32 -196.5q0 -115 47.5 -176.5t138.5 -61.5q45 0 92 17.5t88 49.5l7 -2l-4 -18q-44 -32 -92 -49.5t-92 -17.5q-100 0 -152.5 66.5t-52.5 189.5q0 121 35 208.5t101 134.5t159 47
q45 0 87 -15.5zM241 743q37 24 105 76h16q52 -45 92 -76l-8 -14h-5q-40 29 -87 70q-47 -35 -103 -70h-5z" />
    <glyph glyph-name="ccircumflex" unicode="&#x109;" horiz-adv-x="324" 
d="M319 437l5 -7l-6 -14l-5 -3q-37 23 -64 23q-85 -1 -133 -80t-48 -215q0 -66 18.5 -95.5t54.5 -29.5q32 0 64.5 23.5t60.5 78.5h6l9 -13q-31 -55 -64 -79.5t-75 -30.5h-8q-27 5 -45.5 17t-29.5 43t-11 87q0 141 54 227.5t161 86.5zM121 532q42 41 115 126h18
q49 -78 87 -126l-11 -12h-5q-39 50 -81 117q-59 -68 -110 -117h-5z" />
    <glyph glyph-name="Cdotaccent" unicode="&#x10a;" horiz-adv-x="497" 
d="M437 625.5q42 -15.5 73 -43.5l-9 -17h-7q-59 56 -146 56q-86 0 -147.5 -44.5t-93.5 -127t-32 -196.5q0 -115 47.5 -176.5t138.5 -61.5q45 0 92 17.5t88 49.5l7 -2l-4 -18q-44 -32 -92 -49.5t-92 -17.5q-100 0 -152.5 66.5t-52.5 189.5q0 121 35 208.5t101 134.5t159 47
q45 0 87 -15.5zM369.5 810.5q5.5 -5.5 5.5 -14.5t-5.5 -14.5t-14.5 -5.5t-14.5 5.5t-5.5 14.5t5.5 14.5t14.5 5.5t14.5 -5.5z" />
    <glyph glyph-name="cdotaccent" unicode="&#x10b;" horiz-adv-x="324" 
d="M319 437l5 -7l-6 -14l-5 -3q-37 23 -64 23q-85 -1 -133 -80t-48 -215q0 -66 18.5 -95.5t54.5 -29.5q32 0 64.5 23.5t60.5 78.5h6l9 -13q-31 -55 -64 -79.5t-75 -30.5h-8q-27 5 -45.5 17t-29.5 43t-11 87q0 141 54 227.5t161 86.5zM256.5 625.5q5.5 -5.5 5.5 -14.5
t-5.5 -14.5t-14.5 -5.5t-14.5 5.5t-5.5 14.5t5.5 14.5t14.5 5.5t14.5 -5.5z" />
    <glyph glyph-name="Ccaron" unicode="&#x10c;" horiz-adv-x="497" 
d="M437 625.5q42 -15.5 73 -43.5l-9 -17h-7q-59 56 -146 56q-86 0 -147.5 -44.5t-93.5 -127t-32 -196.5q0 -115 47.5 -176.5t138.5 -61.5q45 0 92 17.5t88 49.5l7 -2l-4 -18q-44 -32 -92 -49.5t-92 -17.5q-100 0 -152.5 66.5t-52.5 189.5q0 121 35 208.5t101 134.5t159 47
q45 0 87 -15.5zM461 805q-37 -24 -105 -76h-16q-52 45 -92 76l8 14h5q40 -29 87 -70q47 35 103 70h5z" />
    <glyph glyph-name="ccaron" unicode="&#x10d;" horiz-adv-x="324" 
d="M319 437l5 -7l-6 -14l-5 -3q-37 23 -64 23q-85 -1 -133 -80t-48 -215q0 -66 18.5 -95.5t54.5 -29.5q32 0 64.5 23.5t60.5 78.5h6l9 -13q-31 -55 -64 -79.5t-75 -30.5h-8q-27 5 -45.5 17t-29.5 43t-11 87q0 141 54 227.5t161 86.5zM349 646q-42 -41 -115 -126h-18
q-49 78 -87 126l11 12h5q39 -50 81 -117q59 68 110 117h5z" />
    <glyph glyph-name="Dcaron" unicode="&#x10e;" horiz-adv-x="609" 
d="M520 577.5q59 -64.5 59 -184.5q0 -121 -37.5 -210.5t-109.5 -138.5t-172 -49q-32 0 -85 1.5t-95 3.5l25 195l55 442l190 5q111 0 170 -64.5zM421.5 61q66.5 46 101.5 130.5t35 198.5q0 112 -54 172t-156 60q-30 0 -80.5 -1.5t-89.5 -3.5l-53 -422l-23 -176l56 -2l105 -2
q92 0 158.5 46zM460 805q-37 -24 -105 -76h-16q-52 45 -92 76l8 14h5q40 -29 87 -70q47 35 103 70h5z" />
    <glyph glyph-name="dcaron" unicode="&#x10f;" horiz-adv-x="437" 
d="M394 702l-79 -596l-9 -106l-25 -4l37 275h-5q-46 -85 -99 -156.5t-107 -118.5h-11q-27 19 -39 50.5t-12 86.5q0 86 27.5 157.5t79.5 115.5t124 48h4l62 -3l21 157l6 90zM148.5 64q36.5 40 84.5 111t94 161l12 95l-61 3q-64 0 -112.5 -41t-74.5 -109t-26 -146
q0 -40 7 -65.5t16 -37t16 -11.5q8 0 44.5 40zM501 651l-29 -144l-18 -2l-2 4l29 144l18 2z" />
    <glyph glyph-name="Dcroat" unicode="&#x110;" horiz-adv-x="630" 
d="M540 577.5q59 -64.5 59 -184.5q0 -121 -37.5 -210.5t-109.5 -138.5t-172 -49q-32 0 -85 1.5t-95 3.5l25 195l55 442l190 5q111 0 170 -64.5zM441.5 61q66.5 46 101.5 130.5t35 198.5q0 112 -54 172t-156 60q-30 0 -80.5 -1.5t-89.5 -3.5l-53 -422l-23 -176l56 -2l105 -2
q92 0 158.5 46zM344.588 336l-2.40039 -17h-310.188l-1.19922 3l2.39941 17h310.188z" />
    <glyph glyph-name="dcroat" unicode="&#x111;" horiz-adv-x="447" 
d="M467 561h-92l-60 -455l-9 -106l-25 -4l37 275h-5q-46 -85 -99 -156.5t-107 -118.5h-11q-27 19 -39 50.5t-12 86.5q0 86 27.5 157.5t79.5 115.5t124 48h4l62 -3l15 110h-120l-3 3l2 17h123l4 27l6 90l25 4l-16 -121h88l3 -3zM148.5 64q36.5 40 84.5 111t94 161l12 95
l-61 3q-64 0 -112.5 -41t-74.5 -109t-26 -146q0 -40 7 -65.5t16 -37t16 -11.5q8 0 44.5 40z" />
    <glyph glyph-name="Emacron" unicode="&#x112;" horiz-adv-x="432" 
d="M143 340h223l3 -4l-6 -16h-222l-16 -125l-22 -175h273l3 -4l-6 -16h-293l25 195l55 442h291l2 -4l-6 -16h-269zM475 789l-2 -17h-287l-3 3l2 17h287z" />
    <glyph glyph-name="emacron" unicode="&#x113;" horiz-adv-x="354" 
d="M284 118l9 -13q-30 -50 -64.5 -77t-80.5 -33h-9q-49 6 -70.5 41.5t-21.5 106.5q0 88 25.5 159t70.5 112.5t99 42.5h5q75 -6 75 -69q0 -57 -64 -111t-190 -101q-1 -9 -1 -28q0 -68 19.5 -100t59.5 -32q37 0 70.5 26.5t60.5 75.5h7zM163.5 405.5q-37.5 -30.5 -62 -84.5
t-31.5 -123q111 41 171 90t60 97q0 23 -14.5 37t-42.5 14q-43 0 -80.5 -30.5zM398 604l-2 -17h-287l-3 3l2 17h287z" />
    <glyph glyph-name="Ebreve" unicode="&#x114;" horiz-adv-x="432" 
d="M143 340h223l3 -4l-6 -16h-222l-16 -125l-22 -175h273l3 -4l-6 -16h-293l25 195l55 442h291l2 -4l-6 -16h-269zM426 802q-16 -36 -44 -55t-65 -19t-61.5 19t-30.5 55l14 11h5q4 -32 22.5 -48.5t51.5 -16.5q66 0 91 65h5z" />
    <glyph glyph-name="ebreve" unicode="&#x115;" horiz-adv-x="354" 
d="M284 118l9 -13q-30 -50 -64.5 -77t-80.5 -33h-9q-49 6 -70.5 41.5t-21.5 106.5q0 88 25.5 159t70.5 112.5t99 42.5h5q75 -6 75 -69q0 -57 -64 -111t-190 -101q-1 -9 -1 -28q0 -68 19.5 -100t59.5 -32q37 0 70.5 26.5t60.5 75.5h7zM163.5 405.5q-37.5 -30.5 -62 -84.5
t-31.5 -123q111 41 171 90t60 97q0 23 -14.5 37t-42.5 14q-43 0 -80.5 -30.5zM351 627q-16 -54 -44 -79.5t-70 -25.5t-63 25.5t-25 79.5l15 13h5q1 -50 18 -74t53 -24q35 0 58 24t36 74h5z" />
    <glyph glyph-name="Edotaccent" unicode="&#x116;" horiz-adv-x="432" 
d="M143 340h223l3 -4l-6 -16h-222l-16 -125l-22 -175h273l3 -4l-6 -16h-293l25 195l55 442h291l2 -4l-6 -16h-269zM345.5 810.5q5.5 -5.5 5.5 -14.5t-5.5 -14.5t-14.5 -5.5t-14.5 5.5t-5.5 14.5t5.5 14.5t14.5 5.5t14.5 -5.5z" />
    <glyph glyph-name="edotaccent" unicode="&#x117;" horiz-adv-x="354" 
d="M284 118l9 -13q-30 -50 -64.5 -77t-80.5 -33h-9q-49 6 -70.5 41.5t-21.5 106.5q0 88 25.5 159t70.5 112.5t99 42.5h5q75 -6 75 -69q0 -57 -64 -111t-190 -101q-1 -9 -1 -28q0 -68 19.5 -100t59.5 -32q37 0 70.5 26.5t60.5 75.5h7zM163.5 405.5q-37.5 -30.5 -62 -84.5
t-31.5 -123q111 41 171 90t60 97q0 23 -14.5 37t-42.5 14q-43 0 -80.5 -30.5zM267.5 625.5q5.5 -5.5 5.5 -14.5t-5.5 -14.5t-14.5 -5.5t-14.5 5.5t-5.5 14.5t5.5 14.5t14.5 5.5t14.5 -5.5z" />
    <glyph glyph-name="Eogonek" unicode="&#x118;" horiz-adv-x="432" 
d="M143 340h223l3 -4l-6 -16h-222l-16 -125l-22 -175h273l3 -4l-6 -16h-293l25 195l55 442h291l2 -4l-6 -16h-269zM262.5 -190.5q-17.5 17.5 -17.5 47.5q0 20 10.5 38.5t50.5 72.5l31 42h24q-18 -22 -28 -38q-44 -58 -55.5 -76.5t-11.5 -36.5q0 -21 11.5 -33.5t32.5 -12.5
t42 13.5t39 38.5h2l11 -16q-44 -57 -95 -57q-29 0 -46.5 17.5z" />
    <glyph glyph-name="eogonek" unicode="&#x119;" horiz-adv-x="354" 
d="M284 118l9 -13q-30 -50 -64.5 -77t-80.5 -33h-9q-49 6 -70.5 41.5t-21.5 106.5q0 88 25.5 159t70.5 112.5t99 42.5h5q75 -6 75 -69q0 -57 -64 -111t-190 -101q-1 -9 -1 -28q0 -68 19.5 -100t59.5 -32q37 0 70.5 26.5t60.5 75.5h7zM163.5 405.5q-37.5 -30.5 -62 -84.5
t-31.5 -123q111 41 171 90t60 97q0 23 -14.5 37t-42.5 14q-43 0 -80.5 -30.5zM111.5 -180.5q-17.5 17.5 -17.5 47.5q0 20 10.5 38.5t50.5 72.5l31 42h24q-18 -22 -28 -38q-44 -58 -55.5 -76.5t-11.5 -36.5q0 -21 11.5 -33.5t32.5 -12.5t42 13.5t39 38.5h2l11 -16
q-44 -57 -95 -57q-29 0 -46.5 17.5z" />
    <glyph glyph-name="Ecaron" unicode="&#x11a;" horiz-adv-x="432" 
d="M143 340h223l3 -4l-6 -16h-222l-16 -125l-22 -175h273l3 -4l-6 -16h-293l25 195l55 442h291l2 -4l-6 -16h-269zM437 805q-37 -24 -105 -76h-16q-52 45 -92 76l8 14h5q40 -29 87 -70q47 35 103 70h5z" />
    <glyph glyph-name="ecaron" unicode="&#x11b;" horiz-adv-x="354" 
d="M284 118l9 -13q-30 -50 -64.5 -77t-80.5 -33h-9q-49 6 -70.5 41.5t-21.5 106.5q0 88 25.5 159t70.5 112.5t99 42.5h5q75 -6 75 -69q0 -57 -64 -111t-190 -101q-1 -9 -1 -28q0 -68 19.5 -100t59.5 -32q37 0 70.5 26.5t60.5 75.5h7zM163.5 405.5q-37.5 -30.5 -62 -84.5
t-31.5 -123q111 41 171 90t60 97q0 23 -14.5 37t-42.5 14q-43 0 -80.5 -30.5zM360 646q-42 -41 -115 -126h-18q-49 78 -87 126l11 12h5q39 -50 81 -117q59 68 110 117h5z" />
    <glyph glyph-name="Gcircumflex" unicode="&#x11c;" horiz-adv-x="575" 
d="M461.5 627q42.5 -14 80.5 -40l-8 -18h-7q-76 52 -152 52q-94 0 -161.5 -44t-103 -127t-35.5 -198q0 -114 49 -175.5t142 -61.5q44 0 82.5 6.5t98.5 23.5l15 113l10 89l20 2l-10 -91l-17 -128q-67 -20 -108 -27t-91 -7q-103 0 -157 66t-54 188t38.5 210t111 134.5
t173.5 46.5q41 0 83.5 -14zM250 743q37 24 105 76h16q52 -45 92 -76l-8 -14h-5q-40 29 -87 70q-47 -35 -103 -70h-5z" />
    <glyph glyph-name="gcircumflex" unicode="&#x11d;" horiz-adv-x="414" 
d="M352 456l-41 -323l-12 -98q-15 -116 -72 -174t-145 -58q-55 0 -90.5 27.5t-49.5 77.5l2 7l150 122v5q-18 18 -26.5 45t-8.5 71q0 80 25.5 146t74 106.5t114.5 44.5h4l59 -3l11 7zM170.5 398q-44.5 -38 -68.5 -101t-24 -135q0 -37 6.5 -60.5t15 -34t14.5 -10.5
q7 0 38 36.5t75.5 102t91.5 148.5l3 26l5 64l-53 2q-59 0 -103.5 -38zM311 286h-4q-63 -100 -104.5 -157.5t-85.5 -97.5l-144 -117q-3 -2 -4.5 -4.5t-1.5 -5.5q2 -15 15 -34t38.5 -33t61.5 -14q78 0 130 53t66 155zM136 532q42 41 115 126h18q49 -78 87 -126l-11 -12h-5
q-39 50 -81 117q-59 -68 -110 -117h-5z" />
    <glyph glyph-name="Gbreve" unicode="&#x11e;" horiz-adv-x="575" 
d="M461.5 627q42.5 -14 80.5 -40l-8 -18h-7q-76 52 -152 52q-94 0 -161.5 -44t-103 -127t-35.5 -198q0 -114 49 -175.5t142 -61.5q44 0 82.5 6.5t98.5 23.5l15 113l10 89l20 2l-10 -91l-17 -128q-67 -20 -108 -27t-91 -7q-103 0 -157 66t-54 188t38.5 210t111 134.5
t173.5 46.5q41 0 83.5 -14zM459 802q-16 -36 -44 -55t-65 -19t-61.5 19t-30.5 55l14 11h5q4 -32 22.5 -48.5t51.5 -16.5q66 0 91 65h5z" />
    <glyph glyph-name="gbreve" unicode="&#x11f;" horiz-adv-x="414" 
d="M352 456l-41 -323l-12 -98q-15 -116 -72 -174t-145 -58q-55 0 -90.5 27.5t-49.5 77.5l2 7l150 122v5q-18 18 -26.5 45t-8.5 71q0 80 25.5 146t74 106.5t114.5 44.5h4l59 -3l11 7zM170.5 398q-44.5 -38 -68.5 -101t-24 -135q0 -37 6.5 -60.5t15 -34t14.5 -10.5
q7 0 38 36.5t75.5 102t91.5 148.5l3 26l5 64l-53 2q-59 0 -103.5 -38zM311 286h-4q-63 -100 -104.5 -157.5t-85.5 -97.5l-144 -117q-3 -2 -4.5 -4.5t-1.5 -5.5q2 -15 15 -34t38.5 -33t61.5 -14q78 0 130 53t66 155zM355 627q-16 -54 -44 -79.5t-70 -25.5t-63 25.5t-25 79.5
l15 13h5q1 -50 18 -74t53 -24q35 0 58 24t36 74h5z" />
    <glyph glyph-name="Gdotaccent" unicode="&#x120;" horiz-adv-x="575" 
d="M461.5 627q42.5 -14 80.5 -40l-8 -18h-7q-76 52 -152 52q-94 0 -161.5 -44t-103 -127t-35.5 -198q0 -114 49 -175.5t142 -61.5q44 0 82.5 6.5t98.5 23.5l15 113l10 89l20 2l-10 -91l-17 -128q-67 -20 -108 -27t-91 -7q-103 0 -157 66t-54 188t38.5 210t111 134.5
t173.5 46.5q41 0 83.5 -14zM378.5 810.5q5.5 -5.5 5.5 -14.5t-5.5 -14.5t-14.5 -5.5t-14.5 5.5t-5.5 14.5t5.5 14.5t14.5 5.5t14.5 -5.5z" />
    <glyph glyph-name="gdotaccent" unicode="&#x121;" horiz-adv-x="414" 
d="M352 456l-41 -323l-12 -98q-15 -116 -72 -174t-145 -58q-55 0 -90.5 27.5t-49.5 77.5l2 7l150 122v5q-18 18 -26.5 45t-8.5 71q0 80 25.5 146t74 106.5t114.5 44.5h4l59 -3l11 7zM170.5 398q-44.5 -38 -68.5 -101t-24 -135q0 -37 6.5 -60.5t15 -34t14.5 -10.5
q7 0 38 36.5t75.5 102t91.5 148.5l3 26l5 64l-53 2q-59 0 -103.5 -38zM311 286h-4q-63 -100 -104.5 -157.5t-85.5 -97.5l-144 -117q-3 -2 -4.5 -4.5t-1.5 -5.5q2 -15 15 -34t38.5 -33t61.5 -14q78 0 130 53t66 155zM271.5 625.5q5.5 -5.5 5.5 -14.5t-5.5 -14.5t-14.5 -5.5
t-14.5 5.5t-5.5 14.5t5.5 14.5t14.5 5.5t14.5 -5.5z" />
    <glyph glyph-name="Gcommaaccent" unicode="&#x122;" horiz-adv-x="575" 
d="M461.5 627q42.5 -14 80.5 -40l-8 -18h-7q-76 52 -152 52q-94 0 -161.5 -44t-103 -127t-35.5 -198q0 -114 49 -175.5t142 -61.5q44 0 82.5 6.5t98.5 23.5l15 113l10 89l20 2l-10 -91l-17 -128q-67 -20 -108 -27t-91 -7q-103 0 -157 66t-54 188t38.5 210t111 134.5
t173.5 46.5q41 0 83.5 -14zM354 -117q0 -20 -17 -44t-49 -49l-10 11l1 3q26 19 40 39.5t14 38.5q0 20 -30 34v4q5 7 13 11q38 -17 38 -48z" />
    <glyph glyph-name="gcommaaccent" unicode="&#x123;" horiz-adv-x="415" 
d="M352 456l-41 -323l-12 -98q-15 -116 -72 -174t-145 -58q-55 0 -90.5 27.5t-49.5 77.5l2 7l150 122v5q-18 18 -26.5 45t-8.5 71q0 80 25.5 146t74 106.5t114.5 44.5h4l59 -3l11 7zM170.5 398q-44.5 -38 -68.5 -101t-24 -135q0 -37 6.5 -60.5t15 -34t14.5 -10.5
q7 0 38 36.5t75.5 102t91.5 148.5l3 26l5 64l-53 2q-59 0 -103.5 -38zM311 286h-4q-63 -100 -104.5 -157.5t-85.5 -97.5l-144 -117q-3 -2 -4.5 -4.5t-1.5 -5.5q2 -15 15 -34t38.5 -33t61.5 -14q78 0 130 53t66 155zM266 575q0 46 53 102l13 -11v-4q-44 -47 -44 -83
q0 -30 38 -39v-4q-1 -3 -10 -16q-50 12 -50 55z" />
    <glyph glyph-name="Hcircumflex" unicode="&#x124;" horiz-adv-x="640" 
d="M585 637l-55 -442l-25 -195h-20l25 195l15 119h-385l-15 -119l-25 -195h-20l25 195l55 442h20l-38 -303h385l38 303h20zM277 743q37 24 105 76h16q52 -45 92 -76l-8 -14h-5q-40 29 -87 70q-47 -35 -103 -70h-5z" />
    <glyph glyph-name="hcircumflex" unicode="&#x125;" horiz-adv-x="446" 
d="M373 431.5q14 -23.5 13 -54.5l-1 -13l-43 -263l-12 -101l-25 -4l59 365l1 15q1 25 -10 42.5t-24 17.5q-26 0 -90 -85t-143 -231l-2 -14l-9 -106l-26 -4l82 612l6 90l26 4l-69 -518h5q64 111 114 178.5t99 99.5h11q24 -7 38 -30.5zM67 806q37 24 105 76h16q52 -45 92 -76
l-8 -14h-5q-40 29 -87 70q-47 -35 -103 -70h-5z" />
    <glyph glyph-name="Hbar" unicode="&#x126;" horiz-adv-x="661" 
d="M638 484h-63l-36 -289l-25 -195h-20l25 195l15 119h-385l-15 -119l-25 -195h-20l25 195l36 289h-63l-3 3l2 17h66l17 133h20l-17 -133h385l17 133h20l-17 -133h60l3 -3zM555 484h-385l-19 -150h385z" />
    <glyph glyph-name="hbar" unicode="&#x127;" horiz-adv-x="515" 
d="M414 431.5q14 -23.5 13 -54.5l-1 -13l-43 -263l-12 -101l-25 -4l59 365l1 15q1 25 -10 42.5t-24 17.5q-26 0 -90 -85t-143 -231l-2 -14l-9 -106l-26 -4l76 565h-78l-3 3l2 17h81l4 27l6 90l26 4l-16 -121h129l3 -3l-2 -17h-133l-50 -377h5q64 111 114 178.5t99 99.5h11
q24 -7 38 -30.5z" />
    <glyph glyph-name="Imacron" unicode="&#x12a;" horiz-adv-x="235" 
d="M125 195l-25 -195h-20l25 195l55 442h20zM292 789l-2 -17h-207l-3 3l2 17h207z" />
    <glyph glyph-name="imacron" unicode="&#x12b;" horiz-adv-x="203" 
d="M95 106l-7 -106l-27 -4l49 366l6 90l25 4zM253 604l-2 -17h-207l-3 3l2 17h207z" />
    <glyph glyph-name="Ibreve" unicode="&#x12c;" horiz-adv-x="235" 
d="M125 195l-25 -195h-20l25 195l55 442h20zM283 802q-16 -36 -44 -55t-65 -19t-61.5 19t-30.5 55l14 11h5q4 -32 22.5 -48.5t51.5 -16.5q66 0 91 65h5z" />
    <glyph glyph-name="ibreve" unicode="&#x12d;" horiz-adv-x="203" 
d="M95 106l-7 -106l-27 -4l49 366l6 90l25 4zM247 627q-16 -54 -44 -79.5t-70 -25.5t-63 25.5t-25 79.5l15 13h5q1 -50 18 -74t53 -24q35 0 58 24t36 74h5z" />
    <glyph glyph-name="Iogonek" unicode="&#x12e;" horiz-adv-x="235" 
d="M125 195l-25 -195h-20l25 195l55 442h20zM37.5 -85.5q-23.5 -33.5 -29 -45.5t-5.5 -23t6.5 -17t17.5 -6q14 0 25 9.5t24 31.5h2l13 -13q-17 -26 -31.5 -37t-33.5 -11q-20 0 -32 10.5t-12 29.5q0 14 7 29t26.5 43t64.5 85h20q-39 -52 -62.5 -85.5z" />
    <glyph glyph-name="iogonek" unicode="&#x12f;" horiz-adv-x="203" 
d="M95 106l-7 -106l-27 -4l49 366l6 90l25 4zM163.5 625.5q5.5 -5.5 5.5 -14.5t-5.5 -14.5t-14.5 -5.5t-14.5 5.5t-5.5 14.5t5.5 14.5t14.5 5.5t14.5 -5.5zM25.5 -85.5q-23.5 -33.5 -29 -45.5t-5.5 -23t6.5 -17t17.5 -6q14 0 25 9.5t24 31.5h2l13 -13q-17 -26 -31.5 -37
t-33.5 -11q-20 0 -32 10.5t-12 29.5q0 14 7 29t26.5 43t64.5 85h20q-39 -52 -62.5 -85.5z" />
    <glyph glyph-name="Idotaccent" unicode="&#x130;" horiz-adv-x="235" 
d="M125 195l-25 -195h-20l25 195l55 442h20zM202.5 810.5q5.5 -5.5 5.5 -14.5t-5.5 -14.5t-14.5 -5.5t-14.5 5.5t-5.5 14.5t5.5 14.5t14.5 5.5t14.5 -5.5z" />
    <glyph glyph-name="dotlessi" unicode="&#x131;" horiz-adv-x="203" 
d="M95 106l-7 -106l-27 -4l49 366l6 90l25 4z" />
    <glyph glyph-name="IJ" unicode="&#x132;" horiz-adv-x="495" 
d="M125 195l-25 -195h-20l25 195l55 442h20zM382 212l-12 -97q-9 -70 -44 -118.5t-109 -94.5l-9 11v6q68 42 102 88t41 108l11 93l51 409h-125l-4 4l5 16h146z" />
    <glyph glyph-name="ij" unicode="&#x133;" horiz-adv-x="415" 
d="M95 106l-7 -106l-27 -4l49 366l6 90l25 4zM163.5 625.5q5.5 -5.5 5.5 -14.5t-5.5 -14.5t-14.5 -5.5t-14.5 5.5t-5.5 14.5t5.5 14.5t14.5 5.5t14.5 -5.5zM353 451l-45 -358l-11 -75q-10 -80 -36.5 -124.5t-86.5 -85.5l-11 11l1 6q55 37 78 76t32 107l49 358l5 63h-83l-4 4
l4 16h87l19 3zM358.5 625.5q5.5 -5.5 5.5 -14.5t-5.5 -14.5t-14.5 -5.5t-14.5 5.5t-5.5 14.5t5.5 14.5t14.5 5.5t14.5 -5.5z" />
    <glyph glyph-name="Jcircumflex" unicode="&#x134;" horiz-adv-x="260" 
d="M147 212l-12 -97q-9 -70 -44 -118.5t-109 -94.5l-9 11v6q68 42 102 88t41 108l11 93l51 409h-125l-4 4l5 16h146zM37 743q37 24 105 76h16q52 -45 92 -76l-8 -14h-5q-40 29 -87 70q-47 -35 -103 -70h-5z" />
    <glyph glyph-name="jcircumflex" unicode="&#x135;" horiz-adv-x="212" 
d="M150 451l-45 -358l-11 -75q-10 -80 -36.5 -124.5t-86.5 -85.5l-11 11l1 6q55 37 78 76t32 107l49 358l5 63h-83l-4 4l4 16h87l19 3zM20 532q42 41 115 126h18q49 -78 87 -126l-11 -12h-5q-39 50 -81 117q-59 -68 -110 -117h-5z" />
    <glyph glyph-name="Kcommaaccent" unicode="&#x136;" horiz-adv-x="483" 
d="M125 195l-25 -195h-20l25 195l56 442h20zM198 339q116 -177 248 -334v-4q-4 -4 -14 -8l-4 1q-149 179 -258 345v3l265 248l47 47h32zM300 -117q0 -20 -17 -44t-49 -49l-10 11l1 3q26 19 40 39.5t14 38.5q0 20 -30 34v4q5 7 13 11q38 -17 38 -48z" />
    <glyph glyph-name="kcommaaccent" unicode="&#x137;" horiz-adv-x="426" 
d="M226 183q70 -101 137 -183v-3l-16 -8l-4 2q-50 62 -142 190l1 9q173 95 173 189q0 28 -13.5 42.5t-28.5 14.5q-34 0 -93.5 -79.5t-141.5 -233.5l-2 -17l-9 -106l-26 -4l82 612l6 90l26 4l-68 -513h4q67 118 114 181.5t96 86.5l16 1q26 -5 42 -24t16 -52q0 -103 -169 -199
zM219 -117q0 -20 -17 -44t-49 -49l-10 11l1 3q26 19 40 39.5t14 38.5q0 20 -30 34v4q5 7 13 11q38 -17 38 -48z" />
    <glyph glyph-name="kgreenlandic" unicode="&#x138;" horiz-adv-x="428" 
d="M227 183q65 -93 138 -183v-3l-16 -8l-4 2q-59 73 -143 190l1 9q174 96 174 189q0 28 -13.5 42.5t-28.5 14.5q-69 0 -238 -316l-2 -14l-7 -106l-27 -4l49 366l6 90l25 4l-35 -267h5q69 119 115.5 182t95.5 86l16 1q27 -5 43 -24t16 -52q0 -103 -170 -199z" />
    <glyph glyph-name="Lacute" unicode="&#x139;" horiz-adv-x="382" 
d="M351 16l-6 -16h-264l25 195l55 442h20l-55 -442l-22 -175h244zM280 834l7 -12l-2 -5q-67 -38 -174 -93l-5 3l-7 15q91 44 176 94z" />
    <glyph glyph-name="lacute" unicode="&#x13a;" horiz-adv-x="238" 
d="M112 106l-9 -106l-26 -4l82 612l6 90l26 4zM285 897l7 -12l-2 -5q-67 -38 -174 -93l-5 3l-7 15q91 44 176 94z" />
    <glyph glyph-name="Lcommaaccent" unicode="&#x13b;" horiz-adv-x="382" 
d="M351 16l-6 -16h-264l25 195l55 442h20l-55 -442l-22 -175h244zM236 -117q0 -20 -17 -44t-49 -49l-10 11l1 3q26 19 40 39.5t14 38.5q0 20 -30 34v4q5 7 13 11q38 -17 38 -48z" />
    <glyph glyph-name="lcommaaccent" unicode="&#x13c;" horiz-adv-x="238" 
d="M112 106l-9 -106l-26 -4l82 612l6 90l26 4zM124 -117q0 -20 -17 -44t-49 -49l-10 11l1 3q26 19 40 39.5t14 38.5q0 20 -30 34v4q5 7 13 11q38 -17 38 -48z" />
    <glyph glyph-name="Lcaron" unicode="&#x13d;" horiz-adv-x="425" 
d="M351 16l-6 -16h-264l25 195l55 442h20l-55 -442l-22 -175h244zM394 586l-29 -144l-18 -2l-2 4l29 144l18 2z" />
    <glyph glyph-name="lcaron" unicode="&#x13e;" horiz-adv-x="234" 
d="M112 106l-9 -106l-26 -4l82 612l6 90l26 4zM297 651l-29 -144l-18 -2l-2 4l29 144l18 2z" />
    <glyph glyph-name="Ldot" unicode="&#x13f;" horiz-adv-x="382" 
d="M351 16l-6 -16h-264l25 195l55 442h20l-55 -442l-22 -175h244zM314.5 381.5q5.5 -5.5 5.5 -14.5t-5.5 -14.5t-14.5 -5.5t-14.5 5.5t-5.5 14.5t5.5 14.5t14.5 5.5t14.5 -5.5z" />
    <glyph glyph-name="ldot" unicode="&#x140;" horiz-adv-x="238" 
d="M112 106l-9 -106l-26 -4l82 612l6 90l26 4zM256.5 284.5q5.5 -5.5 5.5 -14.5t-5.5 -14.5t-14.5 -5.5t-14.5 5.5t-5.5 14.5t5.5 14.5t14.5 5.5t14.5 -5.5z" />
    <glyph glyph-name="Lslash" unicode="&#x141;" horiz-adv-x="387" 
d="M357 16l-6 -16h-264l25 195l17 140l-90 -49l-5 3l-3 15l101 54l35 279h20l-33 -267l157 84l5 -2l4 -15l-169 -91l-41 -326h244z" />
    <glyph glyph-name="lslash" unicode="&#x142;" horiz-adv-x="212" 
d="M134 383l-37 -277l-9 -106l-26 -4l51 378l-97 -49l-5 3l-3 15l108 54l28 211l6 90l26 4l-39 -296l98 50l5 -2l3 -15z" />
    <glyph glyph-name="Nacute" unicode="&#x143;" horiz-adv-x="640" 
d="M526 176l-23 -176h-19l-304 595h-4l-51 -396l-25 -199h-20l24 190l57 447h19l304 -595h4l77 594l20 2zM478 834l7 -12l-2 -5q-67 -38 -174 -93l-5 3l-7 15q91 44 176 94z" />
    <glyph glyph-name="nacute" unicode="&#x144;" horiz-adv-x="445" 
d="M372 431.5q14 -23.5 13 -54.5l-1 -13l-43 -263l-12 -101l-25 -4l59 365l1 15q1 25 -10 42.5t-24 17.5q-26 0 -90 -85t-143 -231l-2 -14l-9 -106l-25 -4l48 366l7 90l25 4l-36 -272h5q65 112 114.5 179t98.5 99h11q24 -7 38 -30.5zM346 668l10 -10l-1 -5
q-69 -69 -144 -135l-5 1l-11 13q69 58 146 137z" />
    <glyph glyph-name="Ncommaaccent" unicode="&#x145;" horiz-adv-x="640" 
d="M526 176l-23 -176h-19l-304 595h-4l-51 -396l-25 -199h-20l24 190l57 447h19l304 -595h4l77 594l20 2zM327 -117q0 -20 -17 -44t-49 -49l-10 11l1 3q26 19 40 39.5t14 38.5q0 20 -30 34v4q5 7 13 11q38 -17 38 -48z" />
    <glyph glyph-name="ncommaaccent" unicode="&#x146;" horiz-adv-x="445" 
d="M372 431.5q14 -23.5 13 -54.5l-1 -13l-43 -263l-12 -101l-25 -4l59 365l1 15q1 25 -10 42.5t-24 17.5q-26 0 -90 -85t-143 -231l-2 -14l-9 -106l-25 -4l48 366l7 90l25 4l-36 -272h5q65 112 114.5 179t98.5 99h11q24 -7 38 -30.5zM233 -117q0 -20 -17 -44t-49 -49l-10 11
l1 3q26 19 40 39.5t14 38.5q0 20 -30 34v4q5 7 13 11q38 -17 38 -48z" />
    <glyph glyph-name="Ncaron" unicode="&#x147;" horiz-adv-x="640" 
d="M526 176l-23 -176h-19l-304 595h-4l-51 -396l-25 -199h-20l24 190l57 447h19l304 -595h4l77 594l20 2zM497 805q-37 -24 -105 -76h-16q-52 45 -92 76l8 14h5q40 -29 87 -70q47 35 103 70h5z" />
    <glyph glyph-name="ncaron" unicode="&#x148;" horiz-adv-x="445" 
d="M372 431.5q14 -23.5 13 -54.5l-1 -13l-43 -263l-12 -101l-25 -4l59 365l1 15q1 25 -10 42.5t-24 17.5q-26 0 -90 -85t-143 -231l-2 -14l-9 -106l-25 -4l48 366l7 90l25 4l-36 -272h5q65 112 114.5 179t98.5 99h11q24 -7 38 -30.5zM382 646q-42 -41 -115 -126h-18
q-49 78 -87 126l11 12h5q39 -50 81 -117q59 68 110 117h5z" />
    <glyph glyph-name="Eng" unicode="&#x14a;" horiz-adv-x="648" 
d="M531 176l-18 -137q-7 -59 -39.5 -100t-106.5 -83l-10 11l1 6q58 33 87.5 63.5t41.5 68.5l-309 590h-4l-49 -396l-24 -199h-20l23 190l56 447h19l311 -595h4l75 594l20 2z" />
    <glyph glyph-name="eng" unicode="&#x14b;" horiz-adv-x="458" 
d="M373 431.5q14 -23.5 13 -54.5l-1 -13l-44 -271l-12 -75q-12 -80 -38 -124.5t-84 -85.5l-9 11l1 6q52 37 74.5 75.5t33.5 107.5l57 353l1 15q1 25 -10 42.5t-24 17.5q-26 0 -91 -86t-143 -232l-2 -12l-9 -106l-25 -4l48 366l7 90l25 4l-36 -272h6q65 112 114.5 179
t98.5 99h11q24 -7 38 -30.5z" />
    <glyph glyph-name="Omacron" unicode="&#x14c;" horiz-adv-x="599" 
d="M513.5 577q54.5 -65 54.5 -186q0 -122 -35.5 -211t-103 -137t-162.5 -48q-102 0 -156.5 67t-54.5 191q0 121 35 208.5t102.5 134t161.5 46.5q104 0 158.5 -65zM205 578q-62 -44 -95 -126.5t-33 -195.5q0 -115 49.5 -178t141.5 -63q87 0 150 45.5t96 129t33 197.5
q0 113 -49 174t-144 61q-87 0 -149 -44zM514 789l-2 -17h-287l-3 3l2 17h287z" />
    <glyph glyph-name="omacron" unicode="&#x14d;" horiz-adv-x="396" 
d="M253 458q50 -4 72.5 -37t22.5 -101q0 -91 -24 -163.5t-69 -115.5t-106 -47h-5q-50 3 -73 36.5t-23 103.5q0 91 24.5 164.5t69.5 116t106 43.5h5zM154.5 398q-40.5 -39 -63.5 -107.5t-23 -153.5q0 -62 19.5 -92t60.5 -30q52 0 93 39.5t63.5 108.5t22.5 154q0 62 -19 91
t-60 29q-53 0 -93.5 -39zM396 604l-2 -17h-287l-3 3l2 17h287z" />
    <glyph glyph-name="Obreve" unicode="&#x14e;" horiz-adv-x="599" 
d="M513.5 577q54.5 -65 54.5 -186q0 -122 -35.5 -211t-103 -137t-162.5 -48q-102 0 -156.5 67t-54.5 191q0 121 35 208.5t102.5 134t161.5 46.5q104 0 158.5 -65zM205 578q-62 -44 -95 -126.5t-33 -195.5q0 -115 49.5 -178t141.5 -63q87 0 150 45.5t96 129t33 197.5
q0 113 -49 174t-144 61q-87 0 -149 -44zM465 802q-16 -36 -44 -55t-65 -19t-61.5 19t-30.5 55l14 11h5q4 -32 22.5 -48.5t51.5 -16.5q66 0 91 65h5z" />
    <glyph glyph-name="obreve" unicode="&#x14f;" horiz-adv-x="396" 
d="M253 458q50 -4 72.5 -37t22.5 -101q0 -91 -24 -163.5t-69 -115.5t-106 -47h-5q-50 3 -73 36.5t-23 103.5q0 91 24.5 164.5t69.5 116t106 43.5h5zM154.5 398q-40.5 -39 -63.5 -107.5t-23 -153.5q0 -62 19.5 -92t60.5 -30q52 0 93 39.5t63.5 108.5t22.5 154q0 62 -19 91
t-60 29q-53 0 -93.5 -39zM349 627q-16 -54 -44 -79.5t-70 -25.5t-63 25.5t-25 79.5l15 13h5q1 -50 18 -74t53 -24q35 0 58 24t36 74h5z" />
    <glyph glyph-name="Ohungarumlaut" unicode="&#x150;" horiz-adv-x="599" 
d="M513.5 577q54.5 -65 54.5 -186q0 -122 -35.5 -211t-103 -137t-162.5 -48q-102 0 -156.5 67t-54.5 191q0 121 35 208.5t102.5 134t161.5 46.5q104 0 158.5 -65zM205 578q-62 -44 -95 -126.5t-33 -195.5q0 -115 49.5 -178t141.5 -63q87 0 150 45.5t96 129t33 197.5
q0 113 -49 174t-144 61q-87 0 -149 -44zM293 757q75 70 89 84l5 -1l10 -10l-1 -5q-35 -35 -112 -105l-5 1l-11 13zM423 757q75 70 89 84l5 -1l10 -10l-1 -5q-35 -35 -112 -105l-5 1l-11 13z" />
    <glyph glyph-name="ohungarumlaut" unicode="&#x151;" horiz-adv-x="396" 
d="M253 458q50 -4 72.5 -37t22.5 -101q0 -91 -24 -163.5t-69 -115.5t-106 -47h-5q-50 3 -73 36.5t-23 103.5q0 91 24.5 164.5t69.5 116t106 43.5h5zM154.5 398q-40.5 -39 -63.5 -107.5t-23 -153.5q0 -62 19.5 -92t60.5 -30q52 0 93 39.5t63.5 108.5t22.5 154q0 62 -19 91
t-60 29q-53 0 -93.5 -39zM288 667l5 -1l10 -10l-1 -5q-70 -69 -144 -135l-5 1l-11 13q76 67 146 137zM418 667l5 -1l10 -10l-1 -5q-71 -69 -144 -135l-5 1l-11 13q77 68 146 137z" />
    <glyph glyph-name="OE" unicode="&#x152;" horiz-adv-x="789" 
d="M465 643q46 -6 73 -6h269l3 -4l-6 -16h-270l-34 -277h222l2 -4l-6 -16h-222l-16 -132l-21 -168h274l3 -4l-6 -16h-273q-29 0 -83 -6q-52 -6 -73 -6q-118 0 -181.5 72t-63.5 200q0 119 40.5 206.5t117 135t181.5 47.5q26 0 70 -6zM223 584.5q-71 -44.5 -109 -127.5
t-38 -195q0 -121 59.5 -187.5t173.5 -66.5q42 0 102 10q17 3 23 8t8 17l66 543q1 8 1 18q0 8 -2 10.5t-8 3.5q-59 11 -107 11q-98 0 -169 -44.5z" />
    <glyph glyph-name="oe" unicode="&#x153;" horiz-adv-x="622" 
d="M552 118l9 -13q-30 -50 -64.5 -77t-80.5 -33h-9q-47 6 -68 38.5t-23 98.5q-25 -62 -67.5 -98t-98.5 -40h-5q-50 3 -73.5 36.5t-23.5 103.5q0 91 24.5 164.5t70 116t106.5 43.5h5q51 -4 73 -36.5t22 -99.5q26 61 68.5 97.5t92.5 37.5h5q75 -6 75 -69q0 -57 -64 -111
t-190 -101q-1 -9 -1 -28q0 -68 19.5 -100t59.5 -32q37 0 70.5 26.5t60.5 75.5h7zM242.5 54.5q40.5 39.5 63.5 108.5t23 154q0 62 -19 91t-61 29q-53 0 -94 -39t-64 -107.5t-23 -153.5q0 -63 19.5 -92.5t61.5 -29.5q53 0 93.5 39.5zM408 382.5q-46 -53.5 -64 -140.5
q-1 -12 -5 -34q-1 -3 -1 -10q111 41 171 90t60 97q0 23 -14.5 37t-42.5 14q-58 0 -104 -53.5z" />
    <glyph glyph-name="Racute" unicode="&#x154;" horiz-adv-x="494" 
d="M402 348.5q-43 -58.5 -122 -82.5q60 -134 137 -261l-1 -4q-5 -5 -13 -8l-5 2q-81 137 -140 268h-125l-8 -68l-25 -195h-20l25 195l55 442l133 2q73 0 112.5 -38.5t39.5 -109.5q0 -84 -43 -142.5zM136 283h134q74 20 114.5 73.5t40.5 131.5q0 60 -32.5 94t-94.5 37
l-120 -1zM388 853l10 -10l-1 -5q-69 -69 -144 -135l-5 1l-11 13q69 58 146 137z" />
    <glyph glyph-name="racute" unicode="&#x155;" horiz-adv-x="307" 
d="M326 450l-3 -20l-3 -2l-11 2q-40 -7 -96 -90.5t-118 -235.5l-10 -104l-24 -4l47 366l8 90l23 4l-35 -275h5q54 123 106.5 193.5t94.5 77.5zM307 668l10 -10l-1 -5q-69 -69 -144 -135l-5 1l-11 13q69 58 146 137z" />
    <glyph glyph-name="Rcommaaccent" unicode="&#x156;" horiz-adv-x="494" 
d="M402 348.5q-43 -58.5 -122 -82.5q60 -134 137 -261l-1 -4q-5 -5 -13 -8l-5 2q-81 137 -140 268h-125l-8 -68l-25 -195h-20l25 195l55 442l133 2q73 0 112.5 -38.5t39.5 -109.5q0 -84 -43 -142.5zM136 283h134q74 20 114.5 73.5t40.5 131.5q0 60 -32.5 94t-94.5 37
l-120 -1zM253 -117q0 -20 -17 -44t-49 -49l-10 11l1 3q26 19 40 39.5t14 38.5q0 20 -30 34v4q5 7 13 11q38 -17 38 -48z" />
    <glyph glyph-name="rcommaaccent" unicode="&#x157;" horiz-adv-x="307" 
d="M326 450l-3 -20l-3 -2l-11 2q-40 -7 -96 -90.5t-118 -235.5l-10 -104l-24 -4l47 366l8 90l23 4l-35 -275h5q54 123 106.5 193.5t94.5 77.5zM108 -117q0 -20 -17 -44t-49 -49l-10 11l1 3q26 19 40 39.5t14 38.5q0 20 -30 34v4q5 7 13 11q38 -17 38 -48z" />
    <glyph glyph-name="Rcaron" unicode="&#x158;" horiz-adv-x="494" 
d="M402 348.5q-43 -58.5 -122 -82.5q60 -134 137 -261l-1 -4q-5 -5 -13 -8l-5 2q-81 137 -140 268h-125l-8 -68l-25 -195h-20l25 195l55 442l133 2q73 0 112.5 -38.5t39.5 -109.5q0 -84 -43 -142.5zM136 283h134q74 20 114.5 73.5t40.5 131.5q0 60 -32.5 94t-94.5 37
l-120 -1zM424 831q-42 -41 -115 -126h-18q-49 78 -87 126l11 12h5q39 -50 81 -117q59 68 110 117h5z" />
    <glyph glyph-name="rcaron" unicode="&#x159;" horiz-adv-x="307" 
d="M326 450l-3 -20l-3 -2l-11 2q-40 -7 -96 -90.5t-118 -235.5l-10 -104l-24 -4l47 366l8 90l23 4l-35 -275h5q54 123 106.5 193.5t94.5 77.5zM343 646q-42 -41 -115 -126h-18q-49 78 -87 126l11 12h5q39 -50 81 -117q59 68 110 117h5z" />
    <glyph glyph-name="Sacute" unicode="&#x15a;" horiz-adv-x="423" 
d="M398 611l-6 -18l-7 -1q-46 28 -104 28q-48 0 -86 -20.5t-59 -53.5t-21 -69q0 -33 16 -58t38.5 -42.5t62.5 -41.5q44 -26 70 -46t44 -50.5t18 -71.5q0 -46 -26.5 -85.5t-72 -62.5t-99.5 -23q-37 0 -74 12t-64 35l3 19l6 2q26 -24 61 -36t70 -12q50 0 90.5 21t63 55
t22.5 73q0 35 -16.5 61.5t-40 44.5t-64.5 43q-43 27 -68 46t-42.5 48.5t-17.5 69.5q0 45 25 82t68 58.5t96 21.5q61 0 114 -29zM353 853l10 -10l-1 -5q-69 -69 -144 -135l-5 1l-11 13q69 58 146 137z" />
    <glyph glyph-name="sacute" unicode="&#x15b;" horiz-adv-x="306" 
d="M279 435l-7 -19l-6 -1q-34 20 -69 20q-31 0 -56.5 -14t-40 -36.5t-14.5 -46.5q0 -28 18 -48.5t56 -49.5q43 -32 64 -57t21 -63q0 -34 -18.5 -62.5t-52.5 -46t-78 -17.5q-48 7 -86 34l3 18l7 4q41 -35 88 -35q50 0 83 30t33 72q0 33 -19.5 55.5t-58.5 51.5t-59.5 53
t-20.5 59q0 51 40.5 85.5t100.5 33.5q42 -4 72 -20zM279 668l10 -10l-1 -5q-69 -69 -144 -135l-5 1l-11 13q69 58 146 137z" />
    <glyph glyph-name="Scircumflex" unicode="&#x15c;" horiz-adv-x="423" 
d="M398 611l-6 -18l-7 -1q-46 28 -104 28q-48 0 -86 -20.5t-59 -53.5t-21 -69q0 -33 16 -58t38.5 -42.5t62.5 -41.5q44 -26 70 -46t44 -50.5t18 -71.5q0 -46 -26.5 -85.5t-72 -62.5t-99.5 -23q-37 0 -74 12t-64 35l3 19l6 2q26 -24 61 -36t70 -12q50 0 90.5 21t63 55
t22.5 73q0 35 -16.5 61.5t-40 44.5t-64.5 43q-43 27 -68 46t-42.5 48.5t-17.5 69.5q0 45 25 82t68 58.5t96 21.5q61 0 114 -29zM161 717q42 41 115 126h18q49 -78 87 -126l-11 -12h-5q-39 50 -81 117q-59 -68 -110 -117h-5z" />
    <glyph glyph-name="scircumflex" unicode="&#x15d;" horiz-adv-x="306" 
d="M279 435l-7 -19l-6 -1q-34 20 -69 20q-31 0 -56.5 -14t-40 -36.5t-14.5 -46.5q0 -28 18 -48.5t56 -49.5q43 -32 64 -57t21 -63q0 -34 -18.5 -62.5t-52.5 -46t-78 -17.5q-48 7 -86 34l3 18l7 4q41 -35 88 -35q50 0 83 30t33 72q0 33 -19.5 55.5t-58.5 51.5t-59.5 53
t-20.5 59q0 51 40.5 85.5t100.5 33.5q42 -4 72 -20zM87 532q42 41 115 126h18q49 -78 87 -126l-11 -12h-5q-39 50 -81 117q-59 -68 -110 -117h-5z" />
    <glyph glyph-name="Scedilla" unicode="&#x15e;" horiz-adv-x="423" 
d="M398 611l-6 -18l-7 -1q-46 28 -104 28q-48 0 -86 -20.5t-59 -53.5t-21 -69q0 -33 16 -58t38.5 -42.5t62.5 -41.5q44 -26 70 -46t44 -50.5t18 -71.5q0 -46 -26.5 -85.5t-72 -62.5t-99.5 -23q-37 0 -74 12t-64 35l3 19l6 2q26 -24 61 -36t70 -12q50 0 90.5 21t63 55
t22.5 73q0 35 -16.5 61.5t-40 44.5t-64.5 43q-43 27 -68 46t-42.5 48.5t-17.5 69.5q0 45 25 82t68 58.5t96 21.5q61 0 114 -29zM174 -55l31 -20q17 -11 25 -22.5t8 -27.5q0 -24 -17.5 -38.5t-42.5 -14.5q-37 0 -59 33l6 18h4q10 -16 21 -23.5t28 -7.5q18 0 29 8.5t11 24.5
q0 11 -5.5 17.5t-18.5 15.5l-43 28l24 75h20z" />
    <glyph glyph-name="scedilla" unicode="&#x15f;" horiz-adv-x="306" 
d="M279 435l-7 -19l-6 -1q-34 20 -69 20q-31 0 -56.5 -14t-40 -36.5t-14.5 -46.5q0 -28 18 -48.5t56 -49.5q43 -32 64 -57t21 -63q0 -34 -18.5 -62.5t-52.5 -46t-78 -17.5q-48 7 -86 34l3 18l7 4q41 -35 88 -35q50 0 83 30t33 72q0 33 -19.5 55.5t-58.5 51.5t-59.5 53
t-20.5 59q0 51 40.5 85.5t100.5 33.5q42 -4 72 -20zM119 -55l31 -20q17 -11 25 -22.5t8 -27.5q0 -24 -17.5 -38.5t-42.5 -14.5q-37 0 -59 33l6 18h4q10 -16 21 -23.5t28 -7.5q18 0 29 8.5t11 24.5q0 11 -5.5 17.5t-18.5 15.5l-43 28l24 75h20z" />
    <glyph glyph-name="Scaron" unicode="&#x160;" horiz-adv-x="423" 
d="M398 611l-6 -18l-7 -1q-46 28 -104 28q-48 0 -86 -20.5t-59 -53.5t-21 -69q0 -33 16 -58t38.5 -42.5t62.5 -41.5q44 -26 70 -46t44 -50.5t18 -71.5q0 -46 -26.5 -85.5t-72 -62.5t-99.5 -23q-37 0 -74 12t-64 35l3 19l6 2q26 -24 61 -36t70 -12q50 0 90.5 21t63 55
t22.5 73q0 35 -16.5 61.5t-40 44.5t-64.5 43q-43 27 -68 46t-42.5 48.5t-17.5 69.5q0 45 25 82t68 58.5t96 21.5q61 0 114 -29zM388 805q-37 -24 -105 -76h-16q-52 45 -92 76l8 14h5q40 -29 87 -70q47 35 103 70h5z" />
    <glyph glyph-name="scaron" unicode="&#x161;" horiz-adv-x="306" 
d="M279 435l-7 -19l-6 -1q-34 20 -69 20q-31 0 -56.5 -14t-40 -36.5t-14.5 -46.5q0 -28 18 -48.5t56 -49.5q43 -32 64 -57t21 -63q0 -34 -18.5 -62.5t-52.5 -46t-78 -17.5q-48 7 -86 34l3 18l7 4q41 -35 88 -35q50 0 83 30t33 72q0 33 -19.5 55.5t-58.5 51.5t-59.5 53
t-20.5 59q0 51 40.5 85.5t100.5 33.5q42 -4 72 -20zM315 646q-42 -41 -115 -126h-18q-49 78 -87 126l11 12h5q39 -50 81 -117q59 68 110 117h5z" />
    <glyph glyph-name="uni0162" unicode="&#x162;" horiz-adv-x="450" 
d="M474 633l-6 -16h-183l-54 -422l-24 -195l-19 -55l31 -20q17 -11 25 -22.5t8 -27.5q0 -24 -17.5 -38.5t-42.5 -14.5q-37 0 -59 33l6 18h4q10 -16 21 -23.5t28 -7.5q18 0 29 8.5t11 24.5q0 11 -5.5 17.5t-18.5 15.5l-43 28l22 64l24 195l54 422h-185l-3 4l6 16h388z" />
    <glyph glyph-name="uni0163" unicode="&#x163;" horiz-adv-x="316" 
d="M106 87l-2 -20q0 -25 10.5 -38.5t29.5 -13.5q21 0 48.5 28t54.5 77h7l9 -12q-36 -59 -60.5 -82.5t-54.5 -30.5q-31 0 -47.5 17.5t-16.5 51.5l2 22l47 276l10 67h-71l-4 4l3 16h75l19 131l22 10l3 -3l-23 -138h144l3 -4l-3 -16h-148zM149 -55l31 -20q17 -11 25 -22.5
t8 -27.5q0 -24 -17.5 -38.5t-42.5 -14.5q-37 0 -59 33l6 18h4q10 -16 21 -23.5t28 -7.5q18 0 29 8.5t11 24.5q0 11 -5.5 17.5t-18.5 15.5l-43 28l24 75h20z" />
    <glyph glyph-name="Tcaron" unicode="&#x164;" horiz-adv-x="450" 
d="M474 633l-6 -16h-183l-54 -422l-24 -195h-20l24 195l54 422h-185l-3 4l6 16h388zM403 831q-42 -41 -115 -126h-18q-49 78 -87 126l11 12h5q39 -50 81 -117q59 68 110 117h5z" />
    <glyph glyph-name="tcaron" unicode="&#x165;" horiz-adv-x="341" 
d="M106 87l-2 -20q0 -25 10.5 -38.5t29.5 -13.5q21 0 48.5 28t54.5 77h7l9 -12q-36 -59 -60.5 -82.5t-54.5 -30.5q-31 0 -47.5 17.5t-16.5 51.5l2 22l47 276l10 67h-71l-4 4l3 16h75l19 131l22 10l3 -3l-23 -138h144l3 -4l-3 -16h-148zM309 651l-29 -144l-18 -2l-2 4l29 144
l18 2z" />
    <glyph glyph-name="Tbar" unicode="&#x166;" horiz-adv-x="450" 
d="M474 633l-6 -16h-183l-34 -267h93l3 -3l-2 -17h-97l-17 -135l-24 -195h-20l24 195l17 135h-93l-3 3l2 17h97l34 267h-185l-3 4l6 16h388z" />
    <glyph glyph-name="tbar" unicode="&#x167;" horiz-adv-x="323" 
d="M168 429l-24 -145h118l3 -3l-4 -17h-120l-30 -177l-2 -20q0 -25 10.5 -38.5t29.5 -13.5q21 0 48.5 28t54.5 77h7l9 -12q-36 -59 -60.5 -82.5t-54.5 -30.5q-31 0 -47.5 17.5t-16.5 51.5l2 22l30 178h-75l-3 3l4 17h78l13 78l10 67h-71l-4 4l3 16h75l19 131l22 10l3 -3
l-23 -138h144l3 -4l-3 -16h-148z" />
    <glyph glyph-name="Umacron" unicode="&#x16a;" horiz-adv-x="583" 
d="M510 312l-10 -83q-11 -111 -72.5 -172t-161.5 -61q-89 0 -137 46.5t-48 133.5q0 29 4 53l13 93l40 315h20l-53 -408q-4 -34 -4 -49q0 -79 42.5 -121.5t121.5 -42.5q91 0 146 55t69 158l51 408h20zM506 789l-2 -17h-287l-3 3l2 17h287z" />
    <glyph glyph-name="umacron" unicode="&#x16b;" horiz-adv-x="454" 
d="M392 456l-46 -350l-9 -106l-25 -4l36 271h-5q-65 -112 -114.5 -179t-98.5 -99h-11q-24 7 -38 30.5t-13 54.5l1 13l43 263l12 101l25 4l-59 -365l-1 -15q-1 -25 10 -42.5t24 -17.5q26 0 90.5 85t142.5 230l4 32l7 90zM420 604l-2 -17h-287l-3 3l2 17h287z" />
    <glyph glyph-name="Ubreve" unicode="&#x16c;" horiz-adv-x="583" 
d="M510 312l-10 -83q-11 -111 -72.5 -172t-161.5 -61q-89 0 -137 46.5t-48 133.5q0 29 4 53l13 93l40 315h20l-53 -408q-4 -34 -4 -49q0 -79 42.5 -121.5t121.5 -42.5q91 0 146 55t69 158l51 408h20zM460 812q-16 -54 -44 -79.5t-70 -25.5t-63 25.5t-25 79.5l15 13h5
q1 -50 18 -74t53 -24q35 0 58 24t36 74h5z" />
    <glyph glyph-name="ubreve" unicode="&#x16d;" horiz-adv-x="454" 
d="M392 456l-46 -350l-9 -106l-25 -4l36 271h-5q-65 -112 -114.5 -179t-98.5 -99h-11q-24 7 -38 30.5t-13 54.5l1 13l43 263l12 101l25 4l-59 -365l-1 -15q-1 -25 10 -42.5t24 -17.5q26 0 90.5 85t142.5 230l4 32l7 90zM373 627q-16 -54 -44 -79.5t-70 -25.5t-63 25.5
t-25 79.5l15 13h5q1 -50 18 -74t53 -24q35 0 58 24t36 74h5z" />
    <glyph glyph-name="Uring" unicode="&#x16e;" horiz-adv-x="583" 
d="M510 312l-10 -83q-11 -111 -72.5 -172t-161.5 -61q-89 0 -137 46.5t-48 133.5q0 29 4 53l13 93l40 315h20l-53 -408q-4 -34 -4 -49q0 -79 42.5 -121.5t121.5 -42.5q91 0 146 55t69 158l51 408h20zM411 832q19 -21 19 -49q0 -31 -21.5 -50t-49.5 -19t-49 19.5t-21 50.5
q0 30 19.5 49.5t50.5 19.5q33 0 52 -21zM322.5 819.5q-13.5 -13.5 -13.5 -35.5q0 -23 14.5 -36.5t35.5 -13.5t36 13t15 36q0 21 -13.5 35.5t-37.5 14.5q-23 0 -36.5 -13.5z" />
    <glyph glyph-name="uring" unicode="&#x16f;" horiz-adv-x="454" 
d="M392 456l-46 -350l-9 -106l-25 -4l36 271h-5q-65 -112 -114.5 -179t-98.5 -99h-11q-24 7 -38 30.5t-13 54.5l1 13l43 263l12 101l25 4l-59 -365l-1 -15q-1 -25 10 -42.5t24 -17.5q26 0 90.5 85t142.5 230l4 32l7 90zM324 647q19 -21 19 -49q0 -31 -21.5 -50t-49.5 -19
t-49 19.5t-21 50.5q0 30 19.5 49.5t50.5 19.5q33 0 52 -21zM235.5 634.5q-13.5 -13.5 -13.5 -35.5q0 -23 14.5 -36.5t35.5 -13.5t36 13t15 36q0 21 -13.5 35.5t-37.5 14.5q-23 0 -36.5 -13.5z" />
    <glyph glyph-name="Uhungarumlaut" unicode="&#x170;" horiz-adv-x="583" 
d="M510 312l-10 -83q-11 -111 -72.5 -172t-161.5 -61q-89 0 -137 46.5t-48 133.5q0 29 4 53l13 93l40 315h20l-53 -408q-4 -34 -4 -49q0 -79 42.5 -121.5t121.5 -42.5q91 0 146 55t69 158l51 408h20zM285 757q75 70 89 84l5 -1l10 -10l-1 -5q-35 -35 -112 -105l-5 1l-11 13z
M415 757q75 70 89 84l5 -1l10 -10l-1 -5q-35 -35 -112 -105l-5 1l-11 13z" />
    <glyph glyph-name="uhungarumlaut" unicode="&#x171;" horiz-adv-x="454" 
d="M392 456l-46 -350l-9 -106l-25 -4l36 271h-5q-65 -112 -114.5 -179t-98.5 -99h-11q-24 7 -38 30.5t-13 54.5l1 13l43 263l12 101l25 4l-59 -365l-1 -15q-1 -25 10 -42.5t24 -17.5q26 0 90.5 85t142.5 230l4 32l7 90zM312 667l5 -1l10 -10l-1 -5q-70 -69 -144 -135l-5 1
l-11 13q76 67 146 137zM442 667l5 -1l10 -10l-1 -5q-71 -69 -144 -135l-5 1l-11 13q77 68 146 137z" />
    <glyph glyph-name="Uogonek" unicode="&#x172;" horiz-adv-x="583" 
d="M510 312l-10 -83q-11 -111 -72.5 -172t-161.5 -61q-89 0 -137 46.5t-48 133.5q0 29 4 53l13 93l40 315h20l-53 -408q-4 -34 -4 -49q0 -79 42.5 -121.5t121.5 -42.5q91 0 146 55t69 158l51 408h20zM252.5 -190.5q-17.5 17.5 -17.5 47.5q0 20 10.5 38.5t50.5 72.5l31 42h24
q-18 -22 -28 -38q-44 -58 -55.5 -76.5t-11.5 -36.5q0 -21 11.5 -33.5t32.5 -12.5t42 13.5t39 38.5h2l11 -16q-44 -57 -95 -57q-29 0 -46.5 17.5z" />
    <glyph glyph-name="uogonek" unicode="&#x173;" horiz-adv-x="454" 
d="M392 456l-46 -350l-9 -106l-25 -4l36 271h-5q-65 -112 -114.5 -179t-98.5 -99h-11q-24 7 -38 30.5t-13 54.5l1 13l43 263l12 101l25 4l-59 -365l-1 -15q-1 -25 10 -42.5t24 -17.5q26 0 90.5 85t142.5 230l4 32l7 90zM274.5 -85.5q-23.5 -33.5 -29 -45.5t-5.5 -23t6.5 -17
t17.5 -6q14 0 25 9.5t24 31.5h2l13 -13q-17 -26 -31.5 -37t-33.5 -11q-20 0 -32 10.5t-12 29.5q0 14 7 29t26.5 43t64.5 85h20q-39 -52 -62.5 -85.5z" />
    <glyph glyph-name="Wcircumflex" unicode="&#x174;" horiz-adv-x="834" 
d="M559 0h-20l-91 438h-4l-213 -438h-22l-135 637h23l7 -43l119 -560h4l213 437l-36 166h22l7 -43l118 -560h4l276 560l19 43h23zM353 743q37 24 105 76h16q52 -45 92 -76l-8 -14h-5q-40 29 -87 70q-47 -35 -103 -70h-5z" />
    <glyph glyph-name="wcircumflex" unicode="&#x175;" horiz-adv-x="659" 
d="M448 0h-20l-50 418h-4l-203 -418h-26l-55 450l22 5l4 -46l46 -379h4l182 379l21 43h24l4 -43l46 -379h4l137 238q38 66 38 106q0 32 -28 70l1 5l18 6q29 -41 29 -82q0 -46 -41 -115zM256 532q42 41 115 126h18q49 -78 87 -126l-11 -12h-5q-39 50 -81 117
q-59 -68 -110 -117h-5z" />
    <glyph glyph-name="Ycircumflex" unicode="&#x176;" horiz-adv-x="469" 
d="M238 247l-7 -52l-24 -195h-20l24 195l7 50l-141 392h25l7 -26l120 -334h5l218 334l14 26h26zM191 743q37 24 105 76h16q52 -45 92 -76l-8 -14h-5q-40 29 -87 70q-47 -35 -103 -70h-5z" />
    <glyph glyph-name="ycircumflex" unicode="&#x177;" horiz-adv-x="379" 
d="M362 373q0 -49 -39 -115l-164 -277q-56 -95 -99 -135.5t-91 -40.5q-27 0 -60 12l2 19l5 2q30 -12 55 -12q41 0 79 37.5t91 126.5l13 22l-80 438l23 6l12 -74l59 -340h4l134 226q36 60 36 106q0 32 -28 70l1 5l18 6q29 -41 29 -82zM116 532q42 41 115 126h18
q49 -78 87 -126l-11 -12h-5q-39 50 -81 117q-59 -68 -110 -117h-5z" />
    <glyph glyph-name="Ydieresis" unicode="&#x178;" horiz-adv-x="469" 
d="M238 247l-7 -52l-24 -195h-20l24 195l7 50l-141 392h25l7 -26l120 -334h5l218 334l14 26h26zM247.5 795.5q5.5 -5.5 5.5 -14.5t-5.5 -14.5t-14.5 -5.5t-14.5 5.5t-5.5 14.5t5.5 14.5t14.5 5.5t14.5 -5.5zM397.5 795.5q5.5 -5.5 5.5 -14.5t-5.5 -14.5t-14.5 -5.5
t-14.5 5.5t-5.5 14.5t5.5 14.5t14.5 5.5t14.5 -5.5z" />
    <glyph glyph-name="Zacute" unicode="&#x179;" horiz-adv-x="482" 
d="M487 620l-453 -600h310l65 1l4 -5l-6 -16h-368l-34 -1l2 18l453 600h-300l-55 -1l-4 5l6 17l61 -1h286l35 1zM370 834l7 -12l-2 -5q-67 -38 -174 -93l-5 3l-7 15q91 44 176 94z" />
    <glyph glyph-name="zacute" unicode="&#x17a;" horiz-adv-x="393" 
d="M358 455l-313 -416l27 5q21 0 44 -8t27 -9q43 -17 69 -17q52 0 79.5 39.5t32.5 119.5l9 1l10 -11q-9 -169 -133 -169q-26 0 -71 17q-18 6 -37.5 11t-34.5 5q-36 0 -61 -28h-3l-9 8l323 429h-200l-42 -1l-2 4l4 17l2 2l46 -2h205l17 12zM316 668l10 -10l-1 -5
q-69 -69 -144 -135l-5 1l-11 13q69 58 146 137z" />
    <glyph glyph-name="Zdotaccent" unicode="&#x17b;" horiz-adv-x="482" 
d="M487 620l-453 -600h310l65 1l4 -5l-6 -16h-368l-34 -1l2 18l453 600h-300l-55 -1l-4 5l6 17l61 -1h286l35 1zM297.5 810.5q5.5 -5.5 5.5 -14.5t-5.5 -14.5t-14.5 -5.5t-14.5 5.5t-5.5 14.5t5.5 14.5t14.5 5.5t14.5 -5.5z" />
    <glyph glyph-name="zdotaccent" unicode="&#x17c;" horiz-adv-x="393" 
d="M358 455l-313 -416l27 5q21 0 44 -8t27 -9q43 -17 69 -17q52 0 79.5 39.5t32.5 119.5l9 1l10 -11q-9 -169 -133 -169q-26 0 -71 17q-18 6 -37.5 11t-34.5 5q-36 0 -61 -28h-3l-9 8l323 429h-200l-42 -1l-2 4l4 17l2 2l46 -2h205l17 12zM259.5 625.5q5.5 -5.5 5.5 -14.5
t-5.5 -14.5t-14.5 -5.5t-14.5 5.5t-5.5 14.5t5.5 14.5t14.5 5.5t14.5 -5.5z" />
    <glyph glyph-name="Zcaron" unicode="&#x17d;" horiz-adv-x="482" 
d="M487 620l-453 -600h310l65 1l4 -5l-6 -16h-368l-34 -1l2 18l453 600h-300l-55 -1l-4 5l6 17l61 -1h286l35 1zM389 805q-37 -24 -105 -76h-16q-52 45 -92 76l8 14h5q40 -29 87 -70q47 35 103 70h5z" />
    <glyph glyph-name="zcaron" unicode="&#x17e;" horiz-adv-x="393" 
d="M358 455l-313 -416l27 5q21 0 44 -8t27 -9q43 -17 69 -17q52 0 79.5 39.5t32.5 119.5l9 1l10 -11q-9 -169 -133 -169q-26 0 -71 17q-18 6 -37.5 11t-34.5 5q-36 0 -61 -28h-3l-9 8l323 429h-200l-42 -1l-2 4l4 17l2 2l46 -2h205l17 12zM352 646q-42 -41 -115 -126h-18
q-49 78 -87 126l11 12h5q39 -50 81 -117q59 68 110 117h5z" />
    <glyph glyph-name="uni018F" unicode="&#x18f;" horiz-adv-x="591" 
d="M500 572.5q59 -68.5 59 -193.5q0 -113 -38.5 -200.5t-108 -135.5t-158.5 -48q-96 0 -153 54.5t-57 144.5q0 32 10 69l8 9l468 6q9 47 9 99q0 117 -54.5 180.5t-156.5 63.5q-53 0 -107 -16t-93 -43l-7 2l5 19q47 28 100.5 43t105.5 15q109 0 168 -68.5zM428 80.5
q72 64.5 98 176.5l-456 -5l-5 -32q-2 -20 -2 -29q0 -79 52.5 -127t140.5 -48q100 0 172 64.5z" />
    <glyph glyph-name="florin" unicode="&#x192;" horiz-adv-x="234" 
d="M330 603l-5 -19l-3 -2q-23 9 -53 9q-100 0 -115 -115l-14 -111h114l3 -4l-2 -16h-117l-38 -304q-7 -65 -27 -103t-72 -87l-12 10l1 5q47 46 65 81t25 92l18 146l20 160h-63l-4 4l2 16h67l14 111q7 65 42 100t92 35q24 0 62 -8z" />
    <glyph glyph-name="Ohorn" unicode="&#x1a0;" horiz-adv-x="635" 
d="M569.5 606q-26.5 -23 -66.5 -19q34 -32 49.5 -81t15.5 -124q0 -117 -37 -204.5t-104.5 -135t-157.5 -47.5q-212 0 -212 270q0 116 36.5 201t105 130.5t160.5 45.5q37 0 60 -6t46 -17q12 -5 24.5 -9t25.5 -4q26 0 43 15.5t17 39.5q0 33 -23 64l2 5q10 5 13 5
q10 0 19.5 -21.5t9.5 -45.5q0 -39 -26.5 -62zM353 622q-84 0 -146.5 -43.5t-96 -124t-33.5 -188.5q0 -251 194 -251q83 0 145.5 44.5t97 126t34.5 189.5q0 247 -195 247z" />
    <glyph glyph-name="ohorn" unicode="&#x1a1;" horiz-adv-x="438" 
d="M436.5 551q12.5 -25 12.5 -51q0 -39 -26.5 -64t-66.5 -25q-12 0 -25 3q11 -18 15.5 -41t4.5 -59q0 -90 -25.5 -161.5t-71 -113.5t-103.5 -45h-5q-52 4 -74.5 38t-22.5 108q0 90 26 162.5t71.5 113.5t103.5 42h5q19 -1 31 -4.5t27 -10.5q24 -11 45 -11q31 0 51.5 18
t20.5 45q0 35 -33 71l2 5q8 5 12 5q13 0 25.5 -25zM242 53.5q41 38.5 64.5 106t23.5 150.5q0 68 -18.5 97.5t-61.5 29.5q-51 0 -92.5 -38.5t-65 -105.5t-23.5 -149q0 -68 19 -98.5t62 -30.5q51 0 92 38.5z" />
    <glyph glyph-name="Uhorn" unicode="&#x1af;" horiz-adv-x="617" 
d="M605.5 639q-21.5 -20 -56.5 -22l-39 -305l-10 -83q-11 -111 -72.5 -172t-161.5 -61q-89 0 -137 46.5t-48 133.5q0 29 4 53l13 93l40 315h20l-53 -408q-4 -34 -4 -49q0 -79 42.5 -121.5t121.5 -42.5q91 0 146 55t69 158l51 408h11q30 0 47.5 14.5t17.5 38.5q0 27 -31 61
l2 5q6 5 12 5t15 -10t15.5 -26t6.5 -35q0 -31 -21.5 -51z" />
    <glyph glyph-name="uhorn" unicode="&#x1b0;" horiz-adv-x="466" 
d="M460.5 470.5q-22.5 -21.5 -70.5 -31.5l-44 -333l-9 -106l-25 -4l36 271h-5q-65 -112 -114.5 -179t-98.5 -99h-11q-24 7 -38 30.5t-13 54.5l1 13l43 263l12 101l25 4l-59 -365l-1 -15q-1 -25 10 -42.5t24 -17.5q26 0 90.5 85t142.5 230l4 32l7 90l16 3q41 8 60.5 24
t19.5 42q0 16 -8 34t-25 36l2 5q8 5 13 5q6 0 15.5 -10.5t16 -27.5t6.5 -37q0 -34 -22.5 -55.5z" />
    <glyph glyph-name="uni01C4" unicode="&#x1c4;" horiz-adv-x="1091" 
d="M520 577.5q59 -64.5 59 -184.5q0 -121 -37.5 -210.5t-109.5 -138.5t-172 -49q-32 0 -85 1.5t-95 3.5l25 195l55 442l190 5q111 0 170 -64.5zM421.5 61q66.5 46 101.5 130.5t35 198.5q0 112 -54 172t-156 60q-30 0 -80.5 -1.5t-89.5 -3.5l-53 -422l-23 -176l56 -2l105 -2
q92 0 158.5 46zM1096 620l-453 -600h310l65 1l4 -5l-6 -16h-368l-34 -1l2 18l453 600h-300l-55 -1l-4 5l6 17l61 -1h286l35 1zM998 805q-37 -24 -105 -76h-16q-52 45 -92 76l8 14h5q40 -29 87 -70q47 35 103 70h5z" />
    <glyph glyph-name="uni01C5" unicode="&#x1c5;" horiz-adv-x="1002" 
d="M520 577.5q59 -64.5 59 -184.5q0 -121 -37.5 -210.5t-109.5 -138.5t-172 -49q-32 0 -85 1.5t-95 3.5l25 195l55 442l190 5q111 0 170 -64.5zM421.5 61q66.5 46 101.5 130.5t35 198.5q0 112 -54 172t-156 60q-30 0 -80.5 -1.5t-89.5 -3.5l-53 -422l-23 -176l56 -2l105 -2
q92 0 158.5 46zM967 455l-313 -416l27 5q21 0 44 -8t27 -9q43 -17 69 -17q52 0 79.5 39.5t32.5 119.5l9 1l10 -11q-9 -169 -133 -169q-26 0 -71 17q-18 6 -37.5 11t-34.5 5q-36 0 -61 -28h-3l-9 8l323 429h-200l-42 -1l-2 4l4 17l2 2l46 -2h205l17 12zM961 646
q-42 -41 -115 -126h-18q-49 78 -87 126l11 12h5q39 -50 81 -117q59 68 110 117h5z" />
    <glyph glyph-name="uni01C6" unicode="&#x1c6;" horiz-adv-x="816" 
d="M394 702l-79 -596l-9 -106l-25 -4l37 275h-5q-46 -85 -99 -156.5t-107 -118.5h-11q-27 19 -39 50.5t-12 86.5q0 86 27.5 157.5t79.5 115.5t124 48h4l62 -3l21 157l6 90zM148.5 64q36.5 40 84.5 111t94 161l12 95l-61 3q-64 0 -112.5 -41t-74.5 -109t-26 -146
q0 -40 7 -65.5t16 -37t16 -11.5q8 0 44.5 40zM781 455l-313 -416l27 5q21 0 44 -8t27 -9q43 -17 69 -17q52 0 79.5 39.5t32.5 119.5l9 1l10 -11q-9 -169 -133 -169q-26 0 -71 17q-18 6 -37.5 11t-34.5 5q-36 0 -61 -28h-3l-9 8l323 429h-200l-42 -1l-2 4l4 17l2 2l46 -2h205
l17 12zM775 646q-42 -41 -115 -126h-18q-49 78 -87 126l11 12h5q39 -50 81 -117q59 68 110 117h5z" />
    <glyph glyph-name="uni01C7" unicode="&#x1c7;" horiz-adv-x="642" 
d="M351 16l-6 -16h-264l25 195l55 442h20l-55 -442l-22 -175h244zM529 212l-12 -97q-9 -70 -44 -118.5t-109 -94.5l-9 11v6q68 42 102 88t41 108l11 93l51 409h-125l-4 4l5 16h146z" />
    <glyph glyph-name="uni01C8" unicode="&#x1c8;" horiz-adv-x="594" 
d="M351 16l-6 -16h-264l25 195l55 442h20l-55 -442l-22 -175h244zM532 451l-45 -358l-11 -75q-10 -80 -36.5 -124.5t-86.5 -85.5l-11 11l1 6q55 37 78 76t32 107l49 358l5 63h-83l-4 4l4 16h87l19 3zM537.5 625.5q5.5 -5.5 5.5 -14.5t-5.5 -14.5t-14.5 -5.5t-14.5 5.5
t-5.5 14.5t5.5 14.5t14.5 5.5t14.5 -5.5z" />
    <glyph glyph-name="uni01C9" unicode="&#x1c9;" horiz-adv-x="450" 
d="M112 106l-9 -106l-26 -4l82 612l6 90l26 4zM388 451l-45 -358l-11 -75q-10 -80 -36.5 -124.5t-86.5 -85.5l-11 11l1 6q55 37 78 76t32 107l49 358l5 63h-83l-4 4l4 16h87l19 3zM393.5 625.5q5.5 -5.5 5.5 -14.5t-5.5 -14.5t-14.5 -5.5t-14.5 5.5t-5.5 14.5t5.5 14.5
t14.5 5.5t14.5 -5.5z" />
    <glyph glyph-name="uni01CA" unicode="&#x1ca;" horiz-adv-x="900" 
d="M526 176l-23 -176h-19l-304 595h-4l-51 -396l-25 -199h-20l24 190l57 447h19l304 -595h4l77 594l20 2zM787 212l-12 -97q-9 -70 -44 -118.5t-109 -94.5l-9 11v6q68 42 102 88t41 108l11 93l51 409h-125l-4 4l5 16h146z" />
    <glyph glyph-name="uni01CB" unicode="&#x1cb;" horiz-adv-x="852" 
d="M526 176l-23 -176h-19l-304 595h-4l-51 -396l-25 -199h-20l24 190l57 447h19l304 -595h4l77 594l20 2zM790 451l-45 -358l-11 -75q-10 -80 -36.5 -124.5t-86.5 -85.5l-11 11l1 6q55 37 78 76t32 107l49 358l5 63h-83l-4 4l4 16h87l19 3zM795.5 625.5q5.5 -5.5 5.5 -14.5
t-5.5 -14.5t-14.5 -5.5t-14.5 5.5t-5.5 14.5t5.5 14.5t14.5 5.5t14.5 -5.5z" />
    <glyph glyph-name="uni01CC" unicode="&#x1cc;" horiz-adv-x="657" 
d="M372 431.5q14 -23.5 13 -54.5l-1 -13l-43 -263l-12 -101l-25 -4l59 365l1 15q1 25 -10 42.5t-24 17.5q-26 0 -90 -85t-143 -231l-2 -14l-9 -106l-25 -4l48 366l7 90l25 4l-36 -272h5q65 112 114.5 179t98.5 99h11q24 -7 38 -30.5zM595 451l-45 -358l-11 -75
q-10 -80 -36.5 -124.5t-86.5 -85.5l-11 11l1 6q55 37 78 76t32 107l49 358l5 63h-83l-4 4l4 16h87l19 3zM600.5 625.5q5.5 -5.5 5.5 -14.5t-5.5 -14.5t-14.5 -5.5t-14.5 5.5t-5.5 14.5t5.5 14.5t14.5 5.5t14.5 -5.5z" />
    <glyph glyph-name="uni01CD" unicode="&#x1cd;" horiz-adv-x="524" 
d="M470 0h-23l-6 43l-37 170h-283l-85 -170l-20 -43h-24l319 637h21zM318 603h-3l-184 -370h268zM445 805q-37 -24 -105 -76h-16q-52 45 -92 76l8 14h5q40 -29 87 -70q47 35 103 70h5z" />
    <glyph glyph-name="uni01CE" unicode="&#x1ce;" horiz-adv-x="422" 
d="M359 456l-46 -350l-9 -106l-25 -4l36 275h-4q-45 -85 -97 -156t-105 -119h-11q-27 20 -39.5 52t-12.5 89q0 85 26.5 156t78 115t122.5 49h4l65 -5l12 7zM149.5 64q35.5 40 82.5 110t91 159l4 29l7 70l-59 5q-63 -1 -110.5 -42.5t-73 -109t-25.5 -144.5q0 -41 7 -67
t16.5 -38t16.5 -12q8 0 43.5 40zM379 646q-42 -41 -115 -126h-18q-49 78 -87 126l11 12h5q39 -50 81 -117q59 68 110 117h5z" />
    <glyph glyph-name="uni01CF" unicode="&#x1cf;" horiz-adv-x="235" 
d="M125 195l-25 -195h-20l25 195l55 442h20zM294 805q-37 -24 -105 -76h-16q-52 45 -92 76l8 14h5q40 -29 87 -70q47 35 103 70h5z" />
    <glyph glyph-name="uni01D0" unicode="&#x1d0;" horiz-adv-x="203" 
d="M95 106l-7 -106l-27 -4l49 366l6 90l25 4zM256 646q-42 -41 -115 -126h-18q-49 78 -87 126l11 12h5q39 -50 81 -117q59 68 110 117h5z" />
    <glyph glyph-name="uni01D1" unicode="&#x1d1;" horiz-adv-x="599" 
d="M513.5 577q54.5 -65 54.5 -186q0 -122 -35.5 -211t-103 -137t-162.5 -48q-102 0 -156.5 67t-54.5 191q0 121 35 208.5t102.5 134t161.5 46.5q104 0 158.5 -65zM205 578q-62 -44 -95 -126.5t-33 -195.5q0 -115 49.5 -178t141.5 -63q87 0 150 45.5t96 129t33 197.5
q0 113 -49 174t-144 61q-87 0 -149 -44zM476 805q-37 -24 -105 -76h-16q-52 45 -92 76l8 14h5q40 -29 87 -70q47 35 103 70h5z" />
    <glyph glyph-name="uni01D2" unicode="&#x1d2;" horiz-adv-x="396" 
d="M253 458q50 -4 72.5 -37t22.5 -101q0 -91 -24 -163.5t-69 -115.5t-106 -47h-5q-50 3 -73 36.5t-23 103.5q0 91 24.5 164.5t69.5 116t106 43.5h5zM154.5 398q-40.5 -39 -63.5 -107.5t-23 -153.5q0 -62 19.5 -92t60.5 -30q52 0 93 39.5t63.5 108.5t22.5 154q0 62 -19 91
t-60 29q-53 0 -93.5 -39zM358 646q-42 -41 -115 -126h-18q-49 78 -87 126l11 12h5q39 -50 81 -117q59 68 110 117h5z" />
    <glyph glyph-name="uni01D3" unicode="&#x1d3;" horiz-adv-x="583" 
d="M510 312l-10 -83q-11 -111 -72.5 -172t-161.5 -61q-89 0 -137 46.5t-48 133.5q0 29 4 53l13 93l40 315h20l-53 -408q-4 -34 -4 -49q0 -79 42.5 -121.5t121.5 -42.5q91 0 146 55t69 158l51 408h20zM469 831q-42 -41 -115 -126h-18q-49 78 -87 126l11 12h5q39 -50 81 -117
q59 68 110 117h5z" />
    <glyph glyph-name="uni01D4" unicode="&#x1d4;" horiz-adv-x="454" 
d="M392 456l-46 -350l-9 -106l-25 -4l36 271h-5q-65 -112 -114.5 -179t-98.5 -99h-11q-24 7 -38 30.5t-13 54.5l1 13l43 263l12 101l25 4l-59 -365l-1 -15q-1 -25 10 -42.5t24 -17.5q26 0 90.5 85t142.5 230l4 32l7 90zM382 646q-42 -41 -115 -126h-18q-49 78 -87 126l11 12
h5q39 -50 81 -117q59 68 110 117h5z" />
    <glyph glyph-name="uni01D5" unicode="&#x1d5;" horiz-adv-x="583" 
d="M510 312l-10 -83q-11 -111 -72.5 -172t-161.5 -61q-89 0 -137 46.5t-48 133.5q0 29 4 53l13 93l40 315h20l-53 -408q-4 -34 -4 -49q0 -79 42.5 -121.5t121.5 -42.5q91 0 146 55t69 158l51 408h20zM498 873l-2 -17h-237l-3 3l2 17h237zM312.5 774.5q5.5 -5.5 5.5 -14.5
t-5.5 -14.5t-14.5 -5.5t-14.5 5.5t-5.5 14.5t5.5 14.5t14.5 5.5t14.5 -5.5zM452.5 774.5q5.5 -5.5 5.5 -14.5t-5.5 -14.5t-14.5 -5.5t-14.5 5.5t-5.5 14.5t5.5 14.5t14.5 5.5t14.5 -5.5z" />
    <glyph glyph-name="uni01D6" unicode="&#x1d6;" horiz-adv-x="454" 
d="M392 456l-46 -350l-9 -106l-25 -4l36 271h-5q-65 -112 -114.5 -179t-98.5 -99h-11q-24 7 -38 30.5t-13 54.5l1 13l43 263l12 101l25 4l-59 -365l-1 -15q-1 -25 10 -42.5t24 -17.5q26 0 90.5 85t142.5 230l4 32l7 90zM411 688l-2 -17h-237l-3 3l2 17h237zM225.5 589.5
q5.5 -5.5 5.5 -14.5t-5.5 -14.5t-14.5 -5.5t-14.5 5.5t-5.5 14.5t5.5 14.5t14.5 5.5t14.5 -5.5zM365.5 589.5q5.5 -5.5 5.5 -14.5t-5.5 -14.5t-14.5 -5.5t-14.5 5.5t-5.5 14.5t5.5 14.5t14.5 5.5t14.5 -5.5z" />
    <glyph glyph-name="uni01D7" unicode="&#x1d7;" horiz-adv-x="583" 
d="M510 312l-10 -83q-11 -111 -72.5 -172t-161.5 -61q-89 0 -137 46.5t-48 133.5q0 29 4 53l13 93l40 315h20l-53 -408q-4 -34 -4 -49q0 -79 42.5 -121.5t121.5 -42.5q91 0 146 55t69 158l51 408h20zM448 908l5 -13l-3 -5q-80 -29 -187 -61l-5 4l-4 16q93 26 190 62z
M285.5 774.5q5.5 -5.5 5.5 -14.5t-5.5 -14.5t-14.5 -5.5t-14.5 5.5t-5.5 14.5t5.5 14.5t14.5 5.5t14.5 -5.5zM425.5 774.5q5.5 -5.5 5.5 -14.5t-5.5 -14.5t-14.5 -5.5t-14.5 5.5t-5.5 14.5t5.5 14.5t14.5 5.5t14.5 -5.5z" />
    <glyph glyph-name="uni01D8" unicode="&#x1d8;" horiz-adv-x="454" 
d="M392 456l-46 -350l-9 -106l-25 -4l36 271h-5q-65 -112 -114.5 -179t-98.5 -99h-11q-24 7 -38 30.5t-13 54.5l1 13l43 263l12 101l25 4l-59 -365l-1 -15q-1 -25 10 -42.5t24 -17.5q26 0 90.5 85t142.5 230l4 32l7 90zM373 723l5 -13l-3 -5q-80 -29 -187 -61l-5 4l-4 16
q93 26 190 62zM220.5 589.5q5.5 -5.5 5.5 -14.5t-5.5 -14.5t-14.5 -5.5t-14.5 5.5t-5.5 14.5t5.5 14.5t14.5 5.5t14.5 -5.5zM360.5 589.5q5.5 -5.5 5.5 -14.5t-5.5 -14.5t-14.5 -5.5t-14.5 5.5t-5.5 14.5t5.5 14.5t14.5 5.5t14.5 -5.5z" />
    <glyph glyph-name="uni01D9" unicode="&#x1d9;" horiz-adv-x="583" 
d="M510 312l-10 -83q-11 -111 -72.5 -172t-161.5 -61q-89 0 -137 46.5t-48 133.5q0 29 4 53l13 93l40 315h20l-53 -408q-4 -34 -4 -49q0 -79 42.5 -121.5t121.5 -42.5q91 0 146 55t69 158l51 408h20zM294.5 775.5q5.5 -5.5 5.5 -14.5t-5.5 -14.5t-14.5 -5.5t-14.5 5.5
t-5.5 14.5t5.5 14.5t14.5 5.5t14.5 -5.5zM444.5 775.5q5.5 -5.5 5.5 -14.5t-5.5 -14.5t-14.5 -5.5t-14.5 5.5t-5.5 14.5t5.5 14.5t14.5 5.5t14.5 -5.5zM475 894q-37 -24 -105 -76h-16q-52 45 -92 76l8 14h5q40 -29 87 -70q47 35 103 70h5z" />
    <glyph glyph-name="uni01DA" unicode="&#x1da;" horiz-adv-x="454" 
d="M392 456l-46 -350l-9 -106l-25 -4l36 271h-5q-65 -112 -114.5 -179t-98.5 -99h-11q-24 7 -38 30.5t-13 54.5l1 13l43 263l12 101l25 4l-59 -365l-1 -15q-1 -25 10 -42.5t24 -17.5q26 0 90.5 85t142.5 230l4 32l7 90zM384 704q-37 -24 -105 -76h-16q-52 45 -92 76l8 14h5
q40 -29 87 -70q47 35 103 70h5zM212.5 589.5q5.5 -5.5 5.5 -14.5t-5.5 -14.5t-14.5 -5.5t-14.5 5.5t-5.5 14.5t5.5 14.5t14.5 5.5t14.5 -5.5zM352.5 589.5q5.5 -5.5 5.5 -14.5t-5.5 -14.5t-14.5 -5.5t-14.5 5.5t-5.5 14.5t5.5 14.5t14.5 5.5t14.5 -5.5z" />
    <glyph glyph-name="uni01DB" unicode="&#x1db;" horiz-adv-x="583" 
d="M510 312l-10 -83q-11 -111 -72.5 -172t-161.5 -61q-89 0 -137 46.5t-48 133.5q0 29 4 53l13 93l40 315h20l-53 -408q-4 -34 -4 -49q0 -79 42.5 -121.5t121.5 -42.5q91 0 146 55t69 158l51 408h20zM247 890l-3 5l5 13l4 3q97 -36 190 -62l-4 -16l-5 -4q-107 32 -187 61z
M256.5 745.5q-5.5 5.5 -5.5 14.5t5.5 14.5t14.5 5.5t14.5 -5.5t5.5 -14.5t-5.5 -14.5t-14.5 -5.5t-14.5 5.5zM396.5 745.5q-5.5 5.5 -5.5 14.5t5.5 14.5t14.5 5.5t14.5 -5.5t5.5 -14.5t-5.5 -14.5t-14.5 -5.5t-14.5 5.5z" />
    <glyph glyph-name="uni01DC" unicode="&#x1dc;" horiz-adv-x="454" 
d="M392 456l-46 -350l-9 -106l-25 -4l36 271h-5q-65 -112 -114.5 -179t-98.5 -99h-11q-24 7 -38 30.5t-13 54.5l1 13l43 263l12 101l25 4l-59 -365l-1 -15q-1 -25 10 -42.5t24 -17.5q26 0 90.5 85t142.5 230l4 32l7 90zM182 705l-3 5l5 13l4 3q97 -36 190 -62l-4 -16l-5 -4
q-107 32 -187 61zM191.5 560.5q-5.5 5.5 -5.5 14.5t5.5 14.5t14.5 5.5t14.5 -5.5t5.5 -14.5t-5.5 -14.5t-14.5 -5.5t-14.5 5.5zM331.5 560.5q-5.5 5.5 -5.5 14.5t5.5 14.5t14.5 5.5t14.5 -5.5t5.5 -14.5t-5.5 -14.5t-14.5 -5.5t-14.5 5.5z" />
    <glyph glyph-name="Gcaron" unicode="&#x1e6;" horiz-adv-x="575" 
d="M461.5 627q42.5 -14 80.5 -40l-8 -18h-7q-76 52 -152 52q-94 0 -161.5 -44t-103 -127t-35.5 -198q0 -114 49 -175.5t142 -61.5q44 0 82.5 6.5t98.5 23.5l15 113l10 89l20 2l-10 -91l-17 -128q-67 -20 -108 -27t-91 -7q-103 0 -157 66t-54 188t38.5 210t111 134.5
t173.5 46.5q41 0 83.5 -14zM470 805q-37 -24 -105 -76h-16q-52 45 -92 76l8 14h5q40 -29 87 -70q47 35 103 70h5z" />
    <glyph glyph-name="gcaron" unicode="&#x1e7;" horiz-adv-x="414" 
d="M352 456l-41 -323l-12 -98q-15 -116 -72 -174t-145 -58q-55 0 -90.5 27.5t-49.5 77.5l2 7l150 122v5q-18 18 -26.5 45t-8.5 71q0 80 25.5 146t74 106.5t114.5 44.5h4l59 -3l11 7zM170.5 398q-44.5 -38 -68.5 -101t-24 -135q0 -37 6.5 -60.5t15 -34t14.5 -10.5
q7 0 38 36.5t75.5 102t91.5 148.5l3 26l5 64l-53 2q-59 0 -103.5 -38zM311 286h-4q-63 -100 -104.5 -157.5t-85.5 -97.5l-144 -117q-3 -2 -4.5 -4.5t-1.5 -5.5q2 -15 15 -34t38.5 -33t61.5 -14q78 0 130 53t66 155zM364 646q-42 -41 -115 -126h-18q-49 78 -87 126l11 12h5
q39 -50 81 -117q59 68 110 117h5z" />
    <glyph glyph-name="uni01EA" unicode="&#x1ea;" horiz-adv-x="599" 
d="M513.5 577q54.5 -65 54.5 -186q0 -122 -35.5 -211t-103 -137t-162.5 -48q-102 0 -156.5 67t-54.5 191q0 121 35 208.5t102.5 134t161.5 46.5q104 0 158.5 -65zM205 578q-62 -44 -95 -126.5t-33 -195.5q0 -115 49.5 -178t141.5 -63q87 0 150 45.5t96 129t33 197.5
q0 113 -49 174t-144 61q-87 0 -149 -44zM258.5 -190.5q-17.5 17.5 -17.5 47.5q0 20 10.5 38.5t50.5 72.5l31 42h24q-18 -22 -28 -38q-44 -58 -55.5 -76.5t-11.5 -36.5q0 -21 11.5 -33.5t32.5 -12.5t42 13.5t39 38.5h2l11 -16q-44 -57 -95 -57q-29 0 -46.5 17.5z" />
    <glyph glyph-name="uni01EB" unicode="&#x1eb;" horiz-adv-x="396" 
d="M253 458q50 -4 72.5 -37t22.5 -101q0 -91 -24 -163.5t-69 -115.5t-106 -47h-5q-50 3 -73 36.5t-23 103.5q0 91 24.5 164.5t69.5 116t106 43.5h5zM154.5 398q-40.5 -39 -63.5 -107.5t-23 -153.5q0 -62 19.5 -92t60.5 -30q52 0 93 39.5t63.5 108.5t22.5 154q0 62 -19 91
t-60 29q-53 0 -93.5 -39zM113.5 -190.5q-17.5 17.5 -17.5 47.5q0 20 10.5 38.5t50.5 72.5l31 42h24q-18 -22 -28 -38q-44 -58 -55.5 -76.5t-11.5 -36.5q0 -21 11.5 -33.5t32.5 -12.5t42 13.5t39 38.5h2l11 -16q-44 -57 -95 -57q-29 0 -46.5 17.5z" />
    <glyph glyph-name="Aringacute" unicode="&#x1fa;" horiz-adv-x="524" 
d="M256 778l-5 15q99 35 186 72l5 -2l5 -13l-2 -5q-66 -27 -184 -71zM470 0h-23l-7 43l-37 170h-283l-85 -170l-19 -43h-24l312 620q-21 6 -35 24t-14 43q0 30 19.5 49.5t50.5 19.5q33 0 52 -21t19 -49t-17.5 -46t-42.5 -22zM289.5 650.5q14.5 -13.5 35.5 -13.5t36 13t15 36
q0 21 -13.5 35.5t-37.5 14.5q-23 0 -36.5 -13.5t-13.5 -35.5q0 -23 14.5 -36.5zM318 603h-3l-185 -370h269z" />
    <glyph glyph-name="aringacute" unicode="&#x1fb;" horiz-adv-x="422" 
d="M359 456l-46 -350l-9 -106l-25 -4l36 275h-4q-45 -85 -97 -156t-105 -119h-11q-27 20 -39.5 52t-12.5 89q0 85 26.5 156t78 115t122.5 49h4l65 -5l12 7zM149.5 64q35.5 40 82.5 110t91 159l4 29l7 70l-59 5q-63 -1 -110.5 -42.5t-73 -109t-25.5 -144.5q0 -41 7 -67
t16.5 -38t16.5 -12q8 0 43.5 40zM321 647q19 -21 19 -49q0 -31 -21.5 -50t-49.5 -19t-49 19.5t-21 50.5q0 30 19.5 49.5t50.5 19.5q33 0 52 -21zM232.5 634.5q-13.5 -13.5 -13.5 -35.5q0 -23 14.5 -36.5t35.5 -13.5t36 13t15 36q0 21 -13.5 35.5t-37.5 14.5
q-23 0 -36.5 -13.5zM385.572 775.079l5.48438 -12.7637l-2.59473 -4.71875q-71.1309 -29.5439 -184.035 -71.083l-4.59668 3.58789l-5.11816 15.7402q95.6826 32.5723 186.142 71.832z" />
    <glyph glyph-name="AEacute" unicode="&#x1fc;" horiz-adv-x="744" 
d="M695 16l-6 -16h-286v43l-8 247l-249 -43l-135 -204l-26 -43h-27l426 637h285l2 -4l-7 -16h-258l9 -304l227 39l2 -3l-5 -17l-224 -38l8 -274h271zM394 310l-9 292h-3l-220 -332zM623 834l7 -12l-2 -5q-67 -38 -174 -93l-5 3l-7 15q91 44 176 94z" />
    <glyph glyph-name="aeacute" unicode="&#x1fd;" horiz-adv-x="570" 
d="M458 457h5q75 -6 75 -69q0 -57 -64 -111t-190 -101l-1 -28q0 -68 19.5 -100t59.5 -32q37 0 70.5 26.5t60.5 75.5h7l9 -13q-30 -50 -64.5 -77t-80.5 -33h-9q-49 6 -70.5 41.5t-21.5 106.5q0 50 7 89q-77 -150 -161 -236h-11q-27 20 -39.5 52t-12.5 89q0 85 26.5 156
t78 115t122.5 49h4l102 -26q37 24 79 26zM164.5 394.5q-47.5 -41.5 -73 -109t-25.5 -144.5q0 -41 7 -67t16.5 -38t16.5 -12q8 0 41 42t75.5 113t79.5 156q25 50 57 79l-84 23q-63 -1 -110.5 -42.5zM379.5 405.5q-37.5 -30.5 -62 -84.5t-31.5 -123q111 41 171 90t60 97
q0 23 -14.5 37t-42.5 14q-43 0 -80.5 -30.5zM433 668l10 -10l-1 -5q-69 -69 -144 -135l-5 1l-11 13q69 58 146 137z" />
    <glyph glyph-name="Oslashacute" unicode="&#x1fe;" horiz-adv-x="600" 
d="M568 391q0 -122 -35.5 -211t-103 -137t-162.5 -48q-61 0 -105 24l-60 -106l-15 3l-2 4l61 109q-44 31 -67 88t-23 136q0 121 35 208.5t102.5 134t161.5 46.5q71 0 118 -30l55 97l16 -3l1 -5l-56 -100q79 -64 79 -210zM97.5 130q20.5 -53 59.5 -82l306 545q-44 29 -109 29
q-87 0 -149 -44t-95 -126.5t-33 -195.5q0 -73 20.5 -126zM418 60.5q63 45.5 96 129t33 197.5q0 137 -69 195l-306 -544q41 -23 96 -23q87 0 150 45.5zM457 834l7 -12l-2 -5q-67 -38 -174 -93l-5 3l-7 15q91 44 176 94z" />
    <glyph glyph-name="oslashacute" unicode="&#x1ff;" horiz-adv-x="396" 
d="M348 320q0 -91 -24 -163.5t-69 -115.5t-106 -47h-5q-17 1 -32 6l-46 -107l-15 3l-2 4l47 107q-25 15 -36.5 46t-11.5 81q0 91 24.5 164.5t69.5 116t106 43.5h5q22 -2 35 -8l35 80l15 -2l2 -5l-35 -81q43 -29 43 -122zM104 27l176 404q-13 6 -32 6q-53 0 -93.5 -39
t-63.5 -107.5t-23 -153.5q0 -84 36 -110zM241 54.5q41 39.5 63.5 108.5t22.5 154q0 78 -31 105l-175 -403q11 -4 27 -4q52 0 93 39.5zM339 668l10 -10l-1 -5q-69 -69 -144 -135l-5 1l-11 13q69 58 146 137z" />
    <glyph glyph-name="uni0200" unicode="&#x200;" horiz-adv-x="524" 
d="M470 0h-23l-6 43l-37 170h-283l-85 -170l-20 -43h-24l319 637h21zM318 603h-3l-184 -370h268zM292 728q-52 48 -104 98l-1 5l10 10l5 1q51 -51 106 -100l-11 -13zM422 728q-52 48 -104 98l-1 5l10 10l5 1q51 -51 106 -100l-11 -13z" />
    <glyph glyph-name="uni0201" unicode="&#x201;" horiz-adv-x="422" 
d="M359 456l-46 -350l-9 -106l-25 -4l36 275h-4q-45 -85 -97 -156t-105 -119h-11q-27 20 -39.5 52t-12.5 89q0 85 26.5 156t78 115t122.5 49h4l65 -5l12 7zM149.5 64q35.5 40 82.5 110t91 159l4 29l7 70l-59 5q-63 -1 -110.5 -42.5t-73 -109t-25.5 -144.5q0 -41 7 -67
t16.5 -38t16.5 -12q8 0 43.5 40zM235 516q-73 66 -144 135l-1 5l10 10l5 1q70 -69 146 -137l-11 -13zM365 516q-74 66 -144 135l-1 5l10 10l5 1q69 -69 146 -137l-11 -13z" />
    <glyph glyph-name="uni0202" unicode="&#x202;" horiz-adv-x="524" 
d="M470 0h-23l-6 43l-37 170h-283l-85 -170l-20 -43h-24l319 637h21zM318 603h-3l-184 -370h268zM235 720q16 54 44 79.5t70 25.5t63 -25.5t25 -79.5l-15 -13h-5q-1 50 -18 74t-53 24q-35 0 -58 -24t-36 -74h-5z" />
    <glyph glyph-name="uni0203" unicode="&#x203;" horiz-adv-x="422" 
d="M359 456l-46 -350l-9 -106l-25 -4l36 275h-4q-45 -85 -97 -156t-105 -119h-11q-27 20 -39.5 52t-12.5 89q0 85 26.5 156t78 115t122.5 49h4l65 -5l12 7zM149.5 64q35.5 40 82.5 110t91 159l4 29l7 70l-59 5q-63 -1 -110.5 -42.5t-73 -109t-25.5 -144.5q0 -41 7 -67
t16.5 -38t16.5 -12q8 0 43.5 40zM168 535q16 54 44 79.5t70 25.5t63 -25.5t25 -79.5l-15 -13h-5q-1 50 -18 74t-53 24q-35 0 -58 -24t-36 -74h-5z" />
    <glyph glyph-name="uni0204" unicode="&#x204;" horiz-adv-x="432" 
d="M143 340h223l3 -4l-6 -16h-222l-16 -125l-22 -175h273l3 -4l-6 -16h-293l25 195l55 442h291l2 -4l-6 -16h-269zM284 728q-52 48 -104 98l-1 5l10 10l5 1q51 -51 106 -100l-11 -13zM414 728q-52 48 -104 98l-1 5l10 10l5 1q51 -51 106 -100l-11 -13z" />
    <glyph glyph-name="uni0205" unicode="&#x205;" horiz-adv-x="354" 
d="M284 118l9 -13q-30 -50 -64.5 -77t-80.5 -33h-9q-49 6 -70.5 41.5t-21.5 106.5q0 88 25.5 159t70.5 112.5t99 42.5h5q75 -6 75 -69q0 -57 -64 -111t-190 -101q-1 -9 -1 -28q0 -68 19.5 -100t59.5 -32q37 0 70.5 26.5t60.5 75.5h7zM163.5 405.5q-37.5 -30.5 -62 -84.5
t-31.5 -123q111 41 171 90t60 97q0 23 -14.5 37t-42.5 14q-43 0 -80.5 -30.5zM216 516q-73 66 -144 135l-1 5l10 10l5 1q70 -69 146 -137l-11 -13zM346 516q-74 66 -144 135l-1 5l10 10l5 1q69 -69 146 -137l-11 -13z" />
    <glyph glyph-name="uni0206" unicode="&#x206;" horiz-adv-x="432" 
d="M143 340h223l3 -4l-6 -16h-222l-16 -125l-22 -175h273l3 -4l-6 -16h-293l25 195l55 442h291l2 -4l-6 -16h-269zM227 720q16 54 44 79.5t70 25.5t63 -25.5t25 -79.5l-15 -13h-5q-1 50 -18 74t-53 24q-35 0 -58 -24t-36 -74h-5z" />
    <glyph glyph-name="uni0207" unicode="&#x207;" horiz-adv-x="354" 
d="M284 118l9 -13q-30 -50 -64.5 -77t-80.5 -33h-9q-49 6 -70.5 41.5t-21.5 106.5q0 88 25.5 159t70.5 112.5t99 42.5h5q75 -6 75 -69q0 -57 -64 -111t-190 -101q-1 -9 -1 -28q0 -68 19.5 -100t59.5 -32q37 0 70.5 26.5t60.5 75.5h7zM163.5 405.5q-37.5 -30.5 -62 -84.5
t-31.5 -123q111 41 171 90t60 97q0 23 -14.5 37t-42.5 14q-43 0 -80.5 -30.5zM149 535q16 54 44 79.5t70 25.5t63 -25.5t25 -79.5l-15 -13h-5q-1 50 -18 74t-53 24q-35 0 -58 -24t-36 -74h-5z" />
    <glyph glyph-name="uni0208" unicode="&#x208;" horiz-adv-x="235" 
d="M125 195l-25 -195h-20l25 195l55 442h20zM141 728q-52 48 -104 98l-1 5l10 10l5 1q51 -51 106 -100l-11 -13zM271 728q-52 48 -104 98l-1 5l10 10l5 1q51 -51 106 -100l-11 -13z" />
    <glyph glyph-name="uni0209" unicode="&#x209;" horiz-adv-x="203" 
d="M95 106l-7 -106l-27 -4l49 366l6 90l25 4zM112 516q-73 66 -144 135l-1 5l10 10l5 1q70 -69 146 -137l-11 -13zM242 516q-74 66 -144 135l-1 5l10 10l5 1q69 -69 146 -137l-11 -13z" />
    <glyph glyph-name="uni020A" unicode="&#x20a;" horiz-adv-x="235" 
d="M125 195l-25 -195h-20l25 195l55 442h20zM84 720q16 54 44 79.5t70 25.5t63 -25.5t25 -79.5l-15 -13h-5q-1 50 -18 74t-53 24q-35 0 -58 -24t-36 -74h-5z" />
    <glyph glyph-name="uni020B" unicode="&#x20b;" horiz-adv-x="203" 
d="M95 106l-7 -106l-27 -4l49 366l6 90l25 4zM45 535q16 54 44 79.5t70 25.5t63 -25.5t25 -79.5l-15 -13h-5q-1 50 -18 74t-53 24q-35 0 -58 -24t-36 -74h-5z" />
    <glyph glyph-name="uni020C" unicode="&#x20c;" horiz-adv-x="599" 
d="M513.5 577q54.5 -65 54.5 -186q0 -122 -35.5 -211t-103 -137t-162.5 -48q-102 0 -156.5 67t-54.5 191q0 121 35 208.5t102.5 134t161.5 46.5q104 0 158.5 -65zM205 578q-62 -44 -95 -126.5t-33 -195.5q0 -115 49.5 -178t141.5 -63q87 0 150 45.5t96 129t33 197.5
q0 113 -49 174t-144 61q-87 0 -149 -44zM323 728q-52 48 -104 98l-1 5l10 10l5 1q51 -51 106 -100l-11 -13zM453 728q-52 48 -104 98l-1 5l10 10l5 1q51 -51 106 -100l-11 -13z" />
    <glyph glyph-name="uni020D" unicode="&#x20d;" horiz-adv-x="396" 
d="M253 458q50 -4 72.5 -37t22.5 -101q0 -91 -24 -163.5t-69 -115.5t-106 -47h-5q-50 3 -73 36.5t-23 103.5q0 91 24.5 164.5t69.5 116t106 43.5h5zM154.5 398q-40.5 -39 -63.5 -107.5t-23 -153.5q0 -62 19.5 -92t60.5 -30q52 0 93 39.5t63.5 108.5t22.5 154q0 62 -19 91
t-60 29q-53 0 -93.5 -39zM214 516q-73 66 -144 135l-1 5l10 10l5 1q70 -69 146 -137l-11 -13zM344 516q-74 66 -144 135l-1 5l10 10l5 1q69 -69 146 -137l-11 -13z" />
    <glyph glyph-name="uni020E" unicode="&#x20e;" horiz-adv-x="599" 
d="M513.5 577q54.5 -65 54.5 -186q0 -122 -35.5 -211t-103 -137t-162.5 -48q-102 0 -156.5 67t-54.5 191q0 121 35 208.5t102.5 134t161.5 46.5q104 0 158.5 -65zM205 578q-62 -44 -95 -126.5t-33 -195.5q0 -115 49.5 -178t141.5 -63q87 0 150 45.5t96 129t33 197.5
q0 113 -49 174t-144 61q-87 0 -149 -44zM266 720q16 54 44 79.5t70 25.5t63 -25.5t25 -79.5l-15 -13h-5q-1 50 -18 74t-53 24q-35 0 -58 -24t-36 -74h-5z" />
    <glyph glyph-name="uni020F" unicode="&#x20f;" horiz-adv-x="396" 
d="M253 458q50 -4 72.5 -37t22.5 -101q0 -91 -24 -163.5t-69 -115.5t-106 -47h-5q-50 3 -73 36.5t-23 103.5q0 91 24.5 164.5t69.5 116t106 43.5h5zM154.5 398q-40.5 -39 -63.5 -107.5t-23 -153.5q0 -62 19.5 -92t60.5 -30q52 0 93 39.5t63.5 108.5t22.5 154q0 62 -19 91
t-60 29q-53 0 -93.5 -39zM147 535q16 54 44 79.5t70 25.5t63 -25.5t25 -79.5l-15 -13h-5q-1 50 -18 74t-53 24q-35 0 -58 -24t-36 -74h-5z" />
    <glyph glyph-name="uni0210" unicode="&#x210;" horiz-adv-x="494" 
d="M402 348.5q-43 -58.5 -122 -82.5q60 -134 137 -261l-1 -4q-5 -5 -13 -8l-5 2q-81 137 -140 268h-125l-8 -68l-25 -195h-20l25 195l55 442l133 2q73 0 112.5 -38.5t39.5 -109.5q0 -84 -43 -142.5zM136 283h134q74 20 114.5 73.5t40.5 131.5q0 60 -32.5 94t-94.5 37
l-120 -1zM270 728q-52 48 -104 98l-1 5l10 10l5 1q51 -51 106 -100l-11 -13zM400 728q-52 48 -104 98l-1 5l10 10l5 1q51 -51 106 -100l-11 -13z" />
    <glyph glyph-name="uni0211" unicode="&#x211;" horiz-adv-x="307" 
d="M326 450l-3 -20l-3 -2l-11 2q-40 -7 -96 -90.5t-118 -235.5l-10 -104l-24 -4l47 366l8 90l23 4l-35 -275h5q54 123 106.5 193.5t94.5 77.5zM199 516q-73 66 -144 135l-1 5l10 10l5 1q70 -69 146 -137l-11 -13zM329 516q-74 66 -144 135l-1 5l10 10l5 1q69 -69 146 -137
l-11 -13z" />
    <glyph glyph-name="uni0212" unicode="&#x212;" horiz-adv-x="494" 
d="M402 348.5q-43 -58.5 -122 -82.5q60 -134 137 -261l-1 -4q-5 -5 -13 -8l-5 2q-81 137 -140 268h-125l-8 -68l-25 -195h-20l25 195l55 442l133 2q73 0 112.5 -38.5t39.5 -109.5q0 -84 -43 -142.5zM136 283h134q74 20 114.5 73.5t40.5 131.5q0 60 -32.5 94t-94.5 37
l-120 -1zM213 720q16 54 44 79.5t70 25.5t63 -25.5t25 -79.5l-15 -13h-5q-1 50 -18 74t-53 24q-35 0 -58 -24t-36 -74h-5z" />
    <glyph glyph-name="uni0213" unicode="&#x213;" horiz-adv-x="307" 
d="M326 450l-3 -20l-3 -2l-11 2q-40 -7 -96 -90.5t-118 -235.5l-10 -104l-24 -4l47 366l8 90l23 4l-35 -275h5q54 123 106.5 193.5t94.5 77.5zM132 535q16 54 44 79.5t70 25.5t63 -25.5t25 -79.5l-15 -13h-5q-1 50 -18 74t-53 24q-35 0 -58 -24t-36 -74h-5z" />
    <glyph glyph-name="uni0214" unicode="&#x214;" horiz-adv-x="583" 
d="M510 312l-10 -83q-11 -111 -72.5 -172t-161.5 -61q-89 0 -137 46.5t-48 133.5q0 29 4 53l13 93l40 315h20l-53 -408q-4 -34 -4 -49q0 -79 42.5 -121.5t121.5 -42.5q91 0 146 55t69 158l51 408h20zM315 728q-52 48 -104 98l-1 5l10 10l5 1q51 -51 106 -100l-11 -13z
M445 728q-52 48 -104 98l-1 5l10 10l5 1q51 -51 106 -100l-11 -13z" />
    <glyph glyph-name="uni0215" unicode="&#x215;" horiz-adv-x="454" 
d="M392 456l-46 -350l-9 -106l-25 -4l36 271h-5q-65 -112 -114.5 -179t-98.5 -99h-11q-24 7 -38 30.5t-13 54.5l1 13l43 263l12 101l25 4l-59 -365l-1 -15q-1 -25 10 -42.5t24 -17.5q26 0 90.5 85t142.5 230l4 32l7 90zM238 516q-73 66 -144 135l-1 5l10 10l5 1
q70 -69 146 -137l-11 -13zM368 516q-74 66 -144 135l-1 5l10 10l5 1q69 -69 146 -137l-11 -13z" />
    <glyph glyph-name="uni0216" unicode="&#x216;" horiz-adv-x="583" 
d="M510 312l-10 -83q-11 -111 -72.5 -172t-161.5 -61q-89 0 -137 46.5t-48 133.5q0 29 4 53l13 93l40 315h20l-53 -408q-4 -34 -4 -49q0 -79 42.5 -121.5t121.5 -42.5q91 0 146 55t69 158l51 408h20zM258 720q16 54 44 79.5t70 25.5t63 -25.5t25 -79.5l-15 -13h-5
q-1 50 -18 74t-53 24q-35 0 -58 -24t-36 -74h-5z" />
    <glyph glyph-name="uni0217" unicode="&#x217;" horiz-adv-x="454" 
d="M392 456l-46 -350l-9 -106l-25 -4l36 271h-5q-65 -112 -114.5 -179t-98.5 -99h-11q-24 7 -38 30.5t-13 54.5l1 13l43 263l12 101l25 4l-59 -365l-1 -15q-1 -25 10 -42.5t24 -17.5q26 0 90.5 85t142.5 230l4 32l7 90zM171 535q16 54 44 79.5t70 25.5t63 -25.5t25 -79.5
l-15 -13h-5q-1 50 -18 74t-53 24q-35 0 -58 -24t-36 -74h-5z" />
    <glyph glyph-name="Scommaaccent" unicode="&#x218;" horiz-adv-x="423" 
d="M398 611l-6 -18l-7 -1q-46 28 -104 28q-48 0 -86 -20.5t-59 -53.5t-21 -69q0 -33 16 -58t38.5 -42.5t62.5 -41.5q44 -26 70 -46t44 -50.5t18 -71.5q0 -46 -26.5 -85.5t-72 -62.5t-99.5 -23q-37 0 -74 12t-64 35l3 19l6 2q26 -24 61 -36t70 -12q50 0 90.5 21t63 55
t22.5 73q0 35 -16.5 61.5t-40 44.5t-64.5 43q-43 27 -68 46t-42.5 48.5t-17.5 69.5q0 45 25 82t68 58.5t96 21.5q61 0 114 -29zM218 -117q0 -20 -17 -44t-49 -49l-10 11l1 3q26 19 40 39.5t14 38.5q0 20 -30 34v4q5 7 13 11q38 -17 38 -48z" />
    <glyph glyph-name="scommaaccent" unicode="&#x219;" horiz-adv-x="306" 
d="M279 435l-7 -19l-6 -1q-34 20 -69 20q-31 0 -56.5 -14t-40 -36.5t-14.5 -46.5q0 -28 18 -48.5t56 -49.5q43 -32 64 -57t21 -63q0 -34 -18.5 -62.5t-52.5 -46t-78 -17.5q-48 7 -86 34l3 18l7 4q41 -35 88 -35q50 0 83 30t33 72q0 33 -19.5 55.5t-58.5 51.5t-59.5 53
t-20.5 59q0 51 40.5 85.5t100.5 33.5q42 -4 72 -20zM163 -117q0 -20 -17 -44t-49 -49l-10 11l1 3q26 19 40 39.5t14 38.5q0 20 -30 34v4q5 7 13 11q38 -17 38 -48z" />
    <glyph glyph-name="uni021A" unicode="&#x21a;" horiz-adv-x="450" 
d="M474 633l-6 -16h-183l-54 -422l-24 -195h-20l24 195l54 422h-185l-3 4l6 16h388zM232 -117q0 -20 -17 -44t-49 -49l-10 11l1 3q26 19 40 39.5t14 38.5q0 20 -30 34v4q5 7 13 11q38 -17 38 -48z" />
    <glyph glyph-name="uni021B" unicode="&#x21b;" horiz-adv-x="316" 
d="M106 87l-2 -20q0 -25 10.5 -38.5t29.5 -13.5q21 0 48.5 28t54.5 77h7l9 -12q-36 -59 -60.5 -82.5t-54.5 -30.5q-31 0 -47.5 17.5t-16.5 51.5l2 22l47 276l10 67h-71l-4 4l3 16h75l19 131l22 10l3 -3l-23 -138h144l3 -4l-3 -16h-148zM193 -117q0 -20 -17 -44t-49 -49
l-10 11l1 3q26 19 40 39.5t14 38.5q0 20 -30 34v4q5 7 13 11q38 -17 38 -48z" />
    <glyph glyph-name="uni022A" unicode="&#x22a;" horiz-adv-x="599" 
d="M513.5 577q54.5 -65 54.5 -186q0 -122 -35.5 -211t-103 -137t-162.5 -48q-102 0 -156.5 67t-54.5 191q0 121 35 208.5t102.5 134t161.5 46.5q104 0 158.5 -65zM205 578q-62 -44 -95 -126.5t-33 -195.5q0 -115 49.5 -178t141.5 -63q87 0 150 45.5t96 129t33 197.5
q0 113 -49 174t-144 61q-87 0 -149 -44zM506 873l-2 -17h-237l-3 3l2 17h237zM320.5 774.5q5.5 -5.5 5.5 -14.5t-5.5 -14.5t-14.5 -5.5t-14.5 5.5t-5.5 14.5t5.5 14.5t14.5 5.5t14.5 -5.5zM460.5 774.5q5.5 -5.5 5.5 -14.5t-5.5 -14.5t-14.5 -5.5t-14.5 5.5t-5.5 14.5
t5.5 14.5t14.5 5.5t14.5 -5.5z" />
    <glyph glyph-name="uni022B" unicode="&#x22b;" horiz-adv-x="396" 
d="M253 458q50 -4 72.5 -37t22.5 -101q0 -91 -24 -163.5t-69 -115.5t-106 -47h-5q-50 3 -73 36.5t-23 103.5q0 91 24.5 164.5t69.5 116t106 43.5h5zM154.5 398q-40.5 -39 -63.5 -107.5t-23 -153.5q0 -62 19.5 -92t60.5 -30q52 0 93 39.5t63.5 108.5t22.5 154q0 62 -19 91
t-60 29q-53 0 -93.5 -39zM387 688l-2 -17h-237l-3 3l2 17h237zM201.5 589.5q5.5 -5.5 5.5 -14.5t-5.5 -14.5t-14.5 -5.5t-14.5 5.5t-5.5 14.5t5.5 14.5t14.5 5.5t14.5 -5.5zM341.5 589.5q5.5 -5.5 5.5 -14.5t-5.5 -14.5t-14.5 -5.5t-14.5 5.5t-5.5 14.5t5.5 14.5t14.5 5.5
t14.5 -5.5z" />
    <glyph glyph-name="uni022C" unicode="&#x22c;" horiz-adv-x="599" 
d="M513.5 577q54.5 -65 54.5 -186q0 -122 -35.5 -211t-103 -137t-162.5 -48q-102 0 -156.5 67t-54.5 191q0 121 35 208.5t102.5 134t161.5 46.5q104 0 158.5 -65zM205 578q-62 -44 -95 -126.5t-33 -195.5q0 -115 49.5 -178t141.5 -63q87 0 150 45.5t96 129t33 197.5
q0 113 -49 174t-144 61q-87 0 -149 -44zM492 792v-4l-47 -47l-6 -2q-16 2 -72 20q-54 18 -65 18q-5 0 -13 -7t-17 -17l-16 -16h-3l-9 11v4l47 47l6 2q16 -2 72 -20q54 -18 65 -18q5 0 12 6t15 15l19 19h3zM496 878l-2 -17h-207l-3 3l2 17h207z" />
    <glyph glyph-name="uni022D" unicode="&#x22d;" horiz-adv-x="396" 
d="M253 458q50 -4 72.5 -37t22.5 -101q0 -91 -24 -163.5t-69 -115.5t-106 -47h-5q-50 3 -73 36.5t-23 103.5q0 91 24.5 164.5t69.5 116t106 43.5h5zM154.5 398q-40.5 -39 -63.5 -107.5t-23 -153.5q0 -62 19.5 -92t60.5 -30q52 0 93 39.5t63.5 108.5t22.5 154q0 62 -19 91
t-60 29q-53 0 -93.5 -39zM373 607v-4l-47 -47l-6 -2q-16 2 -72 20q-54 18 -65 18q-5 0 -13 -7t-17 -17l-16 -16h-3l-9 11v4l47 47l6 2q16 -2 72 -20q54 -18 65 -18q5 0 12 6t15 15l19 19h3zM377 693l-2 -17h-207l-3 3l2 17h207z" />
    <glyph glyph-name="uni0230" unicode="&#x230;" horiz-adv-x="599" 
d="M513.5 577q54.5 -65 54.5 -186q0 -122 -35.5 -211t-103 -137t-162.5 -48q-102 0 -156.5 67t-54.5 191q0 121 35 208.5t102.5 134t161.5 46.5q104 0 158.5 -65zM205 578q-62 -44 -95 -126.5t-33 -195.5q0 -115 49.5 -178t141.5 -63q87 0 150 45.5t96 129t33 197.5
q0 113 -49 174t-144 61q-87 0 -149 -44zM384.5 773.5q5.5 -5.5 5.5 -14.5t-5.5 -14.5t-14.5 -5.5t-14.5 5.5t-5.5 14.5t5.5 14.5t14.5 5.5t14.5 -5.5zM486 851l-2 -17h-207l-3 3l2 17h207z" />
    <glyph glyph-name="uni0231" unicode="&#x231;" horiz-adv-x="396" 
d="M253 458q50 -4 72.5 -37t22.5 -101q0 -91 -24 -163.5t-69 -115.5t-106 -47h-5q-50 3 -73 36.5t-23 103.5q0 91 24.5 164.5t69.5 116t106 43.5h5zM154.5 398q-40.5 -39 -63.5 -107.5t-23 -153.5q0 -62 19.5 -92t60.5 -30q52 0 93 39.5t63.5 108.5t22.5 154q0 62 -19 91
t-60 29q-53 0 -93.5 -39zM265.5 588.5q5.5 -5.5 5.5 -14.5t-5.5 -14.5t-14.5 -5.5t-14.5 5.5t-5.5 14.5t5.5 14.5t14.5 5.5t14.5 -5.5zM367 666l-2 -17h-207l-3 3l2 17h207z" />
    <glyph glyph-name="uni0232" unicode="&#x232;" horiz-adv-x="469" 
d="M238 247l-7 -52l-24 -195h-20l24 195l7 50l-141 392h25l7 -26l120 -334h5l218 334l14 26h26zM449 789l-2 -17h-287l-3 3l2 17h287z" />
    <glyph glyph-name="uni0233" unicode="&#x233;" horiz-adv-x="379" 
d="M362 373q0 -49 -39 -115l-164 -277q-56 -95 -99 -135.5t-91 -40.5q-27 0 -60 12l2 19l5 2q30 -12 55 -12q41 0 79 37.5t91 126.5l13 22l-80 438l23 6l12 -74l59 -340h4l134 226q36 60 36 106q0 32 -28 70l1 5l18 6q29 -41 29 -82zM382 604l-2 -17h-287l-3 3l2 17h287z
" />
    <glyph glyph-name="uni0237" unicode="&#x237;" horiz-adv-x="212" 
d="M150 451l-45 -358l-11 -75q-10 -80 -36.5 -124.5t-86.5 -85.5l-11 11l1 6q55 37 78 76t32 107l49 358l5 63h-83l-4 4l4 16h87l19 3z" />
    <glyph glyph-name="uni0259" unicode="&#x259;" horiz-adv-x="354" 
d="M285.5 415.5q21.5 -35.5 21.5 -106.5q0 -88 -25.5 -159t-70.5 -112.5t-99 -42.5h-5q-75 6 -75 69q0 57 64 111t190 101q1 9 1 28q0 68 -19.5 100t-59.5 32q-37 0 -70.5 -26.5t-60.5 -75.5h-7l-9 13q30 50 64.5 77t80.5 33h9q49 -6 70.5 -41.5zM190.5 46.5
q37.5 30.5 62 84.5t31.5 123q-111 -41 -171 -90t-60 -97q0 -23 14.5 -37t42.5 -14q43 0 80.5 30.5z" />
    <glyph glyph-name="uni02B0" unicode="&#x2b0;" horiz-adv-x="317" 
d="M289 626q11 -15 10 -35l-1 -9l-28 -167l-7 -65l-23 -3l37 229l1 10q0 15 -6.5 25.5t-15.5 10.5q-17 0 -58.5 -53t-90.5 -143l-1 -8l-5 -68l-23 -3l53 398l4 59l23 3l-44 -332h4q40 67 72 108.5t64 62.5h7q17 -5 28 -20z" />
    <glyph glyph-name="uni02B2" unicode="&#x2b2;" horiz-adv-x="156" 
d="M157 748q0 -8 -4.5 -12.5t-11.5 -4.5t-12 5t-5 12t4.5 11.5t12.5 4.5q16 0 16 -16zM142 640l-29 -229l-7 -49q-7 -51 -24.5 -80t-56.5 -55l-9 10l1 4q33 23 47.5 47.5t20.5 67.5l31 227l2 38h-50l-3 3l3 14h53l19 2h2z" />
    <glyph glyph-name="uni02B7" unicode="&#x2b7;" horiz-adv-x="450" 
d="M466 590q0 -31 -26 -75l-99 -165h-21l-33 259h-3l-127 -259h-25l-37 289l21 3l3 -31l29 -234h3l114 233l14 30h23l3 -29l29 -234h3l86 146q23 43 23 67q0 21 -18 44l19 8q19 -25 19 -52z" />
    <glyph glyph-name="uni02B8" unicode="&#x2b8;" horiz-adv-x="266" 
d="M281 588q0 -36 -25 -76l-91 -150q-44 -72 -81.5 -104t-75.5 -32q-23 0 -47 9l-1 19l4 2q24 -10 44 -10q31 0 63.5 26.5t68.5 83.5l-55 283l22 4l8 -48l38 -211h4l83 138q22 37 22 66q0 21 -18 46l18 8q19 -24 19 -54z" />
    <glyph glyph-name="uni02B9" unicode="&#x2b9;" horiz-adv-x="124" 
d="M128 631l-30 -144l-17 -2l-2 4l29 144l18 2z" />
    <glyph glyph-name="uni02BB" unicode="&#x2bb;" horiz-adv-x="123" 
d="M70 534q0 46 53 102l13 -11v-4q-44 -47 -44 -83q0 -30 38 -39v-4q-1 -3 -10 -16q-50 12 -50 55z" />
    <glyph glyph-name="uni02BC" unicode="&#x2bc;" horiz-adv-x="123" 
d="M138 579q0 -46 -53 -102l-13 11v4q44 47 44 83q0 30 -38 39v4q1 3 10 16q50 -12 50 -55z" />
    <glyph glyph-name="uni02BE" unicode="&#x2be;" horiz-adv-x="250" 
d="M119 509q28 0 45 15t17 41q0 20 -13 31.5t-36 11.5l2 20q31 0 49 -17t18 -45q0 -33 -24 -55t-60 -22z" />
    <glyph glyph-name="uni02BF" unicode="&#x2bf;" horiz-adv-x="249" 
d="M212 608q-28 0 -45 -15.5t-17 -40.5q0 -20 13 -31.5t36 -11.5l-2 -20q-31 0 -49 17t-18 45q0 33 24.5 55t59.5 22z" />
    <glyph glyph-name="circumflex" unicode="&#x2c6;" horiz-adv-x="390" 
d="M123 532q42 41 115 126h18q49 -78 87 -126l-11 -12h-5q-39 50 -81 117q-59 -68 -110 -117h-5z" />
    <glyph glyph-name="caron" unicode="&#x2c7;" horiz-adv-x="390" 
d="M357 646q-42 -41 -115 -126h-18q-49 78 -87 126l11 12h5q39 -50 81 -117q59 68 110 117h5z" />
    <glyph glyph-name="uni02C8" unicode="&#x2c8;" horiz-adv-x="266" 
d="M152 633h20l-20 -169h-20z" />
    <glyph glyph-name="uni02C9" unicode="&#x2c9;" horiz-adv-x="389" 
d="M386 604l-2 -17h-287l-3 3l2 17h287z" />
    <glyph glyph-name="uni02CA" unicode="&#x2ca;" horiz-adv-x="375" 
d="M304 668l10 -10l-1 -5q-69 -69 -144 -135l-5 1l-11 13q69 58 146 137z" />
    <glyph glyph-name="uni02CB" unicode="&#x2cb;" horiz-adv-x="405" 
d="M329 532l-11 -13l-5 -1q-75 66 -144 135l-1 5l10 10l5 1q77 -79 146 -137z" />
    <glyph glyph-name="uni02CC" unicode="&#x2cc;" horiz-adv-x="225" 
d="M67 -61h20l-20 -169h-20z" />
    <glyph glyph-name="breve" unicode="&#x2d8;" horiz-adv-x="390" 
d="M345 627q-16 -54 -44 -79.5t-70 -25.5t-63 25.5t-25 79.5l15 13h5q1 -50 18 -74t53 -24q35 0 58 24t36 74h5z" />
    <glyph glyph-name="dotaccent" unicode="&#x2d9;" horiz-adv-x="232" 
d="M176.5 625.5q5.5 -5.5 5.5 -14.5t-5.5 -14.5t-14.5 -5.5t-14.5 5.5t-5.5 14.5t5.5 14.5t14.5 5.5t14.5 -5.5z" />
    <glyph glyph-name="ring" unicode="&#x2da;" horiz-adv-x="391" 
d="M291 647q19 -21 19 -49q0 -31 -21.5 -50t-49.5 -19t-49 19.5t-21 50.5q0 30 19.5 49.5t50.5 19.5q33 0 52 -21zM202.5 634.5q-13.5 -13.5 -13.5 -35.5q0 -23 14.5 -36.5t35.5 -13.5t36 13t15 36q0 21 -13.5 35.5t-37.5 14.5q-23 0 -36.5 -13.5z" />
    <glyph glyph-name="ogonek" unicode="&#x2db;" horiz-adv-x="270" 
d="M38.5 -179.5q-17.5 17.5 -17.5 47.5q0 20 10.5 38.5t50.5 72.5l31 42h24q-18 -22 -28 -38q-44 -58 -55.5 -76.5t-11.5 -36.5q0 -21 11.5 -33.5t32.5 -12.5t42 13.5t39 38.5h2l11 -16q-44 -57 -95 -57q-29 0 -46.5 17.5z" />
    <glyph glyph-name="tilde" unicode="&#x2dc;" horiz-adv-x="385" 
d="M377 620v-4l-52 -47l-6 -2q-20 2 -81 20q-6 2 -35 10t-40 8q-5 0 -13 -6t-17 -16l-21 -19h-4l-9 11v4l52 47l6 2q20 -2 81 -20q6 -2 35 -10t40 -8q5 0 13 6t17 16l21 19h4z" />
    <glyph glyph-name="hungarumlaut" unicode="&#x2dd;" horiz-adv-x="374" 
d="M226 667l5 -1l10 -10l-1 -5q-70 -69 -144 -135l-5 1l-11 13q76 67 146 137zM356 667l5 -1l10 -10l-1 -5q-71 -69 -144 -135l-5 1l-11 13q77 68 146 137z" />
    <glyph glyph-name="uni02E1" unicode="&#x2e1;" horiz-adv-x="149" 
d="M107 418l-5 -68l-24 -3l53 398l3 59l24 3z" />
    <glyph glyph-name="uni02E2" unicode="&#x2e2;" horiz-adv-x="220" 
d="M229 629l-6 -17l-4 -1q-24 14 -48 14q-29 0 -48.5 -17.5t-19.5 -40.5q0 -17 12 -30t37 -30q29 -21 44 -38t15 -42q0 -34 -28 -57t-72 -24q-34 4 -59 21l3 18l5 3q26 -24 60 -24q30 0 50.5 17.5t20.5 41.5q0 20 -12.5 34t-38.5 33q-27 19 -41.5 35.5t-14.5 41.5
q0 33 27 54.5t68 20.5q30 -3 50 -13z" />
    <glyph glyph-name="uni02E3" unicode="&#x2e3;" horiz-adv-x="289" 
d="M273 353l-22 -6l-12 27l-61 109l-92 -111l-15 -22h-26l122 150l-75 138l21 5l10 -22l58 -106l86 103l16 22h25l-116 -143z" />
    <glyph glyph-name="gravecomb" unicode="&#x300;" 
d="M-76 532l-11 -13l-5 -1q-75 66 -144 135l-1 5l10 10l5 1q77 -79 146 -137z" />
    <glyph glyph-name="acutecomb" unicode="&#x301;" 
d="M-71 668l10 -10l-1 -5q-69 -69 -144 -135l-5 1l-11 13q69 58 146 137z" />
    <glyph glyph-name="uni0302" unicode="&#x302;" 
d="M-267 532q42 41 115 126h18q49 -78 87 -126l-11 -12h-5q-39 50 -81 117q-59 -68 -110 -117h-5z" />
    <glyph glyph-name="tildecomb" unicode="&#x303;" 
d="M-8 620v-4l-53 -48l-6 -2q-24 3 -81 21q-62 18 -74 18q-5 0 -13 -6t-17 -16l-21 -19h-4l-9 11v4l53 48l6 2q24 -3 81 -21q62 -18 74 -18q5 0 13 6t17 16l21 19h4z" />
    <glyph glyph-name="uni0304" unicode="&#x304;" 
d="M-3 604l-2 -17h-287l-3 3l2 17h287z" />
    <glyph glyph-name="uni0306" unicode="&#x306;" 
d="M-45 627q-16 -54 -44 -79.5t-70 -25.5t-63 25.5t-25 79.5l15 13h5q1 -50 18 -74t53 -24q35 0 58 24t36 74h5z" />
    <glyph glyph-name="uni0307" unicode="&#x307;" 
d="M-55.5 625.5q5.5 -5.5 5.5 -14.5t-5.5 -14.5t-14.5 -5.5t-14.5 5.5t-5.5 14.5t5.5 14.5t14.5 5.5t14.5 -5.5z" />
    <glyph glyph-name="uni0308" unicode="&#x308;" 
d="M-216.5 610.5q5.5 -5.5 5.5 -14.5t-5.5 -14.5t-14.5 -5.5t-14.5 5.5t-5.5 14.5t5.5 14.5t14.5 5.5t14.5 -5.5zM-66.5 610.5q5.5 -5.5 5.5 -14.5t-5.5 -14.5t-14.5 -5.5t-14.5 5.5t-5.5 14.5t5.5 14.5t14.5 5.5t14.5 -5.5z" />
    <glyph glyph-name="hookabovecomb" unicode="&#x309;" 
d="M-97 552q25 16 38 31.5t13 26.5q0 9 -7 14.5t-19 5.5q-26 0 -54 -23l-8 14q34 29 64 29q19 0 31.5 -11t12.5 -27q0 -29 -48 -65l16 -29l-17 -7z" />
    <glyph glyph-name="uni030A" unicode="&#x30a;" 
d="M-100 647q19 -21 19 -49q0 -31 -21.5 -50t-49.5 -19t-49 19.5t-21 50.5q0 30 19.5 49.5t50.5 19.5q33 0 52 -21zM-188.5 634.5q-13.5 -13.5 -13.5 -35.5q0 -23 14.5 -36.5t35.5 -13.5t36 13t15 36q0 21 -13.5 35.5t-37.5 14.5q-23 0 -36.5 -13.5z" />
    <glyph glyph-name="uni030B" unicode="&#x30b;" 
d="M-136 667l5 -1l10 -10l-1 -5q-70 -69 -144 -135l-5 1l-11 13q76 67 146 137zM-6 667l5 -1l10 -10l-1 -5q-71 -69 -144 -135l-5 1l-11 13q77 68 146 137z" />
    <glyph glyph-name="uni030C" unicode="&#x30c;" 
d="M-33 646q-42 -41 -115 -126h-18q-49 78 -87 126l11 12h5q39 -50 81 -117q59 68 110 117h5z" />
    <glyph glyph-name="uni030F" unicode="&#x30f;" 
d="M-152 516q-73 66 -144 135l-1 5l10 10l5 1q70 -69 146 -137l-11 -13zM-22 516q-74 66 -144 135l-1 5l10 10l5 1q69 -69 146 -137l-11 -13z" />
    <glyph glyph-name="uni0311" unicode="&#x311;" 
d="M-258 535q16 54 44 79.5t70 25.5t63 -25.5t25 -79.5l-15 -13h-5q-1 50 -18 74t-53 24q-35 0 -58 -24t-36 -74h-5z" />
    <glyph glyph-name="uni0312" unicode="&#x312;" 
d="M-53 534q0 46 53 102l13 -11v-4q-44 -47 -44 -83q0 -30 38 -39v-4q-1 -3 -10 -16q-50 12 -50 55z" />
    <glyph glyph-name="uni031B" unicode="&#x31b;" 
d="M-157 452q34 0 59 17.5t25 48.5q0 36 -34 72l2 5q7 5 13 5t15.5 -10.5t16.5 -28.5t7 -39q0 -41 -28.5 -64t-75.5 -24v18z" />
    <glyph glyph-name="dotbelowcomb" unicode="&#x323;" 
d="M-142.5 -97.5q5.5 -5.5 5.5 -14.5t-5.5 -14.5t-14.5 -5.5t-14.5 5.5t-5.5 14.5t5.5 14.5t14.5 5.5t14.5 -5.5z" />
    <glyph glyph-name="uni0324" unicode="&#x324;" 
d="M-305.5 -119.5q5.5 -5.5 5.5 -14.5t-5.5 -14.5t-14.5 -5.5t-14.5 5.5t-5.5 14.5t5.5 14.5t14.5 5.5t14.5 -5.5zM-155.5 -119.5q5.5 -5.5 5.5 -14.5t-5.5 -14.5t-14.5 -5.5t-14.5 5.5t-5.5 14.5t5.5 14.5t14.5 5.5t14.5 -5.5z" />
    <glyph glyph-name="uni0326" unicode="&#x326;" 
d="M-135 -117q0 -20 -17 -44t-49 -49l-10 11l1 3q26 19 40 39.5t14 38.5q0 20 -30 34v4q5 7 13 11q38 -17 38 -48z" />
    <glyph glyph-name="uni0327" unicode="&#x327;" 
d="M-245 -55l31 -20q17 -11 25 -22.5t8 -27.5q0 -24 -17.5 -38.5t-42.5 -14.5q-37 0 -59 33l6 18h4q10 -16 21 -23.5t28 -7.5q18 0 29 8.5t11 24.5q0 11 -5.5 17.5t-18.5 15.5l-43 28l24 75h20z" />
    <glyph glyph-name="uni0328" unicode="&#x328;" 
d="M-231.5 -179.5q-17.5 17.5 -17.5 47.5q0 20 10.5 38.5t50.5 72.5l31 42h24q-18 -22 -28 -38q-44 -58 -55.5 -76.5t-11.5 -36.5q0 -21 11.5 -33.5t32.5 -12.5t42 13.5t39 38.5h2l11 -16q-44 -57 -95 -57q-29 0 -46.5 17.5z" />
    <glyph glyph-name="uni032E" unicode="&#x32e;" 
d="M-121 -81q-16 -54 -44 -79.5t-70 -25.5t-63 25.5t-25 79.5l15 13h5q1 -50 18 -74t53 -24q35 0 58 24t36 74h5z" />
    <glyph glyph-name="uni0331" unicode="&#x331;" 
d="M-93 -130l-2 -17h-207l-3 3l2 17h207z" />
    <glyph glyph-name="uni0335" unicode="&#x335;" 
d="M-60 261l-4 -17h-297l-2 3l4 17h297z" />
    <glyph glyph-name="uni0342" unicode="&#x342;" 
d="M-8 620v-4l-45 -47l-4 -2q-18 2 -69 20q-5 2 -29 10t-34 8q-5 0 -12 -6.5t-15 -15.5q-10 -12 -17 -19h-3l-9 11v4l45 46l5 2q18 -2 69 -20q5 -2 29 -10t34 -8q5 0 12 6.5t15 15.5q10 12 17 19h3z" />
    <glyph glyph-name="uni0343" unicode="&#x343;" 
d="M-3 626q0 -48 -65 -107l-11 10v4q54 51 54 86q0 12 -8.5 21t-24.5 13l1 4q1 5 11 15q43 -9 43 -46z" />
    <glyph glyph-name="uni0344" unicode="&#x344;" 
d="M-113 546q20 43 45 113l5 1l13 -4l2 -6l-46 -109l-5 -1zM-173.5 559.5q-5.5 5.5 -5.5 14.5t5.5 14.5t14.5 5.5t14.5 -5.5t5.5 -14.5t-5.5 -14.5t-14.5 -5.5t-14.5 5.5zM-33.5 559.5q-5.5 5.5 -5.5 14.5t5.5 14.5t14.5 5.5t14.5 -5.5t5.5 -14.5t-5.5 -14.5t-14.5 -5.5
t-14.5 5.5z" />
    <glyph glyph-name="uni0345" unicode="&#x345;" 
d="M-152 -209l23 171l14 1l2 -3l-17 -169l-19 -3z" />
    <glyph glyph-name="uni0374" unicode="&#x374;" horiz-adv-x="125" 
d="M129 631l-30 -144l-17 -2l-2 4l29 144l18 2z" />
    <glyph glyph-name="uni0375" unicode="&#x375;" horiz-adv-x="125" 
d="M2 -131l30 144l17 2l2 -4l-29 -144l-17 -2z" />
    <glyph glyph-name="uni037A" unicode="&#x37a;" horiz-adv-x="207" 
d="M25 -209l23 171l14 1l2 -3l-17 -169l-19 -3z" />
    <glyph glyph-name="uni037E" unicode="&#x37e;" horiz-adv-x="230" 
d="M120 -7q0 -20 -17 -44t-49 -49l-10 11l1 3q26 19 40 39.5t14 38.5q0 20 -30 34v4q5 7 13 11q38 -17 38 -48zM136.5 309.5q5.5 -5.5 5.5 -14.5t-5.5 -14.5t-14.5 -5.5t-14.5 5.5t-5.5 14.5t5.5 14.5t14.5 5.5t14.5 -5.5z" />
    <glyph glyph-name="tonos" unicode="&#x384;" horiz-adv-x="177" 
d="M168 675l13 -4l1 -6q-23 -43 -78 -144l-5 -1l-12 6q34 60 76 148z" />
    <glyph glyph-name="dieresistonos" unicode="&#x385;" horiz-adv-x="262" 
d="M149 546q20 43 45 113l5 1l13 -4l2 -6l-46 -109l-5 -1zM88.5 559.5q-5.5 5.5 -5.5 14.5t5.5 14.5t14.5 5.5t14.5 -5.5t5.5 -14.5t-5.5 -14.5t-14.5 -5.5t-14.5 5.5zM228.5 559.5q-5.5 5.5 -5.5 14.5t5.5 14.5t14.5 5.5t14.5 -5.5t5.5 -14.5t-5.5 -14.5t-14.5 -5.5
t-14.5 5.5z" />
    <glyph glyph-name="Alphatonos" unicode="&#x386;" horiz-adv-x="580" 
d="M526 0h-23l-6 43l-37 170h-283l-85 -170l-20 -43h-24l319 637h21zM374 603h-3l-184 -370h268zM223 651l13 -4l1 -6q-23 -43 -78 -144l-5 -1l-12 6q34 60 76 148z" />
    <glyph glyph-name="anoteleia" unicode="&#x387;" horiz-adv-x="229" 
d="M137.5 312.5q5.5 -5.5 5.5 -14.5t-5.5 -14.5t-14.5 -5.5t-14.5 5.5t-5.5 14.5t5.5 14.5t14.5 5.5t14.5 -5.5z" />
    <glyph glyph-name="Epsilontonos" unicode="&#x388;" horiz-adv-x="525" 
d="M236 340h223l3 -4l-6 -16h-222l-16 -125l-22 -175h273l3 -4l-6 -16h-293l25 195l55 442h291l2 -4l-6 -16h-269zM150 651l13 -4l1 -6q-23 -43 -78 -144l-5 -1l-12 6q34 60 76 148z" />
    <glyph glyph-name="Etatonos" unicode="&#x389;" horiz-adv-x="733" 
d="M678 637l-55 -442l-25 -195h-20l25 195l15 119h-385l-15 -119l-25 -195h-20l25 195l55 442h20l-38 -303h385l38 303h20zM150 651l13 -4l1 -6q-23 -43 -78 -144l-5 -1l-12 6q34 60 76 148z" />
    <glyph glyph-name="Iotatonos" unicode="&#x38a;" horiz-adv-x="328" 
d="M218 195l-25 -195h-20l25 195l55 442h20zM150 651l13 -4l1 -6q-23 -43 -78 -144l-5 -1l-12 6q34 60 76 148z" />
    <glyph glyph-name="Omicrontonos" unicode="&#x38c;" horiz-adv-x="663" 
d="M577.5 577q54.5 -65 54.5 -186q0 -122 -35.5 -211t-103 -137t-162.5 -48q-102 0 -156.5 67t-54.5 191q0 121 35 208.5t102.5 134t161.5 46.5q104 0 158.5 -65zM269 578q-62 -44 -95 -126.5t-33 -195.5q0 -115 49.5 -178t141.5 -63q87 0 150 45.5t96 129t33 197.5
q0 113 -49 174t-144 61q-87 0 -149 -44zM121 651l13 -4l1 -6q-23 -43 -78 -144l-5 -1l-12 6q34 60 76 148z" />
    <glyph glyph-name="Upsilontonos" unicode="&#x38e;" horiz-adv-x="630" 
d="M399 247l-7 -52l-24 -195h-20l24 195l7 50l-141 392h25l7 -26l120 -334h5l218 334l14 26h26zM156 651l13 -4l1 -6q-23 -43 -78 -144l-5 -1l-12 6q34 60 76 148z" />
    <glyph glyph-name="Omegatonos" unicode="&#x38f;" horiz-adv-x="721" 
d="M102 3l6 18l58 -1h100v3q-62 49 -90.5 113t-28.5 154q0 105 36.5 185t103 123.5t154.5 43.5q105 0 159.5 -66t54.5 -193q0 -231 -196 -360v-3h105l54 2l3 -4l-6 -18h-153l-38 -1l-2 2l2 19q108 70 160 158.5t52 201.5q0 118 -50.5 180t-146.5 62q-80 0 -141.5 -41
t-96 -115.5t-34.5 -170.5q0 -87 32 -152t103 -123l-2 -19l-2 -2l-39 1h-100l-54 -1zM145 651l13 -4l1 -6q-23 -43 -78 -144l-5 -1l-12 6q34 60 76 148z" />
    <glyph glyph-name="iotadieresistonos" unicode="&#x390;" horiz-adv-x="195" 
d="M91 106l-7 -106l-27 -4l49 366l6 90l25 4zM117 546q20 43 45 113l5 1l13 -4l2 -6l-46 -109l-5 -1zM56.5 559.5q-5.5 5.5 -5.5 14.5t5.5 14.5t14.5 5.5t14.5 -5.5t5.5 -14.5t-5.5 -14.5t-14.5 -5.5t-14.5 5.5zM196.5 559.5q-5.5 5.5 -5.5 14.5t5.5 14.5t14.5 5.5
t14.5 -5.5t5.5 -14.5t-5.5 -14.5t-14.5 -5.5t-14.5 5.5z" />
    <glyph glyph-name="Alpha" unicode="&#x391;" horiz-adv-x="524" 
d="M470 0h-23l-6 43l-37 170h-283l-85 -170l-20 -43h-24l319 637h21zM318 603h-3l-184 -370h268z" />
    <glyph glyph-name="Beta" unicode="&#x392;" horiz-adv-x="471" 
d="M391.5 290.5q31.5 -34.5 31.5 -92.5q0 -95 -62 -148t-177 -53q-56 0 -104 3l25 195l56 442l116 2q66 0 102 -33t36 -93q0 -67 -29 -112.5t-83 -66.5q57 -9 88.5 -43.5zM144 343l121 -3q62 13 95.5 57.5t33.5 110.5q0 51 -30 80.5t-82 29.5h-103zM344 64q58 47 58 131
q0 55 -33.5 87.5t-96.5 37.5h-131l-16 -125l-22 -175q38 -3 78 -3q105 0 163 47z" />
    <glyph glyph-name="Gamma" unicode="&#x393;" horiz-adv-x="394" 
d="M439 633l-6 -16h-257l-76 -617h-20l24 195l54 442h278z" />
    <glyph glyph-name="uni0394" unicode="&#x394;" horiz-adv-x="541" 
d="M14 17l305 620h21l134 -620l-2 -17h-460zM452 20l-125 583h-5l-287 -583h417z" />
    <glyph glyph-name="Epsilon" unicode="&#x395;" horiz-adv-x="432" 
d="M143 340h223l3 -4l-6 -16h-222l-16 -125l-22 -175h273l3 -4l-6 -16h-293l25 195l55 442h291l2 -4l-6 -16h-269z" />
    <glyph glyph-name="Zeta" unicode="&#x396;" horiz-adv-x="482" 
d="M487 620l-453 -600h310l65 1l4 -5l-6 -16h-368l-34 -1l2 18l453 600h-300l-55 -1l-4 5l6 17l61 -1h286l35 1z" />
    <glyph glyph-name="Eta" unicode="&#x397;" horiz-adv-x="640" 
d="M585 637l-55 -442l-25 -195h-20l25 195l15 119h-385l-15 -119l-25 -195h-20l25 195l55 442h20l-38 -303h385l38 303h20z" />
    <glyph glyph-name="Theta" unicode="&#x398;" horiz-adv-x="630" 
d="M539.5 575q58.5 -67 58.5 -190q0 -120 -37.5 -208t-109 -135t-170.5 -47q-109 0 -167 68.5t-58 194.5q0 120 37 206t108 132t170 46q110 0 168.5 -67zM210.5 579q-65.5 -43 -100 -124.5t-34.5 -193.5q0 -118 53.5 -182t154.5 -64q92 0 158 44.5t100.5 127t34.5 195.5
q0 115 -54 177.5t-155 62.5q-92 0 -157.5 -43zM173 306l4 17l299 10l2 -3l-4 -17l-298 -10z" />
    <glyph glyph-name="Iota" unicode="&#x399;" horiz-adv-x="235" 
d="M125 195l-25 -195h-20l25 195l55 442h20z" />
    <glyph glyph-name="Kappa" unicode="&#x39a;" horiz-adv-x="483" 
d="M125 195l-25 -195h-20l25 195l56 442h20zM198 339q116 -177 248 -334v-4q-4 -4 -14 -8l-4 1q-149 179 -258 345v3l265 248l47 47h32z" />
    <glyph glyph-name="Lambda" unicode="&#x39b;" horiz-adv-x="524" 
d="M309 637h22l139 -637h-22l-7 43l-122 560h-4l-280 -560l-18 -43h-25z" />
    <glyph glyph-name="Mu" unicode="&#x39c;" horiz-adv-x="742" 
d="M640 0h-21l6 195l8 394h-4l-265 -508h-25l-133 508h-4l-90 -394l-44 -195h-21l146 637h23l26 -99l110 -428h4l231 439l46 88h24z" />
    <glyph glyph-name="Nu" unicode="&#x39d;" horiz-adv-x="640" 
d="M526 176l-23 -176h-19l-304 595h-4l-51 -396l-25 -199h-20l24 190l57 447h19l304 -595h4l77 594l20 2z" />
    <glyph glyph-name="Xi" unicode="&#x39e;" horiz-adv-x="562" 
d="M146 619l6 18h361l3 -4l-7 -18h-362zM142 323l7 18h290l2 -4l-6 -18l-161 1l-129 -1zM68 18l3 4h369l4 -4l-7 -18h-367z" />
    <glyph glyph-name="Omicron" unicode="&#x39f;" horiz-adv-x="599" 
d="M513.5 577q54.5 -65 54.5 -186q0 -122 -35.5 -211t-103 -137t-162.5 -48q-102 0 -156.5 67t-54.5 191q0 121 35 208.5t102.5 134t161.5 46.5q104 0 158.5 -65zM205 578q-62 -44 -95 -126.5t-33 -195.5q0 -115 49.5 -178t141.5 -63q87 0 150 45.5t96 129t33 197.5
q0 113 -49 174t-144 61q-87 0 -149 -44z" />
    <glyph glyph-name="Pi" unicode="&#x3a0;" horiz-adv-x="624" 
d="M514 195l-24 -195h-20l76 617h-370l-76 -617h-20l24 195l54 442h411z" />
    <glyph glyph-name="Rho" unicode="&#x3a1;" horiz-adv-x="464" 
d="M405 600q39 -39 39 -111q0 -113 -60 -176.5t-170 -63.5h-82l-7 -54l-25 -195h-20l25 195l55 442l133 2q73 0 112 -39zM376.5 335.5q47.5 58.5 47.5 149.5q0 62 -32.5 96.5t-93.5 37.5l-120 -1l-44 -349h112q83 8 130.5 66.5z" />
    <glyph glyph-name="Sigma" unicode="&#x3a3;" horiz-adv-x="473" 
d="M26 18l241 310l-159 291l3 18h311l58 1l4 -5l-5 -17l-59 1h-286l156 -285l-1 -7l-237 -305h280l66 1l3 -5l-5 -16h-372z" />
    <glyph glyph-name="Tau" unicode="&#x3a4;" horiz-adv-x="450" 
d="M474 633l-6 -16h-183l-54 -422l-24 -195h-20l24 195l54 422h-185l-3 4l6 16h388z" />
    <glyph glyph-name="Upsilon" unicode="&#x3a5;" horiz-adv-x="469" 
d="M238 247l-7 -52l-24 -195h-20l24 195l7 50l-141 392h25l7 -26l120 -334h5l218 334l14 26h26z" />
    <glyph glyph-name="Phi" unicode="&#x3a6;" horiz-adv-x="709" 
d="M585 159.5q-85 -76.5 -238 -80.5l-11 -88h-20l11 88q-127 1 -194 55.5t-67 160.5q0 137 83 210.5t240 77.5l8 69h20l-8 -69q129 -1 195 -53t66 -156q0 -138 -85 -214.5zM570.5 173.5q78.5 70.5 78.5 197.5q0 190 -243 192l-44 -365l-12 -99q142 4 220.5 74.5zM148.5 150
q62.5 -50 181.5 -51l12 99l44 365q-146 -4 -223 -71.5t-77 -194.5q0 -97 62.5 -147z" />
    <glyph glyph-name="Chi" unicode="&#x3a7;" horiz-adv-x="537" 
d="M290 329l173 -329h-25l-16 38l-148 276l-215 -278l-25 -36h-27l257 331l-161 306h26l16 -35l134 -256l195 251l27 40h27z" />
    <glyph glyph-name="Psi" unicode="&#x3a8;" horiz-adv-x="637" 
d="M610 637l-24 -195l-10 -83q-11 -107 -79.5 -166.5t-180.5 -61.5l-16 -131h-19l16 131q-102 2 -154.5 49t-52.5 137q0 20 3 42l11 93l23 185h20l-34 -278q-3 -21 -3 -39q0 -81 48.5 -124t141.5 -45l5 44l54 442h19l-54 -442l-5 -44q103 2 163.5 55t73.5 153l34 278h20z
" />
    <glyph glyph-name="uni03A9" unicode="&#x3a9;" horiz-adv-x="667" 
d="M48 3l6 18l58 -1h100v3q-62 49 -90.5 113t-28.5 154q0 105 36.5 185t103 123.5t154.5 43.5q105 0 159.5 -66t54.5 -193q0 -231 -196 -360v-3h105l54 2l3 -4l-6 -18h-153l-38 -1l-2 2l2 19q108 70 160 158.5t52 201.5q0 118 -50.5 180t-146.5 62q-80 0 -141.5 -41
t-96 -115.5t-34.5 -170.5q0 -87 32 -152t103 -123l-2 -19l-2 -2l-39 1h-100l-54 -1z" />
    <glyph glyph-name="Iotadieresis" unicode="&#x3aa;" horiz-adv-x="235" 
d="M125 195l-25 -195h-20l25 195l55 442h20zM132.5 795.5q5.5 -5.5 5.5 -14.5t-5.5 -14.5t-14.5 -5.5t-14.5 5.5t-5.5 14.5t5.5 14.5t14.5 5.5t14.5 -5.5zM282.5 795.5q5.5 -5.5 5.5 -14.5t-5.5 -14.5t-14.5 -5.5t-14.5 5.5t-5.5 14.5t5.5 14.5t14.5 5.5t14.5 -5.5z" />
    <glyph glyph-name="Upsilondieresis" unicode="&#x3ab;" horiz-adv-x="469" 
d="M238 247l-7 -52l-24 -195h-20l24 195l7 50l-141 392h25l7 -26l120 -334h5l218 334l14 26h26zM247.5 795.5q5.5 -5.5 5.5 -14.5t-5.5 -14.5t-14.5 -5.5t-14.5 5.5t-5.5 14.5t5.5 14.5t14.5 5.5t14.5 -5.5zM397.5 795.5q5.5 -5.5 5.5 -14.5t-5.5 -14.5t-14.5 -5.5
t-14.5 5.5t-5.5 14.5t5.5 14.5t14.5 5.5t14.5 -5.5z" />
    <glyph glyph-name="alphatonos" unicode="&#x3ac;" horiz-adv-x="414" 
d="M356 456l-46 -350l-7 -106l-27 -4l37 275h-5q-45 -85 -97 -156.5t-105 -118.5h-11q-28 21 -40 53t-12 88q0 91 28.5 162t80.5 112.5t120 45.5h4l57 -35l4 31zM156.5 73.5q40.5 49.5 87 122.5t77.5 137l9 70l-58 34q-59 -1 -107 -40t-75 -106.5t-27 -149.5q0 -48 11 -82.5
t27 -34.5q15 0 55.5 49.5zM347 675l13 -4l1 -6q-23 -43 -78 -144l-5 -1l-12 6q34 60 76 148z" />
    <glyph glyph-name="epsilontonos" unicode="&#x3ad;" horiz-adv-x="347" 
d="M330 424l-7 -19l-6 -1q-56 33 -111 33q-27 0 -52 -16t-40.5 -42t-15.5 -54q0 -32 21.5 -53t61.5 -27h78l3 -4l-5 -16h-67q-35 0 -66 -18t-49.5 -47.5t-18.5 -61.5q0 -40 22.5 -61t65.5 -21q36 0 71.5 19.5t63.5 56.5h6l9 -14q-27 -36 -65 -57.5t-78 -24.5q-56 0 -85.5 26
t-29.5 75q0 47 32 87.5t80 51.5q-34 11 -52 34.5t-18 55.5q0 37 19 67t53 47.5t75 17.5q61 -7 105 -34zM276 675l13 -4l1 -6q-23 -43 -78 -144l-5 -1l-12 6q34 60 76 148z" />
    <glyph glyph-name="etatonos" unicode="&#x3ae;" horiz-adv-x="442" 
d="M369 431.5q14 -23.5 13 -54.5l-1 -13l-73 -448l-12 -101l-25 -4l89 550l1 15q1 25 -10 42.5t-24 17.5q-26 0 -90 -85t-143 -231l-2 -14l-9 -106l-25 -4l48 366l7 90l25 4l-36 -272h5q65 112 114.5 179t98.5 99h11q24 -7 38 -30.5zM346 675l13 -4l1 -6q-23 -43 -78 -144
l-5 -1l-12 6q34 60 76 148z" />
    <glyph glyph-name="iotatonos" unicode="&#x3af;" horiz-adv-x="195" 
d="M91 106l-7 -106l-27 -4l49 366l6 90l25 4zM200 675l13 -4l1 -6q-23 -43 -78 -144l-5 -1l-12 6q34 60 76 148z" />
    <glyph glyph-name="upsilondieresistonos" unicode="&#x3b0;" horiz-adv-x="415" 
d="M92.5 27q-30.5 30 -30.5 88q0 18 3 37l28 210l6 90l25 4l-40 -303q-2 -12 -2 -34q0 -102 101 -102q57 0 88 32.5t40 102.5l28 210l6 90l25 4l-40 -304q-10 -79 -46.5 -117t-101.5 -38q-59 0 -89.5 30zM226 546q20 43 45 113l5 1l13 -4l2 -6l-46 -109l-5 -1zM165.5 559.5
q-5.5 5.5 -5.5 14.5t5.5 14.5t14.5 5.5t14.5 -5.5t5.5 -14.5t-5.5 -14.5t-14.5 -5.5t-14.5 5.5zM305.5 559.5q-5.5 5.5 -5.5 14.5t5.5 14.5t14.5 5.5t14.5 -5.5t5.5 -14.5t-5.5 -14.5t-14.5 -5.5t-14.5 5.5z" />
    <glyph glyph-name="alpha" unicode="&#x3b1;" horiz-adv-x="414" 
d="M356 456l-46 -350l-7 -106l-27 -4l37 275h-5q-45 -85 -97 -156.5t-105 -118.5h-11q-28 21 -40 53t-12 88q0 91 28.5 162t80.5 112.5t120 45.5h4l57 -35l4 31zM156.5 73.5q40.5 49.5 87 122.5t77.5 137l9 70l-58 34q-59 -1 -107 -40t-75 -106.5t-27 -149.5q0 -48 11 -82.5
t27 -34.5q15 0 55.5 49.5z" />
    <glyph glyph-name="beta" unicode="&#x3b2;" horiz-adv-x="436" 
d="M348 322q38 -40 38 -115q0 -61 -22.5 -108.5t-62.5 -74.5t-90 -27q-75 0 -119 60l-18 -136l-9 -106l-25 -4l86 658q16 119 59 177t117 58q52 0 79.5 -27.5t27.5 -78.5q0 -68 -46 -127.5t-130 -100.5q77 -8 115 -48zM291 41.5q35 24.5 55 68t20 97.5q0 147 -172 147l-2 3
l2 17q90 34 142.5 93.5t52.5 127.5q0 44 -22 66.5t-65 22.5q-66 0 -104.5 -52.5t-52.5 -160.5l-50 -386q46 -68 117 -68q44 0 79 24.5z" />
    <glyph glyph-name="gamma" unicode="&#x3b3;" horiz-adv-x="358" 
d="M301 258l-164 -258l-10 -79l-9 -106l-25 -4l24 187l-50 452l23 6l6 -74l36 -352h3l149 238q38 62 38 106q0 32 -28 70l1 5l18 6q29 -41 29 -82q0 -50 -41 -115z" />
    <glyph glyph-name="delta" unicode="&#x3b4;" horiz-adv-x="386" 
d="M364 685l-7 -19l-6 -1q-34 20 -69 20q-52 0 -84 -26t-32 -67q0 -30 15.5 -50t48.5 -49q34 -29 55.5 -54t37 -66t15.5 -99q0 -79 -24 -143t-65.5 -100t-93.5 -36q-54 0 -82 41t-28 118q0 122 50 202.5t138 100.5l2 4l-19 17q-36 31 -52.5 54t-16.5 58q0 52 39 83.5
t106 31.5q42 -4 72 -20zM239 48.5q37 33.5 58 92t21 130.5q0 60 -17 100.5t-47 71.5q-93 -19 -141 -93t-48 -196q0 -68 23.5 -103.5t68.5 -35.5t82 33.5z" />
    <glyph glyph-name="epsilon" unicode="&#x3b5;" horiz-adv-x="347" 
d="M330 424l-7 -19l-6 -1q-56 33 -111 33q-27 0 -52 -16t-40.5 -42t-15.5 -54q0 -32 21.5 -53t61.5 -27h78l3 -4l-5 -16h-67q-35 0 -66 -18t-49.5 -47.5t-18.5 -61.5q0 -40 22.5 -61t65.5 -21q36 0 71.5 19.5t63.5 56.5h6l9 -14q-27 -36 -65 -57.5t-78 -24.5q-56 0 -85.5 26
t-29.5 75q0 47 32 87.5t80 51.5q-34 11 -52 34.5t-18 55.5q0 37 19 67t53 47.5t75 17.5q61 -7 105 -34z" />
    <glyph glyph-name="zeta" unicode="&#x3b6;" horiz-adv-x="330" 
d="M123 17q8 0 25.5 2t30.5 3q48 6 62 6q49 0 49 -49q0 -34 -37.5 -74.5t-104.5 -79.5l-9 14l1 4q59 34 94.5 70.5t35.5 64.5q0 16 -7 23t-22 7q-8 0 -27 -2t-31 -3q-48 -6 -63 -6q-89 0 -89 115q0 89 82 225t261 343h-181l-60 -1l-3 5l6 17l66 -1h166l38 1l-4 -18
q-189 -221 -270 -353t-81 -218q0 -95 72 -95z" />
    <glyph glyph-name="eta" unicode="&#x3b7;" horiz-adv-x="442" 
d="M369 431.5q14 -23.5 13 -54.5l-1 -13l-73 -448l-12 -101l-25 -4l89 550l1 15q1 25 -10 42.5t-24 17.5q-26 0 -90 -85t-143 -231l-2 -14l-9 -106l-25 -4l48 366l7 90l25 4l-36 -272h5q65 112 114.5 179t98.5 99h11q24 -7 38 -30.5z" />
    <glyph glyph-name="theta" unicode="&#x3b8;" horiz-adv-x="420" 
d="M353 647q25 -60 25 -165q0 -134 -27 -246.5t-74.5 -178t-104.5 -65.5q-47 0 -72.5 60t-25.5 167q0 134 27.5 246t75 177t104.5 65q47 0 72 -60zM201.5 643.5q-36.5 -43.5 -62.5 -119.5t-37 -172l250 11q6 56 6 117q0 96 -20.5 151.5t-58.5 55.5q-41 0 -77.5 -43.5z
M251 55q36 43 61.5 118t37.5 170l-250 -11q-6 -54 -6 -113q0 -97 21 -152t59 -55q41 0 77 43z" />
    <glyph glyph-name="iota" unicode="&#x3b9;" horiz-adv-x="195" 
d="M91 106l-7 -106l-27 -4l49 366l6 90l25 4z" />
    <glyph glyph-name="kappa" unicode="&#x3ba;" horiz-adv-x="381" 
d="M134 238q55 -72 200 -233l-1 -4q-8 -6 -18 -8l-3 1l-204 240l-17 -128l-7 -106l-27 -4l49 366l6 90l25 4l-28 -213l201 175l34 34h33z" />
    <glyph glyph-name="lambda" unicode="&#x3bb;" horiz-adv-x="365" 
d="M327 24l-7 -18q-16 -8 -32 -8q-14 0 -21.5 11t-10.5 33l-49 371h-2l-166 -369l-18 -46l-24 4l205 451l-10 74q-8 62 -16 94.5t-19 46t-29 13.5q-6 0 -24 -4v4l5 17q15 4 28 4q21 0 34 -15t22 -51t18 -105l65 -482q2 -16 6.5 -23.5t13.5 -7.5q11 0 27 9z" />
    <glyph glyph-name="uni03BC" unicode="&#x3bc;" horiz-adv-x="450" 
d="M392 456l-46 -350l-9 -106l-25 -4l36 271h-5q-88 -145 -127 -199t-76 -79h-11q-34 9 -46 39l-20 -213l-25 -4l71 551l6 90l25 4l-48 -381q-1 -3 -1 -9q0 -20 12.5 -35.5t29.5 -15.5q47 0 223 316l4 31l7 90z" />
    <glyph glyph-name="nu" unicode="&#x3bd;" horiz-adv-x="357" 
d="M341 373q0 -50 -41 -115l-164 -258h-21l-49 450l23 6l6 -74l36 -352h3l149 238q38 62 38 106q0 32 -28 70l1 5l18 6q29 -41 29 -82z" />
    <glyph glyph-name="xi" unicode="&#x3be;" horiz-adv-x="348" 
d="M394 678l-7 -12l-4 -2q-37 19 -75 19q-47 0 -86.5 -28t-63 -74t-23.5 -98q0 -112 115 -112h66l2 -6l-4 -14h-39q-102 -26 -160 -89t-58 -146q0 -48 20 -73.5t58 -25.5q15 0 55 6q10 1 27.5 3t26.5 2q24 0 36.5 -11.5t12.5 -33.5q0 -74 -142 -158l-9 14l1 4
q63 36 96.5 71.5t33.5 65.5q0 28 -31 28q-16 0 -48 -5q-44 -6 -63 -6q-45 0 -69.5 30.5t-24.5 86.5q0 79 50 142.5t136 95.5q-52 6 -80 38.5t-28 90.5q0 59 27.5 110.5t74.5 82.5t103 31q39 -6 71 -22z" />
    <glyph glyph-name="omicron" unicode="&#x3bf;" horiz-adv-x="390" 
d="M250 458q50 -4 72.5 -37t22.5 -101q0 -91 -24 -163.5t-69 -115.5t-106 -47h-5q-50 3 -73 36.5t-23 103.5q0 91 24.5 164.5t69.5 116t106 43.5h5zM151.5 398q-40.5 -39 -63.5 -107.5t-23 -153.5q0 -62 19.5 -92t60.5 -30q52 0 93 39.5t63.5 108.5t22.5 154q0 62 -19 91
t-60 29q-53 0 -93.5 -39z" />
    <glyph glyph-name="pi" unicode="&#x3c0;" horiz-adv-x="451" 
d="M463 432h-90l-54 -331l-12 -101l-25 -4l72 436h-196l-48 -326l-9 -106l-27 -4l66 436h-87l-4 4l3 16h411l3 -4z" />
    <glyph glyph-name="rho" unicode="&#x3c1;" horiz-adv-x="405" 
d="M335.5 420.5q25.5 -36.5 25.5 -113.5q0 -93 -27 -163t-77.5 -108t-118.5 -39l-72 12l-11 -88l-9 -106l-25 -4l58 452q11 88 59.5 141t116.5 53q55 0 80.5 -36.5zM246.5 54q45.5 36 70 101t24.5 150q0 69 -21 100.5t-67 31.5q-59 0 -101.5 -49t-52.5 -128l-30 -231l73 -12
q59 1 104.5 37z" />
    <glyph glyph-name="uni03C2" unicode="&#x3c2;" horiz-adv-x="332" 
d="M123 -160l1 4q59 34 94.5 70.5t35.5 64.5q0 16 -7 23t-22 7q-12 0 -48 -6t-51 -6q-40 0 -59 35.5t-19 111.5q0 95 26 165.5t74.5 108.5t112.5 38l55 -19l5 -7l-6 -14l-5 -3q-17 10 -34.5 16.5t-28.5 6.5q-53 0 -94 -37t-63 -103.5t-22 -154.5q0 -65 14.5 -94.5
t46.5 -29.5q11 0 45 6q36 6 51 6q49 0 49 -49q0 -34 -37.5 -74.5t-104.5 -79.5z" />
    <glyph glyph-name="sigma" unicode="&#x3c3;" horiz-adv-x="419" 
d="M318 432l-2 -4q23 -78 23 -150q0 -78 -23.5 -142.5t-66 -102.5t-96.5 -38q-57 0 -81.5 39t-24.5 129q0 88 25.5 153.5t72.5 100.5t111 35h156l3 -4l-3 -16h-94zM295 432h-47q-53 0 -94.5 -33.5t-64 -94t-22.5 -139.5q0 -82 20 -116t68 -34t85 36t57.5 97t20.5 134
q0 78 -23 150z" />
    <glyph glyph-name="tau" unicode="&#x3c4;" horiz-adv-x="356" 
d="M143 87l-2 -20q0 -25 10.5 -38.5t29.5 -13.5t43 22.5t49 63.5h7l8 -11q-33 -49 -54 -69t-49 -26q-31 0 -47.5 17.5t-16.5 51.5l2 22l59 346h-144l-4 4l3 16h322l3 -4l-3 -16h-158z" />
    <glyph glyph-name="upsilon" unicode="&#x3c5;" horiz-adv-x="415" 
d="M92.5 27q-30.5 30 -30.5 88q0 18 3 37l28 210l6 90l25 4l-40 -303q-2 -12 -2 -34q0 -102 101 -102q57 0 88 32.5t40 102.5l28 210l6 90l25 4l-40 -304q-10 -79 -46.5 -117t-101.5 -38q-59 0 -89.5 30z" />
    <glyph glyph-name="phi" unicode="&#x3c6;" horiz-adv-x="529" 
d="M421 69.5q-63 -73.5 -183 -74.5l-10 -74l-10 -106l-24 -4l24 184q-86 4 -130.5 52t-44.5 138q0 97 37 160.5t120 107.5l9 -14l-1 -3q-78 -42 -111.5 -99.5t-33.5 -148.5q0 -82 40 -126t118 -47l41 313q8 62 37 95.5t75 33.5q50 0 80 -48t30 -128q0 -138 -63 -211.5z
M406.5 83.5q56.5 66.5 56.5 192.5q0 72 -25 116.5t-65 44.5q-38 0 -61.5 -28.5t-30.5 -82.5l-41 -311q110 2 166.5 68.5z" />
    <glyph glyph-name="chi" unicode="&#x3c7;" horiz-adv-x="374" 
d="M293.5 -161q5.5 -7 14.5 -7q7 0 20 5l4 -3l-5 -16q-15 -6 -26 -6q-13 0 -21 9.5t-15 31.5l-84 270l-156 -266l-23 -42h-26l194 327l-78 245q-9 28 -16.5 37t-19.5 9q-9 0 -15 -1l-3 4l5 15q14 2 18 2q19 0 29.5 -12.5t20.5 -44.5l74 -237l147 251l22 42h26l-184 -310
l87 -280q5 -16 10.5 -23z" />
    <glyph glyph-name="psi" unicode="&#x3c8;" horiz-adv-x="536" 
d="M497 456l-34 -260q-8 -63 -38.5 -108t-74.5 -68t-94 -23h-9l-10 -76l-10 -106l-24 -4l24 186h-8q-69 0 -112.5 42.5t-43.5 120.5q0 23 2 36l22 166l6 90l25 4l-34 -259q-2 -12 -2 -34q0 -70 39 -108t99 -38h9l56 432l7 90l24 4l-67 -526h8q70 0 122.5 47t64.5 132l22 166
l6 90z" />
    <glyph glyph-name="omega" unicode="&#x3c9;" horiz-adv-x="538" 
d="M464.5 358.5q19.5 -51.5 19.5 -116.5q0 -118 -38 -185.5t-103 -67.5q-41 0 -64.5 31t-26.5 90q-20 -62 -48 -91.5t-68 -29.5q-90 0 -90 151q0 108 33 181t110 132l10 -12l-2 -6q-69 -54 -100 -123t-31 -168q0 -135 73 -135q45 0 74 53t43 161l10 74l19 3l3 -2l-12 -86
q-6 -42 -6 -76q0 -62 19 -94.5t56 -32.5q35 0 62 28.5t42 81t15 120.5q0 117 -70 197l-1 6l11 11q41 -43 60.5 -94.5z" />
    <glyph glyph-name="iotadieresis" unicode="&#x3ca;" horiz-adv-x="195" 
d="M91 106l-7 -106l-27 -4l49 366l6 90l25 4zM83.5 610.5q5.5 -5.5 5.5 -14.5t-5.5 -14.5t-14.5 -5.5t-14.5 5.5t-5.5 14.5t5.5 14.5t14.5 5.5t14.5 -5.5zM233.5 610.5q5.5 -5.5 5.5 -14.5t-5.5 -14.5t-14.5 -5.5t-14.5 5.5t-5.5 14.5t5.5 14.5t14.5 5.5t14.5 -5.5z" />
    <glyph glyph-name="upsilondieresis" unicode="&#x3cb;" horiz-adv-x="415" 
d="M92.5 27q-30.5 30 -30.5 88q0 18 3 37l28 210l6 90l25 4l-40 -303q-2 -12 -2 -34q0 -102 101 -102q57 0 88 32.5t40 102.5l28 210l6 90l25 4l-40 -304q-10 -79 -46.5 -117t-101.5 -38q-59 0 -89.5 30zM192.5 610.5q5.5 -5.5 5.5 -14.5t-5.5 -14.5t-14.5 -5.5t-14.5 5.5
t-5.5 14.5t5.5 14.5t14.5 5.5t14.5 -5.5zM342.5 610.5q5.5 -5.5 5.5 -14.5t-5.5 -14.5t-14.5 -5.5t-14.5 5.5t-5.5 14.5t5.5 14.5t14.5 5.5t14.5 -5.5z" />
    <glyph glyph-name="omicrontonos" unicode="&#x3cc;" horiz-adv-x="390" 
d="M250 458q50 -4 72.5 -37t22.5 -101q0 -91 -24 -163.5t-69 -115.5t-106 -47h-5q-50 3 -73 36.5t-23 103.5q0 91 24.5 164.5t69.5 116t106 43.5h5zM151.5 398q-40.5 -39 -63.5 -107.5t-23 -153.5q0 -62 19.5 -92t60.5 -30q52 0 93 39.5t63.5 108.5t22.5 154q0 62 -19 91
t-60 29q-53 0 -93.5 -39zM334 675l13 -4l1 -6q-23 -43 -78 -144l-5 -1l-12 6q34 60 76 148z" />
    <glyph glyph-name="upsilontonos" unicode="&#x3cd;" horiz-adv-x="415" 
d="M92.5 27q-30.5 30 -30.5 88q0 18 3 37l28 210l6 90l25 4l-40 -303q-2 -12 -2 -34q0 -102 101 -102q57 0 88 32.5t40 102.5l28 210l6 90l25 4l-40 -304q-10 -79 -46.5 -117t-101.5 -38q-59 0 -89.5 30zM309 675l13 -4l1 -6q-23 -43 -78 -144l-5 -1l-12 6q34 60 76 148z
" />
    <glyph glyph-name="omegatonos" unicode="&#x3ce;" horiz-adv-x="538" 
d="M464.5 358.5q19.5 -51.5 19.5 -116.5q0 -118 -38 -185.5t-103 -67.5q-41 0 -64.5 31t-26.5 90q-20 -62 -48 -91.5t-68 -29.5q-90 0 -90 151q0 108 33 181t110 132l10 -12l-2 -6q-69 -54 -100 -123t-31 -168q0 -135 73 -135q45 0 74 53t43 161l10 74l19 3l3 -2l-12 -86
q-6 -42 -6 -76q0 -62 19 -94.5t56 -32.5q35 0 62 28.5t42 81t15 120.5q0 117 -70 197l-1 6l11 11q41 -43 60.5 -94.5zM374 675l13 -4l1 -6q-23 -43 -78 -144l-5 -1l-12 6q34 60 76 148z" />
    <glyph glyph-name="uni03CF" unicode="&#x3cf;" horiz-adv-x="551" 
d="M150 637l-54 -442l-24 -195h-20l24 195l54 442h20zM169 340q123 -174 271 -335v-4q-51 -110 -101 -158t-113 -48q-28 0 -56 7q-5 8 -3 20l2 2q31 -9 58 -9q55 0 98 42t92 141h1l-4 1q-159 179 -271 339l-1 3l280 249l49 47h31z" />
    <glyph glyph-name="uni03D1" unicode="&#x3d1;" horiz-adv-x="420" 
d="M353 647q25 -60 25 -165q0 -134 -27 -246.5t-74.5 -178t-104.5 -65.5q-47 0 -72.5 60t-25.5 167q0 134 27.5 246t75 177t104.5 65q47 0 72 -60zM201.5 643.5q-36.5 -43.5 -62.5 -119.5t-37 -172l250 11q6 56 6 117q0 96 -20.5 151.5t-58.5 55.5q-41 0 -77.5 -43.5z
M251 55q36 43 61.5 118t37.5 170l-250 -11q-6 -54 -6 -113q0 -97 21 -152t59 -55q41 0 77 43z" />
    <glyph glyph-name="uni03D5" unicode="&#x3d5;" horiz-adv-x="529" 
d="M421 69.5q-63 -73.5 -183 -74.5l-10 -74l-10 -106l-24 -4l24 184q-86 4 -130.5 52t-44.5 138q0 97 37 160.5t120 107.5l9 -14l-1 -3q-78 -42 -111.5 -99.5t-33.5 -148.5q0 -82 40 -126t118 -47l41 313q8 62 37 95.5t75 33.5q50 0 80 -48t30 -128q0 -138 -63 -211.5z
M406.5 83.5q56.5 66.5 56.5 192.5q0 72 -25 116.5t-65 44.5q-38 0 -61.5 -28.5t-30.5 -82.5l-41 -311q110 2 166.5 68.5z" />
    <glyph glyph-name="uni03D6" unicode="&#x3d6;" horiz-adv-x="451" 
d="M463 432h-90l-54 -331l-12 -101l-25 -4l72 436h-196l-48 -326l-9 -106l-27 -4l66 436h-87l-4 4l3 16h411l3 -4z" />
    <glyph glyph-name="uni03D7" unicode="&#x3d7;" horiz-adv-x="424" 
d="M202.5 127q66.5 -67 122.5 -122v-4q-42 -85 -82.5 -122.5t-93.5 -37.5q-21 0 -45 6q-5 7 -5 19l2 2q30 -7 48 -7q45 0 80.5 32.5t74.5 106.5l-4 1l-78 79q-107 107 -150 157l-5 -41l-24 -196h-20l55 449l20 4l-25 -209l221 174l38 34h32l-269 -211q41 -47 107.5 -114z
" />
    <glyph glyph-name="uni03F0" unicode="&#x3f0;" horiz-adv-x="381" 
d="M134 238q55 -72 200 -233l-1 -4q-8 -6 -18 -8l-3 1l-204 240l-17 -128l-7 -106l-27 -4l49 366l6 90l25 4l-28 -213l201 175l34 34h33z" />
    <glyph glyph-name="uni0400" unicode="&#x400;" horiz-adv-x="455" 
d="M146 340h223l3 -4l-6 -16h-222l-16 -125l-22 -175h273l3 -4l-6 -16h-293l25 195l55 442h291l2 -4l-6 -16h-269zM408 742l-7 -15l-5 -3q-107 55 -174 93l-2 5l7 12l5 2q85 -50 176 -94z" />
    <glyph glyph-name="uni0401" unicode="&#x401;" horiz-adv-x="455" 
d="M146 340h223l3 -4l-6 -16h-222l-16 -125l-22 -175h273l3 -4l-6 -16h-293l25 195l55 442h291l2 -4l-6 -16h-269zM276.5 795.5q5.5 -5.5 5.5 -14.5t-5.5 -14.5t-14.5 -5.5t-14.5 5.5t-5.5 14.5t5.5 14.5t14.5 5.5t14.5 -5.5zM426.5 795.5q5.5 -5.5 5.5 -14.5t-5.5 -14.5
t-14.5 -5.5t-14.5 5.5t-5.5 14.5t5.5 14.5t14.5 5.5t14.5 -5.5z" />
    <glyph glyph-name="uni0402" unicode="&#x402;" horiz-adv-x="615" 
d="M517 379.5q29 -34.5 29 -116.5q0 -31 -7 -96q-17 -132 -55.5 -216.5t-107.5 -139.5l-10 7v6q65 56 101.5 138t52.5 208q6 53 6 91q0 72 -25 102.5t-82 30.5q-98 0 -196 -86l-14 -113l-24 -195h-20l24 195l53 422h-163l-2 4l5 16h404l2 -4l-5 -16h-222l-35 -282h3
q48 41 95 60t98 19q66 0 95 -34.5z" />
    <glyph glyph-name="uni0403" unicode="&#x403;" horiz-adv-x="419" 
d="M443 633l-6 -16h-257l-76 -617h-20l24 195l54 442h278zM405 834l7 -12l-2 -5q-67 -38 -174 -93l-5 3l-7 15q91 44 176 94z" />
    <glyph glyph-name="uni0404" unicode="&#x404;" horiz-adv-x="517" 
d="M439 625.5q43 -15.5 74 -43.5l-8 -17h-8q-29 27 -66.5 41.5t-80.5 14.5q-107 0 -176.5 -72.5t-92.5 -206.5h326l5 -4l-4 -16h-330l-2 -13q-5 -43 -5 -72q0 -109 49 -165.5t143 -56.5q46 0 94 17.5t90 49.5l6 -2l-4 -18q-43 -32 -92.5 -49.5t-94.5 -17.5
q-103 0 -156.5 61.5t-53.5 179.5q0 31 5 76q19 156 95 242.5t199 86.5q45 0 88 -15.5z" />
    <glyph glyph-name="uni0405" unicode="&#x405;" horiz-adv-x="428" 
d="M401 611l-6 -18l-7 -1q-46 28 -104 28q-48 0 -86 -20.5t-59 -53.5t-21 -69q0 -33 16 -58t38.5 -42.5t62.5 -41.5q44 -26 70 -46t44 -50.5t18 -71.5q0 -46 -26.5 -85.5t-72 -62.5t-99.5 -23q-37 0 -74 12t-64 35l3 19l6 2q26 -24 61 -36t70 -12q50 0 90.5 21t63 55
t22.5 73q0 35 -16.5 61.5t-40 44.5t-64.5 43q-43 27 -68 46t-42.5 48.5t-17.5 69.5q0 45 25 82t68 58.5t96 21.5q61 0 114 -29z" />
    <glyph glyph-name="uni0406" unicode="&#x406;" horiz-adv-x="245" 
d="M128 195l-25 -195h-20l25 195l55 442h20z" />
    <glyph glyph-name="uni0407" unicode="&#x407;" horiz-adv-x="235" 
d="M125 195l-25 -195h-20l25 195l55 442h20zM130.5 795.5q5.5 -5.5 5.5 -14.5t-5.5 -14.5t-14.5 -5.5t-14.5 5.5t-5.5 14.5t5.5 14.5t14.5 5.5t14.5 -5.5zM280.5 795.5q5.5 -5.5 5.5 -14.5t-5.5 -14.5t-14.5 -5.5t-14.5 5.5t-5.5 14.5t5.5 14.5t14.5 5.5t14.5 -5.5z" />
    <glyph glyph-name="uni0408" unicode="&#x408;" horiz-adv-x="288" 
d="M176 212l-12 -97q-9 -70 -44 -118.5t-109 -94.5l-9 11v6q68 42 102 88t41 108l11 93l51 409h-125l-4 4l5 16h146z" />
    <glyph glyph-name="uni0409" unicode="&#x409;" horiz-adv-x="802" 
d="M713 316.5q39 -34.5 39 -99.5q0 -10 -2 -32q-11 -90 -72.5 -137.5t-167.5 -47.5h-107l76 617h-222l-13 -71q-36 -192 -69.5 -305t-70.5 -170t-86 -78l-14 -6l-5 16q52 23 88 77t67.5 163t69.5 305l16 86v3h261l-35 -286h134q74 0 113 -34.5zM733 214q0 57 -35 87t-103 30
h-131l-17 -136l-22 -175h116q84 7 132.5 49t57.5 117q2 20 2 28z" />
    <glyph glyph-name="uni040A" unicode="&#x40a;" horiz-adv-x="893" 
d="M806.5 311.5q38.5 -33.5 38.5 -98.5q0 -9 -2 -31q-10 -90 -71.5 -136t-168.5 -46h-106l24 195l16 129h-398l-16 -129l-24 -195h-19l24 195l54 442h20l-36 -293h397l36 293h20l-36 -292h133q76 0 114.5 -33.5zM826 210q0 57 -35 86t-103 29h-132l-16 -130l-22 -175h116
q172 14 190 163q2 20 2 27z" />
    <glyph glyph-name="uni040B" unicode="&#x40b;" horiz-adv-x="615" 
d="M516 379q33 -35 33 -107q0 -14 -4 -52l-27 -220h-20l27 217q3 26 3 47q0 130 -111 130q-50 0 -97 -20.5t-97 -65.5l-14 -113l-24 -195h-20l24 195l53 422h-163l-2 4l5 16h404l2 -4l-5 -16h-222l-35 -282h3q94 79 186 79q68 0 101 -35z" />
    <glyph glyph-name="uni040C" unicode="&#x40c;" horiz-adv-x="513" 
d="M127 195l-25 -195h-20l25 195l56 442h20zM200 339q116 -177 248 -334v-4q-4 -4 -14 -8l-4 1q-149 179 -258 345v3l265 248l47 47h32zM361 834l7 -12l-2 -5q-67 -38 -174 -93l-5 3l-7 15q91 44 176 94z" />
    <glyph glyph-name="uni040D" unicode="&#x40d;" horiz-adv-x="640" 
d="M104 195l54 441l21 2l-74 -596h5l456 595h19l-54 -442l-24 -195h-20l24 195l49 400h-5l-456 -595h-19zM466 742l-7 -15l-5 -3q-107 55 -174 93l-2 5l7 12l5 2q85 -50 176 -94z" />
    <glyph glyph-name="uni040E" unicode="&#x40e;" horiz-adv-x="532" 
d="M548 636l-253 -453q-45 -79 -71.5 -113.5t-58 -50t-89.5 -25.5h-6q-2 6 -2 16l1 3q55 11 84 24t52.5 41.5t58.5 89.5l-179 468l24 1l13 -44l154 -396h4l222 396l23 43h23zM451 788q-16 -36 -53.5 -55.5t-79.5 -19.5t-74.5 19.5t-39.5 55.5l13 10h6q4 -31 31.5 -48
t64.5 -17t69 17t46 48h6z" />
    <glyph glyph-name="uni040F" unicode="&#x40f;" horiz-adv-x="609" 
d="M554 637l-55 -442l-24 -195h-188l-15 -131l-20 -4l16 135h-188l24 195l54 442h20l-55 -442l-22 -175h357l22 175l54 442h20z" />
    <glyph glyph-name="uni0410" unicode="&#x410;" horiz-adv-x="554" 
d="M487 0h-23l-6 43l-37 170h-283l-85 -170l-20 -43h-24l319 637h21zM335 603h-3l-184 -370h268z" />
    <glyph glyph-name="uni0411" unicode="&#x411;" horiz-adv-x="545" 
d="M166 351h144q81 0 123 -36.5t42 -104.5q0 -101 -67 -155.5t-192 -54.5h-113l24 195l54 442h322l3 -4l-6 -16h-301zM164 331l-17 -136l-22 -175h124q100 7 152.5 55t52.5 131q0 61 -37.5 93t-111.5 32h-141z" />
    <glyph glyph-name="uni0412" unicode="&#x412;" horiz-adv-x="491" 
d="M394.5 290.5q31.5 -34.5 31.5 -92.5q0 -95 -62 -148t-177 -53q-56 0 -104 3l25 195l56 442l116 2q66 0 102 -33t36 -93q0 -67 -29 -112.5t-83 -66.5q57 -9 88.5 -43.5zM147 343l121 -3q62 13 95.5 57.5t33.5 110.5q0 51 -30 80.5t-82 29.5h-103zM347 64q58 47 58 131
q0 55 -33.5 87.5t-96.5 37.5h-131l-16 -125l-22 -175q38 -3 78 -3q105 0 163 47z" />
    <glyph glyph-name="uni0413" unicode="&#x413;" horiz-adv-x="419" 
d="M443 633l-6 -16h-257l-76 -617h-20l24 195l54 442h278z" />
    <glyph glyph-name="uni0414" unicode="&#x414;" horiz-adv-x="607" 
d="M535 0l-14 -111l-20 -4l14 115h-492l-14 -111l-20 -4l16 135h56q42 28 72.5 86t59 162t62.5 280l17 89h253l-54 -442l-22 -175h88zM451 195l52 422h-215l-13 -71q-32 -167 -60 -271.5t-58.5 -165t-68.5 -89.5h341z" />
    <glyph glyph-name="uni0415" unicode="&#x415;" horiz-adv-x="455" 
d="M146 340h223l3 -4l-6 -16h-222l-16 -125l-22 -175h273l3 -4l-6 -16h-293l25 195l55 442h291l2 -4l-6 -16h-269z" />
    <glyph glyph-name="uni0416" unicode="&#x416;" horiz-adv-x="759" 
d="M9 1v4q180 170 322 335l-229 297h28l33 -47l194 -249v-3q-146 -169 -331 -344l-4 -1q-11 5 -13 8zM365 195l54 442h20l-54 -442l-24 -195h-20zM676 -6q-146 179 -247 344v3l254 249l45 47h30l-303 -297q107 -173 239 -335l1 -4q-3 -3 -15 -8z" />
    <glyph glyph-name="uni0417" unicode="&#x417;" horiz-adv-x="469" 
d="M371 286.5q31 -36.5 31 -91.5q0 -58 -29.5 -104t-81 -72t-113.5 -26q-48 0 -88 16.5t-66 45.5l9 15l5 1q24 -28 61 -43t81 -15q56 0 102 23t73 63.5t27 91.5q0 53 -34 88t-95 43h-114l-5 4l4 16h117q55 18 91.5 65.5t36.5 103.5q0 51 -33 80t-91 29q-44 0 -87.5 -16.5
t-78.5 -46.5l-7 1l3 18q41 31 86.5 48t89.5 17q64 0 102 -35t38 -92q0 -55 -33.5 -104.5t-88.5 -74.5q57 -12 88 -48.5z" />
    <glyph glyph-name="uni0418" unicode="&#x418;" horiz-adv-x="640" 
d="M104 195l54 441l21 2l-74 -596h5l456 595h19l-54 -442l-24 -195h-20l24 195l49 400h-5l-456 -595h-19z" />
    <glyph glyph-name="uni0419" unicode="&#x419;" horiz-adv-x="640" 
d="M104 195l54 441l21 2l-74 -596h5l456 595h19l-54 -442l-24 -195h-20l24 195l49 400h-5l-456 -595h-19zM502 788q-17 -36 -51.5 -55.5t-73.5 -19.5t-69 19.5t-37 55.5l13 10h6q4 -31 29.5 -48t58.5 -17q34 0 63.5 17t43.5 48h6z" />
    <glyph glyph-name="uni041A" unicode="&#x41a;" horiz-adv-x="513" 
d="M127 195l-25 -195h-20l25 195l56 442h20zM200 339q116 -177 248 -334v-4q-4 -4 -14 -8l-4 1q-149 179 -258 345v3l265 248l47 47h32z" />
    <glyph glyph-name="uni041B" unicode="&#x41b;" horiz-adv-x="563" 
d="M447 195l-24 -195h-20l76 617h-222l-13 -71q-36 -192 -69.5 -305t-70.5 -170t-86 -78l-14 -6l-5 16q52 23 88 77t67.5 163t69.5 305l16 86v3h261z" />
    <glyph glyph-name="uni041C" unicode="&#x41c;" horiz-adv-x="754" 
d="M644 0h-21l6 195l8 394h-4l-265 -508h-25l-133 508h-4l-90 -394l-44 -195h-21l146 637h23l26 -99l110 -428h4l231 439l46 88h24z" />
    <glyph glyph-name="uni041D" unicode="&#x41d;" horiz-adv-x="650" 
d="M588 637l-55 -442l-25 -195h-20l25 195l15 119h-385l-15 -119l-25 -195h-20l25 195l55 442h20l-38 -303h385l38 303h20z" />
    <glyph glyph-name="uni041E" unicode="&#x41e;" horiz-adv-x="642" 
d="M534.5 577q54.5 -65 54.5 -186q0 -122 -35.5 -211t-103 -137t-162.5 -48q-102 0 -156.5 67t-54.5 191q0 121 35 208.5t102.5 134t161.5 46.5q104 0 158.5 -65zM226 578q-62 -44 -95 -126.5t-33 -195.5q0 -115 49.5 -178t141.5 -63q87 0 150 45.5t96 129t33 197.5
q0 113 -49 174t-144 61q-87 0 -149 -44z" />
    <glyph glyph-name="uni041F" unicode="&#x41f;" horiz-adv-x="635" 
d="M518 195l-24 -195h-20l76 617h-370l-76 -617h-20l24 195l54 442h411z" />
    <glyph glyph-name="uni0420" unicode="&#x420;" horiz-adv-x="468" 
d="M408 600q39 -39 39 -111q0 -113 -60 -176.5t-170 -63.5h-82l-7 -54l-25 -195h-20l25 195l55 442l133 2q73 0 112 -39zM379.5 335.5q47.5 58.5 47.5 149.5q0 62 -32.5 96.5t-93.5 37.5l-120 -1l-44 -349h112q83 8 130.5 66.5z" />
    <glyph glyph-name="uni0421" unicode="&#x421;" horiz-adv-x="532" 
d="M459 625.5q42 -15.5 73 -43.5l-9 -17h-7q-59 56 -146 56q-86 0 -147.5 -44.5t-93.5 -127t-32 -196.5q0 -115 47.5 -176.5t138.5 -61.5q45 0 92 17.5t88 49.5l7 -2l-4 -18q-44 -32 -92 -49.5t-92 -17.5q-100 0 -152.5 66.5t-52.5 189.5q0 121 35 208.5t101 134.5t159 47
q45 0 87 -15.5z" />
    <glyph glyph-name="uni0422" unicode="&#x422;" horiz-adv-x="447" 
d="M471 633l-6 -16h-183l-54 -422l-24 -195h-20l24 195l54 422h-185l-3 4l6 16h388z" />
    <glyph glyph-name="uni0423" unicode="&#x423;" horiz-adv-x="532" 
d="M548 636l-253 -453q-45 -79 -71.5 -113.5t-58 -50t-89.5 -25.5h-6q-2 6 -2 16l1 3q55 11 84 24t52.5 41.5t58.5 89.5l-179 468l24 1l13 -44l154 -396h4l222 396l23 43h23z" />
    <glyph glyph-name="uni0424" unicode="&#x424;" horiz-adv-x="709" 
d="M585 159.5q-85 -76.5 -238 -80.5l-11 -88h-20l11 88q-127 1 -194 55.5t-67 160.5q0 137 83 210.5t240 77.5l8 69h20l-8 -69q129 -1 195 -53t66 -156q0 -138 -85 -214.5zM570.5 173.5q78.5 70.5 78.5 197.5q0 190 -243 192l-44 -365l-12 -99q142 4 220.5 74.5zM148.5 150
q62.5 -50 181.5 -51l12 99l44 365q-146 -4 -223 -71.5t-77 -194.5q0 -97 62.5 -147z" />
    <glyph glyph-name="uni0425" unicode="&#x425;" horiz-adv-x="539" 
d="M296 329l173 -329h-25l-16 38l-148 276l-215 -278l-25 -36h-27l257 331l-161 306h26l16 -35l134 -256l195 251l27 40h27z" />
    <glyph glyph-name="uni0426" unicode="&#x426;" horiz-adv-x="633" 
d="M555 -111l-20 -4l14 115h-469l24 195l54 442h20l-54 -442l-22 -175h350l22 175l54 442h21l-54 -442l-22 -175h99z" />
    <glyph glyph-name="uni0427" unicode="&#x427;" horiz-adv-x="540" 
d="M485 637l-54 -442l-24 -195h-20l24 195l13 110h-4q-90 -79 -187 -79q-75 0 -110.5 29.5t-35.5 91.5q0 9 2 33l31 257h20l-31 -254q-2 -20 -2 -28q0 -109 123 -109q53 0 101 22t97 69l37 300h20z" />
    <glyph glyph-name="uni0428" unicode="&#x428;" horiz-adv-x="837" 
d="M782 637l-54 -442l-24 -195h-624l24 195l54 442h20l-54 -442l-22 -175h282l22 175l54 442h20l-54 -442l-22 -175h282l22 175l54 442h20z" />
    <glyph glyph-name="uni0429" unicode="&#x429;" horiz-adv-x="872" 
d="M786 637l-54 -442l-24 -195h-624l24 195l54 442h20l-54 -442l-22 -175h282l22 175l54 442h20l-54 -442l-22 -175h282l22 175l54 442h20zM797 -111l-20 -4l14 115h-103l3 20h123z" />
    <glyph glyph-name="uni042A" unicode="&#x42a;" horiz-adv-x="576" 
d="M487.5 314.5q39.5 -36.5 39.5 -103.5q0 -101 -63 -156t-180 -55h-107l76 617h-190l-3 4l6 16h209l-35 -286h134q74 0 113.5 -36.5zM457 75.5q49 48.5 49 131.5q0 60 -35 92t-103 32h-130l-17 -136l-22 -175h115q94 7 143 55.5z" />
    <glyph glyph-name="uni042B" unicode="&#x42b;" horiz-adv-x="653" 
d="M380 315q38 -36 38 -103q0 -102 -62 -157t-178 -55h-102l24 195l54 442h20l-35 -286h131q72 0 110 -36zM591 637l-55 -442l-25 -195h-20l25 195l55 442h20zM349 75.5q48 48.5 48 132.5q0 60 -33.5 91.5t-98.5 31.5h-128l-17 -136l-22 -175h112q91 7 139 55.5z" />
    <glyph glyph-name="uni042C" unicode="&#x42c;" horiz-adv-x="511" 
d="M421.5 314.5q40.5 -36.5 40.5 -104.5q0 -101 -65 -155.5t-185 -54.5h-109l24 195l54 442h20l-35 -286h138q77 0 117.5 -36.5zM390.5 75q50.5 48 50.5 132q0 60 -36 92t-106 32h-135l-17 -136l-22 -175h119q96 7 146.5 55z" />
    <glyph glyph-name="uni042D" unicode="&#x42d;" horiz-adv-x="530" 
d="M447.5 579.5q53.5 -61.5 53.5 -180.5q0 -30 -5 -75q-19 -156 -95.5 -242.5t-198.5 -86.5q-46 0 -88.5 15.5t-74.5 43.5l9 17h8q28 -27 66 -41.5t80 -14.5q114 0 183.5 80t89.5 227h-327l-4 4l4 16h330q3 30 3 56q0 109 -49 166t-143 57q-45 0 -93.5 -17.5t-89.5 -49.5
l-7 2l3 18q45 32 94 49.5t94 17.5q104 0 157.5 -61.5z" />
    <glyph glyph-name="uni042E" unicode="&#x42e;" horiz-adv-x="785" 
d="M705 580q52 -62 52 -179q0 -30 -5 -73q-19 -160 -93 -246.5t-190 -86.5q-97 0 -148.5 62.5t-51.5 179.5q0 32 5 77h-135l-15 -119l-24 -195h-20l24 195l54 442h20l-37 -303h135q22 149 94 228.5t184 79.5q99 0 151 -62zM737 401q0 107 -47 164t-136 57q-107 0 -175 -79.5
t-86 -226.5q-5 -43 -5 -74q0 -110 47 -168.5t135 -58.5q107 0 175 81.5t87 233.5q5 42 5 71z" />
    <glyph glyph-name="uni042F" unicode="&#x42f;" horiz-adv-x="497" 
d="M438 634l-78 -634h-20l24 195l8 68h-125q-88 -128 -207 -268l-5 -2q-8 3 -12 8v4q124 146 203 261q-57 14 -87 53.5t-30 99.5q0 10 2 32q11 86 65.5 137t136.5 51l126 -2zM375 283l41 334l-110 1q-50 0 -90.5 -25t-63.5 -70t-23 -103q0 -55 29 -91t83 -46h134z" />
    <glyph glyph-name="uni0430" unicode="&#x430;" horiz-adv-x="414" 
d="M356 456l-46 -350l-9 -106l-25 -4l36 275h-4q-45 -85 -97 -156t-105 -119h-11q-27 20 -39.5 52t-12.5 89q0 85 26.5 156t78 115t122.5 49h4l65 -5l12 7zM146.5 64q35.5 40 82.5 110t91 159l4 29l7 70l-59 5q-63 -1 -110.5 -42.5t-73 -109t-25.5 -144.5q0 -41 7 -67
t16.5 -38t16.5 -12q8 0 43.5 40z" />
    <glyph glyph-name="uni0431" unicode="&#x431;" horiz-adv-x="407" 
d="M138 450.5q-38 -91.5 -46 -220.5l-1 -21h3q40 69 94 132.5t112 110.5h12q28 -23 39 -53.5t11 -81.5q0 -91 -24.5 -162.5t-69 -113.5t-101.5 -46q-52 0 -75.5 38.5t-23.5 122.5q0 164 42 280t119 156l87 45q33 17 45.5 29.5t24.5 43.5l18 -8q-15 -35 -28.5 -49.5
t-48.5 -32.5l-89 -46q-62 -32 -100 -123.5zM250.5 382q-39.5 -42 -85.5 -103t-77 -113l-1 -11q0 -72 20 -106t62 -34q49 0 88.5 38.5t62 106t22.5 151.5q0 44 -11.5 78.5t-26.5 34.5q-14 0 -53.5 -42z" />
    <glyph glyph-name="uni0432" unicode="&#x432;" horiz-adv-x="357" 
d="M215 248q29 -30 49.5 -63t29.5 -63v-12q-15 -51 -53.5 -82.5t-86.5 -31.5q-57 0 -83.5 37t-26.5 117q0 83 26.5 153.5t71 112t97.5 41.5h5q37 -3 56 -20.5t19 -48.5q0 -74 -104 -140zM160 405q-37 -31 -62 -85.5t-32 -121.5q110 41 171 89.5t61 97.5q0 25 -15 38t-43 13
q-43 0 -80 -31zM250 172q-22 36 -52 65q-54 -31 -133 -61q-1 -8 -1 -25q0 -71 22 -103t71 -32q27 0 54 15t44 38.5t17 46.5q0 20 -22 56z" />
    <glyph glyph-name="uni0433" unicode="&#x433;" horiz-adv-x="309" 
d="M54 21q-28 24 -28 64q0 31 17 57.5t40.5 46.5t64.5 50q54 39 80 65.5t26 59.5t-21.5 52t-57.5 19q-31 0 -57 -17.5t-41 -48.5h-7l-8 13q38 67 111 74q45 0 73 -25t28 -64q0 -42 -30 -74t-88 -73q-55 -39 -82.5 -68t-27.5 -66q0 -32 23 -51.5t62 -19.5q34 0 61 21t43 59h7
l10 -13q-20 -40 -49 -61.5t-71 -26.5q-50 3 -78 27z" />
    <glyph glyph-name="uni0434" unicode="&#x434;" horiz-adv-x="391" 
d="M209 707q68 0 101 -56.5t33 -173.5q0 -230 -52.5 -356.5t-148.5 -126.5q-50 0 -73 36t-23 115q0 88 25 158.5t69.5 111t99.5 40.5q20 0 83 -12v41q0 104 -29 153.5t-90 49.5q-39 0 -89 -19l-2 2l5 19q51 18 91 18zM269.5 120.5q46.5 106.5 52.5 301.5l-84 13
q-49 0 -88 -38t-61.5 -104.5t-22.5 -148.5q0 -68 18.5 -99t59.5 -31q79 0 125.5 106.5z" />
    <glyph glyph-name="uni0435" unicode="&#x435;" horiz-adv-x="348" 
d="M282 118l9 -13q-30 -50 -64.5 -77t-80.5 -33h-9q-49 6 -70.5 41.5t-21.5 106.5q0 88 25.5 159t70.5 112.5t99 42.5h5q75 -6 75 -69q0 -57 -64 -111t-190 -101q-1 -9 -1 -28q0 -68 19.5 -100t59.5 -32q37 0 70.5 26.5t60.5 75.5h7zM161.5 405.5q-37.5 -30.5 -62 -84.5
t-31.5 -123q111 41 171 90t60 97q0 23 -14.5 37t-42.5 14q-43 0 -80.5 -30.5z" />
    <glyph glyph-name="uni0436" unicode="&#x436;" horiz-adv-x="545" 
d="M312 456l-46 -350l-8 -106l-26 -4l49 366l6 90zM242 238q-119 -132 -230 -244l-3 -1q-10 3 -14 11v3q140 138 224 235l-155 210h26l22 -34l129 -174zM331 240q76 -123 164 -235v-3q-8 -6 -16 -9l-3 1q-81 107 -169 244l1 6l170 174l30 34h29z" />
    <glyph glyph-name="uni0437" unicode="&#x437;" horiz-adv-x="330" 
d="M8 19l5 16l5 3q55 -21 96 -21q64 0 101 29.5t37 82.5q0 41 -32.5 65.5t-91.5 27.5h-37l-2 2l3 18h33q30 0 60.5 18.5t50.5 47t20 56.5q0 30 -21 51t-54 21q-31 0 -58 -15t-53 -47h-3l-7 13q54 69 121 69q43 0 69 -26t26 -66q0 -37 -28 -73t-72 -55v-2q45 -11 70.5 -37.5
t25.5 -65.5q0 -61 -43.5 -97.5t-114.5 -36.5q-55 0 -106 22z" />
    <glyph glyph-name="uni0438" unicode="&#x438;" horiz-adv-x="437" 
d="M380 456l-46 -350l-9 -106l-25 -4l36 271h-5q-65 -112 -114.5 -179t-98.5 -99h-11q-24 7 -38 30.5t-13 54.5l1 13l43 263l12 101l25 4l-59 -365l-1 -15q-1 -25 10 -42.5t24 -17.5q26 0 90.5 85t142.5 230l4 32l7 90z" />
    <glyph glyph-name="uni0439" unicode="&#x439;" horiz-adv-x="437" 
d="M380 456l-46 -350l-9 -106l-25 -4l36 271h-5q-65 -112 -114.5 -179t-98.5 -99h-11q-24 7 -38 30.5t-13 54.5l1 13l43 263l12 101l25 4l-59 -365l-1 -15q-1 -25 10 -42.5t24 -17.5q26 0 90.5 85t142.5 230l4 32l7 90zM373 603q-17 -36 -51.5 -55.5t-73.5 -19.5t-69 19.5
t-37 55.5l13 10h6q4 -31 29.5 -48t58.5 -17q34 0 63.5 17t43.5 48h6z" />
    <glyph glyph-name="uni043A" unicode="&#x43a;" horiz-adv-x="379" 
d="M106 362l6 90l25 4l-46 -350l-8 -106l-26 -4zM158 240q76 -117 171 -235v-3q-6 -6 -15 -9l-3 1q-85 107 -178 244l1 6l177 174l31 34h29z" />
    <glyph glyph-name="uni043B" unicode="&#x43b;" horiz-adv-x="376" 
d="M310 2l-23 -6l-6 74l-36 352h-3l-137 -303q-22 -49 -38.5 -74t-34.5 -37t-45 -18l-5 18l4 4q30 6 51 29.5t49 85.5l151 325h24z" />
    <glyph glyph-name="uni043C" unicode="&#x43c;" horiz-adv-x="535" 
d="M136 452l21 3l18 -75l72 -294h2l150 301l32 65l23 3l-12 -455h-20l6 145l5 264h-3l-175 -352h-22l-84 352h-3l-57 -253l-34 -156h-20z" />
    <glyph glyph-name="uni043D" unicode="&#x43d;" horiz-adv-x="441" 
d="M383 456l-46 -350l-7 -106l-27 -4l30 224h-227l-15 -114l-7 -106l-27 -4l49 366l6 90l25 4l-29 -217h228l16 123l6 90z" />
    <glyph glyph-name="uni043E" unicode="&#x43e;" horiz-adv-x="390" 
d="M250 458q50 -4 72.5 -37t22.5 -101q0 -91 -24 -163.5t-69 -115.5t-106 -47h-5q-50 3 -73 36.5t-23 103.5q0 91 24.5 164.5t69.5 116t106 43.5h5zM151.5 398q-40.5 -39 -63.5 -107.5t-23 -153.5q0 -62 19.5 -92t60.5 -30q52 0 93 39.5t63.5 108.5t22.5 154q0 62 -19 91
t-60 29q-53 0 -93.5 -39z" />
    <glyph glyph-name="uni043F" unicode="&#x43f;" horiz-adv-x="438" 
d="M369 431.5q14 -23.5 13 -54.5l-1 -13l-43 -263l-12 -101l-25 -4l59 365l1 15q1 25 -10 42.5t-24 17.5q-26 0 -90 -85t-143 -231l-2 -14l-9 -106l-25 -4l48 366l7 90l25 4l-36 -272h5q65 112 114.5 179t98.5 99h11q24 -7 38 -30.5z" />
    <glyph glyph-name="uni0440" unicode="&#x440;" horiz-adv-x="419" 
d="M364 402q12 -30 12 -85q0 -86 -27 -157.5t-79.5 -115.5t-124.5 -48h-4l-58 14l-11 -89l-9 -106l-25 -4l71 551l6 90l25 4l-35 -277h4q45 84 98 155.5t106 119.5h11q28 -22 40 -52zM256 57q48 41 74 109t26 146q0 40 -6.5 65.5t-16 37t-16.5 11.5q-8 0 -44 -39.5
t-83.5 -109t-92.5 -157.5l-11 -89l58 -15q64 0 112 41z" />
    <glyph glyph-name="uni0441" unicode="&#x441;" horiz-adv-x="329" 
d="M318 437l5 -7l-6 -14l-5 -3q-37 23 -64 23q-85 -1 -133 -80t-48 -215q0 -66 18.5 -95.5t54.5 -29.5q32 0 64.5 23.5t60.5 78.5h6l9 -13q-31 -55 -64 -79.5t-75 -30.5h-8q-27 5 -45.5 17t-29.5 43t-11 87q0 141 54 227.5t161 86.5z" />
    <glyph glyph-name="uni0442" unicode="&#x442;" horiz-adv-x="686" 
d="M617 431.5q14 -23.5 13 -54.5l-1 -13l-43 -263l-12 -101l-25 -4l59 365l1 15q1 25 -10 42.5t-24 17.5q-26 0 -91 -86t-145 -234l-2 -15l-12 -101l-25 -4l60 365l1 15q0 25 -11 42.5t-24 17.5q-26 0 -89.5 -85t-142.5 -231l-2 -14l-9 -106l-25 -4l48 366l7 90l25 4
l-36 -272h5q64 112 114 179t98 99h11q24 -7 38.5 -30.5t13.5 -54.5l-1 -13l-30 -180h5q64 112 114 179t98 99h11q24 -7 38 -30.5z" />
    <glyph glyph-name="uni0443" unicode="&#x443;" horiz-adv-x="361" 
d="M343 373q0 -49 -39 -115l-164 -277q-56 -95 -99 -135.5t-91 -40.5q-27 0 -60 12l2 19l5 2q30 -12 55 -12q41 0 79 37.5t91 126.5l13 22l-80 438l23 6l12 -74l59 -340h4l134 226q36 60 36 106q0 32 -28 70l1 5l18 6q29 -41 29 -82z" />
    <glyph glyph-name="uni0444" unicode="&#x444;" horiz-adv-x="552" 
d="M483.5 405q21.5 -41 21.5 -99q0 -89 -22 -159.5t-62 -110t-93 -39.5l-70 18l-13 -96l-9 -106l-25 -4l32 240h-6q-47 -39 -98 -55h-14q-34 12 -56 53t-22 98q0 90 23 160.5t64 110t94 39.5l65 -18l23 171l6 90l25 4l-39 -299h7q44 37 102 55h12q33 -12 54.5 -53zM247 83
l44 334l-62 18q-47 0 -84 -37t-57.5 -103t-20.5 -150q0 -54 18.5 -90.5t46.5 -36.5q46 0 115 65zM410.5 54q35.5 37 55 103t19.5 150q0 54 -18.5 90.5t-46.5 36.5q-45 0 -116 -66l-44 -333l68 -18q47 0 82.5 37z" />
    <glyph glyph-name="uni0445" unicode="&#x445;" horiz-adv-x="394" 
d="M334 4l-21 -8l-19 40l-97 177l-147 -181l-23 -32h-28l187 233l-114 215l21 8l15 -33l91 -174l138 169l24 34h28l-178 -223z" />
    <glyph glyph-name="uni0446" unicode="&#x446;" horiz-adv-x="456" 
d="M396 13l-12 -56q-9 -41 -22.5 -61.5t-44.5 -39.5l-17 3l-1 6q30 18 44 38.5t22 56.5l8 40h-28q-21 0 -30 8t-9 27q0 10 1 17l28 215h-4q-69 -118 -119 -182.5t-94 -95.5h-11q-24 7 -38.5 30.5t-12.5 54.5l1 13l43 263l12 101l25 4l-59 -365l-1 -15q-1 -23 9.5 -41.5
t24.5 -18.5q27 0 92 88t141 227l4 32l7 90l25 4l-52 -403q-1 -5 -1 -13q0 -12 5.5 -16t19.5 -4h38z" />
    <glyph glyph-name="uni0447" unicode="&#x447;" horiz-adv-x="395" 
d="M337 456l-46 -350l-7 -106l-27 -4l34 254h-5q-63 -54 -100 -79t-71 -37h-11q-24 4 -38 22t-13 41l1 9l21 156l7 90l25 4l-33 -247v-11q0 -15 10.5 -27t24.5 -12q25 0 75.5 34.5t111.5 92.5l10 76l6 90z" />
    <glyph glyph-name="uni0448" unicode="&#x448;" horiz-adv-x="686" 
d="M629 456l-46 -350l-9 -106l-25 -4l36 271h-5q-65 -112 -114.5 -179t-98.5 -99h-11q-24 7 -38 30.5t-13 54.5l1 13l29 180h-4q-65 -112 -114.5 -179t-98.5 -99h-11q-24 7 -38 30.5t-13 54.5l1 13l43 263l12 101l25 4l-59 -365l-1 -15q-1 -25 10 -42.5t24 -17.5
q26 0 91.5 86.5t144.5 233.5l2 15l12 101l25 4l-59 -365l-1 -15q-1 -25 10 -42.5t24 -17.5q26 0 90.5 85t142.5 230l4 32l7 90z" />
    <glyph glyph-name="uni0449" unicode="&#x449;" horiz-adv-x="705" 
d="M645 13l-12 -56q-9 -41 -22.5 -61.5t-44.5 -39.5l-17 3l-1 6q30 18 44 38.5t22 56.5l8 40h-28q-21 0 -30 8t-9 27q0 10 1 17l28 215h-4q-65 -112 -114.5 -179t-98.5 -99h-11q-24 7 -38 30.5t-13 54.5l1 13l29 180h-4q-65 -112 -114.5 -179t-98.5 -99h-11q-24 7 -38 30.5
t-13 54.5l1 13l43 263l12 101l25 4l-59 -365l-1 -15q-1 -25 10 -42.5t24 -17.5q26 0 91.5 86.5t144.5 233.5l2 15l12 101l25 4l-59 -365l-1 -15q-1 -25 10 -42.5t24 -17.5q26 0 90.5 85t142.5 230l4 32l7 90l25 4l-52 -403q-1 -5 -1 -13q0 -12 5.5 -16t19.5 -4h38z" />
    <glyph glyph-name="uni044A" unicode="&#x44a;" horiz-adv-x="388" 
d="M338.5 269.5q12.5 -24.5 12.5 -63.5q0 -58 -26 -106t-72 -75.5t-103 -27.5h-4l-93 18l140 418h-147l-2 3l5 16h169l-97 -294h5q60 70 89.5 100t70.5 56h12q28 -20 40.5 -44.5zM244.5 40.5q40.5 23.5 63.5 65t23 92.5q0 38 -12 63t-30 25q-17 0 -67.5 -50.5t-120.5 -137.5
l-22 -67l75 -14q50 0 90.5 23.5z" />
    </font>
</defs>
</svg>
