<?xml version="1.0" standalone="no"?>
<!DOCTYPE svg PUBLIC "-//W3C//DTD SVG 1.1//EN" "http://www.w3.org/Graphics/SVG/1.1/DTD/svg11.dtd" >
<svg xmlns="http://www.w3.org/2000/svg" xmlns:xlink="http://www.w3.org/1999/xlink" version="1.1">
<metadata>
Created by FontForge 20170731 at Mon May 15 16:25:05 2017
 By Aleksey,,,
Copyright 2010, 2012, 2014 Adobe Systems Incorporated (http://www.adobe.com/), with Reserved Font Name `Source'.
</metadata>
<defs>
<font id="SourceSansPro-BoldItalic" horiz-adv-x="509" >
  <font-face 
    font-family="Source Sans Pro"
    font-weight="700"
    font-style="italic"
    font-stretch="normal"
    units-per-em="1000"
    panose-1="2 11 7 3 3 4 3 9 2 4"
    ascent="750"
    descent="-250"
    x-height="496"
    cap-height="652"
    bbox="-215 -296 1167 1007"
    underline-thickness="50"
    underline-position="-150"
    slope="-11"
    unicode-range="U+0020-FEFF"
  />
<missing-glyph horiz-adv-x="663" 
d="M29 0l130 660h505l-130 -660h-505zM361 408h4l61 96l45 70h-152l20 -70zM216 86h163l-22 86l-20 97h-4l-59 -97zM150 146l132 194l-54 193zM470 146l79 387l-133 -193z" />
    <glyph glyph-name="f_f" unicode="ff" horiz-adv-x="625" 
d="M337 0l79 389h-165l-78 -389h-137l79 389h-64l21 101l64 5l5 24q8 38 23 71.5t38.5 58.5t56.5 39.5t76 14.5q29 0 56.5 -7t51.5 -20l-44 -97q-9 5 -22.5 10t-27.5 5q-29 0 -46 -14.5t-25 -55.5l-6 -28h165l7 33q7 38 22 71.5t38.5 58.5t56 39.5t74.5 14.5q29 0 56 -7
t50 -20l-43 -97q-8 5 -21.5 10t-26.5 5q-28 0 -45 -14.5t-25 -55.5l-8 -38h87l-20 -107h-88l-77 -389h-137z" />
    <glyph glyph-name="f_t" unicode="ft" horiz-adv-x="650" 
d="M36 0l79 389h-64l21 101l64 5l7 34q7 38 22 71.5t38.5 58.5t56 39.5t75.5 14.5q29 0 56 -7t50 -20l-44 -97q-8 5 -21 10t-27 5q-27 0 -44 -14.5t-25 -55.5l-8 -38h151l42 130h114l-24 -130h112l-21 -107h-115l-44 -213q-2 -9 -2 -17v-16q0 -48 52 -48q11 0 20.5 3t19.5 8
l25 -96q-20 -8 -49.5 -15t-67.5 -7q-75 0 -107.5 37t-32.5 94q0 16 2 31.5t5 31.5l43 207h-144l-78 -389h-137z" />
    <glyph glyph-name=".notdef" horiz-adv-x="663" 
d="M29 0l130 660h505l-130 -660h-505zM361 408h4l61 96l45 70h-152l20 -70zM216 86h163l-22 86l-20 97h-4l-59 -97zM150 146l132 194l-54 193zM470 146l79 387l-133 -193z" />
    <glyph glyph-name=".null" horiz-adv-x="0" 
 />
    <glyph glyph-name="nonmarkingreturn" horiz-adv-x="333" 
 />
    <glyph glyph-name="space" unicode=" " horiz-adv-x="198" 
 />
    <glyph glyph-name="exclam" unicode="!" horiz-adv-x="331" 
d="M115 226l46 318l19 126h137l-29 -126l-83 -318h-90zM116 -12q-32 0 -51.5 20.5t-19.5 53.5q0 18 7 36.5t20 32.5t31 23t40 9q32 0 51.5 -21.5t19.5 -53.5q0 -19 -7 -37t-20 -32t-31 -22.5t-40 -8.5z" />
    <glyph glyph-name="quotedbl" unicode="&#x22;" horiz-adv-x="510" 
d="M121 363l21 181l18 126h135l-28 -126l-57 -181h-89zM340 363l21 181l18 126h135l-28 -126l-57 -181h-89z" />
    <glyph glyph-name="numbersign" unicode="#" horiz-adv-x="506" 
d="M34 0l60 188h-76l21 89h82l36 116h-76l22 89h82l54 168h81l-54 -168h100l54 168h80l-53 -168h75l-21 -89h-82l-36 -116h76l-21 -89h-83l-60 -188h-81l60 188h-100l-60 -188h-80zM202 277h100l36 116h-100z" />
    <glyph glyph-name="dollar" unicode="$" 
d="M135 -110l21 105q-43 10 -82 34t-68 59l84 83q23 -29 55 -51t70 -22q42 0 64.5 20.5t22.5 55.5q0 27 -15 48.5t-37.5 41t-48.5 38.5t-48.5 42t-37.5 51t-15 66q0 39 13.5 72.5t38 59t59 41.5t76.5 20l19 99h91l-21 -107q35 -10 65 -31t56 -52l-86 -77q-20 26 -46 42.5
t-55 16.5q-35 0 -55 -19.5t-20 -48.5q0 -24 15 -43.5t37.5 -37.5t48.5 -37t48.5 -43t37.5 -54t15 -71t-13.5 -75.5t-38 -60.5t-60 -43t-79.5 -22l-21 -100h-90z" />
    <glyph glyph-name="percent" unicode="%" horiz-adv-x="829" 
d="M191 258q-29 0 -54 11.5t-44 32t-29.5 50t-10.5 65.5q0 52 14 99t39 82t60.5 55.5t79.5 20.5q29 0 54 -11.5t44 -32.5t29.5 -50.5t10.5 -65.5q0 -53 -14 -99.5t-39 -81t-61 -55t-79 -20.5zM200 340q19 0 34.5 13t27 36t18 54.5t6.5 68.5t-11.5 58.5t-37.5 21.5
q-19 0 -34.5 -13t-27 -36.5t-18 -55t-6.5 -67.5q0 -37 11.5 -58.5t37.5 -21.5zM141 -12l474 684h80l-474 -684h-80zM601 -12q-29 0 -54 11.5t-44 32t-29.5 50t-10.5 65.5q0 52 14 99t39 82t60.5 55.5t79.5 20.5q29 0 54 -11.5t44 -32.5t29.5 -50.5t10.5 -65.5
q0 -53 -14 -99.5t-39 -81t-61 -55t-79 -20.5zM610 70q19 0 34.5 13t27 36t18 54.5t6.5 68.5t-11.5 58.5t-37.5 21.5q-19 0 -34.5 -13t-27 -36.5t-18 -55t-6.5 -67.5q0 -37 11.5 -58.5t37.5 -21.5z" />
    <glyph glyph-name="ampersand" unicode="&#x26;" horiz-adv-x="633" 
d="M200 -12q-88 0 -137 45t-49 117q0 40 12.5 71.5t33.5 56.5t48 45t57 37q-9 28 -14 55.5t-5 53.5q0 40 15.5 75.5t42.5 62t63 42t77 15.5q66 0 100 -35.5t34 -95.5q0 -37 -15 -67t-39 -54.5t-54.5 -45.5t-62.5 -40q20 -35 47 -67.5t57 -60.5q33 38 58 79.5t45 89.5h124
q-29 -62 -64.5 -120t-82.5 -110q26 -16 51 -26t45 -15l-54 -108q-34 8 -68.5 23.5t-67.5 38.5q-43 -30 -92 -46t-105 -16zM260 473q0 -27 8 -59q44 24 74 51.5t30 68.5q0 18 -9 28.5t-27 10.5q-30 0 -53 -26.5t-23 -73.5zM224 91q47 0 94 26q-32 32 -59.5 69t-49.5 77
q-28 -22 -45 -45.5t-17 -52.5q0 -32 20.5 -53t56.5 -21z" />
    <glyph glyph-name="quotesingle" unicode="'" horiz-adv-x="291" 
d="M121 363l21 181l18 126h135l-28 -126l-57 -181h-89z" />
    <glyph glyph-name="parenleft" unicode="(" horiz-adv-x="329" 
d="M115 -179q-12 31 -22.5 68.5t-18.5 77.5t-13 81.5t-5 82.5q0 87 15.5 165t45 151t73.5 143.5t101 142.5l79 -40q-106 -141 -155 -283.5t-49 -288.5q0 -32 2 -67t6.5 -70t11.5 -67.5t16 -59.5z" />
    <glyph glyph-name="parenright" unicode=")" horiz-adv-x="331" 
d="M46 -179l-79 40q106 141 155 283.5t49 288.5q0 32 -2 67t-6.5 70t-11.5 68t-16 60l87 35q12 -32 22.5 -69t19 -76.5t13.5 -81.5t5 -82q0 -87 -15.5 -165.5t-45.5 -151.5t-74 -143.5t-101 -142.5z" />
    <glyph glyph-name="asterisk" unicode="*" horiz-adv-x="438" 
d="M173 366l-52 49l75 98l-95 55l31 65l107 -34l32 115l71 -6l-8 -117l114 14l10 -70l-110 -38l38 -106l-65 -37l-61 94z" />
    <glyph glyph-name="plus" unicode="+" 
d="M215 95v187h-167v97h168v185h101v-185h168v-97h-170v-187h-100z" />
    <glyph glyph-name="comma" unicode="," horiz-adv-x="291" 
d="M-13 -187l-14 75q57 17 89 47t40 65q-33 1 -54.5 20t-21.5 51q0 36 25 64t68 28q40 0 61.5 -25.5t21.5 -71.5q0 -47 -15 -88.5t-42.5 -74.5t-67.5 -56.5t-90 -33.5z" />
    <glyph glyph-name="hyphen" unicode="-" horiz-adv-x="320" 
d="M33 205l21 97h234l-21 -97h-234z" />
    <glyph glyph-name="period" unicode="." horiz-adv-x="291" 
d="M94 -12q-32 0 -51 20.5t-19 53.5q0 18 7 36.5t20 32.5t31 23t40 9q32 0 51 -21.5t19 -53.5q0 -19 -7 -37t-20 -32t-31 -22.5t-40 -8.5z" />
    <glyph glyph-name="slash" unicode="/" horiz-adv-x="329" 
d="M-69 -160l372 870h91l-374 -870h-89z" />
    <glyph glyph-name="zero" unicode="0" 
d="M217 -12q-39 0 -71.5 14.5t-56.5 43t-37.5 71.5t-13.5 99q0 105 24.5 185.5t64 135t89.5 82.5t101 28q39 0 71.5 -14.5t56 -43.5t37 -72t13.5 -100q0 -105 -24.5 -185.5t-63.5 -134.5t-89 -81.5t-101 -27.5zM226 93q27 0 53 26.5t46 72.5t32.5 107.5t12.5 131.5
q0 59 -16 85t-45 26q-27 0 -53 -27t-46 -73t-32.5 -108t-12.5 -132q0 -59 16 -84t45 -25z" />
    <glyph glyph-name="one" unicode="1" 
d="M19 0l22 110h131l78 383h-116l17 86q53 8 90 21.5t72 34.5h102l-106 -525h117l-22 -110h-385z" />
    <glyph glyph-name="two" unicode="2" 
d="M-13 0l15 78q78 64 141.5 116t108.5 98t69.5 87t24.5 83q0 34 -19.5 55.5t-57.5 21.5q-27 0 -51.5 -14t-52.5 -37l-66 79q46 39 92.5 59.5t94.5 20.5q91 0 142 -47t51 -124q0 -48 -18.5 -90.5t-52.5 -85t-82 -87.5t-106 -98h215l-22 -115h-426z" />
    <glyph glyph-name="three" unicode="3" 
d="M202 -12q-60 0 -118 27.5t-100 86.5l87 71q25 -35 59.5 -55t68.5 -20q52 0 82.5 23.5t30.5 65.5q0 21 -7 37.5t-25 28t-48.5 17.5t-76.5 6l19 97q50 0 83 8t52.5 21.5t27.5 31t8 37.5q0 31 -20 49.5t-57 18.5q-23 0 -47.5 -10.5t-53.5 -30.5l-66 88q48 34 95 47.5
t97 13.5q43 0 78.5 -11t60.5 -31t39 -48.5t14 -62.5q0 -60 -30.5 -102.5t-105.5 -67.5v-4q51 -20 75.5 -55t24.5 -79q0 -48 -19 -85t-52 -62t-78.5 -38t-97.5 -13z" />
    <glyph glyph-name="four" unicode="4" 
d="M365 0h-125l31 154h-263l18 96l302 385h163l-75 -375h73l-20 -106h-73zM161 260h130l23 114q7 34 16 70t17 71h-4q-19 -29 -36.5 -59t-36.5 -57z" />
    <glyph glyph-name="five" unicode="5" 
d="M201 -12q-60 0 -113 27t-95 87l86 70q25 -34 55.5 -54t69.5 -20q23 0 44 8t36.5 23.5t25 38t9.5 50.5q0 45 -23 66.5t-64 21.5q-12 0 -22 -1t-20.5 -4.5t-22.5 -9t-28 -14.5l-51 42l78 316h342l-23 -115h-223l-35 -125q29 13 61 13q36 0 67 -10.5t53.5 -31.5t35.5 -52.5
t13 -73.5q0 -59 -21.5 -105.5t-57.5 -79t-82 -50t-95 -17.5z" />
    <glyph glyph-name="six" unicode="6" 
d="M248 -12q-45 0 -82 16.5t-62.5 46.5t-39.5 71.5t-14 91.5q0 97 24 177t66.5 137t101 88t127.5 31q30 0 54 -8t43.5 -21t34 -28t25.5 -30l-87 -73q-14 23 -33 36.5t-46 13.5q-57 0 -104 -50.5t-67 -150.5q27 29 63 44.5t62 15.5q34 0 63 -10t50 -30.5t33 -52t12 -73.5
q0 -46 -16.5 -89.5t-46.5 -77.5t-71 -54.5t-90 -20.5zM255 90q22 0 39 12t28.5 30.5t17.5 41.5t6 44q0 40 -17.5 62t-50.5 22q-20 0 -45.5 -13t-54.5 -49q-1 -10 -1 -19.5v-19.5q0 -54 21.5 -82.5t56.5 -28.5z" />
    <glyph glyph-name="seven" unicode="7" 
d="M100 0q22 83 47.5 155.5t58 137t72 121t90.5 106.5h-269l23 115h421l-17 -86q-72 -66 -119.5 -134t-79.5 -137t-51.5 -138.5t-34.5 -139.5h-141z" />
    <glyph glyph-name="eight" unicode="8" 
d="M233 -12q-34 0 -68.5 9.5t-63 29.5t-46.5 51.5t-18 75.5q0 33 11 60.5t29.5 50t43.5 39.5t53 28v4q-27 28 -41 59.5t-14 69.5q0 42 16.5 76t45 57.5t65.5 36t79 12.5q32 0 63 -8.5t55.5 -27t39.5 -46.5t15 -67q0 -60 -31 -102t-83 -70v-4q34 -23 56.5 -59.5t22.5 -85.5
q0 -44 -18.5 -78.5t-50 -59.5t-73.5 -38t-88 -13zM322 365q23 20 41 47.5t18 65.5q0 32 -16 52t-50 20q-31 0 -53.5 -21t-22.5 -59q0 -36 21 -59.5t62 -45.5zM243 83q18 0 35.5 6t30.5 17.5t21 29t8 40.5q0 38 -30 63t-78 52q-30 -21 -50.5 -51t-20.5 -71q0 -36 22 -61
t62 -25z" />
    <glyph glyph-name="nine" unicode="9" 
d="M259 333q20 0 45 13.5t54 48.5q1 10 1 19.5v19.5q0 54 -21.5 82.5t-56.5 28.5q-22 0 -39 -12t-28.5 -30.5t-17.5 -41.5t-6 -44q0 -40 17.5 -62t51.5 -22zM168 -12q-30 0 -54.5 8t-44 21t-34 28.5t-24.5 30.5l86 72q14 -23 33 -36.5t46 -13.5q57 0 104 50t67 150
q-28 -29 -63.5 -44t-61.5 -15q-34 0 -62.5 10t-49.5 30.5t-33 52t-12 73.5q0 46 16.5 89.5t46 77.5t70.5 54.5t90 20.5q46 0 82.5 -16.5t62 -46.5t39.5 -71.5t14 -91.5q0 -98 -24 -177.5t-66 -136.5t-100.5 -88t-127.5 -31z" />
    <glyph glyph-name="colon" unicode=":" horiz-adv-x="291" 
d="M151 322q-32 0 -51 20.5t-19 53.5q0 18 7 36.5t20 32.5t31 23t40 9q32 0 51 -21.5t19 -53.5q0 -19 -7 -37t-20 -32t-31 -22.5t-40 -8.5zM94 -12q-32 0 -51 20.5t-19 53.5q0 18 7 36.5t20 32.5t31 23t40 9q32 0 51 -21.5t19 -53.5q0 -19 -7 -37t-20 -32t-31 -22.5
t-40 -8.5z" />
    <glyph glyph-name="semicolon" unicode=";" horiz-adv-x="291" 
d="M151 322q-32 0 -51 20.5t-19 53.5q0 18 7 36.5t20 32.5t31 23t40 9q32 0 51 -21.5t19 -53.5q0 -19 -7 -37t-20 -32t-31 -22.5t-40 -8.5zM-13 -187l-14 75q57 17 89 47t40 65q-33 1 -54.5 20t-21.5 51q0 36 25 64t68 28q40 0 61.5 -25.5t21.5 -71.5q0 -47 -15 -88.5
t-42.5 -74.5t-67.5 -56.5t-90 -33.5z" />
    <glyph glyph-name="less" unicode="&#x3c;" 
d="M485 108l-439 175v96l439 174v-112l-170 -61l-129 -46v-4l129 -47l170 -61v-114z" />
    <glyph glyph-name="equal" unicode="=" 
d="M48 398v97h437v-97h-437zM48 167v97h437v-97h-437z" />
    <glyph glyph-name="greater" unicode="&#x3e;" 
d="M48 108v114l171 61l128 47v4l-128 46l-171 61v112l439 -174v-96z" />
    <glyph glyph-name="question" unicode="?" horiz-adv-x="444" 
d="M146 232q4 40 18.5 69.5t34.5 52.5t41.5 41.5t40 36t30.5 36t12 42.5q0 29 -17 45.5t-47 16.5q-38 0 -77 -39l-69 78q35 35 76.5 53t86.5 18q81 0 131 -39.5t50 -111.5q0 -39 -13 -67.5t-33 -51.5t-44 -43t-45.5 -41t-38 -46.5t-21.5 -59.5zM161 -12q-32 0 -51.5 20.5
t-19.5 53.5q0 18 7 36.5t20 32.5t31 23t40 9q32 0 51 -21.5t19 -53.5q0 -19 -7 -37t-20 -32t-30.5 -22.5t-39.5 -8.5z" />
    <glyph glyph-name="at" unicode="@" horiz-adv-x="866" 
d="M379 -170q-67 0 -128 21t-107 62.5t-73.5 103.5t-27.5 145q0 106 37.5 198.5t101 160t147 106.5t174.5 39q78 0 138.5 -24t102.5 -65.5t64 -98t22 -120.5q0 -80 -19.5 -139.5t-52 -99.5t-76 -60t-91.5 -20q-35 0 -62.5 19t-36.5 56h-4q-19 -29 -50 -47t-62 -18
q-54 0 -89.5 39t-35.5 105q0 47 16 91.5t44 79t64.5 55.5t78.5 21q45 0 70 -49h2l15 41h83l-51 -222q-20 -86 43 -86q20 0 42.5 14t41 41.5t30.5 69t12 95.5q0 47 -13 90.5t-43 77t-78 53.5t-118 20q-63 0 -126 -31t-113.5 -86t-82 -129t-31.5 -161q0 -67 22 -116.5
t57.5 -82.5t81 -49t93.5 -16q28 0 60.5 9t58.5 25l36 -74q-42 -22 -83 -33t-84 -11zM404 134q16 0 31.5 11.5t34.5 37.5l31 139q-16 31 -44 31q-22 0 -41 -14.5t-33 -37t-22 -49.5t-8 -51q0 -32 13.5 -49.5t37.5 -17.5z" />
    <glyph glyph-name="A" unicode="A" horiz-adv-x="548" 
d="M255 353l-40 -86h140l-4 86q-2 48 -4 95t-4 99h-4q-21 -51 -41 -98t-43 -96zM-62 0l344 652h164l65 -652h-143l-8 164h-194l-77 -164h-151z" />
    <glyph glyph-name="B" unicode="B" horiz-adv-x="604" 
d="M28 0l131 652h199q49 0 89 -9t69 -27t45 -46t16 -67q0 -57 -38.5 -100.5t-102.5 -62.5l-2 -4q54 -13 83.5 -43.5t29.5 -78.5q0 -57 -22.5 -98t-61 -66.5t-90 -37.5t-108.5 -12h-237zM243 385h65q69 0 99 26t30 69q0 32 -25 49.5t-79 17.5h-58zM186 105h85q70 0 107 26.5
t37 77.5q0 40 -26 61.5t-80 21.5h-85z" />
    <glyph glyph-name="C" unicode="C" horiz-adv-x="567" 
d="M304 -12q-57 0 -102.5 18.5t-78 54t-50 86t-17.5 114.5q0 84 27 157.5t73.5 128t110 86t136.5 31.5q57 0 101.5 -27.5t72.5 -76.5l-94 -72q-18 29 -39 43t-48 14q-42 0 -78 -22.5t-63 -60.5t-42.5 -88t-15.5 -104q0 -76 32 -120t104 -44q29 0 57 14t54 36l57 -88
q-15 -14 -35 -28t-45 -25.5t-54.5 -19t-62.5 -7.5z" />
    <glyph glyph-name="D" unicode="D" horiz-adv-x="616" 
d="M28 0l131 652h143q137 0 212.5 -63t75.5 -193q0 -96 -26.5 -170t-74 -124.5t-113.5 -76t-144 -25.5h-204zM188 110h41q47 0 87.5 16.5t70 50.5t46.5 86.5t17 123.5q0 81 -41 118t-110 37h-26z" />
    <glyph glyph-name="E" unicode="E" horiz-adv-x="527" 
d="M28 0l131 652h386l-22 -115h-251l-28 -142h213l-22 -115h-213l-34 -165h259l-22 -115h-397z" />
    <glyph glyph-name="F" unicode="F" horiz-adv-x="504" 
d="M28 0l131 652h386l-22 -115h-251l-31 -160h212l-22 -115h-213l-52 -262h-138z" />
    <glyph glyph-name="G" unicode="G" horiz-adv-x="611" 
d="M314 -12q-60 0 -108 18.5t-81.5 53.5t-51 85.5t-17.5 115.5q0 84 27 157.5t74.5 128t113 86t142.5 31.5q63 0 108.5 -27.5t73.5 -76.5l-93 -72q-19 29 -41.5 43t-54.5 14q-45 0 -83.5 -22.5t-66.5 -60.5t-43.5 -88t-15.5 -104q0 -38 7.5 -68t24.5 -52t44 -33.5t65 -11.5
q20 0 38.5 6t32.5 16l28 128h-107l21 112h227l-60 -311q-38 -29 -90 -48.5t-114 -19.5z" />
    <glyph glyph-name="H" unicode="H" horiz-adv-x="652" 
d="M28 0l131 652h137l-52 -253h223l50 253h137l-130 -652h-138l57 279h-223l-54 -279h-138z" />
    <glyph glyph-name="I" unicode="I" horiz-adv-x="294" 
d="M28 0l131 652h137l-130 -652h-138z" />
    <glyph glyph-name="J" unicode="J" horiz-adv-x="491" 
d="M176 -12q-57 0 -106 25.5t-78 73.5l84 83q14 -26 39.5 -45t60.5 -19q76 0 100 121l85 425h137l-90 -449q-9 -44 -26.5 -83t-46 -68.5t-68 -46.5t-91.5 -17z" />
    <glyph glyph-name="K" unicode="K" horiz-adv-x="604" 
d="M28 0l131 652h137l-53 -268h3l245 268h150l-237 -268l146 -384h-143l-104 298l-99 -107l-38 -191h-138z" />
    <glyph glyph-name="L" unicode="L" horiz-adv-x="500" 
d="M28 0l131 652h137l-108 -537h247l-22 -115h-385z" />
    <glyph glyph-name="M" unicode="M" horiz-adv-x="740" 
d="M28 0l131 652h145l47 -301l17 -117h4l60 117l164 301h146l-131 -652h-128l54 259q5 24 12 52.5t15 57.5t16 56.5t16 51.5h-3l-81 -150l-153 -267h-55l-48 267l-20 150h-4q-2 -24 -4.5 -52t-5.5 -57t-7 -57t-9 -52l-52 -259h-126z" />
    <glyph glyph-name="N" unicode="N" horiz-adv-x="643" 
d="M28 0l131 652h133l106 -340l35 -143h4q3 25 5 55t5 60.5t7 61.5t10 59l50 247h130l-130 -652h-132l-107 339l-33 145h-4q-5 -55 -11.5 -116t-17.5 -118l-50 -250h-131z" />
    <glyph glyph-name="O" unicode="O" horiz-adv-x="660" 
d="M302 -12q-56 0 -101 18.5t-77 54t-49.5 87t-17.5 116.5q0 86 27 159.5t72.5 127t105.5 83.5t126 30q56 0 101 -19t77 -54.5t49.5 -86.5t17.5 -116q0 -86 -27 -159.5t-72.5 -127t-105.5 -83.5t-126 -30zM309 106q35 0 68 21.5t59 58.5t41.5 86.5t15.5 106.5
q0 78 -28.5 122t-82.5 44q-35 0 -68 -21.5t-59 -58t-42 -86t-16 -106.5q0 -78 29 -122.5t83 -44.5z" />
    <glyph glyph-name="P" unicode="P" horiz-adv-x="583" 
d="M28 0l131 652h206q48 0 88.5 -9.5t70.5 -30t47 -53.5t17 -80q0 -68 -24 -116t-65 -78.5t-95.5 -44.5t-116.5 -14h-77l-44 -226h-138zM233 335h69q73 0 112 31t39 93q0 44 -28.5 64t-81.5 20h-70z" />
    <glyph glyph-name="Q" unicode="Q" horiz-adv-x="660" 
d="M309 106q35 0 68 21.5t59 58.5t41.5 86.5t15.5 106.5q0 78 -28.5 122t-82.5 44q-35 0 -68 -21.5t-59 -58t-42 -86t-16 -106.5q0 -78 29 -122.5t83 -44.5zM483 -176q-203 0 -273 179q-72 26 -112.5 92.5t-40.5 168.5q0 86 27 159.5t72.5 127t105.5 83.5t126 30
q56 0 101 -19t77 -54.5t49.5 -86.5t17.5 -116q0 -78 -22 -145t-59.5 -119t-88 -86t-108.5 -45q20 -31 57 -45t79 -14q20 0 35 2.5t31 6.5l6 -103q-17 -7 -40 -11.5t-40 -4.5z" />
    <glyph glyph-name="R" unicode="R" horiz-adv-x="596" 
d="M28 0l131 652h204q48 0 89 -9t70.5 -29t46.5 -52t17 -77q0 -46 -12.5 -82.5t-34.5 -64.5t-52.5 -48t-66.5 -32l101 -258h-144l-84 239h-80l-47 -239h-138zM235 348h69q73 0 110 31.5t37 85.5q0 42 -28 60t-81 18h-69z" />
    <glyph glyph-name="S" unicode="S" horiz-adv-x="529" 
d="M238 -12q-64 0 -124.5 28t-108.5 94l98 77q26 -38 64.5 -60t80.5 -22t68 20t26 55q0 26 -20.5 42.5t-55.5 38.5l-62 38q-45 28 -71 65.5t-26 97.5q0 42 18 78.5t48.5 64t72.5 43.5t90 16q58 0 109 -27t89 -72l-87 -81q-25 26 -53 43.5t-64 17.5q-40 0 -61.5 -20.5
t-21.5 -49.5q0 -25 22 -41t60 -40l64 -39q48 -29 69.5 -63.5t21.5 -91.5q0 -45 -17.5 -83.5t-49.5 -67t-77.5 -45t-101.5 -16.5z" />
    <glyph glyph-name="T" unicode="T" horiz-adv-x="532" 
d="M149 0l106 536h-171l22 116h480l-23 -116h-171l-106 -536h-137z" />
    <glyph glyph-name="U" unicode="U" horiz-adv-x="643" 
d="M88 320l67 332h137l-71 -357q-4 -20 -6 -39t-2 -37q0 -55 22 -84t77 -29q47 0 78 38.5t49 129.5l76 378h134l-76 -376q-30 -150 -95.5 -219t-169.5 -69q-116 0 -174.5 55.5t-58.5 171.5q0 22 4 50.5t9 54.5z" />
    <glyph glyph-name="V" unicode="V" horiz-adv-x="554" 
d="M134 0l-55 652h143l17 -321l4 -104t3 -105h4q23 53 45.5 105t45.5 104l145 321h151l-337 -652h-166z" />
    <glyph glyph-name="W" unicode="W" horiz-adv-x="794" 
d="M77 0l23 652h140l-21 -313q-5 -52 -9.5 -104.5t-10.5 -104.5h4q20 52 42.5 105t42.5 104l134 313h116l2 -313q-1 -51 -3 -103.5t-4 -105.5h4q18 53 37 105.5t36 103.5l110 313h131l-253 -652h-173l4 312q0 32 2.5 73t6.5 79h-4q-14 -37 -29.5 -75.5t-29.5 -76.5
l-128 -312h-170z" />
    <glyph glyph-name="X" unicode="X" horiz-adv-x="553" 
d="M-36 0l242 336l-101 316h152l33 -131q5 -23 10.5 -48t12.5 -54h4q17 29 32.5 54.5t29.5 48.5l79 130h146l-229 -322l109 -330h-152l-37 142q-7 26 -13 51t-13 54h-4q-17 -29 -33 -54.5t-32 -51.5l-90 -141h-146z" />
    <glyph glyph-name="Y" unicode="Y" 
d="M138 0l46 236l-104 416h142l28 -157q7 -37 12.5 -71t12.5 -72h4q20 38 39 72.5t41 72.5l91 155h147l-276 -416l-47 -236h-136z" />
    <glyph glyph-name="Z" unicode="Z" horiz-adv-x="525" 
d="M-5 0l18 82l356 455h-257l23 115h421l-17 -83l-353 -454h283l-24 -115h-450z" />
    <glyph glyph-name="bracketleft" unicode="[" horiz-adv-x="330" 
d="M-3 -152l172 860h200l-14 -73h-99l-142 -714h98l-15 -73h-200z" />
    <glyph glyph-name="backslash" unicode="\" horiz-adv-x="329" 
d="M161 -160l-76 870h88l77 -870h-89z" />
    <glyph glyph-name="bracketright" unicode="]" horiz-adv-x="331" 
d="M-29 -152l15 73h97l143 714h-97l14 73h200l-172 -860h-200z" />
    <glyph glyph-name="asciicircum" unicode="^" horiz-adv-x="506" 
d="M72 275l149 395h108l149 -395h-112l-45 135l-43 135h-4l-44 -135l-46 -135h-112z" />
    <glyph glyph-name="underscore" unicode="_" horiz-adv-x="481" 
d="M-47 -138l15 77h457l-16 -77h-456z" />
    <glyph glyph-name="grave" unicode="`" horiz-adv-x="534" 
d="M366 569l-154 171l117 87l121 -193z" />
    <glyph glyph-name="a" unicode="a" horiz-adv-x="552" 
d="M171 -12q-66 0 -103 47t-37 135q0 71 22 132.5t59 107.5t85 72t99 26q34 0 64 -17.5t44 -47.5h2l22 53h109l-99 -496h-111l2 65h-3q-34 -35 -75 -56t-80 -21zM231 100q25 0 53.5 15.5t52.5 57.5l35 176q-12 25 -30.5 36t-35.5 11q-26 0 -50 -16t-42.5 -44t-29.5 -66
t-11 -83t15.5 -66t42.5 -21z" />
    <glyph glyph-name="b" unicode="b" horiz-adv-x="553" 
d="M127 0h-113l141 701h137l-33 -159l-25 -93h2q33 27 70 43t74 16q66 0 103 -47t37 -135q0 -71 -22 -132.5t-59 -107.5t-84.5 -72t-98.5 -26q-34 0 -62.5 17.5t-42.5 47.5h-2zM321 396q-23 0 -51.5 -13.5t-50.5 -48.5l-38 -187q11 -25 28.5 -36t36.5 -11q26 0 50 16
t42.5 44t29.5 66t11 83t-16 66t-42 21z" />
    <glyph glyph-name="c" unicode="c" horiz-adv-x="443" 
d="M223 -12q-41 0 -76.5 13.5t-61.5 40t-41 64.5t-15 86q0 64 22.5 121.5t62 101t93 68.5t114.5 25q47 0 80.5 -19t52.5 -42l-76 -81q-15 16 -30 24t-36 8q-30 0 -56 -16t-45.5 -44t-30.5 -64.5t-11 -78.5q0 -45 21 -71t63 -26q26 0 44.5 10t34.5 22l57 -84
q-28 -21 -67.5 -39.5t-98.5 -18.5z" />
    <glyph glyph-name="d" unicode="d" horiz-adv-x="546" 
d="M400 448l12 94l30 159h137l-141 -701h-111l2 65h-3q-34 -35 -75 -56t-80 -21q-66 0 -103 47t-37 135q0 71 22 132.5t59 107.5t85 72t99 26q34 0 60.5 -16.5t40.5 -43.5h3zM231 100q25 0 52.5 15.5t53.5 57.5l35 176q-12 25 -30.5 36t-35.5 11q-26 0 -50 -16t-42.5 -44
t-29.5 -66t-11 -83t15.5 -66t42.5 -21z" />
    <glyph glyph-name="e" unicode="e" horiz-adv-x="496" 
d="M29 200q0 69 24.5 125.5t64 97t88.5 63t99 22.5q44 0 75 -14.5t50.5 -40t28 -59t8.5 -72.5q0 -18 -3 -35.5t-7 -33t-8.5 -27t-7.5 -17.5h-282q-3 -62 29.5 -90t81.5 -28q23 0 48 11t44 24l48 -86q-30 -21 -75 -36.5t-103 -15.5q-45 0 -82.5 14.5t-64 42t-41.5 66.5
t-15 89zM170 293h180q5 17 5 37q0 30 -14.5 51.5t-52.5 21.5q-35 0 -68 -27.5t-50 -82.5z" />
    <glyph glyph-name="f" unicode="f" horiz-adv-x="327" 
d="M51 389l21 101l65 6l6 33q7 38 22 71.5t38.5 58.5t56 39.5t75.5 14.5q29 0 56 -7t50 -20l-44 -97q-8 5 -21 10t-27 5q-27 0 -44 -14.5t-25 -55.5l-7 -38h86l-21 -107h-88l-77 -389h-137l79 389h-64z" />
    <glyph glyph-name="g" unicode="g" horiz-adv-x="546" 
d="M171 -213q-45 0 -93 17.5t-90 52.5l59 91q29 -22 61 -37t67 -15q98 0 127 104l26 88q-33 -35 -71.5 -53.5t-80.5 -18.5q-63 0 -104 42.5t-41 130.5q0 67 21.5 125t57 101t82.5 68t98 25q34 0 63 -17.5t43 -47.5h3l21 53h111l-97 -488q-23 -111 -90.5 -166t-172.5 -55z
M229 127q25 0 53 14t52 51l31 157q-13 25 -30.5 36t-34.5 11q-26 0 -49 -14.5t-40 -40t-27.5 -60t-10.5 -74.5q0 -41 15 -60.5t41 -19.5z" />
    <glyph glyph-name="h" unicode="h" horiz-adv-x="546" 
d="M14 0l141 701h137l-38 -183l-22 -80h4q33 29 72 49.5t84 20.5q62 0 90 -32.5t28 -94.5q0 -17 -1.5 -34.5t-6.5 -36.5l-62 -310h-137l59 293q3 15 5.5 26t2.5 21q0 51 -51 51q-23 0 -47.5 -15.5t-56.5 -48.5l-64 -327h-137z" />
    <glyph glyph-name="i" unicode="i" horiz-adv-x="265" 
d="M14 0l100 496h136l-99 -496h-137zM208 570q-28 0 -51 16.5t-23 49.5q0 16 6.5 31t18 26t27 17.5t33.5 6.5q29 0 51.5 -17t22.5 -49q0 -35 -24.5 -58t-60.5 -23z" />
    <glyph glyph-name="j" unicode="j" horiz-adv-x="267" 
d="M-35 -196q-26 0 -49 5t-47 17l41 99q11 -6 21 -9.5t23 -3.5q25 0 37.5 18.5t22.5 59.5l101 506h137l-103 -512q-8 -38 -22 -70.5t-36 -57t-53 -38.5t-73 -14zM210 570q-29 0 -51.5 16.5t-22.5 49.5t24.5 57t60.5 24q28 0 51 -17t23 -49q0 -35 -25 -58t-60 -23z" />
    <glyph glyph-name="k" unicode="k" horiz-adv-x="525" 
d="M14 0l141 701h137l-82 -406h4l187 201h152l-203 -217l118 -279h-137l-75 200l-81 -81l-24 -119h-137z" />
    <glyph glyph-name="l" unicode="l" horiz-adv-x="275" 
d="M137 -12q-54 0 -77 26t-23 71q0 26 7 61l111 555h137l-113 -561q-2 -8 -2 -11.5v-7.5q0 -13 5.5 -18t13.5 -5h8t10 2l-4 -101q-13 -5 -31 -8t-42 -3z" />
    <glyph glyph-name="m" unicode="m" horiz-adv-x="827" 
d="M14 0l98 496h111l-2 -66h4q36 32 77 55t83 23q56 0 80.5 -24t34.5 -63q42 38 84 62.5t84 24.5q62 0 89.5 -32.5t27.5 -94.5q0 -17 -2 -34.5t-6 -36.5l-62 -310h-137l59 293q3 15 5.5 26t2.5 21q0 51 -50 51q-17 0 -41 -15.5t-56 -48.5l-66 -327h-137l59 293q3 15 5.5 26
t2.5 21q0 26 -12.5 38.5t-35.5 12.5q-18 0 -42.5 -15.5t-56.5 -48.5l-64 -327h-137z" />
    <glyph glyph-name="n" unicode="n" horiz-adv-x="552" 
d="M14 0l98 496h111l-2 -66h4q37 32 78 55t89 23q62 0 90 -32.5t28 -94.5q0 -17 -2 -34.5t-6 -36.5l-62 -310h-137l59 293q3 15 5.5 26t2.5 21q0 51 -51 51q-23 0 -47.5 -15.5t-56.5 -48.5l-64 -327h-137z" />
    <glyph glyph-name="o" unicode="o" horiz-adv-x="533" 
d="M222 -12q-44 0 -79 14.5t-60.5 41.5t-39 64.5t-13.5 83.5q0 72 24 130.5t63.5 99.5t89.5 63.5t101 22.5q43 0 78.5 -14.5t60.5 -41.5t39 -64.5t14 -83.5q0 -72 -24 -130.5t-63.5 -99.5t-89.5 -63.5t-101 -22.5zM237 98q25 0 47.5 15.5t40 42.5t27.5 64t10 81
q0 46 -17.5 71.5t-52.5 25.5q-25 0 -47.5 -15.5t-39.5 -42.5t-27 -64.5t-10 -80.5q0 -45 17 -71t52 -26z" />
    <glyph glyph-name="p" unicode="p" horiz-adv-x="553" 
d="M153 47l-14 -97l-25 -134h-137l137 680h111l1 -57h3q34 31 73.5 50t77.5 19q66 0 103 -47t37 -135q0 -71 -22 -132.5t-59 -107.5t-84.5 -72t-98.5 -26q-32 0 -58 15.5t-43 43.5h-2zM321 396q-23 0 -51.5 -13.5t-50.5 -48.5l-38 -188q11 -24 28.5 -35t36.5 -11q26 0 50 16
t42.5 44t29.5 66t11 83t-16 66t-42 21z" />
    <glyph glyph-name="q" unicode="q" horiz-adv-x="552" 
d="M292 -50l37 115h-2q-34 -35 -75.5 -56t-80.5 -21q-66 0 -103 47t-37 135q0 71 22 132.5t59 107.5t85 72t99 26q34 0 64 -17.5t44 -47.5h2l22 53h109l-136 -680h-137zM231 100q23 0 51.5 15.5t54.5 57.5l35 176q-12 25 -30.5 36t-35.5 11q-26 0 -50 -16t-42.5 -44
t-29.5 -66t-11 -83t15.5 -66t42.5 -21z" />
    <glyph glyph-name="r" unicode="r" horiz-adv-x="384" 
d="M14 0l98 496h111l-6 -96h4q29 47 69 77.5t83 30.5q19 0 31.5 -2.5t20.5 -7.5l-45 -118q-10 5 -23.5 6.5t-25.5 1.5q-33 0 -64 -24t-60 -77l-56 -287h-137z" />
    <glyph glyph-name="s" unicode="s" horiz-adv-x="424" 
d="M170 -12q-23 0 -48 6.5t-48.5 18.5t-45 30t-36.5 41l79 66q52 -62 107 -62q29 0 49.5 13.5t20.5 33.5q0 22 -22 36t-64 38q-42 23 -71 56.5t-29 80.5q0 35 15 65t41 51.5t61 33.5t75 12q51 0 91.5 -22t71.5 -54l-75 -71q-18 19 -40 32t-48 13q-29 0 -46.5 -13.5
t-17.5 -33.5q0 -12 7 -21t19 -16.5t26.5 -15t29.5 -16.5q45 -24 74.5 -56t29.5 -83q0 -36 -15.5 -66t-42.5 -51.5t-65 -33.5t-83 -12z" />
    <glyph glyph-name="t" unicode="t" horiz-adv-x="367" 
d="M203 -12q-75 0 -108 37t-33 94q0 16 2.5 31.5t5.5 31.5l43 207h-66l20 101l73 6l42 130h115l-25 -130h113l-21 -107h-116l-43 -213q-2 -9 -2 -17v-16q0 -48 51 -48q11 0 21 3t20 8l24 -96q-20 -8 -49 -15t-67 -7z" />
    <glyph glyph-name="u" unicode="u" horiz-adv-x="545" 
d="M529 496l-98 -496h-111l2 67h-4q-34 -32 -75.5 -55.5t-86.5 -23.5q-62 0 -89.5 32.5t-27.5 95.5q0 17 2 34t6 36l62 310h136l-58 -293q-4 -15 -6 -26t-2 -21q0 -51 50 -51q42 0 99 64l64 327h137z" />
    <glyph glyph-name="v" unicode="v" horiz-adv-x="499" 
d="M123 0l-63 496h136l17 -243q3 -37 4 -75l2 -76h4q17 38 33 75.5t33 75.5l111 243h134l-253 -496h-158z" />
    <glyph glyph-name="w" unicode="w" horiz-adv-x="748" 
d="M96 0l-24 496h135l1 -240q-1 -36 -2.5 -72.5t-3.5 -73.5h4q14 37 27 74t29 72l102 240h119l8 -240q1 -36 0.5 -72.5t-0.5 -73.5h4q14 37 26 73.5t26 72.5l93 240h127l-212 -496h-161l-4 208q1 35 1 70.5t1 74.5h-4q-14 -39 -26 -74.5t-26 -70.5l-85 -208h-155z" />
    <glyph glyph-name="x" unicode="x" horiz-adv-x="490" 
d="M-40 0l210 265l-86 231h138l30 -85q6 -22 12 -43l12 -42h4q13 21 26 42.5t25 42.5l51 85h146l-194 -262l92 -234h-140l-31 87q-7 21 -14 43l-14 44h-4q-14 -22 -28 -43.5t-28 -43.5l-60 -87h-147z" />
    <glyph glyph-name="y" unicode="y" horiz-adv-x="499" 
d="M36 -194q-14 0 -35 6t-36 14l42 98q17 -10 37 -10q27 0 52 19.5t42 52.5l12 25l-86 485h136l23 -224q4 -32 6 -73t3 -76h4q16 35 33 75t33 74l104 224h133l-268 -507q-26 -45 -51.5 -79t-53.5 -57t-60 -35t-70 -12z" />
    <glyph glyph-name="z" unicode="z" horiz-adv-x="443" 
d="M-10 0l15 77l263 312h-179l20 107h351l-15 -79l-263 -310h208l-21 -107h-379z" />
    <glyph glyph-name="braceleft" unicode="{" horiz-adv-x="328" 
d="M142 -152q-54 0 -75.5 22t-21.5 65q0 29 8 64t17.5 69t17.5 63.5t8 47.5q0 22 -14.5 39.5t-55.5 19.5l18 80q25 1 42 8t28.5 18t18 24.5t9.5 26.5q4 23 6.5 43t4.5 39.5t5 40.5t8 47q8 40 19.5 67.5t28.5 44.5t41 24t57 7h64l-16 -73h-19q-31 0 -45 -17t-21 -58
q-8 -40 -14 -79t-14 -84q-12 -57 -35.5 -84.5t-63.5 -36.5v-4q28 -7 42 -23t14 -47q0 -25 -7 -58t-16 -67t-16 -65.5t-7 -52.5q0 -20 8.5 -29t33.5 -9h17l-14 -73h-61z" />
    <glyph glyph-name="bar" unicode="|" horiz-adv-x="255" 
d="M88 -250v1000h86v-1000h-86z" />
    <glyph glyph-name="braceright" unicode="}" horiz-adv-x="331" 
d="M-38 -152l16 73h19q31 0 44.5 17t21.5 58q8 40 14 79t14 84q12 57 35.5 84.5t63.5 36.5v4q-29 7 -42.5 23t-13.5 47q0 25 7 58t16 67t16 65t7 52t-8.5 30t-33.5 9h-17l14 73h62q53 0 74.5 -22t21.5 -65q0 -29 -8 -64t-17.5 -69t-17.5 -63.5t-8 -47.5q0 -22 14.5 -40
t55.5 -19l-18 -80q-25 -1 -42 -8t-28.5 -18t-18 -24.5t-9.5 -26.5q-5 -23 -7 -43t-4 -39.5t-5 -41t-8 -47.5q-8 -41 -19.5 -68t-28.5 -43.5t-41 -23.5t-57 -7h-64z" />
    <glyph glyph-name="asciitilde" unicode="~" 
d="M342 246q-28 0 -50 12t-41 26.5t-37 26.5t-38 12q-40 0 -68 -56l-70 47q32 57 70 79.5t73 22.5q28 0 50.5 -12t41.5 -26.5t36.5 -26.5t37.5 -12q40 0 68 56l70 -47q-32 -57 -69.5 -79.5t-73.5 -22.5z" />
    <glyph glyph-name="uni00A0" unicode="&#xa0;" horiz-adv-x="198" 
 />
    <glyph glyph-name="exclamdown" unicode="&#xa1;" horiz-adv-x="331" 
d="M17 -174l29 126l83 318h90l-46 -318l-19 -126h-137zM191 333q-32 0 -51.5 21.5t-19.5 53.5q0 19 7 37t20 32t31 22.5t40 8.5q32 0 51.5 -20.5t19.5 -53.5q0 -18 -7 -36.5t-20 -32.5t-31 -23t-40 -9z" />
    <glyph glyph-name="cent" unicode="&#xa2;" 
d="M206 307q0 -80 49 -109l53 267q-45 -16 -73.5 -58t-28.5 -100zM212 -18l19 97q-72 11 -115.5 64.5t-43.5 142.5q0 63 22 114.5t58.5 89t83 60.5t95.5 30l19 96h76l-19 -97q36 -7 62 -26.5t48 -43.5l-79 -75q-14 13 -26.5 21.5t-26.5 13.5l-56 -281q44 6 80 33l42 -88
q-34 -22 -69.5 -36t-74.5 -19l-19 -96h-76z" />
    <glyph glyph-name="sterling" unicode="&#xa3;" 
d="M-2 0l17 84q61 26 97 73.5t40 110.5h-95l18 93l72 5q-2 15 -3 29t-1 27q0 52 18.5 95t50 74t74.5 47.5t92 16.5q53 0 91 -23t66 -62l-88 -72q-17 23 -34 35t-42 12q-41 0 -71 -34t-30 -107q0 -9 0.5 -18.5t1.5 -19.5h146l-20 -98h-122q-4 -45 -19 -79.5t-44 -69.5l-1 -4
h235l-20 -115h-429z" />
    <glyph glyph-name="currency" unicode="&#xa4;" 
d="M66 94l-59 70l66 56q-17 32 -17 76q0 45 16 83t42 67l-45 57l72 62l51 -63q53 28 109 28q29 0 54 -7t45 -19l71 62l59 -70l-66 -57q8 -17 12 -35t4 -39q0 -45 -15.5 -82.5t-41.5 -66.5l49 -60l-73 -63l-53 66q-52 -28 -111 -28q-57 0 -97 25zM250 228q20 0 39 9.5
t33.5 26t23.5 40t9 50.5q0 38 -18.5 58.5t-50.5 20.5q-20 0 -39 -9.5t-33.5 -26t-23.5 -40t-9 -50.5q0 -38 18.5 -58.5t50.5 -20.5z" />
    <glyph glyph-name="yen" unicode="&#xa5;" 
d="M136 0l30 149h-148l13 66h148l11 57h-148l13 66h119l-82 298h139l23 -141l10 -66t12 -66h3q20 34 38.5 67t37.5 65l78 141h136l-200 -298h118l-13 -66h-148l-12 -57h148l-13 -66h-148l-30 -149h-135z" />
    <glyph glyph-name="brokenbar" unicode="&#xa6;" horiz-adv-x="255" 
d="M88 309v441h86v-441h-86zM88 -250v455h86v-455h-86z" />
    <glyph glyph-name="section" unicode="&#xa7;" horiz-adv-x="505" 
d="M166 334q0 -21 14 -37.5t36 -31t47.5 -29t49.5 -32.5q21 11 32.5 28t11.5 44q0 20 -14 36.5t-35 31t-46.5 29.5t-49.5 32q-20 -11 -33 -28t-13 -43zM192 -80q-48 0 -99 22t-92 62l68 85q25 -26 59.5 -46.5t70.5 -20.5q28 0 43.5 13t15.5 36q0 18 -15.5 32.5t-38.5 29.5
t-50.5 31.5t-50.5 37.5t-38.5 49.5t-15.5 66.5q0 51 29.5 88.5t74.5 59.5q-16 27 -16 60q0 35 12.5 65t36 52t56 34.5t71.5 12.5q47 0 91 -21t79 -59l-69 -76q-20 20 -46 36t-56 16q-21 0 -36.5 -11.5t-15.5 -34.5q0 -17 16 -31.5t40 -29.5l52 -32.5t52 -39.5t40 -50t16 -65
q0 -56 -28 -93t-76 -62q10 -23 10 -50q0 -38 -14 -68.5t-39 -52.5t-60 -34t-77 -12z" />
    <glyph glyph-name="dieresis" unicode="&#xa8;" horiz-adv-x="534" 
d="M231 572q-25 0 -42 15t-17 44q0 30 21.5 52.5t53.5 22.5q25 0 42 -16t17 -44q0 -31 -21.5 -52.5t-53.5 -21.5zM441 572q-25 0 -41.5 15t-16.5 44q0 30 21 52.5t53 22.5q26 0 42.5 -16t16.5 -44q0 -31 -21.5 -52.5t-53.5 -21.5z" />
    <glyph glyph-name="copyright" unicode="&#xa9;" horiz-adv-x="672" 
d="M298 -9q-59 0 -108 21t-84.5 58t-55.5 88t-20 111q0 79 27.5 149.5t77 123t118.5 83t151 30.5q58 0 107.5 -21t85 -57.5t55.5 -87.5t20 -111q0 -79 -27.5 -149.5t-77 -123t-118.5 -83.5t-151 -31zM303 52q65 0 121 25.5t97 69.5t64 102t23 123q0 45 -13.5 85.5t-39.5 71
t-65.5 48.5t-90.5 18q-65 0 -121 -26t-97 -69.5t-64 -102t-23 -122.5q0 -46 13.5 -86.5t39.5 -71t65.5 -48t90.5 -17.5zM330 127q-70 0 -113 41t-43 114q0 54 20 97t52 73t71 46.5t78 16.5q35 0 61 -16.5t41 -35.5l-57 -56q-24 28 -57 28q-19 0 -38.5 -10.5t-35.5 -29
t-26 -44.5t-10 -57q0 -41 20.5 -63.5t58.5 -22.5q21 0 37 7t37 21l38 -60q-61 -49 -134 -49z" />
    <glyph glyph-name="ordfeminine" unicode="&#xaa;" horiz-adv-x="365" 
d="M77 488q0 47 15 88t39.5 71.5t56.5 48t67 17.5q22 0 39.5 -12t27.5 -32h4l15 36h78l-66 -330h-78l2 43h-4q-22 -24 -49 -37.5t-53 -13.5q-43 0 -68.5 31.5t-25.5 89.5zM211 446q17 0 35.5 10.5t34.5 36.5l20 111q-7 16 -18 23t-22 7q-16 0 -31.5 -10t-27.5 -28t-19 -42.5
t-7 -52.5q0 -29 10 -42t25 -13z" />
    <glyph glyph-name="guillemotleft" unicode="&#xab;" horiz-adv-x="460" 
d="M144 58l-104 149l18 98l153 139l42 -45l-133 -152l78 -154zM332 58l-104 149l18 98l153 139l42 -45l-133 -152l78 -154z" />
    <glyph glyph-name="logicalnot" unicode="&#xac;" 
d="M387 95v187h-339v97h437v-284h-98z" />
    <glyph glyph-name="uni00AD" unicode="&#xad;" horiz-adv-x="320" 
d="M33 205l21 97h234l-21 -97h-234z" />
    <glyph glyph-name="registered" unicode="&#xae;" horiz-adv-x="444" 
d="M255 312q-35 0 -66.5 13t-55.5 36.5t-38 56t-14 71.5q0 43 15 83.5t42.5 72t65.5 50.5t85 19q35 0 66 -13t55 -36.5t38 -56t15 -71.5q0 -43 -15.5 -83.5t-43 -72t-65.5 -50.5t-84 -19zM258 359q34 0 62 14t48.5 38t32 55.5t11.5 66.5q0 28 -9 52.5t-25.5 42.5t-40 28.5
t-51.5 10.5q-34 0 -62 -14t-48.5 -38t-32 -55.5t-11.5 -66.5q0 -28 9 -52.5t25.5 -42.5t39.5 -28.5t52 -10.5zM177 416l40 196h82q30 0 48.5 -15t18.5 -43q0 -20 -12.5 -37.5t-36.5 -26.5l25 -74h-54l-18 62h-26l-13 -62h-54zM251 516h16q20 0 30 9.5t10 23.5q0 11 -6 17
t-21 6h-18z" />
    <glyph glyph-name="macron" unicode="&#xaf;" horiz-adv-x="534" 
d="M193 593l18 87h283l-18 -87h-283z" />
    <glyph glyph-name="degree" unicode="&#xb0;" horiz-adv-x="348" 
d="M219 403q-55 0 -90 34.5t-35 91.5q0 33 12.5 61.5t33.5 49.5t48.5 33.5t57.5 12.5q56 0 90.5 -34.5t34.5 -91.5q0 -33 -12.5 -61.5t-33.5 -49.5t-48.5 -33.5t-57.5 -12.5zM225 470q16 0 29.5 7.5t23 19.5t15 28t5.5 34q0 24 -14.5 42t-42.5 18q-33 0 -53 -27t-20 -62
q0 -24 14.5 -42t42.5 -18z" />
    <glyph glyph-name="plusminus" unicode="&#xb1;" 
d="M215 154v157h-167v97h168v156h101v-156h168v-97h-170v-157h-100zM48 0v97h437v-97h-437z" />
    <glyph glyph-name="two.sups" unicode="&#xb2;" horiz-adv-x="364" 
d="M63 375l11 55q105 69 157 120.5t52 95.5q0 20 -12 32t-36 12q-16 0 -30.5 -10t-31.5 -26l-56 59q34 31 64.5 47.5t71.5 16.5q60 0 95 -30t35 -83q0 -54 -38.5 -102t-104.5 -102h117l-17 -85h-277z" />
    <glyph glyph-name="three.sups" unicode="&#xb3;" horiz-adv-x="360" 
d="M213 363q-54 0 -90 22.5t-57 57.5l65 47q28 -47 73 -47q29 0 46.5 13t17.5 36t-17.5 37.5t-68.5 14.5l12 61q28 0 46 5t28.5 13t14.5 18t4 21q0 17 -11.5 27t-31.5 10q-18 0 -32.5 -5.5t-34.5 -19.5l-42 66q35 21 65.5 29t65.5 8q54 0 87.5 -26.5t33.5 -70.5
q0 -76 -80 -107q28 -14 43 -36.5t15 -48.5q0 -30 -12 -53t-33 -39t-48.5 -24.5t-58.5 -8.5z" />
    <glyph glyph-name="acute" unicode="&#xb4;" horiz-adv-x="534" 
d="M313 578l-60 78l185 166l82 -104z" />
    <glyph glyph-name="uni00B5" unicode="&#xb5;" horiz-adv-x="546" 
d="M248 496l-59 -293q-3 -15 -5.5 -26t-2.5 -21q0 -51 51 -51q41 0 99 64l64 327h135l-96 -496h-111l2 67h-4q-23 -31 -52 -51.5t-59 -20.5q-20 0 -36.5 5.5t-24.5 21.5l-9 -61l-27 -141h-136l134 676h137z" />
    <glyph glyph-name="paragraph" unicode="&#xb6;" horiz-adv-x="608" 
d="M314 -80l145 732h137l-145 -732h-137zM285 200q-43 0 -82 12t-69 35t-47.5 57.5t-17.5 78.5q0 70 24.5 121t65 84t93.5 48.5t110 15.5h44l-91 -452h-30z" />
    <glyph glyph-name="periodcentered" unicode="&#xb7;" horiz-adv-x="291" 
d="M146 239q-32 0 -51 20.5t-19 53.5q0 18 7 36.5t20 32.5t31 23t40 9q32 0 51 -21.5t19 -53.5q0 -19 -7 -37t-20 -32t-31 -22.5t-40 -8.5z" />
    <glyph glyph-name="cedilla" unicode="&#xb8;" horiz-adv-x="534" 
d="M74 -239v59q58 2 82 12.5t28 32.5q2 15 -12 25t-57 16l66 98h85l-40 -65q37 -9 52.5 -26t11.5 -47q-8 -52 -64.5 -77t-151.5 -28z" />
    <glyph glyph-name="one.sups" unicode="&#xb9;" horiz-adv-x="376" 
d="M186 375l58 285h-87l12 62q41 6 65.5 16t51.5 27h78l-76 -390h-102z" />
    <glyph glyph-name="ordmasculine" unicode="&#xba;" horiz-adv-x="358" 
d="M184 367q-57 0 -94.5 36t-37.5 101q0 48 16 86.5t42 65.5t60 42t69 15q57 0 94 -36t37 -101q0 -48 -16 -86.5t-42 -65.5t-59.5 -42t-68.5 -15zM192 444q18 0 33 10t26 28t17 42t6 51q0 29 -10.5 45t-32.5 16q-18 0 -33 -10t-26 -28t-17 -42t-6 -51q0 -29 10.5 -45
t32.5 -16z" />
    <glyph glyph-name="guillemotright" unicode="&#xbb;" horiz-adv-x="460" 
d="M69 58l-42 45l133 152l-79 154l55 35l104 -149l-18 -98zM257 58l-42 45l133 152l-79 154l55 35l104 -149l-18 -98z" />
    <glyph glyph-name="onequarter" unicode="&#xbc;" horiz-adv-x="777" 
d="M135 270l58 285h-87l12 62q41 6 65.5 16t51.5 27h78l-76 -390h-102zM123 -12l474 684h80l-474 -684h-80zM572 0l18 89h-184l11 52l195 249h123l-46 -234h57l-14 -67h-56l-17 -89h-87zM510 156h93l10 48l27 120h-4l-60 -86z" />
    <glyph glyph-name="onehalf" unicode="&#xbd;" horiz-adv-x="813" 
d="M131 270l58 285h-87l12 62q41 6 65.5 16t51.5 27h78l-76 -390h-102zM109 -12l474 684h80l-474 -684h-80zM442 0l11 55q105 69 157 120.5t52 95.5q0 20 -12 32t-36 12q-16 0 -30.5 -10t-31.5 -26l-56 59q34 31 64.5 47.5t71.5 16.5q60 0 95 -30t35 -83q0 -54 -38.5 -102
t-104.5 -102h117l-17 -85h-277z" />
    <glyph glyph-name="threequarters" unicode="&#xbe;" horiz-adv-x="788" 
d="M186 258q-54 0 -90 22.5t-57 57.5l65 47q28 -47 73 -47q29 0 46.5 13t17.5 36t-17.5 37.5t-68.5 14.5l12 61q28 0 46 5t28.5 13t14.5 18t4 21q0 17 -11.5 27t-31.5 10q-18 0 -32.5 -5.5t-34.5 -19.5l-42 66q35 21 65.5 29t65.5 8q54 0 87.5 -26.5t33.5 -70.5
q0 -76 -80 -107q28 -14 43 -36.5t15 -48.5q0 -30 -12 -53t-33 -39t-48.5 -24.5t-58.5 -8.5zM147 -12l474 684h80l-474 -684h-80zM584 0l18 89h-184l11 52l195 249h123l-46 -234h57l-14 -67h-56l-17 -89h-87zM522 156h93l10 48l27 120h-4l-60 -86z" />
    <glyph glyph-name="questiondown" unicode="&#xbf;" horiz-adv-x="444" 
d="M180 -186q-41 0 -74 10.5t-57 30t-37 47.5t-13 64q0 39 13 67.5t33 51.5t44 43t45.5 41t38 46.5t21.5 59.5l116 -11q-4 -40 -18.5 -69.5t-34.5 -52.5t-42 -41t-40.5 -36t-30.5 -36.5t-12 -42.5q0 -29 17.5 -45t47.5 -16q39 0 76 38l70 -77q-35 -35 -76.5 -53.5
t-86.5 -18.5zM268 334q-32 0 -51 21t-19 53q0 19 7 37t19.5 32t30.5 22.5t40 8.5q32 0 51.5 -20.5t19.5 -53.5q0 -18 -7 -36t-20 -32t-31 -23t-40 -9z" />
    <glyph glyph-name="Agrave" unicode="&#xc0;" horiz-adv-x="548" 
d="M255 353l-40 -86h140l-4 86q-2 48 -4 95t-4 99h-4q-21 -51 -41 -98t-43 -96zM-62 0l344 652h164l65 -652h-143l-8 164h-194l-77 -164h-151zM394 676l-164 134l94 87l147 -154z" />
    <glyph glyph-name="Aacute" unicode="&#xc1;" horiz-adv-x="548" 
d="M255 353l-40 -86h140l-4 86q-2 48 -4 95t-4 99h-4q-21 -51 -41 -98t-43 -96zM-62 0l344 652h164l65 -652h-143l-8 164h-194l-77 -164h-151zM334 686l-52 79l195 124l61 -101z" />
    <glyph glyph-name="Acircumflex" unicode="&#xc2;" horiz-adv-x="548" 
d="M255 353l-40 -86h140l-4 86q-2 48 -4 95t-4 99h-4q-21 -51 -41 -98t-43 -96zM-62 0l344 652h164l65 -652h-143l-8 164h-194l-77 -164h-151zM254 685l-57 44l109 106h160l70 -111l-67 -38l-86 83h-4z" />
    <glyph glyph-name="Atilde" unicode="&#xc3;" horiz-adv-x="548" 
d="M255 353l-40 -86h140l-4 86q-2 48 -4 95t-4 99h-4q-21 -51 -41 -98t-43 -96zM-62 0l344 652h164l65 -652h-143l-8 164h-194l-77 -164h-151zM429 692q-26 0 -44.5 9t-33 20t-26 20t-23.5 9q-14 0 -26 -10.5t-20 -38.5l-93 7q17 76 58 110t93 34q26 0 45 -9t33 -20t26 -20
t24 -9q14 0 25.5 11t19.5 38l93 -7q-17 -76 -58 -110t-93 -34z" />
    <glyph glyph-name="Adieresis" unicode="&#xc4;" horiz-adv-x="548" 
d="M255 353l-40 -86h140l-4 86q-2 48 -4 95t-4 99h-4q-21 -51 -41 -98t-43 -96zM-62 0l344 652h164l65 -652h-143l-8 164h-194l-77 -164h-151zM260 701q-25 0 -41.5 15.5t-16.5 42.5q0 13 5.5 26.5t15.5 24.5t23.5 17.5t29.5 6.5q23 0 40 -15t17 -42q0 -28 -20.5 -52
t-52.5 -24zM470 701q-24 0 -40.5 15.5t-16.5 42.5q0 13 5.5 26.5t15 24.5t23 17.5t29.5 6.5q23 0 40 -15t17 -42q0 -28 -20.5 -52t-52.5 -24z" />
    <glyph glyph-name="Aring" unicode="&#xc5;" horiz-adv-x="548" 
d="M255 353l-40 -86h140l-4 86q-2 48 -4 95t-4 99h-4q-21 -51 -41 -98t-43 -96zM-62 0l344 652h164l65 -652h-143l-8 164h-194l-77 -164h-151zM370 697q-21 0 -40.5 5t-34.5 15.5t-23.5 26.5t-8.5 39q0 22 10 42t26.5 35t39 23.5t47.5 8.5q21 0 40.5 -5t34 -15.5t23.5 -26.5
t9 -38q0 -23 -9.5 -43t-26.5 -35t-39.5 -23.5t-47.5 -8.5zM372 750q19 0 33.5 15t14.5 37q0 15 -9.5 26t-26.5 11q-20 0 -34 -15.5t-14 -35.5q0 -16 9.5 -27t26.5 -11z" />
    <glyph glyph-name="AE" unicode="&#xc6;" horiz-adv-x="838" 
d="M340 366l-63 -104h124l58 291h-3q-30 -49 -58.5 -94t-57.5 -93zM-35 0l422 652h470l-23 -115h-242l-27 -142h204l-23 -115h-203l-35 -165h251l-23 -115h-387l31 155h-167l-94 -155h-154z" />
    <glyph glyph-name="Ccedilla" unicode="&#xc7;" horiz-adv-x="567" 
d="M304 -12q-57 0 -102.5 18.5t-78 54t-50 86t-17.5 114.5q0 84 27 157.5t73.5 128t110 86t136.5 31.5q57 0 101.5 -27.5t72.5 -76.5l-94 -72q-18 29 -39 43t-48 14q-42 0 -78 -22.5t-63 -60.5t-42.5 -88t-15.5 -104q0 -76 32 -120t104 -44q29 0 57 14t54 36l57 -88
q-15 -14 -35 -28t-45 -25.5t-54.5 -19t-62.5 -7.5zM145 -239v59q58 2 82 12.5t28 32.5q2 15 -12 25t-57 16l66 98h85l-40 -65q37 -9 52.5 -26t11.5 -47q-8 -52 -64.5 -77t-151.5 -28z" />
    <glyph glyph-name="Egrave" unicode="&#xc8;" horiz-adv-x="527" 
d="M28 0l131 652h386l-22 -115h-251l-28 -142h213l-22 -115h-213l-34 -165h259l-22 -115h-397zM396 676l-164 134l94 87l147 -154z" />
    <glyph glyph-name="Eacute" unicode="&#xc9;" horiz-adv-x="527" 
d="M28 0l131 652h386l-22 -115h-251l-28 -142h213l-22 -115h-213l-34 -165h259l-22 -115h-397zM336 686l-52 79l195 124l61 -101z" />
    <glyph glyph-name="Ecircumflex" unicode="&#xca;" horiz-adv-x="527" 
d="M28 0l131 652h386l-22 -115h-251l-28 -142h213l-22 -115h-213l-34 -165h259l-22 -115h-397zM256 685l-57 44l109 106h160l70 -111l-67 -38l-86 83h-4z" />
    <glyph glyph-name="Edieresis" unicode="&#xcb;" horiz-adv-x="527" 
d="M28 0l131 652h386l-22 -115h-251l-28 -142h213l-22 -115h-213l-34 -165h259l-22 -115h-397zM262 701q-25 0 -41.5 15.5t-16.5 42.5q0 13 5.5 26.5t15.5 24.5t23.5 17.5t29.5 6.5q23 0 40 -15t17 -42q0 -28 -20.5 -52t-52.5 -24zM472 701q-24 0 -40.5 15.5t-16.5 42.5
q0 13 5.5 26.5t15 24.5t23 17.5t29.5 6.5q23 0 40 -15t17 -42q0 -28 -20.5 -52t-52.5 -24z" />
    <glyph glyph-name="Igrave" unicode="&#xcc;" horiz-adv-x="294" 
d="M28 0l131 652h137l-130 -652h-138zM260 676l-164 134l94 87l147 -154z" />
    <glyph glyph-name="Iacute" unicode="&#xcd;" horiz-adv-x="294" 
d="M28 0l131 652h137l-130 -652h-138zM200 686l-52 79l195 124l61 -101z" />
    <glyph glyph-name="Icircumflex" unicode="&#xce;" horiz-adv-x="294" 
d="M28 0l131 652h137l-130 -652h-138zM120 685l-57 44l109 106h160l70 -111l-67 -38l-86 83h-4z" />
    <glyph glyph-name="Idieresis" unicode="&#xcf;" horiz-adv-x="294" 
d="M28 0l131 652h137l-130 -652h-138zM126 701q-25 0 -41.5 15.5t-16.5 42.5q0 13 5.5 26.5t15.5 24.5t23.5 17.5t29.5 6.5q23 0 40 -15t17 -42q0 -28 -20.5 -52t-52.5 -24zM336 701q-24 0 -40.5 15.5t-16.5 42.5q0 13 5.5 26.5t15 24.5t23 17.5t29.5 6.5q23 0 40 -15
t17 -42q0 -28 -20.5 -52t-52.5 -24z" />
    <glyph glyph-name="Eth" unicode="&#xd0;" horiz-adv-x="634" 
d="M38 307l12 62l71 5l56 278h143q137 0 212.5 -63t75.5 -193q0 -96 -26.5 -170t-74 -124.5t-113.5 -76t-144 -25.5h-204l62 307h-70zM206 110h41q47 0 87.5 16.5t70 50.5t46.5 86.5t17 123.5q0 81 -41 118t-110 37h-26l-33 -168h125l-15 -67h-123z" />
    <glyph glyph-name="Ntilde" unicode="&#xd1;" horiz-adv-x="643" 
d="M28 0l131 652h133l106 -340l35 -143h4q3 25 5 55t5 60.5t7 61.5t10 59l50 247h130l-130 -652h-132l-107 339l-33 145h-4q-5 -55 -11.5 -116t-17.5 -118l-50 -250h-131zM480 692q-26 0 -44.5 9t-33 20t-26 20t-23.5 9q-14 0 -26 -10.5t-20 -38.5l-93 7q17 76 58 110t93 34
q26 0 45 -9t33 -20t26 -20t24 -9q14 0 25.5 11t19.5 38l93 -7q-17 -76 -58 -110t-93 -34z" />
    <glyph glyph-name="Ograve" unicode="&#xd2;" horiz-adv-x="660" 
d="M302 -12q-56 0 -101 18.5t-77 54t-49.5 87t-17.5 116.5q0 86 27 159.5t72.5 127t105.5 83.5t126 30q56 0 101 -19t77 -54.5t49.5 -86.5t17.5 -116q0 -86 -27 -159.5t-72.5 -127t-105.5 -83.5t-126 -30zM309 106q35 0 68 21.5t59 58.5t41.5 86.5t15.5 106.5
q0 78 -28.5 122t-82.5 44q-35 0 -68 -21.5t-59 -58t-42 -86t-16 -106.5q0 -78 29 -122.5t83 -44.5zM449 676l-164 134l94 87l147 -154z" />
    <glyph glyph-name="Oacute" unicode="&#xd3;" horiz-adv-x="660" 
d="M302 -12q-56 0 -101 18.5t-77 54t-49.5 87t-17.5 116.5q0 86 27 159.5t72.5 127t105.5 83.5t126 30q56 0 101 -19t77 -54.5t49.5 -86.5t17.5 -116q0 -86 -27 -159.5t-72.5 -127t-105.5 -83.5t-126 -30zM309 106q35 0 68 21.5t59 58.5t41.5 86.5t15.5 106.5
q0 78 -28.5 122t-82.5 44q-35 0 -68 -21.5t-59 -58t-42 -86t-16 -106.5q0 -78 29 -122.5t83 -44.5zM389 686l-52 79l195 124l61 -101z" />
    <glyph glyph-name="Ocircumflex" unicode="&#xd4;" horiz-adv-x="660" 
d="M302 -12q-56 0 -101 18.5t-77 54t-49.5 87t-17.5 116.5q0 86 27 159.5t72.5 127t105.5 83.5t126 30q56 0 101 -19t77 -54.5t49.5 -86.5t17.5 -116q0 -86 -27 -159.5t-72.5 -127t-105.5 -83.5t-126 -30zM309 106q35 0 68 21.5t59 58.5t41.5 86.5t15.5 106.5
q0 78 -28.5 122t-82.5 44q-35 0 -68 -21.5t-59 -58t-42 -86t-16 -106.5q0 -78 29 -122.5t83 -44.5zM309 685l-57 44l109 106h160l70 -111l-67 -38l-86 83h-4z" />
    <glyph glyph-name="Otilde" unicode="&#xd5;" horiz-adv-x="660" 
d="M302 -12q-56 0 -101 18.5t-77 54t-49.5 87t-17.5 116.5q0 86 27 159.5t72.5 127t105.5 83.5t126 30q56 0 101 -19t77 -54.5t49.5 -86.5t17.5 -116q0 -86 -27 -159.5t-72.5 -127t-105.5 -83.5t-126 -30zM309 106q35 0 68 21.5t59 58.5t41.5 86.5t15.5 106.5
q0 78 -28.5 122t-82.5 44q-35 0 -68 -21.5t-59 -58t-42 -86t-16 -106.5q0 -78 29 -122.5t83 -44.5zM484 692q-26 0 -44.5 9t-33 20t-26 20t-23.5 9q-14 0 -26 -10.5t-20 -38.5l-93 7q17 76 58 110t93 34q26 0 45 -9t33 -20t26 -20t24 -9q14 0 25.5 11t19.5 38l93 -7
q-17 -76 -58 -110t-93 -34z" />
    <glyph glyph-name="Odieresis" unicode="&#xd6;" horiz-adv-x="660" 
d="M302 -12q-56 0 -101 18.5t-77 54t-49.5 87t-17.5 116.5q0 86 27 159.5t72.5 127t105.5 83.5t126 30q56 0 101 -19t77 -54.5t49.5 -86.5t17.5 -116q0 -86 -27 -159.5t-72.5 -127t-105.5 -83.5t-126 -30zM309 106q35 0 68 21.5t59 58.5t41.5 86.5t15.5 106.5
q0 78 -28.5 122t-82.5 44q-35 0 -68 -21.5t-59 -58t-42 -86t-16 -106.5q0 -78 29 -122.5t83 -44.5zM315 701q-25 0 -41.5 15.5t-16.5 42.5q0 13 5.5 26.5t15.5 24.5t23.5 17.5t29.5 6.5q23 0 40 -15t17 -42q0 -28 -20.5 -52t-52.5 -24zM525 701q-24 0 -40.5 15.5t-16.5 42.5
q0 13 5.5 26.5t15 24.5t23 17.5t29.5 6.5q23 0 40 -15t17 -42q0 -28 -20.5 -52t-52.5 -24z" />
    <glyph glyph-name="multiply" unicode="&#xd7;" 
d="M130 120l-67 67l136 143l-136 143l67 67l137 -142l136 142l68 -67l-137 -143l137 -143l-68 -67l-136 143z" />
    <glyph glyph-name="Oslash" unicode="&#xd8;" horiz-adv-x="660" 
d="M302 -12q-102 0 -165 60l-85 -88l-62 56l97 100q-14 31 -22 67.5t-8 80.5q0 86 27 159.5t72.5 127t105.5 83.5t126 30q104 0 169 -63l94 97l60 -56l-106 -110q28 -62 28 -144q0 -86 -27 -159.5t-72.5 -127t-105.5 -83.5t-126 -30zM197 273q0 -11 0.5 -21t1.5 -20l264 272
q-30 41 -81 41q-35 0 -68 -21.5t-59 -58t-42 -86t-16 -106.5zM309 106q35 0 68 21.5t59 58.5t41.5 86.5t15.5 106.5q0 10 -0.5 18.5t-1.5 17.5l-261 -271q30 -38 79 -38z" />
    <glyph glyph-name="Ugrave" unicode="&#xd9;" horiz-adv-x="643" 
d="M88 320l67 332h137l-71 -357q-4 -20 -6 -39t-2 -37q0 -55 22 -84t77 -29q47 0 78 38.5t49 129.5l76 378h134l-76 -376q-30 -150 -95.5 -219t-169.5 -69q-116 0 -174.5 55.5t-58.5 171.5q0 22 4 50.5t9 54.5zM441 676l-164 134l94 87l147 -154z" />
    <glyph glyph-name="Uacute" unicode="&#xda;" horiz-adv-x="643" 
d="M88 320l67 332h137l-71 -357q-4 -20 -6 -39t-2 -37q0 -55 22 -84t77 -29q47 0 78 38.5t49 129.5l76 378h134l-76 -376q-30 -150 -95.5 -219t-169.5 -69q-116 0 -174.5 55.5t-58.5 171.5q0 22 4 50.5t9 54.5zM381 686l-52 79l195 124l61 -101z" />
    <glyph glyph-name="Ucircumflex" unicode="&#xdb;" horiz-adv-x="643" 
d="M88 320l67 332h137l-71 -357q-4 -20 -6 -39t-2 -37q0 -55 22 -84t77 -29q47 0 78 38.5t49 129.5l76 378h134l-76 -376q-30 -150 -95.5 -219t-169.5 -69q-116 0 -174.5 55.5t-58.5 171.5q0 22 4 50.5t9 54.5zM301 685l-57 44l109 106h160l70 -111l-67 -38l-86 83h-4z" />
    <glyph glyph-name="Udieresis" unicode="&#xdc;" horiz-adv-x="643" 
d="M88 320l67 332h137l-71 -357q-4 -20 -6 -39t-2 -37q0 -55 22 -84t77 -29q47 0 78 38.5t49 129.5l76 378h134l-76 -376q-30 -150 -95.5 -219t-169.5 -69q-116 0 -174.5 55.5t-58.5 171.5q0 22 4 50.5t9 54.5zM307 701q-25 0 -41.5 15.5t-16.5 42.5q0 13 5.5 26.5
t15.5 24.5t23.5 17.5t29.5 6.5q23 0 40 -15t17 -42q0 -28 -20.5 -52t-52.5 -24zM517 701q-24 0 -40.5 15.5t-16.5 42.5q0 13 5.5 26.5t15 24.5t23 17.5t29.5 6.5q23 0 40 -15t17 -42q0 -28 -20.5 -52t-52.5 -24z" />
    <glyph glyph-name="Yacute" unicode="&#xdd;" 
d="M138 0l46 236l-104 416h142l28 -157q7 -37 12.5 -71t12.5 -72h4q20 38 39 72.5t41 72.5l91 155h147l-276 -416l-47 -236h-136zM305 686l-52 79l195 124l61 -101z" />
    <glyph glyph-name="Thorn" unicode="&#xde;" horiz-adv-x="595" 
d="M28 0l131 660h137l-21 -104h88q45 0 83 -9.5t66 -30t44 -53.5t16 -80q0 -68 -24.5 -116t-65.5 -78.5t-96 -44.5t-116 -14h-80l-26 -130h-136zM212 239h71q75 0 114 31t39 93q0 44 -26.5 64t-75.5 20h-81z" />
    <glyph glyph-name="germandbls" unicode="&#xdf;" horiz-adv-x="609" 
d="M374 -12q-38 0 -75.5 10.5t-71.5 33.5l56 91q20 -14 42 -23.5t48 -9.5q27 0 44 16.5t17 42.5q0 17 -10 30.5t-25 26.5t-33 26t-33 29t-25 35t-10 45q0 34 18 57.5t39.5 45t39.5 44t18 55.5q0 29 -13.5 45t-45.5 16q-21 0 -38 -10t-30.5 -27t-23 -39.5t-15.5 -48.5
l-96 -479h-137l102 505q9 44 29 82t50.5 66t71.5 44t92 16q35 0 68.5 -9t59.5 -27t42 -46.5t16 -67.5q0 -28 -8.5 -49.5t-21 -38.5t-27.5 -30.5t-27.5 -26.5t-21 -25.5t-8.5 -27.5t9.5 -27.5t24 -25t31.5 -26.5t31.5 -32t24 -40t9.5 -51q0 -37 -14.5 -69t-39.5 -55.5
t-59.5 -37t-73.5 -13.5z" />
    <glyph glyph-name="agrave" unicode="&#xe0;" horiz-adv-x="552" 
d="M171 -12q-66 0 -103 47t-37 135q0 71 22 132.5t59 107.5t85 72t99 26q34 0 64 -17.5t44 -47.5h2l22 53h109l-99 -496h-111l2 65h-3q-34 -35 -75 -56t-80 -21zM231 100q25 0 53.5 15.5t52.5 57.5l35 176q-12 25 -30.5 36t-35.5 11q-26 0 -50 -16t-42.5 -44t-29.5 -66
t-11 -83t15.5 -66t42.5 -21zM365 569l-154 171l117 87l121 -193z" />
    <glyph glyph-name="aacute" unicode="&#xe1;" horiz-adv-x="552" 
d="M171 -12q-66 0 -103 47t-37 135q0 71 22 132.5t59 107.5t85 72t99 26q34 0 64 -17.5t44 -47.5h2l22 53h109l-99 -496h-111l2 65h-3q-34 -35 -75 -56t-80 -21zM231 100q25 0 53.5 15.5t52.5 57.5l35 176q-12 25 -30.5 36t-35.5 11q-26 0 -50 -16t-42.5 -44t-29.5 -66
t-11 -83t15.5 -66t42.5 -21zM312 578l-60 78l185 166l82 -104z" />
    <glyph glyph-name="acircumflex" unicode="&#xe2;" horiz-adv-x="552" 
d="M171 -12q-66 0 -103 47t-37 135q0 71 22 132.5t59 107.5t85 72t99 26q34 0 64 -17.5t44 -47.5h2l22 53h109l-99 -496h-111l2 65h-3q-34 -35 -75 -56t-80 -21zM231 100q25 0 53.5 15.5t52.5 57.5l35 176q-12 25 -30.5 36t-35.5 11q-26 0 -50 -16t-42.5 -44t-29.5 -66
t-11 -83t15.5 -66t42.5 -21zM205 561l-47 55l130 128h150l86 -131l-62 -52l-105 96h-4z" />
    <glyph glyph-name="atilde" unicode="&#xe3;" horiz-adv-x="552" 
d="M171 -12q-66 0 -103 47t-37 135q0 71 22 132.5t59 107.5t85 72t99 26q34 0 64 -17.5t44 -47.5h2l22 53h109l-99 -496h-111l2 65h-3q-34 -35 -75 -56t-80 -21zM231 100q25 0 53.5 15.5t52.5 57.5l35 176q-12 25 -30.5 36t-35.5 11q-26 0 -50 -16t-42.5 -44t-29.5 -66
t-11 -83t15.5 -66t42.5 -21zM408 573q-25 0 -42 10t-30.5 22.5t-25.5 22.5t-28 10q-15 0 -27 -13.5t-17 -42.5l-90 5q13 78 50 115t92 37q25 0 41.5 -10t30 -22t25.5 -22t28 -10q15 0 27 13t17 42l90 -5q-13 -78 -50 -115t-91 -37z" />
    <glyph glyph-name="adieresis" unicode="&#xe4;" horiz-adv-x="552" 
d="M171 -12q-66 0 -103 47t-37 135q0 71 22 132.5t59 107.5t85 72t99 26q34 0 64 -17.5t44 -47.5h2l22 53h109l-99 -496h-111l2 65h-3q-34 -35 -75 -56t-80 -21zM231 100q25 0 53.5 15.5t52.5 57.5l35 176q-12 25 -30.5 36t-35.5 11q-26 0 -50 -16t-42.5 -44t-29.5 -66
t-11 -83t15.5 -66t42.5 -21zM230 572q-25 0 -42 15t-17 44q0 30 21.5 52.5t53.5 22.5q25 0 42 -16t17 -44q0 -31 -21.5 -52.5t-53.5 -21.5zM440 572q-25 0 -41.5 15t-16.5 44q0 30 21 52.5t53 22.5q26 0 42.5 -16t16.5 -44q0 -31 -21.5 -52.5t-53.5 -21.5z" />
    <glyph glyph-name="aring" unicode="&#xe5;" horiz-adv-x="552" 
d="M171 -12q-66 0 -103 47t-37 135q0 71 22 132.5t59 107.5t85 72t99 26q34 0 64 -17.5t44 -47.5h2l22 53h109l-99 -496h-111l2 65h-3q-34 -35 -75 -56t-80 -21zM231 100q25 0 53.5 15.5t52.5 57.5l35 176q-12 25 -30.5 36t-35.5 11q-26 0 -50 -16t-42.5 -44t-29.5 -66
t-11 -83t15.5 -66t42.5 -21zM336 568q-50 0 -82.5 23.5t-32.5 65.5q0 24 11 45t30 36.5t45.5 24.5t58.5 9q51 0 82.5 -23.5t31.5 -65.5q0 -24 -10.5 -45t-30 -36.5t-46 -24.5t-57.5 -9zM345 621q20 0 34.5 17.5t14.5 40.5q0 16 -9.5 28t-27.5 12q-20 0 -34.5 -17.5
t-14.5 -40.5q0 -17 9 -28.5t28 -11.5z" />
    <glyph glyph-name="ae" unicode="&#xe6;" horiz-adv-x="754" 
d="M22 112q0 54 23.5 91.5t65 60.5t97 33.5t118.5 12.5q1 6 1 11v10q0 37 -17 53.5t-50 16.5q-29 0 -60.5 -10.5t-66.5 -27.5l-30 95q44 22 92.5 36t98.5 14q44 0 75 -16t47 -51q32 32 70.5 49.5t76.5 17.5q45 0 75.5 -14.5t50 -40t28 -59t8.5 -72.5q0 -18 -3 -35.5
t-6.5 -33t-8 -27t-7.5 -17.5h-272q-5 -59 24.5 -88.5t77.5 -29.5q23 0 47.5 11t42.5 24l49 -86q-29 -21 -72 -36.5t-97 -15.5q-53 0 -95 23.5t-62 57.5q-45 -38 -89.5 -59.5t-98.5 -21.5q-28 0 -52.5 8.5t-42.5 25t-28 39t-10 51.5zM439 293h170q2 11 3 18.5t1 18.5
q0 30 -14.5 51.5t-52.5 21.5q-31 0 -61 -27.5t-46 -82.5zM308 227q-78 -2 -115.5 -26t-37.5 -62q0 -22 15.5 -34t39.5 -12q22 0 47.5 14.5t51.5 44.5q-2 18 -2.5 35.5t1.5 39.5z" />
    <glyph glyph-name="ccedilla" unicode="&#xe7;" horiz-adv-x="443" 
d="M223 -12q-41 0 -76.5 13.5t-61.5 40t-41 64.5t-15 86q0 64 22.5 121.5t62 101t93 68.5t114.5 25q47 0 80.5 -19t52.5 -42l-76 -81q-15 16 -30 24t-36 8q-30 0 -56 -16t-45.5 -44t-30.5 -64.5t-11 -78.5q0 -45 21 -71t63 -26q26 0 44.5 10t34.5 22l57 -84
q-28 -21 -67.5 -39.5t-98.5 -18.5zM64 -239v59q58 2 82 12.5t28 32.5q2 15 -12 25t-57 16l66 98h85l-40 -65q37 -9 52.5 -26t11.5 -47q-8 -52 -64.5 -77t-151.5 -28z" />
    <glyph glyph-name="egrave" unicode="&#xe8;" horiz-adv-x="496" 
d="M29 200q0 69 24.5 125.5t64 97t88.5 63t99 22.5q44 0 75 -14.5t50.5 -40t28 -59t8.5 -72.5q0 -18 -3 -35.5t-7 -33t-8.5 -27t-7.5 -17.5h-282q-3 -62 29.5 -90t81.5 -28q23 0 48 11t44 24l48 -86q-30 -21 -75 -36.5t-103 -15.5q-45 0 -82.5 14.5t-64 42t-41.5 66.5
t-15 89zM170 293h180q5 17 5 37q0 30 -14.5 51.5t-52.5 21.5q-35 0 -68 -27.5t-50 -82.5zM355 569l-154 171l117 87l121 -193z" />
    <glyph glyph-name="eacute" unicode="&#xe9;" horiz-adv-x="496" 
d="M29 200q0 69 24.5 125.5t64 97t88.5 63t99 22.5q44 0 75 -14.5t50.5 -40t28 -59t8.5 -72.5q0 -18 -3 -35.5t-7 -33t-8.5 -27t-7.5 -17.5h-282q-3 -62 29.5 -90t81.5 -28q23 0 48 11t44 24l48 -86q-30 -21 -75 -36.5t-103 -15.5q-45 0 -82.5 14.5t-64 42t-41.5 66.5
t-15 89zM170 293h180q5 17 5 37q0 30 -14.5 51.5t-52.5 21.5q-35 0 -68 -27.5t-50 -82.5zM302 578l-60 78l185 166l82 -104z" />
    <glyph glyph-name="ecircumflex" unicode="&#xea;" horiz-adv-x="496" 
d="M29 200q0 69 24.5 125.5t64 97t88.5 63t99 22.5q44 0 75 -14.5t50.5 -40t28 -59t8.5 -72.5q0 -18 -3 -35.5t-7 -33t-8.5 -27t-7.5 -17.5h-282q-3 -62 29.5 -90t81.5 -28q23 0 48 11t44 24l48 -86q-30 -21 -75 -36.5t-103 -15.5q-45 0 -82.5 14.5t-64 42t-41.5 66.5
t-15 89zM170 293h180q5 17 5 37q0 30 -14.5 51.5t-52.5 21.5q-35 0 -68 -27.5t-50 -82.5zM195 561l-47 55l130 128h150l86 -131l-62 -52l-105 96h-4z" />
    <glyph glyph-name="edieresis" unicode="&#xeb;" horiz-adv-x="496" 
d="M29 200q0 69 24.5 125.5t64 97t88.5 63t99 22.5q44 0 75 -14.5t50.5 -40t28 -59t8.5 -72.5q0 -18 -3 -35.5t-7 -33t-8.5 -27t-7.5 -17.5h-282q-3 -62 29.5 -90t81.5 -28q23 0 48 11t44 24l48 -86q-30 -21 -75 -36.5t-103 -15.5q-45 0 -82.5 14.5t-64 42t-41.5 66.5
t-15 89zM170 293h180q5 17 5 37q0 30 -14.5 51.5t-52.5 21.5q-35 0 -68 -27.5t-50 -82.5zM220 572q-25 0 -42 15t-17 44q0 30 21.5 52.5t53.5 22.5q25 0 42 -16t17 -44q0 -31 -21.5 -52.5t-53.5 -21.5zM430 572q-25 0 -41.5 15t-16.5 44q0 30 21 52.5t53 22.5q26 0 42.5 -16
t16.5 -44q0 -31 -21.5 -52.5t-53.5 -21.5z" />
    <glyph glyph-name="igrave" unicode="&#xec;" horiz-adv-x="265" 
d="M14 0l100 496h136l-99 -496h-137zM227 569l-154 171l117 87l121 -193z" />
    <glyph glyph-name="iacute" unicode="&#xed;" horiz-adv-x="265" 
d="M14 0l100 496h136l-99 -496h-137zM174 578l-60 78l185 166l82 -104z" />
    <glyph glyph-name="icircumflex" unicode="&#xee;" horiz-adv-x="265" 
d="M14 0l100 496h136l-99 -496h-137zM67 561l-47 55l130 128h150l86 -131l-62 -52l-105 96h-4z" />
    <glyph glyph-name="idieresis" unicode="&#xef;" horiz-adv-x="265" 
d="M14 0l100 496h136l-99 -496h-137zM92 572q-25 0 -42 15t-17 44q0 30 21.5 52.5t53.5 22.5q25 0 42 -16t17 -44q0 -31 -21.5 -52.5t-53.5 -21.5zM302 572q-25 0 -41.5 15t-16.5 44q0 30 21 52.5t53 22.5q26 0 42.5 -16t16.5 -44q0 -31 -21.5 -52.5t-53.5 -21.5z" />
    <glyph glyph-name="eth" unicode="&#xf0;" horiz-adv-x="537" 
d="M223 -12q-39 0 -73.5 13.5t-60 39t-40.5 61t-15 80.5q0 49 15 98t44.5 88t72 63t97.5 24q30 0 57 -13.5t44 -40.5q-7 81 -46 142l-145 -58l-26 65l124 50q-35 33 -80 61l63 79q37 -20 69.5 -43.5t58.5 -52.5l145 58l26 -65l-125 -50q32 -48 49 -105.5t17 -125.5
t-16.5 -134t-50.5 -118t-84.5 -84t-119.5 -32zM236 98q27 0 48.5 15t38 42t27.5 63.5t15 80.5q-14 21 -35 36.5t-50 15.5q-30 0 -53 -14t-38.5 -36.5t-23.5 -51t-8 -56.5q0 -40 20 -67.5t59 -27.5z" />
    <glyph glyph-name="ntilde" unicode="&#xf1;" horiz-adv-x="552" 
d="M14 0l98 496h111l-2 -66h4q37 32 78 55t89 23q62 0 90 -32.5t28 -94.5q0 -17 -2 -34.5t-6 -36.5l-62 -310h-137l59 293q3 15 5.5 26t2.5 21q0 51 -51 51q-23 0 -47.5 -15.5t-56.5 -48.5l-64 -327h-137zM436 573q-25 0 -42 10t-30.5 22.5t-25.5 22.5t-28 10
q-15 0 -27 -13.5t-17 -42.5l-90 5q13 78 50 115t92 37q25 0 41.5 -10t30 -22t25.5 -22t28 -10q15 0 27 13t17 42l90 -5q-13 -78 -50 -115t-91 -37z" />
    <glyph glyph-name="ograve" unicode="&#xf2;" horiz-adv-x="533" 
d="M222 -12q-44 0 -79 14.5t-60.5 41.5t-39 64.5t-13.5 83.5q0 72 24 130.5t63.5 99.5t89.5 63.5t101 22.5q43 0 78.5 -14.5t60.5 -41.5t39 -64.5t14 -83.5q0 -72 -24 -130.5t-63.5 -99.5t-89.5 -63.5t-101 -22.5zM237 98q25 0 47.5 15.5t40 42.5t27.5 64t10 81
q0 46 -17.5 71.5t-52.5 25.5q-25 0 -47.5 -15.5t-39.5 -42.5t-27 -64.5t-10 -80.5q0 -45 17 -71t52 -26zM365 569l-154 171l117 87l121 -193z" />
    <glyph glyph-name="oacute" unicode="&#xf3;" horiz-adv-x="533" 
d="M222 -12q-44 0 -79 14.5t-60.5 41.5t-39 64.5t-13.5 83.5q0 72 24 130.5t63.5 99.5t89.5 63.5t101 22.5q43 0 78.5 -14.5t60.5 -41.5t39 -64.5t14 -83.5q0 -72 -24 -130.5t-63.5 -99.5t-89.5 -63.5t-101 -22.5zM237 98q25 0 47.5 15.5t40 42.5t27.5 64t10 81
q0 46 -17.5 71.5t-52.5 25.5q-25 0 -47.5 -15.5t-39.5 -42.5t-27 -64.5t-10 -80.5q0 -45 17 -71t52 -26zM312 578l-60 78l185 166l82 -104z" />
    <glyph glyph-name="ocircumflex" unicode="&#xf4;" horiz-adv-x="533" 
d="M222 -12q-44 0 -79 14.5t-60.5 41.5t-39 64.5t-13.5 83.5q0 72 24 130.5t63.5 99.5t89.5 63.5t101 22.5q43 0 78.5 -14.5t60.5 -41.5t39 -64.5t14 -83.5q0 -72 -24 -130.5t-63.5 -99.5t-89.5 -63.5t-101 -22.5zM237 98q25 0 47.5 15.5t40 42.5t27.5 64t10 81
q0 46 -17.5 71.5t-52.5 25.5q-25 0 -47.5 -15.5t-39.5 -42.5t-27 -64.5t-10 -80.5q0 -45 17 -71t52 -26zM205 561l-47 55l130 128h150l86 -131l-62 -52l-105 96h-4z" />
    <glyph glyph-name="otilde" unicode="&#xf5;" horiz-adv-x="533" 
d="M222 -12q-44 0 -79 14.5t-60.5 41.5t-39 64.5t-13.5 83.5q0 72 24 130.5t63.5 99.5t89.5 63.5t101 22.5q43 0 78.5 -14.5t60.5 -41.5t39 -64.5t14 -83.5q0 -72 -24 -130.5t-63.5 -99.5t-89.5 -63.5t-101 -22.5zM237 98q25 0 47.5 15.5t40 42.5t27.5 64t10 81
q0 46 -17.5 71.5t-52.5 25.5q-25 0 -47.5 -15.5t-39.5 -42.5t-27 -64.5t-10 -80.5q0 -45 17 -71t52 -26zM408 573q-25 0 -42 10t-30.5 22.5t-25.5 22.5t-28 10q-15 0 -27 -13.5t-17 -42.5l-90 5q13 78 50 115t92 37q25 0 41.5 -10t30 -22t25.5 -22t28 -10q15 0 27 13t17 42
l90 -5q-13 -78 -50 -115t-91 -37z" />
    <glyph glyph-name="odieresis" unicode="&#xf6;" horiz-adv-x="533" 
d="M222 -12q-44 0 -79 14.5t-60.5 41.5t-39 64.5t-13.5 83.5q0 72 24 130.5t63.5 99.5t89.5 63.5t101 22.5q43 0 78.5 -14.5t60.5 -41.5t39 -64.5t14 -83.5q0 -72 -24 -130.5t-63.5 -99.5t-89.5 -63.5t-101 -22.5zM237 98q25 0 47.5 15.5t40 42.5t27.5 64t10 81
q0 46 -17.5 71.5t-52.5 25.5q-25 0 -47.5 -15.5t-39.5 -42.5t-27 -64.5t-10 -80.5q0 -45 17 -71t52 -26zM230 572q-25 0 -42 15t-17 44q0 30 21.5 52.5t53.5 22.5q25 0 42 -16t17 -44q0 -31 -21.5 -52.5t-53.5 -21.5zM440 572q-25 0 -41.5 15t-16.5 44q0 30 21 52.5t53 22.5
q26 0 42.5 -16t16.5 -44q0 -31 -21.5 -52.5t-53.5 -21.5z" />
    <glyph glyph-name="divide" unicode="&#xf7;" 
d="M48 282v97h437v-97h-437zM267 76q-32 0 -54 20t-22 52q0 31 22 52t54 21t54 -21t22 -52q0 -32 -22 -52t-54 -20zM267 438q-32 0 -54 21t-22 53q0 31 22 51.5t54 20.5t54 -20.5t22 -51.5q0 -32 -22 -53t-54 -21z" />
    <glyph glyph-name="oslash" unicode="&#xf8;" horiz-adv-x="533" 
d="M222 -12q-74 0 -125 43l-54 -56l-43 41l59 60q-29 47 -29 116q0 72 24 130.5t63.5 99.5t89.5 63.5t101 22.5q77 0 128 -45l54 56l44 -39l-61 -63q13 -23 20 -51t7 -62q0 -72 -24 -130.5t-63.5 -100t-89.5 -63.5t-101 -22zM158 195q0 -11 1 -16l191 197q-19 25 -53 25
q-33 0 -59 -19t-44 -48.5t-27 -66t-9 -72.5zM232 95q34 0 60.5 18.5t44 48t26.5 66t9 71.5q0 10 -1 14l-190 -196q19 -22 51 -22z" />
    <glyph glyph-name="ugrave" unicode="&#xf9;" horiz-adv-x="545" 
d="M529 496l-98 -496h-111l2 67h-4q-34 -32 -75.5 -55.5t-86.5 -23.5q-62 0 -89.5 32.5t-27.5 95.5q0 17 2 34t6 36l62 310h136l-58 -293q-4 -15 -6 -26t-2 -21q0 -51 50 -51q42 0 99 64l64 327h137zM362 569l-154 171l117 87l121 -193z" />
    <glyph glyph-name="uacute" unicode="&#xfa;" horiz-adv-x="545" 
d="M529 496l-98 -496h-111l2 67h-4q-34 -32 -75.5 -55.5t-86.5 -23.5q-62 0 -89.5 32.5t-27.5 95.5q0 17 2 34t6 36l62 310h136l-58 -293q-4 -15 -6 -26t-2 -21q0 -51 50 -51q42 0 99 64l64 327h137zM309 578l-60 78l185 166l82 -104z" />
    <glyph glyph-name="ucircumflex" unicode="&#xfb;" horiz-adv-x="545" 
d="M529 496l-98 -496h-111l2 67h-4q-34 -32 -75.5 -55.5t-86.5 -23.5q-62 0 -89.5 32.5t-27.5 95.5q0 17 2 34t6 36l62 310h136l-58 -293q-4 -15 -6 -26t-2 -21q0 -51 50 -51q42 0 99 64l64 327h137zM202 561l-47 55l130 128h150l86 -131l-62 -52l-105 96h-4z" />
    <glyph glyph-name="udieresis" unicode="&#xfc;" horiz-adv-x="545" 
d="M529 496l-98 -496h-111l2 67h-4q-34 -32 -75.5 -55.5t-86.5 -23.5q-62 0 -89.5 32.5t-27.5 95.5q0 17 2 34t6 36l62 310h136l-58 -293q-4 -15 -6 -26t-2 -21q0 -51 50 -51q42 0 99 64l64 327h137zM227 572q-25 0 -42 15t-17 44q0 30 21.5 52.5t53.5 22.5q25 0 42 -16
t17 -44q0 -31 -21.5 -52.5t-53.5 -21.5zM437 572q-25 0 -41.5 15t-16.5 44q0 30 21 52.5t53 22.5q26 0 42.5 -16t16.5 -44q0 -31 -21.5 -52.5t-53.5 -21.5z" />
    <glyph glyph-name="yacute" unicode="&#xfd;" horiz-adv-x="499" 
d="M36 -194q-14 0 -35 6t-36 14l42 98q17 -10 37 -10q27 0 52 19.5t42 52.5l12 25l-86 485h136l23 -224q4 -32 6 -73t3 -76h4q16 35 33 75t33 74l104 224h133l-268 -507q-26 -45 -51.5 -79t-53.5 -57t-60 -35t-70 -12zM279 578l-60 78l185 166l82 -104z" />
    <glyph glyph-name="thorn" unicode="&#xfe;" horiz-adv-x="553" 
d="M-23 -184l178 885h137l-33 -159l-25 -93h2q33 27 70 43t74 16q66 0 103 -47t37 -135q0 -71 -22 -132.5t-59 -107.5t-84.5 -72t-98.5 -26q-32 0 -58 15.5t-43 43.5h-2l-14 -97l-25 -134h-137zM246 100q26 0 50 16t42.5 44t29.5 66t11 83t-16 66t-42 21q-23 0 -51.5 -13.5
t-50.5 -48.5l-38 -188q11 -24 28.5 -35t36.5 -11z" />
    <glyph glyph-name="ydieresis" unicode="&#xff;" horiz-adv-x="499" 
d="M36 -194q-14 0 -35 6t-36 14l42 98q17 -10 37 -10q27 0 52 19.5t42 52.5l12 25l-86 485h136l23 -224q4 -32 6 -73t3 -76h4q16 35 33 75t33 74l104 224h133l-268 -507q-26 -45 -51.5 -79t-53.5 -57t-60 -35t-70 -12zM197 572q-25 0 -42 15t-17 44q0 30 21.5 52.5
t53.5 22.5q25 0 42 -16t17 -44q0 -31 -21.5 -52.5t-53.5 -21.5zM407 572q-25 0 -41.5 15t-16.5 44q0 30 21 52.5t53 22.5q26 0 42.5 -16t16.5 -44q0 -31 -21.5 -52.5t-53.5 -21.5z" />
    <glyph glyph-name="Amacron" unicode="&#x100;" horiz-adv-x="548" 
d="M255 353l-40 -86h140l-4 86q-2 48 -4 95t-4 99h-4q-21 -51 -41 -98t-43 -96zM-62 0l344 652h164l65 -652h-143l-8 164h-194l-77 -164h-151zM219 720l18 88h287l-17 -88h-288z" />
    <glyph glyph-name="amacron" unicode="&#x101;" horiz-adv-x="552" 
d="M171 -12q-66 0 -103 47t-37 135q0 71 22 132.5t59 107.5t85 72t99 26q34 0 64 -17.5t44 -47.5h2l22 53h109l-99 -496h-111l2 65h-3q-34 -35 -75 -56t-80 -21zM231 100q25 0 53.5 15.5t52.5 57.5l35 176q-12 25 -30.5 36t-35.5 11q-26 0 -50 -16t-42.5 -44t-29.5 -66
t-11 -83t15.5 -66t42.5 -21zM192 593l18 87h283l-18 -87h-283z" />
    <glyph glyph-name="Abreve" unicode="&#x102;" horiz-adv-x="548" 
d="M255 353l-40 -86h140l-4 86q-2 48 -4 95t-4 99h-4q-21 -51 -41 -98t-43 -96zM-62 0l344 652h164l65 -652h-143l-8 164h-194l-77 -164h-151zM362 697q-75 0 -109.5 35t-30.5 102l84 14q0 -31 19 -48.5t53 -17.5q33 0 57 17.5t37 48.5l77 -14q-18 -67 -65 -102t-122 -35z
" />
    <glyph glyph-name="abreve" unicode="&#x103;" horiz-adv-x="552" 
d="M171 -12q-66 0 -103 47t-37 135q0 71 22 132.5t59 107.5t85 72t99 26q34 0 64 -17.5t44 -47.5h2l22 53h109l-99 -496h-111l2 65h-3q-34 -35 -75 -56t-80 -21zM231 100q25 0 53.5 15.5t52.5 57.5l35 176q-12 25 -30.5 36t-35.5 11q-26 0 -50 -16t-42.5 -44t-29.5 -66
t-11 -83t15.5 -66t42.5 -21zM332 572q-43 0 -72 12t-46 33.5t-22.5 50t-0.5 61.5l87 14q-2 -32 15 -55.5t57 -23.5q39 0 63.5 23.5t35.5 55.5l80 -14q-7 -33 -22.5 -61.5t-40 -50t-58 -33.5t-76.5 -12z" />
    <glyph glyph-name="Aogonek" unicode="&#x104;" horiz-adv-x="548" 
d="M391 -222q-41 0 -66.5 20t-25.5 57q0 24 10 46t24 41t30.5 33.5t30.5 24.5h-26l-8 164h-194l-77 -164h-151l344 652h164l65 -652q-59 -23 -82 -50.5t-23 -50.5q0 -16 10.5 -24t24.5 -8q7 0 13 2t14 7l27 -67q-21 -14 -50 -22.5t-54 -8.5zM255 353l-40 -86h140l-4 86
q-2 48 -4 95t-4 99h-4q-21 -51 -41 -98t-43 -96z" />
    <glyph glyph-name="aogonek" unicode="&#x105;" horiz-adv-x="552" 
d="M319 -210q-38 0 -62 18.5t-24 54.5q0 24 10 45.5t24.5 39.5t31 31.5t28.5 22.5l2 63h-2q-34 -35 -75.5 -56t-80.5 -21q-66 0 -103 47t-37 135q0 71 22 132.5t59 107.5t85 72t99 26q34 0 64 -18t44 -47h2l22 53h109l-99 -496q-49 -15 -77.5 -41t-28.5 -57q0 -14 10.5 -22
t24.5 -8t32 10l23 -56q-21 -15 -50 -25.5t-53 -10.5zM231 100q23 0 52.5 15.5t53.5 57.5l35 176q-12 25 -30.5 36t-35.5 11q-26 0 -50 -16t-42.5 -44t-29.5 -66t-11 -83t15.5 -66t42.5 -21z" />
    <glyph glyph-name="Cacute" unicode="&#x106;" horiz-adv-x="567" 
d="M304 -12q-57 0 -102.5 18.5t-78 54t-50 86t-17.5 114.5q0 84 27 157.5t73.5 128t110 86t136.5 31.5q57 0 101.5 -27.5t72.5 -76.5l-94 -72q-18 29 -39 43t-48 14q-42 0 -78 -22.5t-63 -60.5t-42.5 -88t-15.5 -104q0 -76 32 -120t104 -44q29 0 57 14t54 36l57 -88
q-15 -14 -35 -28t-45 -25.5t-54.5 -19t-62.5 -7.5zM402 686l-52 79l195 124l61 -101z" />
    <glyph glyph-name="cacute" unicode="&#x107;" horiz-adv-x="443" 
d="M223 -12q-41 0 -76.5 13.5t-61.5 40t-41 64.5t-15 86q0 64 22.5 121.5t62 101t93 68.5t114.5 25q47 0 80.5 -19t52.5 -42l-76 -81q-15 16 -30 24t-36 8q-30 0 -56 -16t-45.5 -44t-30.5 -64.5t-11 -78.5q0 -45 21 -71t63 -26q26 0 44.5 10t34.5 22l57 -84
q-28 -21 -67.5 -39.5t-98.5 -18.5zM301 578l-60 78l185 166l82 -104z" />
    <glyph glyph-name="Ccircumflex" unicode="&#x108;" horiz-adv-x="567" 
d="M304 -12q-57 0 -102.5 18.5t-78 54t-50 86t-17.5 114.5q0 84 27 157.5t73.5 128t110 86t136.5 31.5q57 0 101.5 -27.5t72.5 -76.5l-94 -72q-18 29 -39 43t-48 14q-42 0 -78 -22.5t-63 -60.5t-42.5 -88t-15.5 -104q0 -76 32 -120t104 -44q29 0 57 14t54 36l57 -88
q-15 -14 -35 -28t-45 -25.5t-54.5 -19t-62.5 -7.5zM322 685l-57 44l109 106h160l70 -111l-67 -38l-86 83h-4z" />
    <glyph glyph-name="ccircumflex" unicode="&#x109;" horiz-adv-x="443" 
d="M223 -12q-41 0 -76.5 13.5t-61.5 40t-41 64.5t-15 86q0 64 22.5 121.5t62 101t93 68.5t114.5 25q47 0 80.5 -19t52.5 -42l-76 -81q-15 16 -30 24t-36 8q-30 0 -56 -16t-45.5 -44t-30.5 -64.5t-11 -78.5q0 -45 21 -71t63 -26q26 0 44.5 10t34.5 22l57 -84
q-28 -21 -67.5 -39.5t-98.5 -18.5zM194 561l-47 55l130 128h150l86 -131l-62 -52l-105 96h-4z" />
    <glyph glyph-name="Cdotaccent" unicode="&#x10a;" horiz-adv-x="567" 
d="M304 -12q-57 0 -102.5 18.5t-78 54t-50 86t-17.5 114.5q0 84 27 157.5t73.5 128t110 86t136.5 31.5q57 0 101.5 -27.5t72.5 -76.5l-94 -72q-18 29 -39 43t-48 14q-42 0 -78 -22.5t-63 -60.5t-42.5 -88t-15.5 -104q0 -76 32 -120t104 -44q29 0 57 14t54 36l57 -88
q-15 -14 -35 -28t-45 -25.5t-54.5 -19t-62.5 -7.5zM436 703q-28 0 -51 16.5t-23 49.5q0 16 6.5 31t18 26t27 17.5t33.5 6.5q29 0 51.5 -17t22.5 -49q0 -35 -24.5 -58t-60.5 -23z" />
    <glyph glyph-name="cdotaccent" unicode="&#x10b;" horiz-adv-x="443" 
d="M223 -12q-41 0 -76.5 13.5t-61.5 40t-41 64.5t-15 86q0 64 22.5 121.5t62 101t93 68.5t114.5 25q47 0 80.5 -19t52.5 -42l-76 -81q-15 16 -30 24t-36 8q-30 0 -56 -16t-45.5 -44t-30.5 -64.5t-11 -78.5q0 -45 21 -71t63 -26q26 0 44.5 10t34.5 22l57 -84
q-28 -21 -67.5 -39.5t-98.5 -18.5zM327 570q-28 0 -51 16.5t-23 49.5q0 16 6.5 31t18 26t27 17.5t33.5 6.5q29 0 51.5 -17t22.5 -49q0 -35 -24.5 -58t-60.5 -23z" />
    <glyph glyph-name="Ccaron" unicode="&#x10c;" horiz-adv-x="567" 
d="M304 -12q-57 0 -102.5 18.5t-78 54t-50 86t-17.5 114.5q0 84 27 157.5t73.5 128t110 86t136.5 31.5q57 0 101.5 -27.5t72.5 -76.5l-94 -72q-18 29 -39 43t-48 14q-42 0 -78 -22.5t-63 -60.5t-42.5 -88t-15.5 -104q0 -76 32 -120t104 -44q29 0 57 14t54 36l57 -88
q-15 -14 -35 -28t-45 -25.5t-54.5 -19t-62.5 -7.5zM345 702l-69 110l67 39l85 -83h4l126 84l57 -44l-110 -106h-160z" />
    <glyph glyph-name="ccaron" unicode="&#x10d;" horiz-adv-x="443" 
d="M223 -12q-41 0 -76.5 13.5t-61.5 40t-41 64.5t-15 86q0 64 22.5 121.5t62 101t93 68.5t114.5 25q47 0 80.5 -19t52.5 -42l-76 -81q-15 16 -30 24t-36 8q-30 0 -56 -16t-45.5 -44t-30.5 -64.5t-11 -78.5q0 -45 21 -71t63 -26q26 0 44.5 10t34.5 22l57 -84
q-28 -21 -67.5 -39.5t-98.5 -18.5zM236 579l-86 131l62 52l105 -96h4l148 96l48 -56l-131 -127h-150z" />
    <glyph glyph-name="Dcaron" unicode="&#x10e;" horiz-adv-x="616" 
d="M28 0l131 652h143q137 0 212.5 -63t75.5 -193q0 -96 -26.5 -170t-74 -124.5t-113.5 -76t-144 -25.5h-204zM188 110h41q47 0 87.5 16.5t70 50.5t46.5 86.5t17 123.5q0 81 -41 118t-110 37h-26zM306 702l-69 110l67 39l85 -83h4l126 84l57 -44l-110 -106h-160z" />
    <glyph glyph-name="dcaron" unicode="&#x10f;" horiz-adv-x="570" 
d="M400 448l12 94l30 159h137l-141 -701h-111l2 65h-3q-34 -35 -75 -56t-80 -21q-66 0 -103 47t-37 135q0 71 22 132.5t59 107.5t85 72t99 26q34 0 60.5 -16.5t40.5 -43.5h3zM231 100q25 0 52.5 15.5t53.5 57.5l35 176q-12 25 -30.5 36t-35.5 11q-26 0 -50 -16t-42.5 -44
t-29.5 -66t-11 -83t15.5 -66t42.5 -21zM588 548l40 222h87l-14 -69l-53 -153h-60z" />
    <glyph glyph-name="Dcroat" unicode="&#x110;" horiz-adv-x="634" 
d="M38 307l12 62l71 5l56 278h143q137 0 212.5 -63t75.5 -193q0 -96 -26.5 -170t-74 -124.5t-113.5 -76t-144 -25.5h-204l62 307h-70zM206 110h41q47 0 87.5 16.5t70 50.5t46.5 86.5t17 123.5q0 81 -41 118t-110 37h-26l-33 -168h125l-15 -67h-123z" />
    <glyph glyph-name="dcroat" unicode="&#x111;" horiz-adv-x="550" 
d="M171 -12q-66 0 -103 47t-37 135q0 63 22 120.5t59 101.5t85 70t99 26q34 0 59 -16.5t38 -43.5h3l12 94l7 36h-144l13 67h144l14 76h137l-15 -76h67l-14 -62l-67 -5l-112 -558h-111l2 65h-3q-34 -35 -75 -56t-80 -21zM231 100q25 0 52.5 15.5t53.5 57.5l31 156
q-11 25 -28 36t-35 11q-26 0 -50 -16t-42 -42t-29 -60.5t-11 -70.5q0 -45 15.5 -66t42.5 -21z" />
    <glyph glyph-name="Emacron" unicode="&#x112;" horiz-adv-x="527" 
d="M28 0l131 652h386l-22 -115h-251l-28 -142h213l-22 -115h-213l-34 -165h259l-22 -115h-397zM221 720l18 88h287l-17 -88h-288z" />
    <glyph glyph-name="emacron" unicode="&#x113;" horiz-adv-x="496" 
d="M29 200q0 69 24.5 125.5t64 97t88.5 63t99 22.5q44 0 75 -14.5t50.5 -40t28 -59t8.5 -72.5q0 -18 -3 -35.5t-7 -33t-8.5 -27t-7.5 -17.5h-282q-3 -62 29.5 -90t81.5 -28q23 0 48 11t44 24l48 -86q-30 -21 -75 -36.5t-103 -15.5q-45 0 -82.5 14.5t-64 42t-41.5 66.5
t-15 89zM170 293h180q5 17 5 37q0 30 -14.5 51.5t-52.5 21.5q-35 0 -68 -27.5t-50 -82.5zM182 593l18 87h283l-18 -87h-283z" />
    <glyph glyph-name="Ebreve" unicode="&#x114;" horiz-adv-x="527" 
d="M28 0l131 652h386l-22 -115h-251l-28 -142h213l-22 -115h-213l-34 -165h259l-22 -115h-397zM364 697q-75 0 -109.5 35t-30.5 102l84 14q0 -31 19 -48.5t53 -17.5q33 0 57 17.5t37 48.5l77 -14q-18 -67 -65 -102t-122 -35z" />
    <glyph glyph-name="ebreve" unicode="&#x115;" horiz-adv-x="496" 
d="M29 200q0 69 24.5 125.5t64 97t88.5 63t99 22.5q44 0 75 -14.5t50.5 -40t28 -59t8.5 -72.5q0 -18 -3 -35.5t-7 -33t-8.5 -27t-7.5 -17.5h-282q-3 -62 29.5 -90t81.5 -28q23 0 48 11t44 24l48 -86q-30 -21 -75 -36.5t-103 -15.5q-45 0 -82.5 14.5t-64 42t-41.5 66.5
t-15 89zM170 293h180q5 17 5 37q0 30 -14.5 51.5t-52.5 21.5q-35 0 -68 -27.5t-50 -82.5zM322 572q-43 0 -72 12t-46 33.5t-22.5 50t-0.5 61.5l87 14q-2 -32 15 -55.5t57 -23.5q39 0 63.5 23.5t35.5 55.5l80 -14q-7 -33 -22.5 -61.5t-40 -50t-58 -33.5t-76.5 -12z" />
    <glyph glyph-name="Edotaccent" unicode="&#x116;" horiz-adv-x="527" 
d="M28 0l131 652h386l-22 -115h-251l-28 -142h213l-22 -115h-213l-34 -165h259l-22 -115h-397zM370 703q-28 0 -51 16.5t-23 49.5q0 16 6.5 31t18 26t27 17.5t33.5 6.5q29 0 51.5 -17t22.5 -49q0 -35 -24.5 -58t-60.5 -23z" />
    <glyph glyph-name="edotaccent" unicode="&#x117;" horiz-adv-x="496" 
d="M29 200q0 69 24.5 125.5t64 97t88.5 63t99 22.5q44 0 75 -14.5t50.5 -40t28 -59t8.5 -72.5q0 -18 -3 -35.5t-7 -33t-8.5 -27t-7.5 -17.5h-282q-3 -62 29.5 -90t81.5 -28q23 0 48 11t44 24l48 -86q-30 -21 -75 -36.5t-103 -15.5q-45 0 -82.5 14.5t-64 42t-41.5 66.5
t-15 89zM170 293h180q5 17 5 37q0 30 -14.5 51.5t-52.5 21.5q-35 0 -68 -27.5t-50 -82.5zM328 570q-28 0 -51 16.5t-23 49.5q0 16 6.5 31t18 26t27 17.5t33.5 6.5q29 0 51.5 -17t22.5 -49q0 -35 -24.5 -58t-60.5 -23z" />
    <glyph glyph-name="Eogonek" unicode="&#x118;" horiz-adv-x="527" 
d="M28 0l131 652h386l-22 -115h-251l-28 -142h213l-22 -115h-213l-34 -165h259l-22 -115q-23 -3 -41.5 -15t-32 -27t-20.5 -31t-7 -28q0 -16 10.5 -24t24.5 -8q6 0 12.5 2t14.5 7l26 -67q-21 -14 -50 -22.5t-53 -8.5q-42 0 -67 20t-25 57q0 25 10.5 48t25.5 42t31 33t28 22
h-284z" />
    <glyph glyph-name="eogonek" unicode="&#x119;" horiz-adv-x="496" 
d="M170 -137q0 24 9.5 45t22.5 37.5t25 27.5t18 16q-2 -1 -5.5 -1h-5.5q-46 0 -83.5 14.5t-64.5 42t-42 66.5t-15 89q0 69 24.5 125.5t64 97t88.5 63t99 22.5q44 0 75 -14.5t50.5 -40t28 -59t8.5 -72.5q0 -18 -3 -35.5t-7 -33t-8.5 -27t-7.5 -17.5h-282q-3 -62 29.5 -90
t81.5 -28q23 0 48 11t44 24l48 -86q-45 -22 -72.5 -42t-42.5 -37.5t-20.5 -32t-5.5 -26.5q0 -14 10 -22t24 -8q15 0 33 10l23 -56q-21 -15 -50 -25.5t-54 -10.5q-37 0 -61 18.5t-24 54.5zM170 293h180q5 17 5 37q0 30 -14.5 51.5t-52.5 21.5q-35 0 -68 -27.5t-50 -82.5z" />
    <glyph glyph-name="Ecaron" unicode="&#x11a;" horiz-adv-x="527" 
d="M28 0l131 652h386l-22 -115h-251l-28 -142h213l-22 -115h-213l-34 -165h259l-22 -115h-397zM279 702l-69 110l67 39l85 -83h4l126 84l57 -44l-110 -106h-160z" />
    <glyph glyph-name="ecaron" unicode="&#x11b;" horiz-adv-x="496" 
d="M29 200q0 69 24.5 125.5t64 97t88.5 63t99 22.5q44 0 75 -14.5t50.5 -40t28 -59t8.5 -72.5q0 -18 -3 -35.5t-7 -33t-8.5 -27t-7.5 -17.5h-282q-3 -62 29.5 -90t81.5 -28q23 0 48 11t44 24l48 -86q-30 -21 -75 -36.5t-103 -15.5q-45 0 -82.5 14.5t-64 42t-41.5 66.5
t-15 89zM170 293h180q5 17 5 37q0 30 -14.5 51.5t-52.5 21.5q-35 0 -68 -27.5t-50 -82.5zM237 579l-86 131l62 52l105 -96h4l148 96l48 -56l-131 -127h-150z" />
    <glyph glyph-name="Gcircumflex" unicode="&#x11c;" horiz-adv-x="611" 
d="M314 -12q-60 0 -108 18.5t-81.5 53.5t-51 85.5t-17.5 115.5q0 84 27 157.5t74.5 128t113 86t142.5 31.5q63 0 108.5 -27.5t73.5 -76.5l-93 -72q-19 29 -41.5 43t-54.5 14q-45 0 -83.5 -22.5t-66.5 -60.5t-43.5 -88t-15.5 -104q0 -38 7.5 -68t24.5 -52t44 -33.5t65 -11.5
q20 0 38.5 6t32.5 16l28 128h-107l21 112h227l-60 -311q-38 -29 -90 -48.5t-114 -19.5zM317 685l-57 44l109 106h160l70 -111l-67 -38l-86 83h-4z" />
    <glyph glyph-name="gcircumflex" unicode="&#x11d;" horiz-adv-x="546" 
d="M171 -213q-45 0 -93 17.5t-90 52.5l59 91q29 -22 61 -37t67 -15q98 0 127 104l26 88q-33 -35 -71.5 -53.5t-80.5 -18.5q-63 0 -104 42.5t-41 130.5q0 67 21.5 125t57 101t82.5 68t98 25q34 0 63 -17.5t43 -47.5h3l21 53h111l-97 -488q-23 -111 -90.5 -166t-172.5 -55z
M229 127q25 0 53 14t52 51l31 157q-13 25 -30.5 36t-34.5 11q-26 0 -49 -14.5t-40 -40t-27.5 -60t-10.5 -74.5q0 -41 15 -60.5t41 -19.5zM197 561l-47 55l130 128h150l86 -131l-62 -52l-105 96h-4z" />
    <glyph glyph-name="Gbreve" unicode="&#x11e;" horiz-adv-x="611" 
d="M314 -12q-60 0 -108 18.5t-81.5 53.5t-51 85.5t-17.5 115.5q0 84 27 157.5t74.5 128t113 86t142.5 31.5q63 0 108.5 -27.5t73.5 -76.5l-93 -72q-19 29 -41.5 43t-54.5 14q-45 0 -83.5 -22.5t-66.5 -60.5t-43.5 -88t-15.5 -104q0 -38 7.5 -68t24.5 -52t44 -33.5t65 -11.5
q20 0 38.5 6t32.5 16l28 128h-107l21 112h227l-60 -311q-38 -29 -90 -48.5t-114 -19.5zM425 697q-75 0 -109.5 35t-30.5 102l84 14q0 -31 19 -48.5t53 -17.5q33 0 57 17.5t37 48.5l77 -14q-18 -67 -65 -102t-122 -35z" />
    <glyph glyph-name="gbreve" unicode="&#x11f;" horiz-adv-x="546" 
d="M171 -213q-45 0 -93 17.5t-90 52.5l59 91q29 -22 61 -37t67 -15q98 0 127 104l26 88q-33 -35 -71.5 -53.5t-80.5 -18.5q-63 0 -104 42.5t-41 130.5q0 67 21.5 125t57 101t82.5 68t98 25q34 0 63 -17.5t43 -47.5h3l21 53h111l-97 -488q-23 -111 -90.5 -166t-172.5 -55z
M229 127q25 0 53 14t52 51l31 157q-13 25 -30.5 36t-34.5 11q-26 0 -49 -14.5t-40 -40t-27.5 -60t-10.5 -74.5q0 -41 15 -60.5t41 -19.5zM324 572q-43 0 -72 12t-46 33.5t-22.5 50t-0.5 61.5l87 14q-2 -32 15 -55.5t57 -23.5q39 0 63.5 23.5t35.5 55.5l80 -14
q-7 -33 -22.5 -61.5t-40 -50t-58 -33.5t-76.5 -12z" />
    <glyph glyph-name="Gdotaccent" unicode="&#x120;" horiz-adv-x="611" 
d="M314 -12q-60 0 -108 18.5t-81.5 53.5t-51 85.5t-17.5 115.5q0 84 27 157.5t74.5 128t113 86t142.5 31.5q63 0 108.5 -27.5t73.5 -76.5l-93 -72q-19 29 -41.5 43t-54.5 14q-45 0 -83.5 -22.5t-66.5 -60.5t-43.5 -88t-15.5 -104q0 -38 7.5 -68t24.5 -52t44 -33.5t65 -11.5
q20 0 38.5 6t32.5 16l28 128h-107l21 112h227l-60 -311q-38 -29 -90 -48.5t-114 -19.5zM431 703q-28 0 -51 16.5t-23 49.5q0 16 6.5 31t18 26t27 17.5t33.5 6.5q29 0 51.5 -17t22.5 -49q0 -35 -24.5 -58t-60.5 -23z" />
    <glyph glyph-name="gdotaccent" unicode="&#x121;" horiz-adv-x="546" 
d="M171 -213q-45 0 -93 17.5t-90 52.5l59 91q29 -22 61 -37t67 -15q98 0 127 104l26 88q-33 -35 -71.5 -53.5t-80.5 -18.5q-63 0 -104 42.5t-41 130.5q0 67 21.5 125t57 101t82.5 68t98 25q34 0 63 -17.5t43 -47.5h3l21 53h111l-97 -488q-23 -111 -90.5 -166t-172.5 -55z
M229 127q25 0 53 14t52 51l31 157q-13 25 -30.5 36t-34.5 11q-26 0 -49 -14.5t-40 -40t-27.5 -60t-10.5 -74.5q0 -41 15 -60.5t41 -19.5zM330 570q-28 0 -51 16.5t-23 49.5q0 16 6.5 31t18 26t27 17.5t33.5 6.5q29 0 51.5 -17t22.5 -49q0 -35 -24.5 -58t-60.5 -23z" />
    <glyph glyph-name="uni0122" unicode="&#x122;" horiz-adv-x="611" 
d="M314 -12q-60 0 -108 18.5t-81.5 53.5t-51 85.5t-17.5 115.5q0 84 27 157.5t74.5 128t113 86t142.5 31.5q63 0 108.5 -27.5t73.5 -76.5l-93 -72q-19 29 -41.5 43t-54.5 14q-45 0 -83.5 -22.5t-66.5 -60.5t-43.5 -88t-15.5 -104q0 -38 7.5 -68t24.5 -52t44 -33.5t65 -11.5
q20 0 38.5 6t32.5 16l28 128h-107l21 112h227l-60 -311q-38 -29 -90 -48.5t-114 -19.5zM175 -231l2 59q59 2 84 13.5t25 29.5q0 11 -12.5 21t-44.5 10l38 54q39 -2 63.5 -8t39 -15.5t19.5 -22t5 -26.5q0 -29 -16.5 -50t-46 -35t-69.5 -21.5t-87 -8.5z" />
    <glyph glyph-name="uni0123" unicode="&#x123;" horiz-adv-x="546" 
d="M171 -213q-45 0 -93 17.5t-90 52.5l59 91q29 -22 61 -37t67 -15q98 0 127 104l26 88q-33 -35 -71.5 -53.5t-80.5 -18.5q-63 0 -104 42.5t-41 130.5q0 67 21.5 125t57 101t82.5 68t98 25q34 0 63 -17.5t43 -47.5h3l21 53h111l-97 -488q-23 -111 -90.5 -166t-172.5 -55z
M229 127q25 0 53 14t52 51l31 157q-13 25 -30.5 36t-34.5 11q-26 0 -49 -14.5t-40 -40t-27.5 -60t-10.5 -74.5q0 -41 15 -60.5t41 -19.5zM373 569q-39 2 -63.5 8t-39 15.5t-19.5 21.5t-5 27q0 29 16.5 50t46 35t69.5 21t87 9l-2 -59q-59 -2 -83.5 -13.5t-24.5 -29.5
q0 -12 12 -21.5t44 -10.5z" />
    <glyph glyph-name="Hcircumflex" unicode="&#x124;" horiz-adv-x="652" 
d="M28 0l131 652h137l-52 -253h223l50 253h137l-130 -652h-138l57 279h-223l-54 -279h-138zM294 685l-57 44l109 106h160l70 -111l-67 -38l-86 83h-4z" />
    <glyph glyph-name="hcircumflex" unicode="&#x125;" horiz-adv-x="546" 
d="M14 0l141 701h137l-38 -183l-22 -80h4q33 29 72 49.5t84 20.5q62 0 90 -32.5t28 -94.5q0 -17 -1.5 -34.5t-6.5 -36.5l-62 -310h-137l59 293q3 15 5.5 26t2.5 21q0 51 -51 51q-23 0 -47.5 -15.5t-56.5 -48.5l-64 -327h-137zM125 738l-57 44l109 106h160l70 -111l-67 -38
l-86 83h-4z" />
    <glyph glyph-name="Hbar" unicode="&#x126;" horiz-adv-x="658" 
d="M70 489l13 62l59 5l19 96h137l-20 -95h222l19 95h137l-19 -95h95l-13 -68h-95l-98 -489h-138l57 279h-223l-54 -279h-138l98 489h-58zM246 399h223l18 90h-223z" />
    <glyph glyph-name="hbar" unicode="&#x127;" horiz-adv-x="546" 
d="M14 0l112 558h-68l13 61l69 6l15 76h137l-16 -76h162l-15 -67h-161l-12 -60l-22 -80h4q33 29 72 49.5t84 20.5q62 0 90 -32.5t28 -94.5q0 -17 -1.5 -34.5t-6.5 -36.5l-58 -290h-137l55 273q3 15 5.5 26t2.5 21q0 51 -51 51q-23 0 -47.5 -15.5t-56.5 -48.5l-60 -307h-137z
" />
    <glyph glyph-name="Itilde" unicode="&#x128;" horiz-adv-x="294" 
d="M28 0l131 652h137l-130 -652h-138zM295 692q-26 0 -44.5 9t-33 20t-26 20t-23.5 9q-14 0 -26 -10.5t-20 -38.5l-93 7q17 76 58 110t93 34q26 0 45 -9t33 -20t26 -20t24 -9q14 0 25.5 11t19.5 38l93 -7q-17 -76 -58 -110t-93 -34z" />
    <glyph glyph-name="itilde" unicode="&#x129;" horiz-adv-x="265" 
d="M14 0l100 496h136l-99 -496h-137zM270 573q-25 0 -42 10t-30.5 22.5t-25.5 22.5t-28 10q-15 0 -27 -13.5t-17 -42.5l-90 5q13 78 50 115t92 37q25 0 41.5 -10t30 -22t25.5 -22t28 -10q15 0 27 13t17 42l90 -5q-13 -78 -50 -115t-91 -37z" />
    <glyph glyph-name="Imacron" unicode="&#x12a;" horiz-adv-x="294" 
d="M28 0l131 652h137l-130 -652h-138zM85 720l18 88h287l-17 -88h-288z" />
    <glyph glyph-name="imacron" unicode="&#x12b;" horiz-adv-x="265" 
d="M14 0l100 496h136l-99 -496h-137zM54 593l18 87h283l-18 -87h-283z" />
    <glyph glyph-name="uni012C" unicode="&#x12c;" horiz-adv-x="294" 
d="M28 0l131 652h137l-130 -652h-138zM228 697q-75 0 -109.5 35t-30.5 102l84 14q0 -31 19 -48.5t53 -17.5q33 0 57 17.5t37 48.5l77 -14q-18 -67 -65 -102t-122 -35z" />
    <glyph glyph-name="uni012D" unicode="&#x12d;" horiz-adv-x="265" 
d="M14 0l100 496h136l-99 -496h-137zM194 572q-43 0 -72 12t-46 33.5t-22.5 50t-0.5 61.5l87 14q-2 -32 15 -55.5t57 -23.5q39 0 63.5 23.5t35.5 55.5l80 -14q-7 -33 -22.5 -61.5t-40 -50t-58 -33.5t-76.5 -12z" />
    <glyph glyph-name="Iogonek" unicode="&#x12e;" horiz-adv-x="294" 
d="M57 -222q-42 0 -67 20t-25 57q0 25 10.5 48t25.5 42t31 33t28 22h-32l131 652h137l-130 -652q-48 -18 -71 -48t-23 -53q0 -16 10.5 -24t24.5 -8q6 0 12.5 2t14.5 7l26 -66q-20 -14 -49.5 -23t-53.5 -9z" />
    <glyph glyph-name="iogonek" unicode="&#x12f;" horiz-adv-x="265" 
d="M47 -210q-38 0 -62 18.5t-24 54.5q0 24 10 45.5t24.5 39.5t30 31t27.5 21h-39l100 496h136l-99 -496q-49 -20 -70 -45.5t-21 -52.5q0 -14 10.5 -22t24.5 -8t32 10l23 -56q-21 -15 -50 -25.5t-53 -10.5zM208 570q-28 0 -51 16.5t-23 49.5q0 16 6.5 31t18 26t27 17.5
t33.5 6.5q29 0 51.5 -17t22.5 -49q0 -35 -24.5 -58t-60.5 -23z" />
    <glyph glyph-name="Idotaccent" unicode="&#x130;" horiz-adv-x="294" 
d="M28 0l131 652h137l-130 -652h-138zM234 703q-28 0 -51 16.5t-23 49.5q0 16 6.5 31t18 26t27 17.5t33.5 6.5q29 0 51.5 -17t22.5 -49q0 -35 -24.5 -58t-60.5 -23z" />
    <glyph glyph-name="dotlessi" unicode="&#x131;" horiz-adv-x="265" 
d="M14 0l100 496h136l-99 -496h-137z" />
    <glyph glyph-name="Jcircumflex" unicode="&#x134;" horiz-adv-x="491" 
d="M176 -12q-57 0 -106 25.5t-78 73.5l84 83q14 -26 39.5 -45t60.5 -19q76 0 100 121l85 425h137l-90 -449q-9 -44 -26.5 -83t-46 -68.5t-68 -46.5t-91.5 -17zM320 685l-57 44l109 106h160l70 -111l-67 -38l-86 83h-4z" />
    <glyph glyph-name="jcircumflex" unicode="&#x135;" horiz-adv-x="267" 
d="M-35 -196q-26 0 -49 5t-47 17l41 99q11 -6 21 -9.5t23 -3.5q25 0 37.5 18.5t22.5 59.5l101 506h137l-103 -512q-8 -38 -22 -70.5t-36 -57t-53 -38.5t-73 -14zM66 561l-47 55l130 128h150l86 -131l-62 -52l-105 96h-4z" />
    <glyph glyph-name="uni0136" unicode="&#x136;" horiz-adv-x="604" 
d="M28 0l131 652h137l-53 -268h3l245 268h150l-237 -268l146 -384h-143l-104 298l-99 -107l-38 -191h-138zM151 -231l2 59q59 2 84 13.5t25 29.5q0 11 -12.5 21t-44.5 10l38 54q39 -2 63.5 -8t39 -15.5t19.5 -22t5 -26.5q0 -29 -16.5 -50t-46 -35t-69.5 -21.5t-87 -8.5z" />
    <glyph glyph-name="uni0137" unicode="&#x137;" horiz-adv-x="525" 
d="M14 0l141 701h137l-82 -406h4l187 201h152l-203 -217l118 -279h-137l-75 200l-81 -81l-24 -119h-137zM98 -231l2 59q59 2 84 13.5t25 29.5q0 11 -12.5 21t-44.5 10l38 54q39 -2 63.5 -8t39 -15.5t19.5 -22t5 -26.5q0 -29 -16.5 -50t-46 -35t-69.5 -21.5t-87 -8.5z" />
    <glyph glyph-name="kgreenlandic" unicode="&#x138;" horiz-adv-x="525" 
d="M14 0l98 496h137l-39 -201h4l187 201h152l-203 -217l118 -279h-137l-75 200l-81 -81l-24 -119h-137z" />
    <glyph glyph-name="Lacute" unicode="&#x139;" horiz-adv-x="500" 
d="M28 0l131 652h137l-108 -537h247l-22 -115h-385zM215 686l-52 79l195 124l61 -101z" />
    <glyph glyph-name="lacute" unicode="&#x13a;" horiz-adv-x="275" 
d="M137 -12q-54 0 -77 26t-23 71q0 26 7 61l111 555h137l-113 -561q-2 -8 -2 -11.5v-7.5q0 -13 5.5 -18t13.5 -5h8t10 2l-4 -101q-13 -5 -31 -8t-42 -3zM209 741l-52 79l195 124l61 -101z" />
    <glyph glyph-name="uni013B" unicode="&#x13b;" horiz-adv-x="500" 
d="M28 0l131 652h137l-108 -537h247l-22 -115h-385zM96 -231l2 59q59 2 84 13.5t25 29.5q0 11 -12.5 21t-44.5 10l38 54q39 -2 63.5 -8t39 -15.5t19.5 -22t5 -26.5q0 -29 -16.5 -50t-46 -35t-69.5 -21.5t-87 -8.5z" />
    <glyph glyph-name="uni013C" unicode="&#x13c;" horiz-adv-x="275" 
d="M137 -12q-54 0 -77 26t-23 71q0 26 7 61l111 555h137l-113 -561q-2 -8 -2 -11.5v-7.5q0 -13 5.5 -18t13.5 -5h8t10 2l-4 -101q-13 -5 -31 -8t-42 -3zM-56 -231l2 59q59 2 84 13.5t25 29.5q0 11 -12.5 21t-44.5 10l38 54q39 -2 63.5 -8t39 -15.5t19.5 -22t5 -26.5
q0 -29 -16.5 -50t-46 -35t-69.5 -21.5t-87 -8.5z" />
    <glyph glyph-name="Lcaron" unicode="&#x13d;" horiz-adv-x="500" 
d="M28 0l131 652h137l-108 -537h247l-22 -115h-385zM390 509l40 222h87l-14 -69l-53 -153h-60z" />
    <glyph glyph-name="lcaron" unicode="&#x13e;" horiz-adv-x="280" 
d="M137 -12q-54 0 -77 26t-23 71q0 26 7 61l111 555h137l-113 -561q-2 -8 -2 -11.5v-7.5q0 -13 5.5 -18t13.5 -5h8t10 2l-4 -101q-13 -5 -31 -8t-42 -3zM298 548l40 222h87l-14 -69l-53 -153h-60z" />
    <glyph glyph-name="Ldot" unicode="&#x13f;" horiz-adv-x="500" 
d="M28 0l131 652h137l-108 -537h247l-22 -115h-385zM400 239q-32 0 -51 20.5t-19 53.5q0 18 7 36.5t20 32.5t31 23t40 9q32 0 51 -21.5t19 -53.5q0 -19 -7 -37t-20 -32t-31 -22.5t-40 -8.5z" />
    <glyph glyph-name="ldot" unicode="&#x140;" horiz-adv-x="421" 
d="M137 -12q-54 0 -77 26t-23 71q0 26 7 61l111 555h137l-113 -561q-2 -8 -2 -11.5v-7.5q0 -13 5.5 -18t13.5 -5h8t10 2l-4 -101q-13 -5 -31 -8t-42 -3zM346 247q-32 0 -51 20.5t-19 53.5q0 18 7 36.5t20 32.5t31 23t40 9q32 0 51 -21.5t19 -53.5q0 -19 -7 -37t-20 -32
t-31 -22.5t-40 -8.5z" />
    <glyph glyph-name="Lslash" unicode="&#x141;" horiz-adv-x="500" 
d="M15 178l-33 88l110 54l67 332h137l-52 -261l153 77l34 -88l-210 -103l-33 -162h247l-22 -115h-385l41 205z" />
    <glyph glyph-name="lslash" unicode="&#x142;" horiz-adv-x="285" 
d="M147 -12q-54 0 -77 26t-23 71q0 26 7 61l28 142l-49 -26l-32 81l103 53l61 305h137l-48 -237l54 31l33 -82l-109 -58l-43 -215q-2 -8 -2 -11.5v-7.5q0 -13 5.5 -18t13.5 -5h8t10 2l-4 -101q-13 -5 -31 -8t-42 -3z" />
    <glyph glyph-name="Nacute" unicode="&#x143;" horiz-adv-x="643" 
d="M28 0l131 652h133l106 -340l35 -143h4q3 25 5 55t5 60.5t7 61.5t10 59l50 247h130l-130 -652h-132l-107 339l-33 145h-4q-5 -55 -11.5 -116t-17.5 -118l-50 -250h-131zM385 686l-52 79l195 124l61 -101z" />
    <glyph glyph-name="nacute" unicode="&#x144;" horiz-adv-x="552" 
d="M14 0l98 496h111l-2 -66h4q37 32 78 55t89 23q62 0 90 -32.5t28 -94.5q0 -17 -2 -34.5t-6 -36.5l-62 -310h-137l59 293q3 15 5.5 26t2.5 21q0 51 -51 51q-23 0 -47.5 -15.5t-56.5 -48.5l-64 -327h-137zM340 578l-60 78l185 166l82 -104z" />
    <glyph glyph-name="uni0145" unicode="&#x145;" horiz-adv-x="643" 
d="M28 0l131 652h133l106 -340l35 -143h4q3 25 5 55t5 60.5t7 61.5t10 59l50 247h130l-130 -652h-132l-107 339l-33 145h-4q-5 -55 -11.5 -116t-17.5 -118l-50 -250h-131zM158 -239l2 59q59 2 84 13.5t25 29.5q0 11 -12.5 21t-44.5 10l38 54q39 -2 63.5 -8t39 -15.5
t19.5 -22t5 -26.5q0 -29 -16.5 -50t-46 -35t-69.5 -21.5t-87 -8.5z" />
    <glyph glyph-name="uni0146" unicode="&#x146;" horiz-adv-x="552" 
d="M14 0l98 496h111l-2 -66h4q37 32 78 55t89 23q62 0 90 -32.5t28 -94.5q0 -17 -2 -34.5t-6 -36.5l-62 -310h-137l59 293q3 15 5.5 26t2.5 21q0 51 -51 51q-23 0 -47.5 -15.5t-56.5 -48.5l-64 -327h-137zM98 -231l2 59q59 2 84 13.5t25 29.5q0 11 -12.5 21t-44.5 10l38 54
q39 -2 63.5 -8t39 -15.5t19.5 -22t5 -26.5q0 -29 -16.5 -50t-46 -35t-69.5 -21.5t-87 -8.5z" />
    <glyph glyph-name="Ncaron" unicode="&#x147;" horiz-adv-x="643" 
d="M28 0l131 652h133l106 -340l35 -143h4q3 25 5 55t5 60.5t7 61.5t10 59l50 247h130l-130 -652h-132l-107 339l-33 145h-4q-5 -55 -11.5 -116t-17.5 -118l-50 -250h-131zM328 702l-69 110l67 39l85 -83h4l126 84l57 -44l-110 -106h-160z" />
    <glyph glyph-name="ncaron" unicode="&#x148;" horiz-adv-x="552" 
d="M14 0l98 496h111l-2 -66h4q37 32 78 55t89 23q62 0 90 -32.5t28 -94.5q0 -17 -2 -34.5t-6 -36.5l-62 -310h-137l59 293q3 15 5.5 26t2.5 21q0 51 -51 51q-23 0 -47.5 -15.5t-56.5 -48.5l-64 -327h-137zM275 579l-86 131l62 52l105 -96h4l148 96l48 -56l-131 -127h-150z
" />
    <glyph glyph-name="napostrophe" unicode="&#x149;" horiz-adv-x="822" 
d="M129 374l-22 60q28 10 49.5 25.5t36 32t22 32.5t7.5 28h-6q-31 0 -51 16.5t-20 46.5q0 32 22.5 57t60.5 25q34 0 54 -25.5t20 -71.5q0 -45 -14 -81.5t-37.5 -65t-55 -48.5t-66.5 -31zM288 0l98 496h111l-2 -66h4q37 32 78 55t89 23q62 0 90 -32.5t28 -94.5
q0 -17 -2 -34.5t-6 -36.5l-62 -310h-137l59 293q3 15 5.5 26t2.5 21q0 51 -51 51q-23 0 -47.5 -15.5t-56.5 -48.5l-64 -327h-137z" />
    <glyph glyph-name="Omacron" unicode="&#x14c;" horiz-adv-x="660" 
d="M302 -12q-56 0 -101 18.5t-77 54t-49.5 87t-17.5 116.5q0 86 27 159.5t72.5 127t105.5 83.5t126 30q56 0 101 -19t77 -54.5t49.5 -86.5t17.5 -116q0 -86 -27 -159.5t-72.5 -127t-105.5 -83.5t-126 -30zM309 106q35 0 68 21.5t59 58.5t41.5 86.5t15.5 106.5
q0 78 -28.5 122t-82.5 44q-35 0 -68 -21.5t-59 -58t-42 -86t-16 -106.5q0 -78 29 -122.5t83 -44.5zM274 720l18 88h287l-17 -88h-288z" />
    <glyph glyph-name="omacron" unicode="&#x14d;" horiz-adv-x="533" 
d="M222 -12q-44 0 -79 14.5t-60.5 41.5t-39 64.5t-13.5 83.5q0 72 24 130.5t63.5 99.5t89.5 63.5t101 22.5q43 0 78.5 -14.5t60.5 -41.5t39 -64.5t14 -83.5q0 -72 -24 -130.5t-63.5 -99.5t-89.5 -63.5t-101 -22.5zM237 98q25 0 47.5 15.5t40 42.5t27.5 64t10 81
q0 46 -17.5 71.5t-52.5 25.5q-25 0 -47.5 -15.5t-39.5 -42.5t-27 -64.5t-10 -80.5q0 -45 17 -71t52 -26zM192 593l18 87h283l-18 -87h-283z" />
    <glyph glyph-name="uni014E" unicode="&#x14e;" horiz-adv-x="660" 
d="M302 -12q-56 0 -101 18.5t-77 54t-49.5 87t-17.5 116.5q0 86 27 159.5t72.5 127t105.5 83.5t126 30q56 0 101 -19t77 -54.5t49.5 -86.5t17.5 -116q0 -86 -27 -159.5t-72.5 -127t-105.5 -83.5t-126 -30zM309 106q35 0 68 21.5t59 58.5t41.5 86.5t15.5 106.5
q0 78 -28.5 122t-82.5 44q-35 0 -68 -21.5t-59 -58t-42 -86t-16 -106.5q0 -78 29 -122.5t83 -44.5zM417 697q-75 0 -109.5 35t-30.5 102l84 14q0 -31 19 -48.5t53 -17.5q33 0 57 17.5t37 48.5l77 -14q-18 -67 -65 -102t-122 -35z" />
    <glyph glyph-name="uni014F" unicode="&#x14f;" horiz-adv-x="533" 
d="M222 -12q-44 0 -79 14.5t-60.5 41.5t-39 64.5t-13.5 83.5q0 72 24 130.5t63.5 99.5t89.5 63.5t101 22.5q43 0 78.5 -14.5t60.5 -41.5t39 -64.5t14 -83.5q0 -72 -24 -130.5t-63.5 -99.5t-89.5 -63.5t-101 -22.5zM237 98q25 0 47.5 15.5t40 42.5t27.5 64t10 81
q0 46 -17.5 71.5t-52.5 25.5q-25 0 -47.5 -15.5t-39.5 -42.5t-27 -64.5t-10 -80.5q0 -45 17 -71t52 -26zM332 572q-43 0 -72 12t-46 33.5t-22.5 50t-0.5 61.5l87 14q-2 -32 15 -55.5t57 -23.5q39 0 63.5 23.5t35.5 55.5l80 -14q-7 -33 -22.5 -61.5t-40 -50t-58 -33.5
t-76.5 -12z" />
    <glyph glyph-name="Ohungarumlaut" unicode="&#x150;" horiz-adv-x="660" 
d="M302 -12q-56 0 -101 18.5t-77 54t-49.5 87t-17.5 116.5q0 86 27 159.5t72.5 127t105.5 83.5t126 30q56 0 101 -19t77 -54.5t49.5 -86.5t17.5 -116q0 -86 -27 -159.5t-72.5 -127t-105.5 -83.5t-126 -30zM309 106q35 0 68 21.5t59 58.5t41.5 86.5t15.5 106.5
q0 78 -28.5 122t-82.5 44q-35 0 -68 -21.5t-59 -58t-42 -86t-16 -106.5q0 -78 29 -122.5t83 -44.5zM361 697l-65 41l128 150l84 -60zM549 697l-66 41l128 150l84 -60z" />
    <glyph glyph-name="ohungarumlaut" unicode="&#x151;" horiz-adv-x="533" 
d="M222 -12q-44 0 -79 14.5t-60.5 41.5t-39 64.5t-13.5 83.5q0 72 24 130.5t63.5 99.5t89.5 63.5t101 22.5q43 0 78.5 -14.5t60.5 -41.5t39 -64.5t14 -83.5q0 -72 -24 -130.5t-63.5 -99.5t-89.5 -63.5t-101 -22.5zM237 98q25 0 47.5 15.5t40 42.5t27.5 64t10 81
q0 46 -17.5 71.5t-52.5 25.5q-25 0 -47.5 -15.5t-39.5 -42.5t-27 -64.5t-10 -80.5q0 -45 17 -71t52 -26zM285 567l-71 42l120 171l89 -53zM464 567l-71 42l120 171l89 -53z" />
    <glyph glyph-name="OE" unicode="&#x152;" horiz-adv-x="833" 
d="M345 0q-137 0 -212.5 63t-75.5 193q0 96 26.5 170t74.5 124.5t114 76t144 25.5h436l-23 -115h-238l-28 -142h201l-23 -115h-200l-34 -165h247l-23 -115h-386zM349 110h21l86 432h-37q-47 0 -87.5 -16.5t-70.5 -50.5t-47 -86.5t-17 -123.5q0 -81 41.5 -118t110.5 -37z" />
    <glyph glyph-name="oe" unicode="&#x153;" horiz-adv-x="798" 
d="M214 -12q-42 0 -76 14.5t-58 41.5t-37 64.5t-13 83.5q0 72 23.5 130.5t62 99.5t86.5 63.5t97 22.5q55 0 88 -24.5t53 -70.5q35 46 79 70.5t87 24.5q45 0 75.5 -14.5t50 -40t28 -59t8.5 -72.5q0 -18 -3 -35.5t-6.5 -33t-8 -27t-7.5 -17.5h-271q-2 -62 27 -90t73 -28
q23 0 48 11t43 24l49 -86q-30 -21 -75 -36.5t-103 -15.5q-48 0 -85 25.5t-57 73.5q-35 -48 -82 -73.5t-96 -25.5zM237 98q23 0 44 15.5t37 42.5t25.5 64t9.5 81q0 46 -17 71.5t-52 25.5q-22 0 -42.5 -15.5t-37 -42.5t-26.5 -64.5t-10 -80.5q0 -45 17 -71t52 -26zM483 293
h169q2 8 3 17t1 20q0 30 -14.5 51.5t-51.5 21.5q-32 0 -62 -27.5t-45 -82.5z" />
    <glyph glyph-name="Racute" unicode="&#x154;" horiz-adv-x="596" 
d="M28 0l131 652h204q48 0 89 -9t70.5 -29t46.5 -52t17 -77q0 -46 -12.5 -82.5t-34.5 -64.5t-52.5 -48t-66.5 -32l101 -258h-144l-84 239h-80l-47 -239h-138zM235 348h69q73 0 110 31.5t37 85.5q0 42 -28 60t-81 18h-69zM353 686l-52 79l195 124l61 -101z" />
    <glyph glyph-name="racute" unicode="&#x155;" horiz-adv-x="384" 
d="M14 0l98 496h111l-6 -96h4q29 47 69 77.5t83 30.5q19 0 31.5 -2.5t20.5 -7.5l-45 -118q-10 5 -23.5 6.5t-25.5 1.5q-33 0 -64 -24t-60 -77l-56 -287h-137zM262 578l-60 78l185 166l82 -104z" />
    <glyph glyph-name="uni0156" unicode="&#x156;" horiz-adv-x="596" 
d="M28 0l131 652h204q48 0 89 -9t70.5 -29t46.5 -52t17 -77q0 -46 -12.5 -82.5t-34.5 -64.5t-52.5 -48t-66.5 -32l101 -258h-144l-84 239h-80l-47 -239h-138zM235 348h69q73 0 110 31.5t37 85.5q0 42 -28 60t-81 18h-69zM143 -239l2 59q59 2 84 13.5t25 29.5q0 11 -12.5 21
t-44.5 10l38 54q39 -2 63.5 -8t39 -15.5t19.5 -22t5 -26.5q0 -29 -16.5 -50t-46 -35t-69.5 -21.5t-87 -8.5z" />
    <glyph glyph-name="uni0157" unicode="&#x157;" horiz-adv-x="384" 
d="M14 0l98 496h111l-6 -96h4q29 47 69 77.5t83 30.5q19 0 31.5 -2.5t20.5 -7.5l-45 -118q-10 5 -23.5 6.5t-25.5 1.5q-33 0 -64 -24t-60 -77l-56 -287h-137zM-53 -231l2 59q59 2 84 13.5t25 29.5q0 11 -12.5 21t-44.5 10l38 54q39 -2 63.5 -8t39 -15.5t19.5 -22t5 -26.5
q0 -29 -16.5 -50t-46 -35t-69.5 -21.5t-87 -8.5z" />
    <glyph glyph-name="Rcaron" unicode="&#x158;" horiz-adv-x="596" 
d="M28 0l131 652h204q48 0 89 -9t70.5 -29t46.5 -52t17 -77q0 -46 -12.5 -82.5t-34.5 -64.5t-52.5 -48t-66.5 -32l101 -258h-144l-84 239h-80l-47 -239h-138zM235 348h69q73 0 110 31.5t37 85.5q0 42 -28 60t-81 18h-69zM296 702l-69 110l67 39l85 -83h4l126 84l57 -44
l-110 -106h-160z" />
    <glyph glyph-name="rcaron" unicode="&#x159;" horiz-adv-x="384" 
d="M14 0l98 496h111l-6 -96h4q29 47 69 77.5t83 30.5q19 0 31.5 -2.5t20.5 -7.5l-45 -118q-10 5 -23.5 6.5t-25.5 1.5q-33 0 -64 -24t-60 -77l-56 -287h-137zM197 579l-86 131l62 52l105 -96h4l148 96l48 -56l-131 -127h-150z" />
    <glyph glyph-name="Sacute" unicode="&#x15a;" horiz-adv-x="529" 
d="M238 -12q-64 0 -124.5 28t-108.5 94l98 77q26 -38 64.5 -60t80.5 -22t68 20t26 55q0 26 -20.5 42.5t-55.5 38.5l-62 38q-45 28 -71 65.5t-26 97.5q0 42 18 78.5t48.5 64t72.5 43.5t90 16q58 0 109 -27t89 -72l-87 -81q-25 26 -53 43.5t-64 17.5q-40 0 -61.5 -20.5
t-21.5 -49.5q0 -25 22 -41t60 -40l64 -39q48 -29 69.5 -63.5t21.5 -91.5q0 -45 -17.5 -83.5t-49.5 -67t-77.5 -45t-101.5 -16.5zM331 692l-52 79l195 124l61 -101z" />
    <glyph glyph-name="sacute" unicode="&#x15b;" horiz-adv-x="424" 
d="M170 -12q-23 0 -48 6.5t-48.5 18.5t-45 30t-36.5 41l79 66q52 -62 107 -62q29 0 49.5 13.5t20.5 33.5q0 22 -22 36t-64 38q-42 23 -71 56.5t-29 80.5q0 35 15 65t41 51.5t61 33.5t75 12q51 0 91.5 -22t71.5 -54l-75 -71q-18 19 -40 32t-48 13q-29 0 -46.5 -13.5
t-17.5 -33.5q0 -12 7 -21t19 -16.5t26.5 -15t29.5 -16.5q45 -24 74.5 -56t29.5 -83q0 -36 -15.5 -66t-42.5 -51.5t-65 -33.5t-83 -12zM260 578l-60 78l185 166l82 -104z" />
    <glyph glyph-name="Scircumflex" unicode="&#x15c;" horiz-adv-x="529" 
d="M238 -12q-64 0 -124.5 28t-108.5 94l98 77q26 -38 64.5 -60t80.5 -22t68 20t26 55q0 26 -20.5 42.5t-55.5 38.5l-62 38q-45 28 -71 65.5t-26 97.5q0 42 18 78.5t48.5 64t72.5 43.5t90 16q58 0 109 -27t89 -72l-87 -81q-25 26 -53 43.5t-64 17.5q-40 0 -61.5 -20.5
t-21.5 -49.5q0 -25 22 -41t60 -40l64 -39q48 -29 69.5 -63.5t21.5 -91.5q0 -45 -17.5 -83.5t-49.5 -67t-77.5 -45t-101.5 -16.5zM251 691l-57 44l109 106h160l70 -111l-67 -38l-86 83h-4z" />
    <glyph glyph-name="scircumflex" unicode="&#x15d;" horiz-adv-x="424" 
d="M170 -12q-23 0 -48 6.5t-48.5 18.5t-45 30t-36.5 41l79 66q52 -62 107 -62q29 0 49.5 13.5t20.5 33.5q0 22 -22 36t-64 38q-42 23 -71 56.5t-29 80.5q0 35 15 65t41 51.5t61 33.5t75 12q51 0 91.5 -22t71.5 -54l-75 -71q-18 19 -40 32t-48 13q-29 0 -46.5 -13.5
t-17.5 -33.5q0 -12 7 -21t19 -16.5t26.5 -15t29.5 -16.5q45 -24 74.5 -56t29.5 -83q0 -36 -15.5 -66t-42.5 -51.5t-65 -33.5t-83 -12zM153 561l-47 55l130 128h150l86 -131l-62 -52l-105 96h-4z" />
    <glyph glyph-name="uni015E" unicode="&#x15e;" horiz-adv-x="529" 
d="M238 -12q-64 0 -124.5 28t-108.5 94l98 77q26 -38 64.5 -60t80.5 -22t68 20t26 55q0 26 -20.5 42.5t-55.5 38.5l-62 38q-45 28 -71 65.5t-26 97.5q0 42 18 78.5t48.5 64t72.5 43.5t90 16q58 0 109 -27t89 -72l-87 -81q-25 26 -53 43.5t-64 17.5q-40 0 -61.5 -20.5
t-21.5 -49.5q0 -25 22 -41t60 -40l64 -39q48 -29 69.5 -63.5t21.5 -91.5q0 -45 -17.5 -83.5t-49.5 -67t-77.5 -45t-101.5 -16.5zM102 -239v59q58 2 82 12.5t28 32.5q2 15 -12 25t-57 16l66 98h85l-40 -65q37 -9 52.5 -26t11.5 -47q-8 -52 -64.5 -77t-151.5 -28z" />
    <glyph glyph-name="uni015F" unicode="&#x15f;" horiz-adv-x="424" 
d="M170 -12q-23 0 -48 6.5t-48.5 18.5t-45 30t-36.5 41l79 66q52 -62 107 -62q29 0 49.5 13.5t20.5 33.5q0 22 -22 36t-64 38q-42 23 -71 56.5t-29 80.5q0 35 15 65t41 51.5t61 33.5t75 12q51 0 91.5 -22t71.5 -54l-75 -71q-18 19 -40 32t-48 13q-29 0 -46.5 -13.5
t-17.5 -33.5q0 -12 7 -21t19 -16.5t26.5 -15t29.5 -16.5q45 -24 74.5 -56t29.5 -83q0 -36 -15.5 -66t-42.5 -51.5t-65 -33.5t-83 -12zM28 -239v59q58 2 82 12.5t28 32.5q2 15 -12 25t-57 16l66 98h85l-40 -65q37 -9 52.5 -26t11.5 -47q-8 -52 -64.5 -77t-151.5 -28z" />
    <glyph glyph-name="Scaron" unicode="&#x160;" horiz-adv-x="529" 
d="M238 -12q-64 0 -124.5 28t-108.5 94l98 77q26 -38 64.5 -60t80.5 -22t68 20t26 55q0 26 -20.5 42.5t-55.5 38.5l-62 38q-45 28 -71 65.5t-26 97.5q0 42 18 78.5t48.5 64t72.5 43.5t90 16q58 0 109 -27t89 -72l-87 -81q-25 26 -53 43.5t-64 17.5q-40 0 -61.5 -20.5
t-21.5 -49.5q0 -25 22 -41t60 -40l64 -39q48 -29 69.5 -63.5t21.5 -91.5q0 -45 -17.5 -83.5t-49.5 -67t-77.5 -45t-101.5 -16.5zM274 708l-69 110l67 39l85 -83h4l126 84l57 -44l-110 -106h-160z" />
    <glyph glyph-name="scaron" unicode="&#x161;" horiz-adv-x="424" 
d="M170 -12q-23 0 -48 6.5t-48.5 18.5t-45 30t-36.5 41l79 66q52 -62 107 -62q29 0 49.5 13.5t20.5 33.5q0 22 -22 36t-64 38q-42 23 -71 56.5t-29 80.5q0 35 15 65t41 51.5t61 33.5t75 12q51 0 91.5 -22t71.5 -54l-75 -71q-18 19 -40 32t-48 13q-29 0 -46.5 -13.5
t-17.5 -33.5q0 -12 7 -21t19 -16.5t26.5 -15t29.5 -16.5q45 -24 74.5 -56t29.5 -83q0 -36 -15.5 -66t-42.5 -51.5t-65 -33.5t-83 -12zM195 579l-86 131l62 52l105 -96h4l148 96l48 -56l-131 -127h-150z" />
    <glyph glyph-name="uni0162" unicode="&#x162;" horiz-adv-x="532" 
d="M149 0l106 536h-171l22 116h480l-23 -116h-171l-106 -536h-137zM75 -239v59q58 2 82 12.5t28 32.5q2 15 -12 25t-57 16l66 98h85l-40 -65q37 -9 52.5 -26t11.5 -47q-8 -52 -64.5 -77t-151.5 -28z" />
    <glyph glyph-name="uni0163" unicode="&#x163;" horiz-adv-x="367" 
d="M203 -12q-75 0 -108 37t-33 94q0 16 2.5 31.5t5.5 31.5l43 207h-66l20 101l73 6l42 130h115l-25 -130h113l-21 -107h-116l-43 -213q-2 -9 -2 -17v-16q0 -48 51 -48q11 0 21 3t20 8l24 -96q-20 -8 -49 -15t-67 -7zM38 -239v59q58 2 82 12.5t28 32.5q2 15 -12 25t-57 16
l66 98h85l-40 -65q37 -9 52.5 -26t11.5 -47q-8 -52 -64.5 -77t-151.5 -28z" />
    <glyph glyph-name="Tcaron" unicode="&#x164;" horiz-adv-x="532" 
d="M149 0l106 536h-171l22 116h480l-23 -116h-171l-106 -536h-137zM264 702l-69 110l67 39l85 -83h4l126 84l57 -44l-110 -106h-160z" />
    <glyph glyph-name="tcaron" unicode="&#x165;" horiz-adv-x="367" 
d="M203 -12q-75 0 -108 37t-33 94q0 16 2.5 31.5t5.5 31.5l43 207h-66l20 101l73 6l42 130h115l-25 -130h113l-21 -107h-116l-43 -213q-2 -9 -2 -17v-16q0 -48 51 -48q11 0 21 3t20 8l24 -96q-20 -8 -49 -15t-67 -7zM330 548l40 222h87l-14 -69l-53 -153h-60z" />
    <glyph glyph-name="Utilde" unicode="&#x168;" horiz-adv-x="643" 
d="M88 320l67 332h137l-71 -357q-4 -20 -6 -39t-2 -37q0 -55 22 -84t77 -29q47 0 78 38.5t49 129.5l76 378h134l-76 -376q-30 -150 -95.5 -219t-169.5 -69q-116 0 -174.5 55.5t-58.5 171.5q0 22 4 50.5t9 54.5zM476 692q-26 0 -44.5 9t-33 20t-26 20t-23.5 9
q-14 0 -26 -10.5t-20 -38.5l-93 7q17 76 58 110t93 34q26 0 45 -9t33 -20t26 -20t24 -9q14 0 25.5 11t19.5 38l93 -7q-17 -76 -58 -110t-93 -34z" />
    <glyph glyph-name="utilde" unicode="&#x169;" horiz-adv-x="545" 
d="M529 496l-98 -496h-111l2 67h-4q-34 -32 -75.5 -55.5t-86.5 -23.5q-62 0 -89.5 32.5t-27.5 95.5q0 17 2 34t6 36l62 310h136l-58 -293q-4 -15 -6 -26t-2 -21q0 -51 50 -51q42 0 99 64l64 327h137zM405 573q-25 0 -42 10t-30.5 22.5t-25.5 22.5t-28 10q-15 0 -27 -13.5
t-17 -42.5l-90 5q13 78 50 115t92 37q25 0 41.5 -10t30 -22t25.5 -22t28 -10q15 0 27 13t17 42l90 -5q-13 -78 -50 -115t-91 -37z" />
    <glyph glyph-name="Umacron" unicode="&#x16a;" horiz-adv-x="643" 
d="M88 320l67 332h137l-71 -357q-4 -20 -6 -39t-2 -37q0 -55 22 -84t77 -29q47 0 78 38.5t49 129.5l76 378h134l-76 -376q-30 -150 -95.5 -219t-169.5 -69q-116 0 -174.5 55.5t-58.5 171.5q0 22 4 50.5t9 54.5zM266 720l18 88h287l-17 -88h-288z" />
    <glyph glyph-name="umacron" unicode="&#x16b;" horiz-adv-x="545" 
d="M529 496l-98 -496h-111l2 67h-4q-34 -32 -75.5 -55.5t-86.5 -23.5q-62 0 -89.5 32.5t-27.5 95.5q0 17 2 34t6 36l62 310h136l-58 -293q-4 -15 -6 -26t-2 -21q0 -51 50 -51q42 0 99 64l64 327h137zM189 593l18 87h283l-18 -87h-283z" />
    <glyph glyph-name="Ubreve" unicode="&#x16c;" horiz-adv-x="643" 
d="M88 320l67 332h137l-71 -357q-4 -20 -6 -39t-2 -37q0 -55 22 -84t77 -29q47 0 78 38.5t49 129.5l76 378h134l-76 -376q-30 -150 -95.5 -219t-169.5 -69q-116 0 -174.5 55.5t-58.5 171.5q0 22 4 50.5t9 54.5zM409 697q-75 0 -109.5 35t-30.5 102l84 14q0 -31 19 -48.5
t53 -17.5q33 0 57 17.5t37 48.5l77 -14q-18 -67 -65 -102t-122 -35z" />
    <glyph glyph-name="ubreve" unicode="&#x16d;" horiz-adv-x="545" 
d="M529 496l-98 -496h-111l2 67h-4q-34 -32 -75.5 -55.5t-86.5 -23.5q-62 0 -89.5 32.5t-27.5 95.5q0 17 2 34t6 36l62 310h136l-58 -293q-4 -15 -6 -26t-2 -21q0 -51 50 -51q42 0 99 64l64 327h137zM329 572q-43 0 -72 12t-46 33.5t-22.5 50t-0.5 61.5l87 14
q-2 -32 15 -55.5t57 -23.5q39 0 63.5 23.5t35.5 55.5l80 -14q-7 -33 -22.5 -61.5t-40 -50t-58 -33.5t-76.5 -12z" />
    <glyph glyph-name="Uring" unicode="&#x16e;" horiz-adv-x="643" 
d="M88 320l67 332h137l-71 -357q-4 -20 -6 -39t-2 -37q0 -55 22 -84t77 -29q47 0 78 38.5t49 129.5l76 378h134l-76 -376q-30 -150 -95.5 -219t-169.5 -69q-116 0 -174.5 55.5t-58.5 171.5q0 22 4 50.5t9 54.5zM417 697q-21 0 -40.5 5t-34.5 15.5t-23.5 26.5t-8.5 39
q0 22 10 42t26.5 35t39 23.5t47.5 8.5q21 0 40.5 -5t34 -15.5t23.5 -26.5t9 -38q0 -23 -9.5 -43t-26.5 -35t-39.5 -23.5t-47.5 -8.5zM419 750q19 0 33.5 15t14.5 37q0 15 -9.5 26t-26.5 11q-20 0 -34 -15.5t-14 -35.5q0 -16 9.5 -27t26.5 -11z" />
    <glyph glyph-name="uring" unicode="&#x16f;" horiz-adv-x="545" 
d="M529 496l-98 -496h-111l2 67h-4q-34 -32 -75.5 -55.5t-86.5 -23.5q-62 0 -89.5 32.5t-27.5 95.5q0 17 2 34t6 36l62 310h136l-58 -293q-4 -15 -6 -26t-2 -21q0 -51 50 -51q42 0 99 64l64 327h137zM333 568q-50 0 -82.5 23.5t-32.5 65.5q0 24 11 45t30 36.5t45.5 24.5
t58.5 9q51 0 82.5 -23.5t31.5 -65.5q0 -24 -10.5 -45t-30 -36.5t-46 -24.5t-57.5 -9zM342 621q20 0 34.5 17.5t14.5 40.5q0 16 -9.5 28t-27.5 12q-20 0 -34.5 -17.5t-14.5 -40.5q0 -17 9 -28.5t28 -11.5z" />
    <glyph glyph-name="Uhungarumlaut" unicode="&#x170;" horiz-adv-x="643" 
d="M88 320l67 332h137l-71 -357q-4 -20 -6 -39t-2 -37q0 -55 22 -84t77 -29q47 0 78 38.5t49 129.5l76 378h134l-76 -376q-30 -150 -95.5 -219t-169.5 -69q-116 0 -174.5 55.5t-58.5 171.5q0 22 4 50.5t9 54.5zM353 697l-65 41l128 150l84 -60zM541 697l-66 41l128 150
l84 -60z" />
    <glyph glyph-name="uhungarumlaut" unicode="&#x171;" horiz-adv-x="545" 
d="M529 496l-98 -496h-111l2 67h-4q-34 -32 -75.5 -55.5t-86.5 -23.5q-62 0 -89.5 32.5t-27.5 95.5q0 17 2 34t6 36l62 310h136l-58 -293q-4 -15 -6 -26t-2 -21q0 -51 50 -51q42 0 99 64l64 327h137zM282 567l-71 42l120 171l89 -53zM461 567l-71 42l120 171l89 -53z" />
    <glyph glyph-name="Uogonek" unicode="&#x172;" horiz-adv-x="643" 
d="M649 652l-76 -376q-12 -65 -30 -111.5t-43 -79t-58 -54.5t-75 -37q-53 -19 -75.5 -45.5t-22.5 -49.5q0 -16 10.5 -24t24.5 -8q6 0 12.5 2t14.5 7l26 -67q-21 -14 -50 -22.5t-53 -8.5q-42 0 -67.5 20t-25.5 57q0 21 8.5 42t21.5 39t28 32.5t29 24.5q-85 14 -129 68.5
t-44 153.5q0 22 4 50.5t9 54.5l67 332h137l-71 -357q-4 -20 -6 -39t-2 -37q0 -55 22 -84t77 -29q47 0 78 38.5t49 129.5l76 378h134z" />
    <glyph glyph-name="uogonek" unicode="&#x173;" horiz-adv-x="545" 
d="M312 -210q-37 0 -61.5 18.5t-24.5 54.5q0 24 10 45.5t24.5 39.5t31 31.5t28.5 22.5l2 65h-4q-34 -32 -75.5 -55.5t-86.5 -23.5q-62 0 -89.5 32.5t-27.5 95.5q0 17 2 34t6 36l62 310h136l-58 -293q-4 -15 -6 -26t-2 -21q0 -51 50 -51q42 0 99 64l64 327h137l-98 -496
q-49 -15 -77 -41t-28 -57q0 -14 10 -22t24 -8q15 0 32 10l24 -56q-21 -15 -50 -25.5t-54 -10.5z" />
    <glyph glyph-name="Wcircumflex" unicode="&#x174;" horiz-adv-x="794" 
d="M77 0l23 652h140l-21 -313q-5 -52 -9.5 -104.5t-10.5 -104.5h4q20 52 42.5 105t42.5 104l134 313h116l2 -313q-1 -51 -3 -103.5t-4 -105.5h4q18 53 37 105.5t36 103.5l110 313h131l-253 -652h-173l4 312q0 32 2.5 73t6.5 79h-4q-14 -37 -29.5 -75.5t-29.5 -76.5
l-128 -312h-170zM371 685l-57 44l109 106h160l70 -111l-67 -38l-86 83h-4z" />
    <glyph glyph-name="wcircumflex" unicode="&#x175;" horiz-adv-x="748" 
d="M96 0l-24 496h135l1 -240q-1 -36 -2.5 -72.5t-3.5 -73.5h4q14 37 27 74t29 72l102 240h119l8 -240q1 -36 0.5 -72.5t-0.5 -73.5h4q14 37 26 73.5t26 72.5l93 240h127l-212 -496h-161l-4 208q1 35 1 70.5t1 74.5h-4q-14 -39 -26 -74.5t-26 -70.5l-85 -208h-155zM306 561
l-47 55l130 128h150l86 -131l-62 -52l-105 96h-4z" />
    <glyph glyph-name="Ycircumflex" unicode="&#x176;" 
d="M138 0l46 236l-104 416h142l28 -157q7 -37 12.5 -71t12.5 -72h4q20 38 39 72.5t41 72.5l91 155h147l-276 -416l-47 -236h-136zM225 685l-57 44l109 106h160l70 -111l-67 -38l-86 83h-4z" />
    <glyph glyph-name="ycircumflex" unicode="&#x177;" horiz-adv-x="499" 
d="M36 -194q-14 0 -35 6t-36 14l42 98q17 -10 37 -10q27 0 52 19.5t42 52.5l12 25l-86 485h136l23 -224q4 -32 6 -73t3 -76h4q16 35 33 75t33 74l104 224h133l-268 -507q-26 -45 -51.5 -79t-53.5 -57t-60 -35t-70 -12zM172 561l-47 55l130 128h150l86 -131l-62 -52l-105 96
h-4z" />
    <glyph glyph-name="Ydieresis" unicode="&#x178;" 
d="M138 0l46 236l-104 416h142l28 -157q7 -37 12.5 -71t12.5 -72h4q20 38 39 72.5t41 72.5l91 155h147l-276 -416l-47 -236h-136zM231 701q-25 0 -41.5 15.5t-16.5 42.5q0 13 5.5 26.5t15.5 24.5t23.5 17.5t29.5 6.5q23 0 40 -15t17 -42q0 -28 -20.5 -52t-52.5 -24zM441 701
q-24 0 -40.5 15.5t-16.5 42.5q0 13 5.5 26.5t15 24.5t23 17.5t29.5 6.5q23 0 40 -15t17 -42q0 -28 -20.5 -52t-52.5 -24z" />
    <glyph glyph-name="Zacute" unicode="&#x179;" horiz-adv-x="525" 
d="M-5 0l18 82l356 455h-257l23 115h421l-17 -83l-353 -454h283l-24 -115h-450zM325 686l-52 79l195 124l61 -101z" />
    <glyph glyph-name="zacute" unicode="&#x17a;" horiz-adv-x="443" 
d="M-10 0l15 77l263 312h-179l20 107h351l-15 -79l-263 -310h208l-21 -107h-379zM271 578l-60 78l185 166l82 -104z" />
    <glyph glyph-name="Zdotaccent" unicode="&#x17b;" horiz-adv-x="525" 
d="M-5 0l18 82l356 455h-257l23 115h421l-17 -83l-353 -454h283l-24 -115h-450zM359 703q-28 0 -51 16.5t-23 49.5q0 16 6.5 31t18 26t27 17.5t33.5 6.5q29 0 51.5 -17t22.5 -49q0 -35 -24.5 -58t-60.5 -23z" />
    <glyph glyph-name="zdotaccent" unicode="&#x17c;" horiz-adv-x="443" 
d="M-10 0l15 77l263 312h-179l20 107h351l-15 -79l-263 -310h208l-21 -107h-379zM297 570q-28 0 -51 16.5t-23 49.5q0 16 6.5 31t18 26t27 17.5t33.5 6.5q29 0 51.5 -17t22.5 -49q0 -35 -24.5 -58t-60.5 -23z" />
    <glyph glyph-name="Zcaron" unicode="&#x17d;" horiz-adv-x="525" 
d="M-5 0l18 82l356 455h-257l23 115h421l-17 -83l-353 -454h283l-24 -115h-450zM268 702l-69 110l67 39l85 -83h4l126 84l57 -44l-110 -106h-160z" />
    <glyph glyph-name="zcaron" unicode="&#x17e;" horiz-adv-x="443" 
d="M-10 0l15 77l263 312h-179l20 107h351l-15 -79l-263 -310h208l-21 -107h-379zM206 579l-86 131l62 52l105 -96h4l148 96l48 -56l-131 -127h-150z" />
    <glyph glyph-name="uni0180" unicode="&#x180;" horiz-adv-x="546" 
d="M127 0h-113l112 558h-68l13 61l69 6l15 76h137l-16 -76h162l-15 -67h-161l-7 -36l-25 -93h2q33 27 70 43t74 16q66 0 103 -44t37 -128q0 -69 -21.5 -128.5t-57.5 -104t-83 -70t-98 -25.5q-34 0 -62.5 17.5t-42.5 47.5h-2zM317 376q-23 0 -51.5 -13.5t-50.5 -48.5
l-34 -167q11 -25 28.5 -36t36.5 -11q26 0 49.5 15t41 42t28 63.5t10.5 78.5q0 40 -16 58.5t-42 18.5z" />
    <glyph glyph-name="uni018F" unicode="&#x18f;" horiz-adv-x="668" 
d="M300 -12q-55 0 -98.5 18t-74 51.5t-46.5 80.5t-16 106q0 37 5.5 65.5t16.5 63.5h419v14q0 80 -27 124t-93 44q-45 0 -78 -17t-61 -40l-58 93q40 35 92.5 58t121.5 23q59 0 104 -19t75 -54t45.5 -85t15.5 -113q0 -92 -27.5 -167.5t-74.5 -130.5t-109 -85t-132 -30z
M310 105q58 0 107.5 45t72.5 123h-295q-6 -40 0.5 -71.5t22.5 -53t40 -32.5t52 -11z" />
    <glyph glyph-name="uni0192" unicode="&#x192;" 
d="M58 -96q-23 0 -49 5.5t-46 19.5l39 96q9 -5 20.5 -9t25.5 -4q16 0 28.5 6.5t24 22.5t22.5 42.5t23 67.5l49 162h-73l19 94l72 5h13l19 64q30 102 80.5 148t135.5 46q21 0 44 -6t44 -17l-41 -98q-11 5 -22.5 9t-25.5 4q-30 0 -52 -25.5t-33 -61.5l-19 -63h99l-19 -99h-111
l-65 -211q-14 -42 -31 -78t-41 -62.5t-55.5 -42t-74.5 -15.5z" />
    <glyph glyph-name="Ohorn" unicode="&#x1a0;" horiz-adv-x="660" 
d="M302 -12q-56 0 -101 18.5t-77 54t-49.5 87t-17.5 116.5q0 86 27 159.5t72.5 127t105.5 83.5t126 30q68 0 121 -28q42 5 62 31t20 59q0 22 -11 47l102 32q8 -19 12.5 -36.5t4.5 -35.5q0 -57 -34.5 -96t-94.5 -50q30 -35 46.5 -85.5t16.5 -113.5q0 -86 -27 -159.5
t-72.5 -127t-105.5 -83.5t-126 -30zM309 106q35 0 68 21.5t59 58.5t41.5 86.5t15.5 106.5q0 78 -28.5 122t-82.5 44q-35 0 -68 -21.5t-59 -58t-42 -86t-16 -106.5q0 -78 29 -122.5t83 -44.5z" />
    <glyph glyph-name="ohorn" unicode="&#x1a1;" horiz-adv-x="538" 
d="M222 -12q-44 0 -79 14.5t-60.5 41.5t-39 64.5t-13.5 83.5q0 72 24 130.5t63.5 99.5t89.5 63.5t101 22.5q53 0 95 -22q35 8 55.5 38.5t21.5 69.5q0 9 -3 23t-7 24l102 32q8 -17 11.5 -36.5t3.5 -35.5q0 -61 -33.5 -105.5t-93.5 -58.5q19 -26 29.5 -59.5t10.5 -73.5
q0 -72 -24 -130.5t-63.5 -99.5t-89.5 -63.5t-101 -22.5zM237 98q25 0 47.5 15.5t40 42.5t27.5 64t10 81q0 46 -17.5 71.5t-52.5 25.5q-25 0 -47.5 -15.5t-39.5 -42.5t-27 -64.5t-10 -80.5q0 -45 17 -71t52 -26z" />
    <glyph glyph-name="Uhorn" unicode="&#x1af;" horiz-adv-x="666" 
d="M88 320l67 332h137l-71 -357q-4 -20 -6 -39t-2 -37q0 -55 22 -84t77 -29q47 0 78 38.5t49 129.5l76 378h79q80 11 80 76q0 23 -11 48l103 32q16 -36 16 -72q0 -56 -36 -88.5t-107 -46.5l-66 -325q-30 -150 -95.5 -219t-169.5 -69q-116 0 -174.5 55.5t-58.5 171.5
q0 22 4 50.5t9 54.5z" />
    <glyph glyph-name="uhorn" unicode="&#x1b0;" horiz-adv-x="567" 
d="M318 67q-34 -32 -75.5 -55.5t-86.5 -23.5q-62 0 -89.5 32.5t-27.5 95.5q0 17 2 34t6 36l62 310h136l-58 -293q-4 -15 -6 -26t-2 -21q0 -51 50 -51q42 0 99 64l64 327h61q34 5 55.5 32t22.5 68q0 9 -2.5 23.5t-6.5 23.5l102 33q7 -17 10.5 -36.5t3.5 -35.5
q0 -58 -30.5 -98.5t-87.5 -57.5l-89 -448h-111l2 67h-4z" />
    <glyph glyph-name="uni01CD" unicode="&#x1cd;" horiz-adv-x="548" 
d="M255 353l-40 -86h140l-4 86q-2 48 -4 95t-4 99h-4q-21 -51 -41 -98t-43 -96zM-62 0l344 652h164l65 -652h-143l-8 164h-194l-77 -164h-151zM277 702l-69 110l67 39l85 -83h4l126 84l57 -44l-110 -106h-160z" />
    <glyph glyph-name="uni01CE" unicode="&#x1ce;" horiz-adv-x="552" 
d="M171 -12q-66 0 -103 47t-37 135q0 71 22 132.5t59 107.5t85 72t99 26q34 0 64 -17.5t44 -47.5h2l22 53h109l-99 -496h-111l2 65h-3q-34 -35 -75 -56t-80 -21zM231 100q25 0 53.5 15.5t52.5 57.5l35 176q-12 25 -30.5 36t-35.5 11q-26 0 -50 -16t-42.5 -44t-29.5 -66
t-11 -83t15.5 -66t42.5 -21zM247 579l-86 131l62 52l105 -96h4l148 96l48 -56l-131 -127h-150z" />
    <glyph glyph-name="uni01CF" unicode="&#x1cf;" horiz-adv-x="294" 
d="M28 0l131 652h137l-130 -652h-138zM143 702l-69 110l67 39l85 -83h4l126 84l57 -44l-110 -106h-160z" />
    <glyph glyph-name="uni01D0" unicode="&#x1d0;" horiz-adv-x="265" 
d="M14 0l100 496h136l-99 -496h-137zM109 579l-86 131l62 52l105 -96h4l148 96l48 -56l-131 -127h-150z" />
    <glyph glyph-name="uni01D1" unicode="&#x1d1;" horiz-adv-x="660" 
d="M302 -12q-56 0 -101 18.5t-77 54t-49.5 87t-17.5 116.5q0 86 27 159.5t72.5 127t105.5 83.5t126 30q56 0 101 -19t77 -54.5t49.5 -86.5t17.5 -116q0 -86 -27 -159.5t-72.5 -127t-105.5 -83.5t-126 -30zM309 106q35 0 68 21.5t59 58.5t41.5 86.5t15.5 106.5
q0 78 -28.5 122t-82.5 44q-35 0 -68 -21.5t-59 -58t-42 -86t-16 -106.5q0 -78 29 -122.5t83 -44.5zM332 702l-69 110l67 39l85 -83h4l126 84l57 -44l-110 -106h-160z" />
    <glyph glyph-name="uni01D2" unicode="&#x1d2;" horiz-adv-x="533" 
d="M222 -12q-44 0 -79 14.5t-60.5 41.5t-39 64.5t-13.5 83.5q0 72 24 130.5t63.5 99.5t89.5 63.5t101 22.5q43 0 78.5 -14.5t60.5 -41.5t39 -64.5t14 -83.5q0 -72 -24 -130.5t-63.5 -99.5t-89.5 -63.5t-101 -22.5zM237 98q25 0 47.5 15.5t40 42.5t27.5 64t10 81
q0 46 -17.5 71.5t-52.5 25.5q-25 0 -47.5 -15.5t-39.5 -42.5t-27 -64.5t-10 -80.5q0 -45 17 -71t52 -26zM247 579l-86 131l62 52l105 -96h4l148 96l48 -56l-131 -127h-150z" />
    <glyph glyph-name="uni01D3" unicode="&#x1d3;" horiz-adv-x="643" 
d="M88 320l67 332h137l-71 -357q-4 -20 -6 -39t-2 -37q0 -55 22 -84t77 -29q47 0 78 38.5t49 129.5l76 378h134l-76 -376q-30 -150 -95.5 -219t-169.5 -69q-116 0 -174.5 55.5t-58.5 171.5q0 22 4 50.5t9 54.5zM324 702l-69 110l67 39l85 -83h4l126 84l57 -44l-110 -106
h-160z" />
    <glyph glyph-name="uni01D4" unicode="&#x1d4;" horiz-adv-x="545" 
d="M529 496l-98 -496h-111l2 67h-4q-34 -32 -75.5 -55.5t-86.5 -23.5q-62 0 -89.5 32.5t-27.5 95.5q0 17 2 34t6 36l62 310h136l-58 -293q-4 -15 -6 -26t-2 -21q0 -51 50 -51q42 0 99 64l64 327h137zM244 579l-86 131l62 52l105 -96h4l148 96l48 -56l-131 -127h-150z" />
    <glyph glyph-name="uni01D5" unicode="&#x1d5;" horiz-adv-x="643" 
d="M88 320l67 332h137l-71 -357q-4 -20 -6 -39t-2 -37q0 -55 22 -84t77 -29q47 0 78 38.5t49 129.5l76 378h134l-76 -376q-30 -150 -95.5 -219t-169.5 -69q-116 0 -174.5 55.5t-58.5 171.5q0 22 4 50.5t9 54.5zM313 701q-22 0 -36 14t-14 37q0 26 18 47t46 21q23 0 37 -14
t14 -37q0 -26 -18 -47t-47 -21zM519 701q-22 0 -36.5 14t-14.5 37q0 26 18.5 47t46.5 21q22 0 36.5 -14t14.5 -37q0 -26 -18.5 -47t-46.5 -21zM300 868l12 66h289l-14 -66h-287z" />
    <glyph glyph-name="uni01D6" unicode="&#x1d6;" horiz-adv-x="545" 
d="M529 496l-98 -496h-111l2 67h-4q-34 -32 -75.5 -55.5t-86.5 -23.5q-62 0 -89.5 32.5t-27.5 95.5q0 17 2 34t6 36l62 310h136l-58 -293q-4 -15 -6 -26t-2 -21q0 -51 50 -51q42 0 99 64l64 327h137zM227 572q-22 0 -35.5 14.5t-13.5 34.5q0 29 19 49.5t48 20.5
q23 0 36.5 -13.5t13.5 -34.5q0 -29 -19.5 -50t-48.5 -21zM436 572q-22 0 -35.5 14.5t-13.5 34.5q0 29 19 49.5t47 20.5q23 0 36 -13.5t13 -34.5q0 -29 -19 -50t-47 -21zM224 754l15 65h282l-14 -65h-283z" />
    <glyph glyph-name="uni01D7" unicode="&#x1d7;" horiz-adv-x="643" 
d="M88 320l67 332h137l-71 -357q-4 -20 -6 -39t-2 -37q0 -55 22 -84t77 -29q47 0 78 38.5t49 129.5l76 378h134l-76 -376q-30 -150 -95.5 -219t-169.5 -69q-116 0 -174.5 55.5t-58.5 171.5q0 22 4 50.5t9 54.5zM313 701q-22 0 -36 14t-14 37q0 26 18 47t46 21q23 0 37 -14
t14 -37q0 -26 -18 -47t-47 -21zM519 701q-22 0 -36.5 14t-14.5 37q0 26 18.5 47t46.5 21q22 0 36.5 -14t14.5 -37q0 -26 -18.5 -47t-46.5 -21zM446 828l-57 44l121 135l81 -63z" />
    <glyph glyph-name="uni01D8" unicode="&#x1d8;" horiz-adv-x="545" 
d="M529 496l-98 -496h-111l2 67h-4q-34 -32 -75.5 -55.5t-86.5 -23.5q-62 0 -89.5 32.5t-27.5 95.5q0 17 2 34t6 36l62 310h136l-58 -293q-4 -15 -6 -26t-2 -21q0 -51 50 -51q42 0 99 64l64 327h137zM372 716l-49 40l100 125l69 -58zM227 572q-22 0 -35.5 14.5t-13.5 34.5
q0 29 19 49.5t48 20.5q23 0 36.5 -13.5t13.5 -34.5q0 -29 -19.5 -50t-48.5 -21zM436 572q-22 0 -35.5 14.5t-13.5 34.5q0 29 19 49.5t47 20.5q23 0 36 -13.5t13 -34.5q0 -29 -19 -50t-47 -21z" />
    <glyph glyph-name="uni01D9" unicode="&#x1d9;" horiz-adv-x="643" 
d="M88 320l67 332h137l-71 -357q-4 -20 -6 -39t-2 -37q0 -55 22 -84t77 -29q47 0 78 38.5t49 129.5l76 378h134l-76 -376q-30 -150 -95.5 -219t-169.5 -69q-116 0 -174.5 55.5t-58.5 171.5q0 22 4 50.5t9 54.5zM313 701q-22 0 -36 14t-14 37q0 26 18 47t46 21q23 0 37 -14
t14 -37q0 -26 -18 -47t-47 -21zM519 701q-22 0 -36.5 14t-14.5 37q0 26 18.5 47t46.5 21q22 0 36.5 -14t14.5 -37q0 -26 -18.5 -47t-46.5 -21zM376 854l-72 100l64 39l80 -71h4l105 71l53 -39l-107 -100h-127z" />
    <glyph glyph-name="uni01DA" unicode="&#x1da;" horiz-adv-x="545" 
d="M529 496l-98 -496h-111l2 67h-4q-34 -32 -75.5 -55.5t-86.5 -23.5q-62 0 -89.5 32.5t-27.5 95.5q0 17 2 34t6 36l62 310h136l-58 -293q-4 -15 -6 -26t-2 -21q0 -51 50 -51q42 0 99 64l64 327h137zM303 737l-77 93l54 44l91 -65h4l114 65l40 -45l-109 -92h-117zM227 572
q-22 0 -35.5 14.5t-13.5 34.5q0 29 19 49.5t48 20.5q23 0 36.5 -13.5t13.5 -34.5q0 -29 -19.5 -50t-48.5 -21zM436 572q-22 0 -35.5 14.5t-13.5 34.5q0 29 19 49.5t47 20.5q23 0 36 -13.5t13 -34.5q0 -29 -19 -50t-47 -21z" />
    <glyph glyph-name="uni01DB" unicode="&#x1db;" horiz-adv-x="643" 
d="M88 320l67 332h137l-71 -357q-4 -20 -6 -39t-2 -37q0 -55 22 -84t77 -29q47 0 78 38.5t49 129.5l76 378h134l-76 -376q-30 -150 -95.5 -219t-169.5 -69q-116 0 -174.5 55.5t-58.5 171.5q0 22 4 50.5t9 54.5zM313 701q-22 0 -36 14t-14 37q0 26 18 47t46 21q23 0 37 -14
t14 -37q0 -26 -18 -47t-47 -21zM519 701q-22 0 -36.5 14t-14.5 37q0 26 18.5 47t46.5 21q22 0 36.5 -14t14.5 -37q0 -26 -18.5 -47t-46.5 -21zM420 824l-100 136l101 47l69 -150z" />
    <glyph glyph-name="uni01DC" unicode="&#x1dc;" horiz-adv-x="545" 
d="M529 496l-98 -496h-111l2 67h-4q-34 -32 -75.5 -55.5t-86.5 -23.5q-62 0 -89.5 32.5t-27.5 95.5q0 17 2 34t6 36l62 310h136l-58 -293q-4 -15 -6 -26t-2 -21q0 -51 50 -51q42 0 99 64l64 327h137zM227 572q-22 0 -35.5 14.5t-13.5 34.5q0 29 19 49.5t48 20.5
q23 0 36.5 -13.5t13.5 -34.5q0 -29 -19.5 -50t-48.5 -21zM436 572q-22 0 -35.5 14.5t-13.5 34.5q0 29 19 49.5t47 20.5q23 0 36 -13.5t13 -34.5q0 -29 -19 -50t-47 -21zM348 711l-79 126l86 43l55 -138z" />
    <glyph glyph-name="Gcaron" unicode="&#x1e6;" horiz-adv-x="611" 
d="M314 -12q-60 0 -108 18.5t-81.5 53.5t-51 85.5t-17.5 115.5q0 84 27 157.5t74.5 128t113 86t142.5 31.5q63 0 108.5 -27.5t73.5 -76.5l-93 -72q-19 29 -41.5 43t-54.5 14q-45 0 -83.5 -22.5t-66.5 -60.5t-43.5 -88t-15.5 -104q0 -38 7.5 -68t24.5 -52t44 -33.5t65 -11.5
q20 0 38.5 6t32.5 16l28 128h-107l21 112h227l-60 -311q-38 -29 -90 -48.5t-114 -19.5zM340 702l-69 110l67 39l85 -83h4l126 84l57 -44l-110 -106h-160z" />
    <glyph glyph-name="gcaron" unicode="&#x1e7;" horiz-adv-x="546" 
d="M171 -213q-45 0 -93 17.5t-90 52.5l59 91q29 -22 61 -37t67 -15q98 0 127 104l26 88q-33 -35 -71.5 -53.5t-80.5 -18.5q-63 0 -104 42.5t-41 130.5q0 67 21.5 125t57 101t82.5 68t98 25q34 0 63 -17.5t43 -47.5h3l21 53h111l-97 -488q-23 -111 -90.5 -166t-172.5 -55z
M229 127q25 0 53 14t52 51l31 157q-13 25 -30.5 36t-34.5 11q-26 0 -49 -14.5t-40 -40t-27.5 -60t-10.5 -74.5q0 -41 15 -60.5t41 -19.5zM239 579l-86 131l62 52l105 -96h4l148 96l48 -56l-131 -127h-150z" />
    <glyph glyph-name="uni01EA" unicode="&#x1ea;" horiz-adv-x="660" 
d="M268 -222q-42 0 -67.5 20t-25.5 57q0 22 8.5 43t21.5 38.5t28 31.5t28 23q-96 14 -150 84.5t-54 188.5q0 86 27 159.5t72.5 127t105.5 83.5t126 30q56 0 101 -19t77 -54.5t49.5 -86.5t17.5 -116q0 -137 -65 -238t-191 -154q-51 -21 -72.5 -47.5t-21.5 -49.5
q0 -16 10.5 -24t24.5 -8q6 0 12.5 2t14.5 7l26 -67q-21 -14 -50 -22.5t-53 -8.5zM309 106q35 0 68 21.5t59 58.5t41.5 86.5t15.5 106.5q0 78 -28.5 122t-82.5 44q-35 0 -68 -21.5t-59 -58t-42 -86t-16 -106.5q0 -78 29 -122.5t83 -44.5z" />
    <glyph glyph-name="uni01EB" unicode="&#x1eb;" horiz-adv-x="533" 
d="M186 -210q-38 0 -62 18.5t-24 54.5q0 24 10 45.5t23.5 38.5t27 29t21.5 17q-69 13 -110.5 63.5t-41.5 135.5q0 72 24 130.5t63.5 99.5t89.5 63.5t101 22.5q41 0 76 -13.5t61 -39.5t40.5 -64t14.5 -87q0 -64 -16.5 -113t-45 -86.5t-66.5 -63.5t-81 -44q-49 -20 -70.5 -47
t-21.5 -48q0 -14 10.5 -22t24.5 -8t32 10l23 -56q-21 -15 -50 -25.5t-53 -10.5zM237 98q25 0 47.5 15.5t40 42.5t27.5 64t10 81q0 46 -17.5 71.5t-52.5 25.5q-25 0 -47.5 -15.5t-39.5 -42.5t-27 -64.5t-10 -80.5q0 -45 17 -71t52 -26z" />
    <glyph glyph-name="uni0218" unicode="&#x218;" horiz-adv-x="529" 
d="M238 -12q-64 0 -124.5 28t-108.5 94l98 77q26 -38 64.5 -60t80.5 -22t68 20t26 55q0 26 -20.5 42.5t-55.5 38.5l-62 38q-45 28 -71 65.5t-26 97.5q0 42 18 78.5t48.5 64t72.5 43.5t90 16q58 0 109 -27t89 -72l-87 -81q-25 26 -53 43.5t-64 17.5q-40 0 -61.5 -20.5
t-21.5 -49.5q0 -25 22 -41t60 -40l64 -39q48 -29 69.5 -63.5t21.5 -91.5q0 -45 -17.5 -83.5t-49.5 -67t-77.5 -45t-101.5 -16.5zM101 -239l2 59q59 2 84 13.5t25 29.5q0 11 -12.5 21t-44.5 10l38 54q39 -2 63.5 -8t39 -15.5t19.5 -22t5 -26.5q0 -29 -16.5 -50t-46 -35
t-69.5 -21.5t-87 -8.5z" />
    <glyph glyph-name="uni0219" unicode="&#x219;" horiz-adv-x="424" 
d="M170 -12q-23 0 -48 6.5t-48.5 18.5t-45 30t-36.5 41l79 66q52 -62 107 -62q29 0 49.5 13.5t20.5 33.5q0 22 -22 36t-64 38q-42 23 -71 56.5t-29 80.5q0 35 15 65t41 51.5t61 33.5t75 12q51 0 91.5 -22t71.5 -54l-75 -71q-18 19 -40 32t-48 13q-29 0 -46.5 -13.5
t-17.5 -33.5q0 -12 7 -21t19 -16.5t26.5 -15t29.5 -16.5q45 -24 74.5 -56t29.5 -83q0 -36 -15.5 -66t-42.5 -51.5t-65 -33.5t-83 -12zM41 -231l2 59q59 2 84 13.5t25 29.5q0 11 -12.5 21t-44.5 10l38 54q39 -2 63.5 -8t39 -15.5t19.5 -22t5 -26.5q0 -29 -16.5 -50t-46 -35
t-69.5 -21.5t-87 -8.5z" />
    <glyph glyph-name="uni021A" unicode="&#x21a;" horiz-adv-x="532" 
d="M149 0l106 536h-171l22 116h480l-23 -116h-171l-106 -536h-137zM77 -231l2 59q59 2 84 13.5t25 29.5q0 11 -12.5 21t-44.5 10l38 54q39 -2 63.5 -8t39 -15.5t19.5 -22t5 -26.5q0 -29 -16.5 -50t-46 -35t-69.5 -21.5t-87 -8.5z" />
    <glyph glyph-name="uni021B" unicode="&#x21b;" horiz-adv-x="367" 
d="M203 -12q-75 0 -108 37t-33 94q0 16 2.5 31.5t5.5 31.5l43 207h-66l20 101l73 6l42 130h115l-25 -130h113l-21 -107h-116l-43 -213q-2 -9 -2 -17v-16q0 -48 51 -48q11 0 21 3t20 8l24 -96q-20 -8 -49 -15t-67 -7zM36 -231l2 59q59 2 84 13.5t25 29.5q0 11 -12.5 21
t-44.5 10l38 54q39 -2 63.5 -8t39 -15.5t19.5 -22t5 -26.5q0 -29 -16.5 -50t-46 -35t-69.5 -21.5t-87 -8.5z" />
    <glyph glyph-name="uni0237" unicode="&#x237;" horiz-adv-x="267" 
d="M-35 -196q-26 0 -49 5t-47 17l41 99q11 -6 21 -9.5t23 -3.5q25 0 37.5 18.5t22.5 59.5l101 506h137l-103 -512q-8 -38 -22 -70.5t-36 -57t-53 -38.5t-73 -14z" />
    <glyph glyph-name="uni0243" unicode="&#x243;" horiz-adv-x="634" 
d="M46 0l36 177h-70l13 62l70 5l82 408h199q49 0 89 -8.5t69 -25.5t45 -44t16 -63q0 -54 -38.5 -95.5t-102.5 -58.5l-2 -4q54 -14 83.5 -46.5t29.5 -84.5q0 -59 -22.5 -101t-61 -69t-90 -39.5t-108.5 -12.5h-237zM262 399h64q66 0 97.5 23.5t31.5 65.5q0 65 -104 65h-58z
M202 97h86q67 0 106 33t39 95q0 41 -25.5 64t-76.5 23h-86l-14 -68h126l-14 -67h-125z" />
    <glyph glyph-name="uni0251" unicode="&#x251;" horiz-adv-x="552" 
d="M171 -12q-66 0 -103 47t-37 135q0 71 22 132.5t59 107.5t85 72t99 26q34 0 64 -17.5t44 -47.5h2l22 53h109l-99 -496h-111l2 65h-3q-34 -35 -75 -56t-80 -21zM231 100q25 0 53.5 15.5t52.5 57.5l35 176q-12 25 -30.5 36t-35.5 11q-26 0 -50 -16t-42.5 -44t-29.5 -66
t-11 -83t15.5 -66t42.5 -21z" />
    <glyph glyph-name="uni0259" unicode="&#x259;" horiz-adv-x="492" 
d="M460 296q0 -69 -24.5 -126t-64 -97.5t-89 -62.5t-98.5 -22q-45 0 -75.5 14.5t-50 40t-28 59t-8.5 72.5q0 31 8 62t18 50h282q1 62 -25 90.5t-66 28.5q-22 0 -48 -9t-49 -21l-40 88q41 21 82 33t88 12q42 0 76.5 -13.5t59 -40t38.5 -66.5t14 -92zM201 93q35 0 68 26t50 83
h-180q-2 -9 -3.5 -17.5t-1.5 -18.5q0 -30 14.5 -51.5t52.5 -21.5z" />
    <glyph glyph-name="uni0261" unicode="&#x261;" horiz-adv-x="546" 
d="M171 -213q-45 0 -93 17.5t-90 52.5l59 91q29 -22 61 -37t67 -15q98 0 127 104l26 88q-33 -35 -71.5 -53.5t-80.5 -18.5q-63 0 -104 42.5t-41 130.5q0 67 21.5 125t57 101t82.5 68t98 25q34 0 63 -17.5t43 -47.5h3l21 53h111l-97 -488q-23 -111 -90.5 -166t-172.5 -55z
M229 127q25 0 53 14t52 51l31 157q-13 25 -30.5 36t-34.5 11q-26 0 -49 -14.5t-40 -40t-27.5 -60t-10.5 -74.5q0 -41 15 -60.5t41 -19.5z" />
    <glyph glyph-name="h.sups" unicode="&#x2b0;" horiz-adv-x="369" 
d="M43 375l92 463h97l-20 -102l-19 -70h4q21 19 47 33t56 14q42 0 61 -22.5t19 -64.5q0 -11 -2 -23t-4 -23l-41 -205h-97l38 193q3 11 4.5 17.5t1.5 12.5q0 33 -31 33q-16 0 -31.5 -10.5t-35.5 -31.5l-42 -214h-97z" />
    <glyph glyph-name="j.sups" unicode="&#x2b2;" horiz-adv-x="180" 
d="M11 240q-17 0 -33 3t-33 12l29 67q8 -3 14.5 -5t14.5 -2q17 0 25 11.5t13 37.5l67 341h97l-69 -349q-10 -51 -39 -83.5t-86 -32.5zM173 751q-20 0 -36 11t-16 34t17.5 39t41.5 16q20 0 36 -11t16 -34t-17.5 -39t-41.5 -16z" />
    <glyph glyph-name="r.sups" unicode="&#x2b3;" horiz-adv-x="253" 
d="M43 375l64 330h78l-2 -53h3q20 26 44 43t52 17q13 0 21 -2t13 -5l-31 -82q-7 4 -13 4.5t-14 0.5q-23 0 -42 -12t-38 -40l-39 -201h-96z" />
    <glyph glyph-name="w.sups" unicode="&#x2b7;" horiz-adv-x="504" 
d="M98 375l-17 330h94l1 -156l-4 -98h3l35 98l68 156h80l11 -156l-2 -98h3l33 98l61 156h89l-140 -330h-113l-4 133l1 91h-3l-32 -91l-55 -133h-109z" />
    <glyph glyph-name="y.sups" unicode="&#x2b8;" horiz-adv-x="337" 
d="M64 240q-16 0 -29.5 2.5t-29.5 11.5l29 67q13 -6 28 -6q23 0 38 11t24 28l7 15l-56 336h93l16 -160l4 -99h2l42 99l72 160h92l-178 -348q-30 -53 -65 -85t-89 -32z" />
    <glyph glyph-name="uni02B9" unicode="&#x2b9;" horiz-adv-x="291" 
d="M95 355l88 331h135l-48 -138l-86 -193h-89z" />
    <glyph glyph-name="uni02BB" unicode="&#x2bb;" horiz-adv-x="291" 
d="M171 355q-34 0 -54 25t-20 71q0 45 14 82t37.5 65.5t54.5 48t66 30.5l22 -59q-28 -11 -49 -26.5t-35.5 -32t-22 -32.5t-7.5 -27h5q31 0 51.5 -16.5t20.5 -46.5q0 -32 -22.5 -57t-60.5 -25z" />
    <glyph glyph-name="uni02BC" unicode="&#x2bc;" horiz-adv-x="291" 
d="M129 374l-22 60q28 10 49.5 25.5t36 32t22 32.5t7.5 28h-6q-31 0 -51 16.5t-20 46.5q0 32 22.5 57t60.5 25q34 0 54 -25.5t20 -71.5q0 -45 -14 -81.5t-37.5 -65t-55 -48.5t-66.5 -31z" />
    <glyph glyph-name="uni02BE" unicode="&#x2be;" horiz-adv-x="152" 
d="M94 546l10 53q35 2 51 18t16 38q0 17 -11 29t-37 12l11 51q55 2 79.5 -22t24.5 -63q0 -50 -36.5 -83t-107.5 -33z" />
    <glyph glyph-name="uni02BF" unicode="&#x2bf;" horiz-adv-x="156" 
d="M180 550q-55 -3 -79.5 21.5t-24.5 62.5q0 50 37 83t108 33l-11 -52q-34 -2 -50 -18.5t-16 -37.5q0 -17 11 -29t36 -12z" />
    <glyph glyph-name="circumflex" unicode="&#x2c6;" horiz-adv-x="534" 
d="M206 561l-47 55l130 128h150l86 -131l-62 -52l-105 96h-4z" />
    <glyph glyph-name="caron" unicode="&#x2c7;" horiz-adv-x="534" 
d="M248 579l-86 131l62 52l105 -96h4l148 96l48 -56l-131 -127h-150z" />
    <glyph glyph-name="uni02C8" unicode="&#x2c8;" horiz-adv-x="138" 
d="M80 534l30 201h110l-48 -201h-92z" />
    <glyph glyph-name="uni02C9" unicode="&#x2c9;" horiz-adv-x="292" 
d="M69 593l18 87h283l-18 -87h-283z" />
    <glyph glyph-name="uni02CA" unicode="&#x2ca;" horiz-adv-x="224" 
d="M153 578l-60 78l185 166l82 -104z" />
    <glyph glyph-name="uni02CB" unicode="&#x2cb;" horiz-adv-x="224" 
d="M206 569l-154 171l117 87l121 -193z" />
    <glyph glyph-name="uni02CC" unicode="&#x2cc;" horiz-adv-x="138" 
d="M55 -64l-30 -201h-111l48 201h93z" />
    <glyph glyph-name="breve" unicode="&#x2d8;" horiz-adv-x="534" 
d="M333 572q-43 0 -72 12t-46 33.5t-22.5 50t-0.5 61.5l87 14q-2 -32 15 -55.5t57 -23.5q39 0 63.5 23.5t35.5 55.5l80 -14q-7 -33 -22.5 -61.5t-40 -50t-58 -33.5t-76.5 -12z" />
    <glyph glyph-name="dotaccent" unicode="&#x2d9;" horiz-adv-x="534" 
d="M339 570q-28 0 -51 16.5t-23 49.5q0 16 6.5 31t18 26t27 17.5t33.5 6.5q29 0 51.5 -17t22.5 -49q0 -35 -24.5 -58t-60.5 -23z" />
    <glyph glyph-name="ring" unicode="&#x2da;" horiz-adv-x="534" 
d="M337 566q-50 0 -82.5 23.5t-32.5 65.5q0 24 11 45t30 36.5t45.5 24.5t58.5 9q51 0 82.5 -23.5t31.5 -65.5q0 -24 -10.5 -45t-30 -36.5t-46 -24.5t-57.5 -9zM346 619q20 0 34.5 17.5t14.5 40.5q0 16 -9.5 28t-27.5 12q-20 0 -34.5 -17.5t-14.5 -40.5q0 -17 9 -28.5
t28 -11.5z" />
    <glyph glyph-name="ogonek" unicode="&#x2db;" horiz-adv-x="534" 
d="M186 -210q-38 0 -62 18.5t-24 54.5q0 24 10 45.5t24.5 39.5t31 32t29.5 22h76q-38 -27 -55 -52t-17 -48q0 -14 10.5 -22t24.5 -8t32 10l23 -56q-21 -15 -50 -25.5t-53 -10.5z" />
    <glyph glyph-name="tilde" unicode="&#x2dc;" horiz-adv-x="534" 
d="M409 573q-25 0 -42 10t-30.5 22.5t-25.5 22.5t-28 10q-15 0 -27 -13.5t-17 -42.5l-90 5q13 78 50 115t92 37q25 0 41.5 -10t30 -22t25.5 -22t28 -10q15 0 27 13t17 42l90 -5q-13 -78 -50 -115t-91 -37z" />
    <glyph glyph-name="hungarumlaut" unicode="&#x2dd;" horiz-adv-x="534" 
d="M286 567l-71 42l120 171l89 -53zM465 567l-71 42l120 171l89 -53z" />
    <glyph glyph-name="l.sups" unicode="&#x2e1;" horiz-adv-x="180" 
d="M64 477l71 361h97l-73 -367q-2 -3 -2 -6.5v-5.5q0 -10 4 -12.5t9 -2.5q6 0 11 2l-1 -71q-9 -3 -22 -5.5t-29 -2.5q-38 0 -54 18t-16 50q0 10 1 19.5t4 22.5z" />
    <glyph glyph-name="s.sups" unicode="&#x2e2;" horiz-adv-x="285" 
d="M148 367q-34 0 -68 15.5t-57 41.5l54 52q19 -18 38 -29t40 -11q42 0 42 31q0 12 -14 20t-43 25q-26 17 -45.5 38.5t-19.5 53.5q0 23 9.5 43t27 34.5t40.5 23t50 8.5q36 0 65 -14.5t52 -32.5l-45 -58q-15 14 -33 25t-39 11q-18 0 -27.5 -9.5t-9.5 -21.5q0 -14 16.5 -24
t36.5 -21q28 -14 48 -35.5t20 -57.5q0 -49 -37.5 -78.5t-100.5 -29.5z" />
    <glyph glyph-name="x.sups" unicode="&#x2e3;" horiz-adv-x="332" 
d="M2 375l145 175l-58 155h98l19 -55l16 -52h3l30 48l35 59h107l-135 -175l62 -155h-98l-20 55l-19 54h-3l-33 -50l-43 -59h-106z" />
    <glyph glyph-name="uni0300" unicode="&#x300;" horiz-adv-x="0" 
d="M147 569l-154 171l117 87l121 -193z" />
    <glyph glyph-name="uni0301" unicode="&#x301;" horiz-adv-x="0" 
d="M94 578l-60 78l185 166l82 -104z" />
    <glyph glyph-name="uni0302" unicode="&#x302;" horiz-adv-x="0" 
d="M-13 561l-47 55l130 128h150l86 -131l-62 -52l-105 96h-4z" />
    <glyph glyph-name="uni0303" unicode="&#x303;" horiz-adv-x="0" 
d="M190 573q-25 0 -42 10t-30.5 22.5t-25.5 22.5t-28 10q-15 0 -27 -13.5t-17 -42.5l-90 5q13 78 50 115t92 37q25 0 41.5 -10t30 -22t25.5 -22t28 -10q15 0 27 13t17 42l90 -5q-13 -78 -50 -115t-91 -37z" />
    <glyph glyph-name="uni0304" unicode="&#x304;" horiz-adv-x="0" 
d="M-26 593l18 87h283l-18 -87h-283z" />
    <glyph glyph-name="uni0306" unicode="&#x306;" horiz-adv-x="0" 
d="M114 572q-43 0 -72 12t-46 33.5t-22.5 50t-0.5 61.5l87 14q-2 -32 15 -55.5t57 -23.5q39 0 63.5 23.5t35.5 55.5l80 -14q-7 -33 -22.5 -61.5t-40 -50t-58 -33.5t-76.5 -12z" />
    <glyph glyph-name="uni0307" unicode="&#x307;" horiz-adv-x="0" 
d="M120 570q-28 0 -51 16.5t-23 49.5q0 16 6.5 31t18 26t27 17.5t33.5 6.5q29 0 51.5 -17t22.5 -49q0 -35 -24.5 -58t-60.5 -23z" />
    <glyph glyph-name="uni0308" unicode="&#x308;" horiz-adv-x="0" 
d="M12 572q-25 0 -42 15t-17 44q0 30 21.5 52.5t53.5 22.5q25 0 42 -16t17 -44q0 -31 -21.5 -52.5t-53.5 -21.5zM222 572q-25 0 -41.5 15t-16.5 44q0 30 21 52.5t53 22.5q26 0 42.5 -16t16.5 -44q0 -31 -21.5 -52.5t-53.5 -21.5z" />
    <glyph glyph-name="uni0309" unicode="&#x309;" horiz-adv-x="0" 
d="M65 568v58q19 4 33.5 11.5t17.5 23.5q4 18 -12.5 28.5t-58.5 13.5l25 90q49 -1 81.5 -10.5t50.5 -25t23.5 -37.5t0.5 -48t-20 -44.5t-37 -31t-49 -19.5t-55 -9z" />
    <glyph glyph-name="uni030A" unicode="&#x30a;" horiz-adv-x="0" 
d="M118 566q-50 0 -82.5 23.5t-32.5 65.5q0 24 11 45t30 36.5t45.5 24.5t58.5 9q51 0 82.5 -23.5t31.5 -65.5q0 -24 -10.5 -45t-30 -36.5t-46 -24.5t-57.5 -9zM127 619q20 0 34.5 17.5t14.5 40.5q0 16 -9.5 28t-27.5 12q-20 0 -34.5 -17.5t-14.5 -40.5q0 -17 9 -28.5
t28 -11.5z" />
    <glyph glyph-name="uni030B" unicode="&#x30b;" horiz-adv-x="0" 
d="M67 567l-71 42l120 171l89 -53zM246 567l-71 42l120 171l89 -53z" />
    <glyph glyph-name="uni030C" unicode="&#x30c;" horiz-adv-x="0" 
d="M29 579l-86 131l62 52l105 -96h4l148 96l48 -56l-131 -127h-150z" />
    <glyph glyph-name="uni030F" unicode="&#x30f;" horiz-adv-x="0" 
d="M-28 565l-78 179l107 35l55 -187zM151 565l-78 179l107 35l55 -187z" />
    <glyph glyph-name="uni0312" unicode="&#x312;" horiz-adv-x="0" 
d="M109 544q-26 0 -40 16.5t-14 43.5q0 48 29 87t95 59l11 -45q-29 -11 -46 -23t-25 -32h5q17 0 30.5 -12.5t13.5 -32.5q0 -29 -17.5 -45t-41.5 -16z" />
    <glyph glyph-name="uni0313" unicode="&#x313;" horiz-adv-x="0" 
d="M77 544l-12 45q29 11 46 23t25 32h-4q-17 0 -31 12.5t-14 32.5q0 28 18 44.5t42 16.5q25 0 39.5 -16.5t14.5 -43.5q0 -49 -29.5 -87.5t-94.5 -58.5z" />
    <glyph glyph-name="uni031B" unicode="&#x31b;" horiz-adv-x="0" 
d="M80 428v58q38 4 59.5 24.5t21.5 46.5q0 16 -8 37l102 32q13 -30 13 -61q0 -26 -10.5 -49.5t-33.5 -42t-58.5 -30.5t-85.5 -15z" />
    <glyph glyph-name="uni0323" unicode="&#x323;" horiz-adv-x="0" 
d="M-40 -229q-28 0 -51 16.5t-23 49.5q0 16 6.5 31t18 26t27 17.5t33.5 6.5q29 0 51.5 -17t22.5 -49q0 -35 -24.5 -58t-60.5 -23z" />
    <glyph glyph-name="uni0324" unicode="&#x324;" horiz-adv-x="0" 
d="M-145 -214q-25 0 -42 15t-17 44q0 30 21.5 52.5t53.5 22.5q25 0 42 -16t17 -44q0 -31 -21.5 -52.5t-53.5 -21.5zM65 -214q-25 0 -41.5 15t-16.5 44q0 30 21 52.5t53 22.5q26 0 42.5 -16t16.5 -44q0 -31 -21.5 -52.5t-53.5 -21.5z" />
    <glyph glyph-name="uni0326" unicode="&#x326;" horiz-adv-x="0" 
d="M-146 -239l2 59q59 2 84 13.5t25 29.5q0 11 -12.5 21t-44.5 10l38 54q39 -2 63.5 -8t39 -15.5t19.5 -22t5 -26.5q0 -29 -16.5 -50t-46 -35t-69.5 -21.5t-87 -8.5z" />
    <glyph glyph-name="uni0327" unicode="&#x327;" horiz-adv-x="0" 
d="M-145 -239v59q58 2 82 12.5t28 32.5q2 15 -12 25t-57 16l66 98h85l-40 -65q37 -9 52.5 -26t11.5 -47q-8 -52 -64.5 -77t-151.5 -28z" />
    <glyph glyph-name="uni0328" unicode="&#x328;" horiz-adv-x="0" 
d="M-33 -210q-38 0 -62 18.5t-24 54.5q0 24 10 45.5t24.5 39.5t31 32t29.5 22h76q-38 -27 -55 -52t-17 -48q0 -14 10.5 -22t24.5 -8t32 10l23 -56q-21 -15 -50 -25.5t-53 -10.5z" />
    <glyph glyph-name="uni032E" unicode="&#x32e;" horiz-adv-x="0" 
d="M-44 -217q-43 0 -72 12t-46 33.5t-22.5 50t-0.5 61.5l87 14q-2 -32 15 -55.5t57 -23.5q39 0 63.5 23.5t35.5 55.5l80 -14q-7 -33 -22.5 -61.5t-40 -50t-58 -33.5t-76.5 -12z" />
    <glyph glyph-name="uni0331" unicode="&#x331;" horiz-adv-x="0" 
d="M-183 -184l18 87h283l-18 -87h-283z" />
    <glyph glyph-name="pi" unicode="&#x3c0;" horiz-adv-x="603" 
d="M449 -12q-61 0 -86.5 30.5t-25.5 83.5q0 20 6 53.5t15 73t19 81.5t18 79h-120q-18 -92 -42.5 -195.5t-50.5 -204.5l-134 11q33 103 59 203.5t43 185.5h-94l21 101l72 6h473l-20 -107h-78q-10 -38 -20 -81.5t-18.5 -81t-13.5 -64t-5 -32.5q0 -18 9 -25.5t26 -7.5
q5 0 10.5 1.5t13.5 3.5l-3 -100q-14 -5 -32.5 -9.5t-41.5 -4.5z" />
    <glyph glyph-name="a.sups" unicode="&#x1d43;" horiz-adv-x="365" 
d="M77 488q0 47 15 88t39.5 71.5t56.5 48t67 17.5q22 0 39.5 -12t27.5 -32h4l15 36h78l-66 -330h-78l2 43h-4q-22 -24 -49 -37.5t-53 -13.5q-43 0 -68.5 31.5t-25.5 89.5zM211 446q17 0 35.5 10.5t34.5 36.5l20 111q-7 16 -18 23t-22 7q-16 0 -31.5 -10t-27.5 -28t-19 -42.5
t-7 -52.5q0 -29 10 -42t25 -13z" />
    <glyph glyph-name="b.sups" unicode="&#x1d47;" horiz-adv-x="370" 
d="M121 375h-78l92 463h97l-20 -102l-20 -65h4q20 17 44 29.5t50 12.5q44 0 69 -31.5t25 -89.5q0 -47 -15 -88t-39.5 -71.5t-56.5 -48t-66 -17.5q-22 0 -39.5 12t-27.5 32h-4zM250 634q-16 0 -34 -9.5t-35 -35.5l-21 -113q8 -16 18.5 -23t21.5 -7q16 0 31.5 10t27.5 28
t19.5 42.5t7.5 52.5q0 29 -10 42t-26 13z" />
    <glyph glyph-name="d.sups" unicode="&#x1d48;" horiz-adv-x="380" 
d="M301 672l5 66l19 99h97l-92 -462h-78l2 43h-4q-22 -24 -49 -37.5t-53 -13.5q-44 0 -69 31.5t-25 89.5q0 47 15 88t39.5 71.5t56.5 48t67 17.5q21 0 39 -12t26 -29h4zM188 446q17 0 35 10.5t35 36.5l20 111q-8 16 -18.5 23t-21.5 7q-16 0 -31.5 -10t-27.5 -28t-19 -42.5
t-7 -52.5q0 -29 10 -42t25 -13z" />
    <glyph glyph-name="e.sups" unicode="&#x1d49;" horiz-adv-x="332" 
d="M52 509q0 45 16.5 82.5t43.5 64.5t60 42t66 15q31 0 51.5 -10t33.5 -27.5t18.5 -40.5t5.5 -48q0 -23 -6 -45t-11 -30h-187q-1 -38 20 -55.5t55 -17.5q15 0 28.5 5.5t29.5 15.5l29 -61q-27 -15 -56.5 -23.5t-57.5 -8.5q-63 0 -101 38t-38 104zM150 570h116q3 12 3 23
q0 19 -9.5 32.5t-33.5 13.5q-22 0 -43.5 -17t-32.5 -52z" />
    <glyph glyph-name="g.sups" unicode="&#x1d4d;" horiz-adv-x="365" 
d="M318 705h78l-66 -330q-15 -75 -60 -111t-114 -36q-29 0 -63.5 10.5t-66.5 33.5l39 65q21 -14 45 -24t49 -10q28 0 48 17.5t31 49.5l15 48h-4q-23 -18 -47.5 -28t-51.5 -10q-45 0 -69.5 30t-24.5 85q0 45 14.5 84.5t38.5 69.5t56 47t67 17q21 0 39 -12t28 -32h4zM190 458
q17 0 34.5 7.5t32.5 27.5l21 111q-8 16 -18.5 23t-21.5 7q-17 0 -32 -9.5t-26 -27t-18 -40.5t-7 -50q0 -26 9.5 -37.5t25.5 -11.5z" />
    <glyph glyph-name="k.sups" unicode="&#x1d4f;" horiz-adv-x="355" 
d="M43 375l92 463h97l-53 -263h4l119 130h106l-136 -145l80 -185h-96l-50 130l-50 -49l-16 -81h-97z" />
    <glyph glyph-name="m.sups" unicode="&#x1d50;" horiz-adv-x="553" 
d="M44 375l64 330h78l-1 -45h4q23 22 50 37.5t59 15.5q34 0 50.5 -16t23.5 -42q26 22 53.5 40t59.5 18q42 0 59.5 -22.5t17.5 -65.5q0 -21 -5 -46l-41 -204h-95l37 192q4 16 4 33q0 14 -6 22.5t-21 8.5q-12 0 -29 -10.5t-36 -31.5l-42 -214h-95l38 192q2 9 3.5 16t1.5 14
q0 34 -31 34q-11 0 -28 -11t-35 -31l-42 -214h-96z" />
    <glyph glyph-name="o.sups" unicode="&#x1d52;" horiz-adv-x="358" 
d="M184 367q-57 0 -94.5 36t-37.5 101q0 48 16 86.5t42 65.5t60 42t69 15q57 0 94 -36t37 -101q0 -48 -16 -86.5t-42 -65.5t-59.5 -42t-68.5 -15zM192 444q18 0 33 10t26 28t17 42t6 51q0 29 -10.5 45t-32.5 16q-18 0 -33 -10t-26 -28t-17 -42t-6 -51q0 -29 10.5 -45
t32.5 -16z" />
    <glyph glyph-name="p.sups" unicode="&#x1d56;" horiz-adv-x="369" 
d="M136 411l-3 -70l-20 -99h-96l91 463h78l3 -37h4q23 21 47 33t50 12q44 0 69 -31.5t25 -89.5q0 -47 -15 -88t-39.5 -71.5t-56.5 -48t-66 -17.5q-21 0 -39 12t-28 32h-4zM250 634q-16 0 -34 -9.5t-35 -35.5l-21 -113q15 -31 38 -31q16 0 32 10.5t28.5 28.5t20 42.5
t7.5 52.5q0 29 -10 42t-26 13z" />
    <glyph glyph-name="t.sups" unicode="&#x1d57;" horiz-adv-x="249" 
d="M80 499l27 130h-44l14 72l50 4l27 84h80l-17 -84h77l-14 -76h-78l-27 -134q-1 -5 -1.5 -10t-0.5 -10q0 -33 30 -33q9 0 15 2t13 4l15 -69q-14 -5 -34.5 -8.5t-40.5 -3.5q-52 0 -74 25.5t-22 64.5q0 11 1.5 21t3.5 21z" />
    <glyph glyph-name="u.sups" unicode="&#x1d58;" horiz-adv-x="366" 
d="M392 705l-66 -330h-78l1 45h-4q-23 -22 -50 -37.5t-59 -15.5q-42 0 -61 22.5t-19 64.5q0 12 2 23.5t4 22.5l41 205h97l-38 -193q-2 -10 -3.5 -17t-1.5 -13q0 -33 30 -33q16 0 31 10.5t35 31.5l42 214h97z" />
    <glyph glyph-name="v.sups" unicode="&#x1d5b;" horiz-adv-x="338" 
d="M116 375l-43 330h96l10 -159l4 -100h3l44 100l71 159h94l-168 -330h-111z" />
    <glyph glyph-name="c.sups" unicode="&#x1d9c;" horiz-adv-x="296" 
d="M184 367q-27 0 -51 9t-42 26t-28.5 41t-10.5 55q0 43 14.5 82t41 68.5t62.5 47t78 17.5q30 0 53 -12t39 -28l-55 -58q-10 11 -19 16t-22 5q-20 0 -37.5 -11t-30 -28.5t-19.5 -40t-7 -46.5q0 -35 16.5 -51t38.5 -16q17 0 29 6t23 13l31 -60q-16 -13 -43 -24t-61 -11z" />
    <glyph glyph-name="f.sups" unicode="&#x1da0;" horiz-adv-x="222" 
d="M58 375l51 254h-42l12 70l45 5l5 24q5 25 15 48t26 39.5t38 26.5t52 10q20 0 38 -5t35 -13l-31 -67q-5 3 -14 6.5t-17 3.5q-19 0 -30 -12t-16 -40l-4 -20h58l-15 -76h-58l-52 -254h-96z" />
    <glyph glyph-name="z.sups" unicode="&#x1dbb;" horiz-adv-x="299" 
d="M26 375l10 53l171 201h-116l14 76h238l-11 -55l-170 -200h134l-14 -75h-256z" />
    <glyph glyph-name="uni1E06" unicode="&#x1e06;" horiz-adv-x="604" 
d="M28 0l131 652h199q49 0 89 -9t69 -27t45 -46t16 -67q0 -57 -38.5 -100.5t-102.5 -62.5l-2 -4q54 -13 83.5 -43.5t29.5 -78.5q0 -57 -22.5 -98t-61 -66.5t-90 -37.5t-108.5 -12h-237zM243 385h65q69 0 99 26t30 69q0 32 -25 49.5t-79 17.5h-58zM186 105h85q70 0 107 26.5
t37 77.5q0 40 -26 61.5t-80 21.5h-85zM88 -176l18 87h283l-18 -87h-283z" />
    <glyph glyph-name="uni1E07" unicode="&#x1e07;" horiz-adv-x="553" 
d="M127 0h-113l141 701h137l-33 -159l-25 -93h2q33 27 70 43t74 16q66 0 103 -47t37 -135q0 -71 -22 -132.5t-59 -107.5t-84.5 -72t-98.5 -26q-34 0 -62.5 17.5t-42.5 47.5h-2zM321 396q-23 0 -51.5 -13.5t-50.5 -48.5l-38 -187q11 -25 28.5 -36t36.5 -11q26 0 50 16
t42.5 44t29.5 66t11 83t-16 66t-42 21zM62 -176l18 87h283l-18 -87h-283z" />
    <glyph glyph-name="uni1E0C" unicode="&#x1e0c;" horiz-adv-x="616" 
d="M28 0l131 652h143q137 0 212.5 -63t75.5 -193q0 -96 -26.5 -170t-74 -124.5t-113.5 -76t-144 -25.5h-204zM188 110h41q47 0 87.5 16.5t70 50.5t46.5 86.5t17 123.5q0 81 -41 118t-110 37h-26zM251 -221q-28 0 -51 16.5t-23 49.5q0 16 6.5 31t18 26t27 17.5t33.5 6.5
q29 0 51.5 -17t22.5 -49q0 -35 -24.5 -58t-60.5 -23z" />
    <glyph glyph-name="uni1E0D" unicode="&#x1e0d;" horiz-adv-x="546" 
d="M400 448l12 94l30 159h137l-141 -701h-111l2 65h-3q-34 -35 -75 -56t-80 -21q-66 0 -103 47t-37 135q0 71 22 132.5t59 107.5t85 72t99 26q34 0 60.5 -16.5t40.5 -43.5h3zM231 100q25 0 52.5 15.5t53.5 57.5l35 176q-12 25 -30.5 36t-35.5 11q-26 0 -50 -16t-42.5 -44
t-29.5 -66t-11 -83t15.5 -66t42.5 -21zM204 -221q-28 0 -51 16.5t-23 49.5q0 16 6.5 31t18 26t27 17.5t33.5 6.5q29 0 51.5 -17t22.5 -49q0 -35 -24.5 -58t-60.5 -23z" />
    <glyph glyph-name="uni1E0E" unicode="&#x1e0e;" horiz-adv-x="616" 
d="M28 0l131 652h143q137 0 212.5 -63t75.5 -193q0 -96 -26.5 -170t-74 -124.5t-113.5 -76t-144 -25.5h-204zM188 110h41q47 0 87.5 16.5t70 50.5t46.5 86.5t17 123.5q0 81 -41 118t-110 37h-26zM108 -176l18 87h283l-18 -87h-283z" />
    <glyph glyph-name="uni1E0F" unicode="&#x1e0f;" horiz-adv-x="546" 
d="M400 448l12 94l30 159h137l-141 -701h-111l2 65h-3q-34 -35 -75 -56t-80 -21q-66 0 -103 47t-37 135q0 71 22 132.5t59 107.5t85 72t99 26q34 0 60.5 -16.5t40.5 -43.5h3zM231 100q25 0 52.5 15.5t53.5 57.5l35 176q-12 25 -30.5 36t-35.5 11q-26 0 -50 -16t-42.5 -44
t-29.5 -66t-11 -83t15.5 -66t42.5 -21zM61 -176l18 87h283l-18 -87h-283z" />
    <glyph glyph-name="uni1E16" unicode="&#x1e16;" horiz-adv-x="527" 
d="M28 0l131 652h386l-22 -115h-251l-28 -142h213l-22 -115h-213l-34 -165h259l-22 -115h-397zM221 720l18 88h287l-17 -88h-288zM401 828l-57 44l121 135l81 -63z" />
    <glyph glyph-name="uni1E17" unicode="&#x1e17;" horiz-adv-x="496" 
d="M29 200q0 69 24.5 125.5t64 97t88.5 63t99 22.5q44 0 75 -14.5t50.5 -40t28 -59t8.5 -72.5q0 -18 -3 -35.5t-7 -33t-8.5 -27t-7.5 -17.5h-282q-3 -62 29.5 -90t81.5 -28q23 0 48 11t44 24l48 -86q-30 -21 -75 -36.5t-103 -15.5q-45 0 -82.5 14.5t-64 42t-41.5 66.5
t-15 89zM170 293h180q5 17 5 37q0 30 -14.5 51.5t-52.5 21.5q-35 0 -68 -27.5t-50 -82.5zM182 593l18 87h283l-18 -87h-283zM358 716l-49 40l101 125l68 -58z" />
    <glyph glyph-name="uni1E20" unicode="&#x1e20;" horiz-adv-x="611" 
d="M314 -12q-60 0 -108 18.5t-81.5 53.5t-51 85.5t-17.5 115.5q0 84 27 157.5t74.5 128t113 86t142.5 31.5q63 0 108.5 -27.5t73.5 -76.5l-93 -72q-19 29 -41.5 43t-54.5 14q-45 0 -83.5 -22.5t-66.5 -60.5t-43.5 -88t-15.5 -104q0 -38 7.5 -68t24.5 -52t44 -33.5t65 -11.5
q20 0 38.5 6t32.5 16l28 128h-107l21 112h227l-60 -311q-38 -29 -90 -48.5t-114 -19.5zM282 720l18 88h287l-17 -88h-288z" />
    <glyph glyph-name="uni1E21" unicode="&#x1e21;" horiz-adv-x="546" 
d="M171 -213q-45 0 -93 17.5t-90 52.5l59 91q29 -22 61 -37t67 -15q98 0 127 104l26 88q-33 -35 -71.5 -53.5t-80.5 -18.5q-63 0 -104 42.5t-41 130.5q0 67 21.5 125t57 101t82.5 68t98 25q34 0 63 -17.5t43 -47.5h3l21 53h111l-97 -488q-23 -111 -90.5 -166t-172.5 -55z
M229 127q25 0 53 14t52 51l31 157q-13 25 -30.5 36t-34.5 11q-26 0 -49 -14.5t-40 -40t-27.5 -60t-10.5 -74.5q0 -41 15 -60.5t41 -19.5zM184 593l18 87h283l-18 -87h-283z" />
    <glyph glyph-name="uni1E24" unicode="&#x1e24;" horiz-adv-x="652" 
d="M28 0l131 652h137l-52 -253h223l50 253h137l-130 -652h-138l57 279h-223l-54 -279h-138zM251 -221q-28 0 -51 16.5t-23 49.5q0 16 6.5 31t18 26t27 17.5t33.5 6.5q29 0 51.5 -17t22.5 -49q0 -35 -24.5 -58t-60.5 -23z" />
    <glyph glyph-name="uni1E25" unicode="&#x1e25;" horiz-adv-x="546" 
d="M14 0l141 701h137l-38 -183l-22 -80h4q33 29 72 49.5t84 20.5q62 0 90 -32.5t28 -94.5q0 -17 -1.5 -34.5t-6.5 -36.5l-62 -310h-137l59 293q3 15 5.5 26t2.5 21q0 51 -51 51q-23 0 -47.5 -15.5t-56.5 -48.5l-64 -327h-137zM200 -221q-28 0 -51 16.5t-23 49.5q0 16 6.5 31
t18 26t27 17.5t33.5 6.5q29 0 51.5 -17t22.5 -49q0 -35 -24.5 -58t-60.5 -23z" />
    <glyph glyph-name="uni1E2A" unicode="&#x1e2a;" horiz-adv-x="652" 
d="M28 0l131 652h137l-52 -253h223l50 253h137l-130 -652h-138l57 279h-223l-54 -279h-138zM247 -209q-43 0 -72 12t-46 33.5t-22.5 50t-0.5 61.5l87 14q-2 -32 15 -55.5t57 -23.5q39 0 63.5 23.5t35.5 55.5l80 -14q-7 -33 -22.5 -61.5t-40 -50t-58 -33.5t-76.5 -12z" />
    <glyph glyph-name="uni1E2B" unicode="&#x1e2b;" horiz-adv-x="546" 
d="M14 0l141 701h137l-38 -183l-22 -80h4q33 29 72 49.5t84 20.5q62 0 90 -32.5t28 -94.5q0 -17 -1.5 -34.5t-6.5 -36.5l-62 -310h-137l59 293q3 15 5.5 26t2.5 21q0 51 -51 51q-23 0 -47.5 -15.5t-56.5 -48.5l-64 -327h-137zM196 -209q-43 0 -72 12t-46 33.5t-22.5 50
t-0.5 61.5l87 14q-2 -32 15 -55.5t57 -23.5q39 0 63.5 23.5t35.5 55.5l80 -14q-7 -33 -22.5 -61.5t-40 -50t-58 -33.5t-76.5 -12z" />
    <glyph glyph-name="uni1E34" unicode="&#x1e34;" horiz-adv-x="604" 
d="M28 0l131 652h137l-53 -268h3l245 268h150l-237 -268l146 -384h-143l-104 298l-99 -107l-38 -191h-138zM113 -176l18 87h283l-18 -87h-283z" />
    <glyph glyph-name="uni1E35" unicode="&#x1e35;" horiz-adv-x="525" 
d="M14 0l141 701h137l-82 -406h4l187 201h152l-203 -217l118 -279h-137l-75 200l-81 -81l-24 -119h-137zM61 -176l18 87h283l-18 -87h-283z" />
    <glyph glyph-name="uni1E36" unicode="&#x1e36;" horiz-adv-x="500" 
d="M28 0l131 652h137l-108 -537h247l-22 -115h-385zM201 -221q-28 0 -51 16.5t-23 49.5q0 16 6.5 31t18 26t27 17.5t33.5 6.5q29 0 51.5 -17t22.5 -49q0 -35 -24.5 -58t-60.5 -23z" />
    <glyph glyph-name="uni1E37" unicode="&#x1e37;" horiz-adv-x="275" 
d="M137 -12q-54 0 -77 26t-23 71q0 26 7 61l111 555h137l-113 -561q-2 -8 -2 -11.5v-7.5q0 -13 5.5 -18t13.5 -5h8t10 2l-4 -101q-13 -5 -31 -8t-42 -3zM50 -221q-28 0 -51 16.5t-23 49.5q0 16 6.5 31t18 26t27 17.5t33.5 6.5q29 0 51.5 -17t22.5 -49q0 -35 -24.5 -58
t-60.5 -23z" />
    <glyph glyph-name="uni1E38" unicode="&#x1e38;" horiz-adv-x="500" 
d="M28 0l131 652h137l-108 -537h247l-22 -115h-385zM100 720l18 88h287l-17 -88h-288zM201 -221q-28 0 -51 16.5t-23 49.5q0 16 6.5 31t18 26t27 17.5t33.5 6.5q29 0 51.5 -17t22.5 -49q0 -35 -24.5 -58t-60.5 -23z" />
    <glyph glyph-name="uni1E39" unicode="&#x1e39;" horiz-adv-x="275" 
d="M137 -12q-54 0 -77 26t-23 71q0 26 7 61l111 555h137l-113 -561q-2 -8 -2 -11.5v-7.5q0 -13 5.5 -18t13.5 -5h8t10 2l-4 -101q-13 -5 -31 -8t-42 -3zM95 805l18 87h283l-18 -87h-283zM50 -221q-28 0 -51 16.5t-23 49.5q0 16 6.5 31t18 26t27 17.5t33.5 6.5q29 0 51.5 -17
t22.5 -49q0 -35 -24.5 -58t-60.5 -23z" />
    <glyph glyph-name="uni1E3A" unicode="&#x1e3a;" horiz-adv-x="500" 
d="M28 0l131 652h137l-108 -537h247l-22 -115h-385zM58 -176l18 87h283l-18 -87h-283z" />
    <glyph glyph-name="uni1E3B" unicode="&#x1e3b;" horiz-adv-x="275" 
d="M137 -12q-54 0 -77 26t-23 71q0 26 7 61l111 555h137l-113 -561q-2 -8 -2 -11.5v-7.5q0 -13 5.5 -18t13.5 -5h8t10 2l-4 -101q-13 -5 -31 -8t-42 -3zM-93 -176l18 87h283l-18 -87h-283z" />
    <glyph glyph-name="uni1E42" unicode="&#x1e42;" horiz-adv-x="740" 
d="M28 0l131 652h145l47 -301l17 -117h4l60 117l164 301h146l-131 -652h-128l54 259q5 24 12 52.5t15 57.5t16 56.5t16 51.5h-3l-81 -150l-153 -267h-55l-48 267l-20 150h-4q-2 -24 -4.5 -52t-5.5 -57t-7 -57t-9 -52l-52 -259h-126zM293 -229q-28 0 -51 16.5t-23 49.5
q0 16 6.5 31t18 26t27 17.5t33.5 6.5q29 0 51.5 -17t22.5 -49q0 -35 -24.5 -58t-60.5 -23z" />
    <glyph glyph-name="uni1E43" unicode="&#x1e43;" horiz-adv-x="827" 
d="M14 0l98 496h111l-2 -66h4q36 32 77 55t83 23q56 0 80.5 -24t34.5 -63q42 38 84 62.5t84 24.5q62 0 89.5 -32.5t27.5 -94.5q0 -17 -2 -34.5t-6 -36.5l-62 -310h-137l59 293q3 15 5.5 26t2.5 21q0 51 -50 51q-17 0 -41 -15.5t-56 -48.5l-66 -327h-137l59 293q3 15 5.5 26
t2.5 21q0 26 -12.5 38.5t-35.5 12.5q-18 0 -42.5 -15.5t-56.5 -48.5l-64 -327h-137zM338 -221q-28 0 -51 16.5t-23 49.5q0 16 6.5 31t18 26t27 17.5t33.5 6.5q29 0 51.5 -17t22.5 -49q0 -35 -24.5 -58t-60.5 -23z" />
    <glyph glyph-name="uni1E44" unicode="&#x1e44;" horiz-adv-x="643" 
d="M28 0l131 652h133l106 -340l35 -143h4q3 25 5 55t5 60.5t7 61.5t10 59l50 247h130l-130 -652h-132l-107 339l-33 145h-4q-5 -55 -11.5 -116t-17.5 -118l-50 -250h-131zM419 703q-28 0 -51 16.5t-23 49.5q0 16 6.5 31t18 26t27 17.5t33.5 6.5q29 0 51.5 -17t22.5 -49
q0 -35 -24.5 -58t-60.5 -23z" />
    <glyph glyph-name="uni1E45" unicode="&#x1e45;" horiz-adv-x="552" 
d="M14 0l98 496h111l-2 -66h4q37 32 78 55t89 23q62 0 90 -32.5t28 -94.5q0 -17 -2 -34.5t-6 -36.5l-62 -310h-137l59 293q3 15 5.5 26t2.5 21q0 51 -51 51q-23 0 -47.5 -15.5t-56.5 -48.5l-64 -327h-137zM366 570q-28 0 -51 16.5t-23 49.5q0 16 6.5 31t18 26t27 17.5
t33.5 6.5q29 0 51.5 -17t22.5 -49q0 -35 -24.5 -58t-60.5 -23z" />
    <glyph glyph-name="uni1E46" unicode="&#x1e46;" horiz-adv-x="643" 
d="M28 0l131 652h133l106 -340l35 -143h4q3 25 5 55t5 60.5t7 61.5t10 59l50 247h130l-130 -652h-132l-107 339l-33 145h-4q-5 -55 -11.5 -116t-17.5 -118l-50 -250h-131zM263 -229q-28 0 -51 16.5t-23 49.5q0 16 6.5 31t18 26t27 17.5t33.5 6.5q29 0 51.5 -17t22.5 -49
q0 -35 -24.5 -58t-60.5 -23z" />
    <glyph glyph-name="uni1E47" unicode="&#x1e47;" horiz-adv-x="552" 
d="M14 0l98 496h111l-2 -66h4q37 32 78 55t89 23q62 0 90 -32.5t28 -94.5q0 -17 -2 -34.5t-6 -36.5l-62 -310h-137l59 293q3 15 5.5 26t2.5 21q0 51 -51 51q-23 0 -47.5 -15.5t-56.5 -48.5l-64 -327h-137zM203 -221q-28 0 -51 16.5t-23 49.5q0 16 6.5 31t18 26t27 17.5
t33.5 6.5q29 0 51.5 -17t22.5 -49q0 -35 -24.5 -58t-60.5 -23z" />
    <glyph glyph-name="uni1E48" unicode="&#x1e48;" horiz-adv-x="643" 
d="M28 0l131 652h133l106 -340l35 -143h4q3 25 5 55t5 60.5t7 61.5t10 59l50 247h130l-130 -652h-132l-107 339l-33 145h-4q-5 -55 -11.5 -116t-17.5 -118l-50 -250h-131zM120 -184l18 87h283l-18 -87h-283z" />
    <glyph glyph-name="uni1E49" unicode="&#x1e49;" horiz-adv-x="552" 
d="M14 0l98 496h111l-2 -66h4q37 32 78 55t89 23q62 0 90 -32.5t28 -94.5q0 -17 -2 -34.5t-6 -36.5l-62 -310h-137l59 293q3 15 5.5 26t2.5 21q0 51 -51 51q-23 0 -47.5 -15.5t-56.5 -48.5l-64 -327h-137zM60 -176l18 87h283l-18 -87h-283z" />
    <glyph glyph-name="uni1E52" unicode="&#x1e52;" horiz-adv-x="660" 
d="M302 -12q-56 0 -101 18.5t-77 54t-49.5 87t-17.5 116.5q0 86 27 159.5t72.5 127t105.5 83.5t126 30q56 0 101 -19t77 -54.5t49.5 -86.5t17.5 -116q0 -86 -27 -159.5t-72.5 -127t-105.5 -83.5t-126 -30zM309 106q35 0 68 21.5t59 58.5t41.5 86.5t15.5 106.5
q0 78 -28.5 122t-82.5 44q-35 0 -68 -21.5t-59 -58t-42 -86t-16 -106.5q0 -78 29 -122.5t83 -44.5zM274 720l18 88h287l-17 -88h-288zM454 828l-57 44l121 135l81 -63z" />
    <glyph glyph-name="uni1E53" unicode="&#x1e53;" horiz-adv-x="533" 
d="M222 -12q-44 0 -79 14.5t-60.5 41.5t-39 64.5t-13.5 83.5q0 72 24 130.5t63.5 99.5t89.5 63.5t101 22.5q43 0 78.5 -14.5t60.5 -41.5t39 -64.5t14 -83.5q0 -72 -24 -130.5t-63.5 -99.5t-89.5 -63.5t-101 -22.5zM237 98q25 0 47.5 15.5t40 42.5t27.5 64t10 81
q0 46 -17.5 71.5t-52.5 25.5q-25 0 -47.5 -15.5t-39.5 -42.5t-27 -64.5t-10 -80.5q0 -45 17 -71t52 -26zM192 593l18 87h283l-18 -87h-283zM368 716l-49 40l101 125l68 -58z" />
    <glyph glyph-name="uni1E5A" unicode="&#x1e5a;" horiz-adv-x="596" 
d="M28 0l131 652h204q48 0 89 -9t70.5 -29t46.5 -52t17 -77q0 -46 -12.5 -82.5t-34.5 -64.5t-52.5 -48t-66.5 -32l101 -258h-144l-84 239h-80l-47 -239h-138zM235 348h69q73 0 110 31.5t37 85.5q0 42 -28 60t-81 18h-69zM248 -229q-28 0 -51 16.5t-23 49.5q0 16 6.5 31
t18 26t27 17.5t33.5 6.5q29 0 51.5 -17t22.5 -49q0 -35 -24.5 -58t-60.5 -23z" />
    <glyph glyph-name="uni1E5B" unicode="&#x1e5b;" horiz-adv-x="384" 
d="M14 0l98 496h111l-6 -96h4q29 47 69 77.5t83 30.5q19 0 31.5 -2.5t20.5 -7.5l-45 -118q-10 5 -23.5 6.5t-25.5 1.5q-33 0 -64 -24t-60 -77l-56 -287h-137zM53 -221q-28 0 -51 16.5t-23 49.5q0 16 6.5 31t18 26t27 17.5t33.5 6.5q29 0 51.5 -17t22.5 -49q0 -35 -24.5 -58
t-60.5 -23z" />
    <glyph glyph-name="uni1E5C" unicode="&#x1e5c;" horiz-adv-x="596" 
d="M28 0l131 652h204q48 0 89 -9t70.5 -29t46.5 -52t17 -77q0 -46 -12.5 -82.5t-34.5 -64.5t-52.5 -48t-66.5 -32l101 -258h-144l-84 239h-80l-47 -239h-138zM235 348h69q73 0 110 31.5t37 85.5q0 42 -28 60t-81 18h-69zM238 720l18 88h287l-17 -88h-288zM248 -229
q-28 0 -51 16.5t-23 49.5q0 16 6.5 31t18 26t27 17.5t33.5 6.5q29 0 51.5 -17t22.5 -49q0 -35 -24.5 -58t-60.5 -23z" />
    <glyph glyph-name="uni1E5D" unicode="&#x1e5d;" horiz-adv-x="384" 
d="M14 0l98 496h111l-6 -96h4q29 47 69 77.5t83 30.5q19 0 31.5 -2.5t20.5 -7.5l-45 -118q-10 5 -23.5 6.5t-25.5 1.5q-33 0 -64 -24t-60 -77l-56 -287h-137zM142 593l18 87h283l-18 -87h-283zM53 -221q-28 0 -51 16.5t-23 49.5q0 16 6.5 31t18 26t27 17.5t33.5 6.5
q29 0 51.5 -17t22.5 -49q0 -35 -24.5 -58t-60.5 -23z" />
    <glyph glyph-name="uni1E5E" unicode="&#x1e5e;" horiz-adv-x="596" 
d="M28 0l131 652h204q48 0 89 -9t70.5 -29t46.5 -52t17 -77q0 -46 -12.5 -82.5t-34.5 -64.5t-52.5 -48t-66.5 -32l101 -258h-144l-84 239h-80l-47 -239h-138zM235 348h69q73 0 110 31.5t37 85.5q0 42 -28 60t-81 18h-69zM105 -184l18 87h283l-18 -87h-283z" />
    <glyph glyph-name="uni1E5F" unicode="&#x1e5f;" horiz-adv-x="384" 
d="M14 0l98 496h111l-6 -96h4q29 47 69 77.5t83 30.5q19 0 31.5 -2.5t20.5 -7.5l-45 -118q-10 5 -23.5 6.5t-25.5 1.5q-33 0 -64 -24t-60 -77l-56 -287h-137zM-90 -176l18 87h283l-18 -87h-283z" />
    <glyph glyph-name="uni1E60" unicode="&#x1e60;" horiz-adv-x="529" 
d="M238 -12q-64 0 -124.5 28t-108.5 94l98 77q26 -38 64.5 -60t80.5 -22t68 20t26 55q0 26 -20.5 42.5t-55.5 38.5l-62 38q-45 28 -71 65.5t-26 97.5q0 42 18 78.5t48.5 64t72.5 43.5t90 16q58 0 109 -27t89 -72l-87 -81q-25 26 -53 43.5t-64 17.5q-40 0 -61.5 -20.5
t-21.5 -49.5q0 -25 22 -41t60 -40l64 -39q48 -29 69.5 -63.5t21.5 -91.5q0 -45 -17.5 -83.5t-49.5 -67t-77.5 -45t-101.5 -16.5zM365 709q-28 0 -51 16.5t-23 49.5q0 16 6.5 31t18 26t27 17.5t33.5 6.5q29 0 51.5 -17t22.5 -49q0 -35 -24.5 -58t-60.5 -23z" />
    <glyph glyph-name="uni1E61" unicode="&#x1e61;" horiz-adv-x="424" 
d="M170 -12q-23 0 -48 6.5t-48.5 18.5t-45 30t-36.5 41l79 66q52 -62 107 -62q29 0 49.5 13.5t20.5 33.5q0 22 -22 36t-64 38q-42 23 -71 56.5t-29 80.5q0 35 15 65t41 51.5t61 33.5t75 12q51 0 91.5 -22t71.5 -54l-75 -71q-18 19 -40 32t-48 13q-29 0 -46.5 -13.5
t-17.5 -33.5q0 -12 7 -21t19 -16.5t26.5 -15t29.5 -16.5q45 -24 74.5 -56t29.5 -83q0 -36 -15.5 -66t-42.5 -51.5t-65 -33.5t-83 -12zM286 570q-28 0 -51 16.5t-23 49.5q0 16 6.5 31t18 26t27 17.5t33.5 6.5q29 0 51.5 -17t22.5 -49q0 -35 -24.5 -58t-60.5 -23z" />
    <glyph glyph-name="uni1E62" unicode="&#x1e62;" horiz-adv-x="529" 
d="M238 -12q-64 0 -124.5 28t-108.5 94l98 77q26 -38 64.5 -60t80.5 -22t68 20t26 55q0 26 -20.5 42.5t-55.5 38.5l-62 38q-45 28 -71 65.5t-26 97.5q0 42 18 78.5t48.5 64t72.5 43.5t90 16q58 0 109 -27t89 -72l-87 -81q-25 26 -53 43.5t-64 17.5q-40 0 -61.5 -20.5
t-21.5 -49.5q0 -25 22 -41t60 -40l64 -39q48 -29 69.5 -63.5t21.5 -91.5q0 -45 -17.5 -83.5t-49.5 -67t-77.5 -45t-101.5 -16.5zM206 -229q-28 0 -51 16.5t-23 49.5q0 16 6.5 31t18 26t27 17.5t33.5 6.5q29 0 51.5 -17t22.5 -49q0 -35 -24.5 -58t-60.5 -23z" />
    <glyph glyph-name="uni1E63" unicode="&#x1e63;" horiz-adv-x="424" 
d="M170 -12q-23 0 -48 6.5t-48.5 18.5t-45 30t-36.5 41l79 66q52 -62 107 -62q29 0 49.5 13.5t20.5 33.5q0 22 -22 36t-64 38q-42 23 -71 56.5t-29 80.5q0 35 15 65t41 51.5t61 33.5t75 12q51 0 91.5 -22t71.5 -54l-75 -71q-18 19 -40 32t-48 13q-29 0 -46.5 -13.5
t-17.5 -33.5q0 -12 7 -21t19 -16.5t26.5 -15t29.5 -16.5q45 -24 74.5 -56t29.5 -83q0 -36 -15.5 -66t-42.5 -51.5t-65 -33.5t-83 -12zM146 -221q-28 0 -51 16.5t-23 49.5q0 16 6.5 31t18 26t27 17.5t33.5 6.5q29 0 51.5 -17t22.5 -49q0 -35 -24.5 -58t-60.5 -23z" />
    <glyph glyph-name="uni1E6C" unicode="&#x1e6c;" horiz-adv-x="532" 
d="M149 0l106 536h-171l22 116h480l-23 -116h-171l-106 -536h-137zM182 -221q-28 0 -51 16.5t-23 49.5q0 16 6.5 31t18 26t27 17.5t33.5 6.5q29 0 51.5 -17t22.5 -49q0 -35 -24.5 -58t-60.5 -23z" />
    <glyph glyph-name="uni1E6D" unicode="&#x1e6d;" horiz-adv-x="367" 
d="M203 -12q-75 0 -108 37t-33 94q0 16 2.5 31.5t5.5 31.5l43 207h-66l20 101l73 6l42 130h115l-25 -130h113l-21 -107h-116l-43 -213q-2 -9 -2 -17v-16q0 -48 51 -48q11 0 21 3t20 8l24 -96q-20 -8 -49 -15t-67 -7zM141 -221q-28 0 -51 16.5t-23 49.5q0 16 6.5 31t18 26
t27 17.5t33.5 6.5q29 0 51.5 -17t22.5 -49q0 -35 -24.5 -58t-60.5 -23z" />
    <glyph glyph-name="uni1E6E" unicode="&#x1e6e;" horiz-adv-x="532" 
d="M149 0l106 536h-171l22 116h480l-23 -116h-171l-106 -536h-137zM39 -176l18 87h283l-18 -87h-283z" />
    <glyph glyph-name="uni1E6F" unicode="&#x1e6f;" horiz-adv-x="367" 
d="M203 -12q-75 0 -108 37t-33 94q0 16 2.5 31.5t5.5 31.5l43 207h-66l20 101l73 6l42 130h115l-25 -130h113l-21 -107h-116l-43 -213q-2 -9 -2 -17v-16q0 -48 51 -48q11 0 21 3t20 8l24 -96q-20 -8 -49 -15t-67 -7zM-2 -176l18 87h283l-18 -87h-283z" />
    <glyph glyph-name="Wgrave" unicode="&#x1e80;" horiz-adv-x="794" 
d="M77 0l23 652h140l-21 -313q-5 -52 -9.5 -104.5t-10.5 -104.5h4q20 52 42.5 105t42.5 104l134 313h116l2 -313q-1 -51 -3 -103.5t-4 -105.5h4q18 53 37 105.5t36 103.5l110 313h131l-253 -652h-173l4 312q0 32 2.5 73t6.5 79h-4q-14 -37 -29.5 -75.5t-29.5 -76.5
l-128 -312h-170zM511 676l-164 134l94 87l147 -154z" />
    <glyph glyph-name="wgrave" unicode="&#x1e81;" horiz-adv-x="748" 
d="M96 0l-24 496h135l1 -240q-1 -36 -2.5 -72.5t-3.5 -73.5h4q14 37 27 74t29 72l102 240h119l8 -240q1 -36 0.5 -72.5t-0.5 -73.5h4q14 37 26 73.5t26 72.5l93 240h127l-212 -496h-161l-4 208q1 35 1 70.5t1 74.5h-4q-14 -39 -26 -74.5t-26 -70.5l-85 -208h-155zM466 569
l-154 171l117 87l121 -193z" />
    <glyph glyph-name="Wacute" unicode="&#x1e82;" horiz-adv-x="794" 
d="M77 0l23 652h140l-21 -313q-5 -52 -9.5 -104.5t-10.5 -104.5h4q20 52 42.5 105t42.5 104l134 313h116l2 -313q-1 -51 -3 -103.5t-4 -105.5h4q18 53 37 105.5t36 103.5l110 313h131l-253 -652h-173l4 312q0 32 2.5 73t6.5 79h-4q-14 -37 -29.5 -75.5t-29.5 -76.5
l-128 -312h-170zM451 686l-52 79l195 124l61 -101z" />
    <glyph glyph-name="wacute" unicode="&#x1e83;" horiz-adv-x="748" 
d="M96 0l-24 496h135l1 -240q-1 -36 -2.5 -72.5t-3.5 -73.5h4q14 37 27 74t29 72l102 240h119l8 -240q1 -36 0.5 -72.5t-0.5 -73.5h4q14 37 26 73.5t26 72.5l93 240h127l-212 -496h-161l-4 208q1 35 1 70.5t1 74.5h-4q-14 -39 -26 -74.5t-26 -70.5l-85 -208h-155zM413 578
l-60 78l185 166l82 -104z" />
    <glyph glyph-name="Wdieresis" unicode="&#x1e84;" horiz-adv-x="794" 
d="M77 0l23 652h140l-21 -313q-5 -52 -9.5 -104.5t-10.5 -104.5h4q20 52 42.5 105t42.5 104l134 313h116l2 -313q-1 -51 -3 -103.5t-4 -105.5h4q18 53 37 105.5t36 103.5l110 313h131l-253 -652h-173l4 312q0 32 2.5 73t6.5 79h-4q-14 -37 -29.5 -75.5t-29.5 -76.5
l-128 -312h-170zM377 701q-25 0 -41.5 15.5t-16.5 42.5q0 13 5.5 26.5t15.5 24.5t23.5 17.5t29.5 6.5q23 0 40 -15t17 -42q0 -28 -20.5 -52t-52.5 -24zM587 701q-24 0 -40.5 15.5t-16.5 42.5q0 13 5.5 26.5t15 24.5t23 17.5t29.5 6.5q23 0 40 -15t17 -42q0 -28 -20.5 -52
t-52.5 -24z" />
    <glyph glyph-name="wdieresis" unicode="&#x1e85;" horiz-adv-x="748" 
d="M96 0l-24 496h135l1 -240q-1 -36 -2.5 -72.5t-3.5 -73.5h4q14 37 27 74t29 72l102 240h119l8 -240q1 -36 0.5 -72.5t-0.5 -73.5h4q14 37 26 73.5t26 72.5l93 240h127l-212 -496h-161l-4 208q1 35 1 70.5t1 74.5h-4q-14 -39 -26 -74.5t-26 -70.5l-85 -208h-155zM331 572
q-25 0 -42 15t-17 44q0 30 21.5 52.5t53.5 22.5q25 0 42 -16t17 -44q0 -31 -21.5 -52.5t-53.5 -21.5zM541 572q-25 0 -41.5 15t-16.5 44q0 30 21 52.5t53 22.5q26 0 42.5 -16t16.5 -44q0 -31 -21.5 -52.5t-53.5 -21.5z" />
    <glyph glyph-name="uni1E8E" unicode="&#x1e8e;" 
d="M138 0l46 236l-104 416h142l28 -157q7 -37 12.5 -71t12.5 -72h4q20 38 39 72.5t41 72.5l91 155h147l-276 -416l-47 -236h-136zM339 703q-28 0 -51 16.5t-23 49.5q0 16 6.5 31t18 26t27 17.5t33.5 6.5q29 0 51.5 -17t22.5 -49q0 -35 -24.5 -58t-60.5 -23z" />
    <glyph glyph-name="uni1E8F" unicode="&#x1e8f;" horiz-adv-x="499" 
d="M36 -194q-14 0 -35 6t-36 14l42 98q17 -10 37 -10q27 0 52 19.5t42 52.5l12 25l-86 485h136l23 -224q4 -32 6 -73t3 -76h4q16 35 33 75t33 74l104 224h133l-268 -507q-26 -45 -51.5 -79t-53.5 -57t-60 -35t-70 -12zM305 570q-28 0 -51 16.5t-23 49.5q0 16 6.5 31t18 26
t27 17.5t33.5 6.5q29 0 51.5 -17t22.5 -49q0 -35 -24.5 -58t-60.5 -23z" />
    <glyph glyph-name="uni1E92" unicode="&#x1e92;" horiz-adv-x="525" 
d="M-5 0l18 82l356 455h-257l23 115h421l-17 -83l-353 -454h283l-24 -115h-450zM180 -229q-28 0 -51 16.5t-23 49.5q0 16 6.5 31t18 26t27 17.5t33.5 6.5q29 0 51.5 -17t22.5 -49q0 -35 -24.5 -58t-60.5 -23z" />
    <glyph glyph-name="uni1E93" unicode="&#x1e93;" horiz-adv-x="443" 
d="M-10 0l15 77l263 312h-179l20 107h351l-15 -79l-263 -310h208l-21 -107h-379zM150 -221q-28 0 -51 16.5t-23 49.5q0 16 6.5 31t18 26t27 17.5t33.5 6.5q29 0 51.5 -17t22.5 -49q0 -35 -24.5 -58t-60.5 -23z" />
    <glyph glyph-name="uni1E97" unicode="&#x1e97;" horiz-adv-x="367" 
d="M203 -12q-75 0 -108 37t-33 94q0 16 2.5 31.5t5.5 31.5l43 207h-66l20 101l73 6l42 130h115l-25 -130h113l-21 -107h-116l-43 -213q-2 -9 -2 -17v-16q0 -48 51 -48q11 0 21 3t20 8l24 -96q-20 -8 -49 -15t-67 -7zM146 712q-25 0 -42 15t-17 44q0 30 21.5 52.5t53.5 22.5
q25 0 42 -16t17 -44q0 -31 -21.5 -52.5t-53.5 -21.5zM356 712q-25 0 -41.5 15t-16.5 44q0 30 21 52.5t53 22.5q26 0 42.5 -16t16.5 -44q0 -31 -21.5 -52.5t-53.5 -21.5z" />
    <glyph glyph-name="uni1E9E" unicode="&#x1e9e;" horiz-adv-x="671" 
d="M420 -12q-51 0 -98 18.5t-83 57.5l78 85q15 -20 38 -35.5t55 -15.5q31 0 54.5 23t23.5 59q0 29 -31 58t-100 48l7 80l133 123q-12 36 -41 54.5t-68 18.5q-54 0 -90.5 -42t-52.5 -117l-79 -403h-138l87 430q10 50 31 94t55.5 77t83 52t112.5 19q45 0 86 -11.5t72.5 -36
t51.5 -62t24 -89.5l-134 -119q58 -26 95 -67t37 -99q0 -42 -15.5 -78.5t-43 -63.5t-66 -42.5t-84.5 -15.5z" />
    <glyph glyph-name="uni1EA0" unicode="&#x1ea0;" horiz-adv-x="548" 
d="M255 353l-40 -86h140l-4 86q-2 48 -4 95t-4 99h-4q-21 -51 -41 -98t-43 -96zM-62 0l344 652h164l65 -652h-143l-8 164h-194l-77 -164h-151zM202 -221q-28 0 -51 16.5t-23 49.5q0 16 6.5 31t18 26t27 17.5t33.5 6.5q29 0 51.5 -17t22.5 -49q0 -35 -24.5 -58t-60.5 -23z
" />
    <glyph glyph-name="uni1EA1" unicode="&#x1ea1;" horiz-adv-x="552" 
d="M171 -12q-66 0 -103 47t-37 135q0 71 22 132.5t59 107.5t85 72t99 26q34 0 64 -17.5t44 -47.5h2l22 53h109l-99 -496h-111l2 65h-3q-34 -35 -75 -56t-80 -21zM231 100q25 0 53.5 15.5t52.5 57.5l35 176q-12 25 -30.5 36t-35.5 11q-26 0 -50 -16t-42.5 -44t-29.5 -66
t-11 -83t15.5 -66t42.5 -21zM210 -221q-28 0 -51 16.5t-23 49.5q0 16 6.5 31t18 26t27 17.5t33.5 6.5q29 0 51.5 -17t22.5 -49q0 -35 -24.5 -58t-60.5 -23z" />
    <glyph glyph-name="uni1EA2" unicode="&#x1ea2;" horiz-adv-x="548" 
d="M255 353l-40 -86h140l-4 86q-2 48 -4 95t-4 99h-4q-21 -51 -41 -98t-43 -96zM-62 0l344 652h164l65 -652h-143l-8 164h-194l-77 -164h-151zM312 691v58q20 4 34.5 10t16.5 20t-14.5 22.5t-59.5 11.5l32 73q92 -2 125 -26.5t25 -64.5q-5 -26 -19.5 -44.5t-36 -31
t-48 -19.5t-55.5 -9z" />
    <glyph glyph-name="uni1EA3" unicode="&#x1ea3;" horiz-adv-x="552" 
d="M171 -12q-66 0 -103 47t-37 135q0 71 22 132.5t59 107.5t85 72t99 26q34 0 64 -17.5t44 -47.5h2l22 53h109l-99 -496h-111l2 65h-3q-34 -35 -75 -56t-80 -21zM231 100q25 0 53.5 15.5t52.5 57.5l35 176q-12 25 -30.5 36t-35.5 11q-26 0 -50 -16t-42.5 -44t-29.5 -66
t-11 -83t15.5 -66t42.5 -21zM283 568v58q19 4 33.5 11.5t17.5 23.5q4 18 -12.5 28.5t-58.5 13.5l25 90q49 -1 81.5 -10.5t50.5 -25t23.5 -37.5t0.5 -48t-20 -44.5t-37 -31t-49 -19.5t-55 -9z" />
    <glyph glyph-name="uni1EA4" unicode="&#x1ea4;" horiz-adv-x="548" 
d="M255 353l-40 -86h140l-4 86q-2 48 -4 95t-4 99h-4q-21 -51 -41 -98t-43 -96zM-62 0l344 652h164l65 -652h-143l-8 164h-194l-77 -164h-151zM268 685l-53 39l107 100h127l72 -100l-64 -39l-80 72h-4zM516 763l-35 53l115 76l38 -64z" />
    <glyph glyph-name="uni1EA5" unicode="&#x1ea5;" horiz-adv-x="552" 
d="M171 -12q-66 0 -103 47t-37 135q0 71 22 132.5t59 107.5t85 72t99 26q34 0 64 -17.5t44 -47.5h2l22 53h109l-99 -496h-111l2 65h-3q-34 -35 -75 -56t-80 -21zM231 100q25 0 53.5 15.5t52.5 57.5l35 176q-12 25 -30.5 36t-35.5 11q-26 0 -50 -16t-42.5 -44t-29.5 -66
t-11 -83t15.5 -66t42.5 -21zM233 566l-40 56l109 88h117l77 -95l-54 -49l-88 68h-4zM510 641l-47 48l100 119l69 -58z" />
    <glyph glyph-name="uni1EA6" unicode="&#x1ea6;" horiz-adv-x="548" 
d="M255 353l-40 -86h140l-4 86q-2 48 -4 95t-4 99h-4q-21 -51 -41 -98t-43 -96zM-62 0l344 652h164l65 -652h-143l-8 164h-194l-77 -164h-151zM268 685l-53 39l107 100h127l72 -100l-64 -39l-80 72h-4zM216 761l-92 81l58 55l86 -92z" />
    <glyph glyph-name="uni1EA7" unicode="&#x1ea7;" horiz-adv-x="552" 
d="M171 -12q-66 0 -103 47t-37 135q0 71 22 132.5t59 107.5t85 72t99 26q34 0 64 -17.5t44 -47.5h2l22 53h109l-99 -496h-111l2 65h-3q-34 -35 -75 -56t-80 -21zM231 100q25 0 53.5 15.5t52.5 57.5l35 176q-12 25 -30.5 36t-35.5 11q-26 0 -50 -16t-42.5 -44t-29.5 -66
t-11 -83t15.5 -66t42.5 -21zM233 566l-40 56l109 88h117l77 -95l-54 -49l-88 68h-4zM158 638l-83 126l87 44l60 -131z" />
    <glyph glyph-name="uni1EA8" unicode="&#x1ea8;" horiz-adv-x="548" 
d="M255 353l-40 -86h140l-4 86q-2 48 -4 95t-4 99h-4q-21 -51 -41 -98t-43 -96zM-62 0l344 652h164l65 -652h-143l-8 164h-194l-77 -164h-151zM268 685l-53 39l107 100h127l72 -100l-64 -39l-80 72h-4zM508 750l-3 47q14 3 24.5 8.5t12.5 18.5q4 14 -8.5 22.5t-50.5 10.5
l25 60q41 -1 68 -7.5t42 -17t19.5 -25t1.5 -30.5q-8 -44 -45.5 -63.5t-85.5 -23.5z" />
    <glyph glyph-name="uni1EA9" unicode="&#x1ea9;" horiz-adv-x="552" 
d="M171 -12q-66 0 -103 47t-37 135q0 71 22 132.5t59 107.5t85 72t99 26q34 0 64 -17.5t44 -47.5h2l22 53h109l-99 -496h-111l2 65h-3q-34 -35 -75 -56t-80 -21zM231 100q25 0 53.5 15.5t52.5 57.5l35 176q-12 25 -30.5 36t-35.5 11q-26 0 -50 -16t-42.5 -44t-29.5 -66
t-11 -83t15.5 -66t42.5 -21zM233 566l-40 56l109 88h117l77 -95l-54 -49l-88 68h-4zM486 644l-1 50q14 4 24 9.5t12 19.5t-10 22t-49 11l25 62q82 -3 111 -24t22 -56q-5 -24 -17.5 -40.5t-30 -27.5t-40 -17t-46.5 -9z" />
    <glyph glyph-name="uni1EAA" unicode="&#x1eaa;" horiz-adv-x="548" 
d="M255 353l-40 -86h140l-4 86q-2 48 -4 95t-4 99h-4q-21 -51 -41 -98t-43 -96zM-62 0l344 652h164l65 -652h-143l-8 164h-194l-77 -164h-151zM266 685l-51 39l105 92h127l74 -92l-66 -39l-80 63h-4zM448 838q-21 0 -35.5 7t-26 15t-21.5 15t-20 7q-27 0 -38 -38l-70 8
q13 57 42 84t71 27q21 0 35.5 -7t26 -15t21 -15t19.5 -7q27 0 39 39l68 -9q-12 -57 -40.5 -84t-70.5 -27z" />
    <glyph glyph-name="uni1EAB" unicode="&#x1eab;" horiz-adv-x="552" 
d="M171 -12q-66 0 -103 47t-37 135q0 71 22 132.5t59 107.5t85 72t99 26q34 0 64 -17.5t44 -47.5h2l22 53h109l-99 -496h-111l2 65h-3q-34 -35 -75 -56t-80 -21zM231 100q25 0 53.5 15.5t52.5 57.5l35 176q-12 25 -30.5 36t-35.5 11q-26 0 -50 -16t-42.5 -44t-29.5 -66
t-11 -83t15.5 -66t42.5 -21zM233 566l-40 56l105 80h117l81 -87l-54 -49l-91 60h-4zM419 716q-21 0 -35 6.5t-25 14.5t-20.5 14.5t-20.5 6.5t-20.5 -9t-17.5 -29l-66 7q17 57 44.5 84t65.5 27q21 0 35.5 -6.5t25.5 -14.5t20 -14.5t20 -6.5q23 0 37 38l65 -7
q-15 -57 -42.5 -84t-65.5 -27z" />
    <glyph glyph-name="uni1EAC" unicode="&#x1eac;" horiz-adv-x="548" 
d="M255 353l-40 -86h140l-4 86q-2 48 -4 95t-4 99h-4q-21 -51 -41 -98t-43 -96zM-62 0l344 652h164l65 -652h-143l-8 164h-194l-77 -164h-151zM254 685l-57 44l109 106h160l70 -111l-67 -38l-86 83h-4zM202 -221q-28 0 -51 16.5t-23 49.5q0 16 6.5 31t18 26t27 17.5
t33.5 6.5q29 0 51.5 -17t22.5 -49q0 -35 -24.5 -58t-60.5 -23z" />
    <glyph glyph-name="uni1EAD" unicode="&#x1ead;" horiz-adv-x="552" 
d="M171 -12q-66 0 -103 47t-37 135q0 71 22 132.5t59 107.5t85 72t99 26q34 0 64 -17.5t44 -47.5h2l22 53h109l-99 -496h-111l2 65h-3q-34 -35 -75 -56t-80 -21zM231 100q25 0 53.5 15.5t52.5 57.5l35 176q-12 25 -30.5 36t-35.5 11q-26 0 -50 -16t-42.5 -44t-29.5 -66
t-11 -83t15.5 -66t42.5 -21zM205 561l-47 55l130 128h150l86 -131l-62 -52l-105 96h-4zM210 -221q-28 0 -51 16.5t-23 49.5q0 16 6.5 31t18 26t27 17.5t33.5 6.5q29 0 51.5 -17t22.5 -49q0 -35 -24.5 -58t-60.5 -23z" />
    <glyph glyph-name="uni1EAE" unicode="&#x1eae;" horiz-adv-x="548" 
d="M255 353l-40 -86h140l-4 86q-2 48 -4 95t-4 99h-4q-21 -51 -41 -98t-43 -96zM-62 0l344 652h164l65 -652h-143l-8 164h-194l-77 -164h-151zM363 697q-75 0 -109.5 35t-30.5 102l76 14q2 -35 21.5 -54.5t56.5 -19.5t63.5 19.5t40.5 54.5l69 -14q-18 -67 -65 -102t-122 -35
zM388 812l-63 52l120 127l81 -64z" />
    <glyph glyph-name="uni1EAF" unicode="&#x1eaf;" horiz-adv-x="552" 
d="M171 -12q-66 0 -103 47t-37 135q0 71 22 132.5t59 107.5t85 72t99 26q34 0 64 -17.5t44 -47.5h2l22 53h109l-99 -496h-111l2 65h-3q-34 -35 -75 -56t-80 -21zM231 100q25 0 53.5 15.5t52.5 57.5l35 176q-12 25 -30.5 36t-35.5 11q-26 0 -50 -16t-42.5 -44t-29.5 -66
t-11 -83t15.5 -66t42.5 -21zM340 572q-43 0 -72 12t-46 33.5t-22.5 50t-0.5 61.5l79 14q-2 -36 16 -62t62 -26q43 0 70 26t39 62l72 -14q-7 -33 -22.5 -61.5t-40 -50t-58 -33.5t-76.5 -12zM370 708l-56 49l119 130l74 -72z" />
    <glyph glyph-name="uni1EB0" unicode="&#x1eb0;" horiz-adv-x="548" 
d="M255 353l-40 -86h140l-4 86q-2 48 -4 95t-4 99h-4q-21 -51 -41 -98t-43 -96zM-62 0l344 652h164l65 -652h-143l-8 164h-194l-77 -164h-151zM363 697q-75 0 -109.5 35t-30.5 102l76 14q2 -35 21.5 -54.5t56.5 -19.5t63.5 19.5t40.5 54.5l69 -14q-18 -67 -65 -102t-122 -35
zM373 808l-93 135l101 48l72 -143z" />
    <glyph glyph-name="uni1EB1" unicode="&#x1eb1;" horiz-adv-x="552" 
d="M171 -12q-66 0 -103 47t-37 135q0 71 22 132.5t59 107.5t85 72t99 26q34 0 64 -17.5t44 -47.5h2l22 53h109l-99 -496h-111l2 65h-3q-34 -35 -75 -56t-80 -21zM231 100q25 0 53.5 15.5t52.5 57.5l35 176q-12 25 -30.5 36t-35.5 11q-26 0 -50 -16t-42.5 -44t-29.5 -66
t-11 -83t15.5 -66t42.5 -21zM340 572q-43 0 -72 12t-46 33.5t-22.5 50t-0.5 61.5l79 14q-2 -36 16 -62t62 -26q43 0 70 26t39 62l72 -14q-7 -33 -22.5 -61.5t-40 -50t-58 -33.5t-76.5 -12zM358 703l-95 128l97 57l69 -147z" />
    <glyph glyph-name="uni1EB2" unicode="&#x1eb2;" horiz-adv-x="548" 
d="M255 353l-40 -86h140l-4 86q-2 48 -4 95t-4 99h-4q-21 -51 -41 -98t-43 -96zM-62 0l344 652h164l65 -652h-143l-8 164h-194l-77 -164h-151zM361 697q-75 0 -108.5 35t-28.5 102l75 14q1 -35 20.5 -54.5t56.5 -19.5t64 19.5t41 54.5l70 -14q-20 -67 -67.5 -102t-122.5 -35
zM350 806l-3 47q15 3 25.5 8.5t12.5 18.5q3 14 -9 22t-50 11l26 61q81 -3 108.5 -25.5t21.5 -55.5q-8 -44 -45.5 -63.5t-86.5 -23.5z" />
    <glyph glyph-name="uni1EB3" unicode="&#x1eb3;" horiz-adv-x="552" 
d="M171 -12q-66 0 -103 47t-37 135q0 71 22 132.5t59 107.5t85 72t99 26q34 0 64 -17.5t44 -47.5h2l22 53h109l-99 -496h-111l2 65h-3q-34 -35 -75 -56t-80 -21zM231 100q25 0 53.5 15.5t52.5 57.5l35 176q-12 25 -30.5 36t-35.5 11q-26 0 -50 -16t-42.5 -44t-29.5 -66
t-11 -83t15.5 -66t42.5 -21zM338 572q-42 0 -71 12t-45.5 33.5t-21.5 50t0 61.5l78 14q-2 -36 15.5 -62t60.5 -26q44 0 71 26t40 62l73 -14q-8 -33 -23.5 -61.5t-40.5 -50t-59 -33.5t-77 -12zM328 697v51q15 2 25.5 8t12.5 20q3 14 -10 22t-51 11l28 80q41 -2 68.5 -9
t42.5 -20t19.5 -30.5t0.5 -38.5q-5 -24 -17.5 -41t-30.5 -27.5t-40.5 -16.5t-47.5 -9z" />
    <glyph glyph-name="uni1EB4" unicode="&#x1eb4;" horiz-adv-x="548" 
d="M255 353l-40 -86h140l-4 86q-2 48 -4 95t-4 99h-4q-21 -51 -41 -98t-43 -96zM-62 0l344 652h164l65 -652h-143l-8 164h-194l-77 -164h-151zM366 702q-75 0 -108 30.5t-28 81.5l72 12q2 -22 18.5 -37.5t58.5 -15.5q41 0 62.5 15.5t32.5 37.5l69 -12q-16 -51 -59 -81.5
t-118 -30.5zM452 847q-21 0 -35.5 7t-26.5 15t-22 15t-20 7q-26 0 -39 -39l-68 8q12 57 41 84t71 27q21 0 35.5 -7t26.5 -15t21.5 -15t20.5 -7q26 0 39 39l68 -9q-13 -57 -41.5 -83.5t-70.5 -26.5z" />
    <glyph glyph-name="uni1EB5" unicode="&#x1eb5;" horiz-adv-x="552" 
d="M171 -12q-66 0 -103 47t-37 135q0 71 22 132.5t59 107.5t85 72t99 26q34 0 64 -17.5t44 -47.5h2l22 53h109l-99 -496h-111l2 65h-3q-34 -35 -75 -56t-80 -21zM231 100q25 0 53.5 15.5t52.5 57.5l35 176q-12 25 -30.5 36t-35.5 11q-26 0 -50 -16t-42.5 -44t-29.5 -66
t-11 -83t15.5 -66t42.5 -21zM342 572q-39 0 -65.5 9t-42.5 25t-22 36t-4 43l73 12q2 -20 18 -36t55 -16q40 0 61.5 16t29.5 36l71 -12q-7 -23 -20.5 -43t-34.5 -36t-50.5 -25t-68.5 -9zM424 714q-21 0 -35 6.5t-25 14.5t-20 14.5t-20 6.5q-23 0 -37 -38l-74 7q16 58 45.5 85
t71.5 27q21 0 35 -6.5t25 -14.5t20 -14.5t20 -6.5q23 0 39 37l74 -7q-17 -57 -47 -84t-72 -27z" />
    <glyph glyph-name="uni1EB6" unicode="&#x1eb6;" horiz-adv-x="548" 
d="M255 353l-40 -86h140l-4 86q-2 48 -4 95t-4 99h-4q-21 -51 -41 -98t-43 -96zM-62 0l344 652h164l65 -652h-143l-8 164h-194l-77 -164h-151zM362 697q-75 0 -109.5 35t-30.5 102l84 14q0 -31 19 -48.5t53 -17.5q33 0 57 17.5t37 48.5l77 -14q-18 -67 -65 -102t-122 -35z
M202 -221q-28 0 -51 16.5t-23 49.5q0 16 6.5 31t18 26t27 17.5t33.5 6.5q29 0 51.5 -17t22.5 -49q0 -35 -24.5 -58t-60.5 -23z" />
    <glyph glyph-name="uni1EB7" unicode="&#x1eb7;" horiz-adv-x="552" 
d="M171 -12q-66 0 -103 47t-37 135q0 71 22 132.5t59 107.5t85 72t99 26q34 0 64 -17.5t44 -47.5h2l22 53h109l-99 -496h-111l2 65h-3q-34 -35 -75 -56t-80 -21zM231 100q25 0 53.5 15.5t52.5 57.5l35 176q-12 25 -30.5 36t-35.5 11q-26 0 -50 -16t-42.5 -44t-29.5 -66
t-11 -83t15.5 -66t42.5 -21zM332 572q-43 0 -72 12t-46 33.5t-22.5 50t-0.5 61.5l87 14q-2 -32 15 -55.5t57 -23.5q39 0 63.5 23.5t35.5 55.5l80 -14q-7 -33 -22.5 -61.5t-40 -50t-58 -33.5t-76.5 -12zM210 -221q-28 0 -51 16.5t-23 49.5q0 16 6.5 31t18 26t27 17.5
t33.5 6.5q29 0 51.5 -17t22.5 -49q0 -35 -24.5 -58t-60.5 -23z" />
    <glyph glyph-name="uni1EB8" unicode="&#x1eb8;" horiz-adv-x="527" 
d="M28 0l131 652h386l-22 -115h-251l-28 -142h213l-22 -115h-213l-34 -165h259l-22 -115h-397zM212 -221q-28 0 -51 16.5t-23 49.5q0 16 6.5 31t18 26t27 17.5t33.5 6.5q29 0 51.5 -17t22.5 -49q0 -35 -24.5 -58t-60.5 -23z" />
    <glyph glyph-name="uni1EB9" unicode="&#x1eb9;" horiz-adv-x="496" 
d="M29 200q0 69 24.5 125.5t64 97t88.5 63t99 22.5q44 0 75 -14.5t50.5 -40t28 -59t8.5 -72.5q0 -18 -3 -35.5t-7 -33t-8.5 -27t-7.5 -17.5h-282q-3 -62 29.5 -90t81.5 -28q23 0 48 11t44 24l48 -86q-30 -21 -75 -36.5t-103 -15.5q-45 0 -82.5 14.5t-64 42t-41.5 66.5
t-15 89zM170 293h180q5 17 5 37q0 30 -14.5 51.5t-52.5 21.5q-35 0 -68 -27.5t-50 -82.5zM187 -221q-28 0 -51 16.5t-23 49.5q0 16 6.5 31t18 26t27 17.5t33.5 6.5q29 0 51.5 -17t22.5 -49q0 -35 -24.5 -58t-60.5 -23z" />
    <glyph glyph-name="uni1EBA" unicode="&#x1eba;" horiz-adv-x="527" 
d="M28 0l131 652h386l-22 -115h-251l-28 -142h213l-22 -115h-213l-34 -165h259l-22 -115h-397zM314 691v58q20 4 34.5 10t16.5 20t-14.5 22.5t-59.5 11.5l32 73q92 -2 125 -26.5t25 -64.5q-5 -26 -19.5 -44.5t-36 -31t-48 -19.5t-55.5 -9z" />
    <glyph glyph-name="uni1EBB" unicode="&#x1ebb;" horiz-adv-x="496" 
d="M29 200q0 69 24.5 125.5t64 97t88.5 63t99 22.5q44 0 75 -14.5t50.5 -40t28 -59t8.5 -72.5q0 -18 -3 -35.5t-7 -33t-8.5 -27t-7.5 -17.5h-282q-3 -62 29.5 -90t81.5 -28q23 0 48 11t44 24l48 -86q-30 -21 -75 -36.5t-103 -15.5q-45 0 -82.5 14.5t-64 42t-41.5 66.5
t-15 89zM170 293h180q5 17 5 37q0 30 -14.5 51.5t-52.5 21.5q-35 0 -68 -27.5t-50 -82.5zM281 568v58q19 4 33.5 11.5t17.5 23.5q4 18 -12.5 28.5t-58.5 13.5l25 90q49 -1 81.5 -10.5t50.5 -25t23.5 -37.5t0.5 -48t-20 -44.5t-37 -31t-49 -19.5t-55 -9z" />
    <glyph glyph-name="uni1EBC" unicode="&#x1ebc;" horiz-adv-x="527" 
d="M28 0l131 652h386l-22 -115h-251l-28 -142h213l-22 -115h-213l-34 -165h259l-22 -115h-397zM431 692q-26 0 -44.5 9t-33 20t-26 20t-23.5 9q-14 0 -26 -10.5t-20 -38.5l-93 7q17 76 58 110t93 34q26 0 45 -9t33 -20t26 -20t24 -9q14 0 25.5 11t19.5 38l93 -7
q-17 -76 -58 -110t-93 -34z" />
    <glyph glyph-name="uni1EBD" unicode="&#x1ebd;" horiz-adv-x="496" 
d="M29 200q0 69 24.5 125.5t64 97t88.5 63t99 22.5q44 0 75 -14.5t50.5 -40t28 -59t8.5 -72.5q0 -18 -3 -35.5t-7 -33t-8.5 -27t-7.5 -17.5h-282q-3 -62 29.5 -90t81.5 -28q23 0 48 11t44 24l48 -86q-30 -21 -75 -36.5t-103 -15.5q-45 0 -82.5 14.5t-64 42t-41.5 66.5
t-15 89zM170 293h180q5 17 5 37q0 30 -14.5 51.5t-52.5 21.5q-35 0 -68 -27.5t-50 -82.5zM398 573q-25 0 -42 10t-30.5 22.5t-25.5 22.5t-28 10q-15 0 -27 -13.5t-17 -42.5l-90 5q13 78 50 115t92 37q25 0 41.5 -10t30 -22t25.5 -22t28 -10q15 0 27 13t17 42l90 -5
q-13 -78 -50 -115t-91 -37z" />
    <glyph glyph-name="uni1EBE" unicode="&#x1ebe;" horiz-adv-x="527" 
d="M28 0l131 652h386l-22 -115h-251l-28 -142h213l-22 -115h-213l-34 -165h259l-22 -115h-397zM270 685l-53 39l107 100h127l72 -100l-64 -39l-80 72h-4zM518 763l-35 53l115 76l38 -64z" />
    <glyph glyph-name="uni1EBF" unicode="&#x1ebf;" horiz-adv-x="496" 
d="M29 200q0 69 24.5 125.5t64 97t88.5 63t99 22.5q44 0 75 -14.5t50.5 -40t28 -59t8.5 -72.5q0 -18 -3 -35.5t-7 -33t-8.5 -27t-7.5 -17.5h-282q-3 -62 29.5 -90t81.5 -28q23 0 48 11t44 24l48 -86q-30 -21 -75 -36.5t-103 -15.5q-45 0 -82.5 14.5t-64 42t-41.5 66.5
t-15 89zM170 293h180q5 17 5 37q0 30 -14.5 51.5t-52.5 21.5q-35 0 -68 -27.5t-50 -82.5zM223 566l-40 56l109 88h117l77 -95l-54 -49l-88 68h-4zM500 641l-47 48l100 119l69 -58z" />
    <glyph glyph-name="uni1EC0" unicode="&#x1ec0;" horiz-adv-x="527" 
d="M28 0l131 652h386l-22 -115h-251l-28 -142h213l-22 -115h-213l-34 -165h259l-22 -115h-397zM270 685l-53 39l107 100h127l72 -100l-64 -39l-80 72h-4zM218 761l-92 81l58 55l86 -92z" />
    <glyph glyph-name="uni1EC1" unicode="&#x1ec1;" horiz-adv-x="496" 
d="M29 200q0 69 24.5 125.5t64 97t88.5 63t99 22.5q44 0 75 -14.5t50.5 -40t28 -59t8.5 -72.5q0 -18 -3 -35.5t-7 -33t-8.5 -27t-7.5 -17.5h-282q-3 -62 29.5 -90t81.5 -28q23 0 48 11t44 24l48 -86q-30 -21 -75 -36.5t-103 -15.5q-45 0 -82.5 14.5t-64 42t-41.5 66.5
t-15 89zM170 293h180q5 17 5 37q0 30 -14.5 51.5t-52.5 21.5q-35 0 -68 -27.5t-50 -82.5zM223 566l-40 56l109 88h117l77 -95l-54 -49l-88 68h-4zM148 638l-83 126l87 44l60 -131z" />
    <glyph glyph-name="uni1EC2" unicode="&#x1ec2;" horiz-adv-x="527" 
d="M28 0l131 652h386l-22 -115h-251l-28 -142h213l-22 -115h-213l-34 -165h259l-22 -115h-397zM270 685l-53 39l107 100h127l72 -100l-64 -39l-80 72h-4zM510 750l-3 47q14 3 24.5 8.5t12.5 18.5q4 14 -8.5 22.5t-50.5 10.5l25 60q41 -1 68 -7.5t42 -17t19.5 -25t1.5 -30.5
q-8 -44 -45.5 -63.5t-85.5 -23.5z" />
    <glyph glyph-name="uni1EC3" unicode="&#x1ec3;" horiz-adv-x="496" 
d="M29 200q0 69 24.5 125.5t64 97t88.5 63t99 22.5q44 0 75 -14.5t50.5 -40t28 -59t8.5 -72.5q0 -18 -3 -35.5t-7 -33t-8.5 -27t-7.5 -17.5h-282q-3 -62 29.5 -90t81.5 -28q23 0 48 11t44 24l48 -86q-30 -21 -75 -36.5t-103 -15.5q-45 0 -82.5 14.5t-64 42t-41.5 66.5
t-15 89zM170 293h180q5 17 5 37q0 30 -14.5 51.5t-52.5 21.5q-35 0 -68 -27.5t-50 -82.5zM223 565l-40 56l109 88h117l77 -95l-54 -49l-88 68h-4zM476 643l-1 50q14 4 24 9.5t12 19.5t-10 22t-49 11l25 62q82 -3 111 -24t22 -56q-5 -24 -17.5 -40.5t-30 -27.5t-40 -17
t-46.5 -9z" />
    <glyph glyph-name="uni1EC4" unicode="&#x1ec4;" horiz-adv-x="527" 
d="M28 0l131 652h386l-22 -115h-251l-28 -142h213l-22 -115h-213l-34 -165h259l-22 -115h-397zM268 685l-51 39l105 92h127l74 -92l-66 -39l-80 63h-4zM450 838q-21 0 -35.5 7t-26 15t-21.5 15t-20 7q-27 0 -38 -38l-70 8q13 57 42 84t71 27q21 0 35.5 -7t26 -15t21 -15
t19.5 -7q27 0 39 39l68 -9q-12 -57 -40.5 -84t-70.5 -27z" />
    <glyph glyph-name="uni1EC5" unicode="&#x1ec5;" horiz-adv-x="496" 
d="M29 200q0 69 24.5 125.5t64 97t88.5 63t99 22.5q44 0 75 -14.5t50.5 -40t28 -59t8.5 -72.5q0 -18 -3 -35.5t-7 -33t-8.5 -27t-7.5 -17.5h-282q-3 -62 29.5 -90t81.5 -28q23 0 48 11t44 24l48 -86q-30 -21 -75 -36.5t-103 -15.5q-45 0 -82.5 14.5t-64 42t-41.5 66.5
t-15 89zM170 293h180q5 17 5 37q0 30 -14.5 51.5t-52.5 21.5q-35 0 -68 -27.5t-50 -82.5zM223 566l-40 56l105 80h117l81 -87l-54 -49l-91 60h-4zM409 716q-21 0 -35 6.5t-25 14.5t-20.5 14.5t-20.5 6.5t-20.5 -9t-17.5 -29l-66 7q17 57 44.5 84t65.5 27q21 0 35.5 -6.5
t25.5 -14.5t20 -14.5t20 -6.5q23 0 37 38l65 -7q-15 -57 -42.5 -84t-65.5 -27z" />
    <glyph glyph-name="uni1EC6" unicode="&#x1ec6;" horiz-adv-x="527" 
d="M28 0l131 652h386l-22 -115h-251l-28 -142h213l-22 -115h-213l-34 -165h259l-22 -115h-397zM256 685l-57 44l109 106h160l70 -111l-67 -38l-86 83h-4zM212 -221q-28 0 -51 16.5t-23 49.5q0 16 6.5 31t18 26t27 17.5t33.5 6.5q29 0 51.5 -17t22.5 -49q0 -35 -24.5 -58
t-60.5 -23z" />
    <glyph glyph-name="uni1EC7" unicode="&#x1ec7;" horiz-adv-x="496" 
d="M29 200q0 69 24.5 125.5t64 97t88.5 63t99 22.5q44 0 75 -14.5t50.5 -40t28 -59t8.5 -72.5q0 -18 -3 -35.5t-7 -33t-8.5 -27t-7.5 -17.5h-282q-3 -62 29.5 -90t81.5 -28q23 0 48 11t44 24l48 -86q-30 -21 -75 -36.5t-103 -15.5q-45 0 -82.5 14.5t-64 42t-41.5 66.5
t-15 89zM170 293h180q5 17 5 37q0 30 -14.5 51.5t-52.5 21.5q-35 0 -68 -27.5t-50 -82.5zM195 561l-47 55l130 128h150l86 -131l-62 -52l-105 96h-4zM187 -221q-28 0 -51 16.5t-23 49.5q0 16 6.5 31t18 26t27 17.5t33.5 6.5q29 0 51.5 -17t22.5 -49q0 -35 -24.5 -58
t-60.5 -23z" />
    <glyph glyph-name="uni1EC8" unicode="&#x1ec8;" horiz-adv-x="294" 
d="M28 0l131 652h137l-130 -652h-138zM178 691v58q20 4 34.5 10t16.5 20t-14.5 22.5t-59.5 11.5l32 73q92 -2 125 -26.5t25 -64.5q-5 -26 -19.5 -44.5t-36 -31t-48 -19.5t-55.5 -9z" />
    <glyph glyph-name="uni1EC9" unicode="&#x1ec9;" horiz-adv-x="265" 
d="M14 0l100 496h136l-99 -496h-137zM153 568v58q19 4 33.5 11.5t17.5 23.5q4 18 -12.5 28.5t-58.5 13.5l25 90q49 -1 81.5 -10.5t50.5 -25t23.5 -37.5t0.5 -48t-20 -44.5t-37 -31t-49 -19.5t-55 -9z" />
    <glyph glyph-name="uni1ECA" unicode="&#x1eca;" horiz-adv-x="294" 
d="M28 0l131 652h137l-130 -652h-138zM68 -222q-28 0 -51 16.5t-23 49.5q0 16 6.5 31t18 26t27 17.5t33.5 6.5q29 0 51.5 -17t22.5 -49q0 -35 -24.5 -58t-60.5 -23z" />
    <glyph glyph-name="uni1ECB" unicode="&#x1ecb;" horiz-adv-x="265" 
d="M14 0l100 496h136l-99 -496h-137zM208 570q-28 0 -51 16.5t-23 49.5q0 16 6.5 31t18 26t27 17.5t33.5 6.5q29 0 51.5 -17t22.5 -49q0 -35 -24.5 -58t-60.5 -23zM54 -221q-28 0 -51 16.5t-23 49.5q0 16 6.5 31t18 26t27 17.5t33.5 6.5q29 0 51.5 -17t22.5 -49
q0 -35 -24.5 -58t-60.5 -23z" />
    <glyph glyph-name="uni1ECC" unicode="&#x1ecc;" horiz-adv-x="660" 
d="M302 -12q-56 0 -101 18.5t-77 54t-49.5 87t-17.5 116.5q0 86 27 159.5t72.5 127t105.5 83.5t126 30q56 0 101 -19t77 -54.5t49.5 -86.5t17.5 -116q0 -86 -27 -159.5t-72.5 -127t-105.5 -83.5t-126 -30zM309 106q35 0 68 21.5t59 58.5t41.5 86.5t15.5 106.5
q0 78 -28.5 122t-82.5 44q-35 0 -68 -21.5t-59 -58t-42 -86t-16 -106.5q0 -78 29 -122.5t83 -44.5zM258 -221q-28 0 -51 16.5t-23 49.5q0 16 6.5 31t18 26t27 17.5t33.5 6.5q29 0 51.5 -17t22.5 -49q0 -35 -24.5 -58t-60.5 -23z" />
    <glyph glyph-name="uni1ECD" unicode="&#x1ecd;" horiz-adv-x="533" 
d="M222 -12q-44 0 -79 14.5t-60.5 41.5t-39 64.5t-13.5 83.5q0 72 24 130.5t63.5 99.5t89.5 63.5t101 22.5q43 0 78.5 -14.5t60.5 -41.5t39 -64.5t14 -83.5q0 -72 -24 -130.5t-63.5 -99.5t-89.5 -63.5t-101 -22.5zM237 98q25 0 47.5 15.5t40 42.5t27.5 64t10 81
q0 46 -17.5 71.5t-52.5 25.5q-25 0 -47.5 -15.5t-39.5 -42.5t-27 -64.5t-10 -80.5q0 -45 17 -71t52 -26zM164 -221q-28 0 -51 16.5t-23 49.5q0 16 6.5 31t18 26t27 17.5t33.5 6.5q29 0 51.5 -17t22.5 -49q0 -35 -24.5 -58t-60.5 -23z" />
    <glyph glyph-name="uni1ECE" unicode="&#x1ece;" horiz-adv-x="660" 
d="M302 -12q-56 0 -101 18.5t-77 54t-49.5 87t-17.5 116.5q0 86 27 159.5t72.5 127t105.5 83.5t126 30q56 0 101 -19t77 -54.5t49.5 -86.5t17.5 -116q0 -86 -27 -159.5t-72.5 -127t-105.5 -83.5t-126 -30zM309 106q35 0 68 21.5t59 58.5t41.5 86.5t15.5 106.5
q0 78 -28.5 122t-82.5 44q-35 0 -68 -21.5t-59 -58t-42 -86t-16 -106.5q0 -78 29 -122.5t83 -44.5zM367 691v58q20 4 34.5 10t16.5 20t-14.5 22.5t-59.5 11.5l32 73q92 -2 125 -26.5t25 -64.5q-5 -26 -19.5 -44.5t-36 -31t-48 -19.5t-55.5 -9z" />
    <glyph glyph-name="uni1ECF" unicode="&#x1ecf;" horiz-adv-x="533" 
d="M222 -12q-44 0 -79 14.5t-60.5 41.5t-39 64.5t-13.5 83.5q0 72 24 130.5t63.5 99.5t89.5 63.5t101 22.5q43 0 78.5 -14.5t60.5 -41.5t39 -64.5t14 -83.5q0 -72 -24 -130.5t-63.5 -99.5t-89.5 -63.5t-101 -22.5zM237 98q25 0 47.5 15.5t40 42.5t27.5 64t10 81
q0 46 -17.5 71.5t-52.5 25.5q-25 0 -47.5 -15.5t-39.5 -42.5t-27 -64.5t-10 -80.5q0 -45 17 -71t52 -26zM283 568v58q19 4 33.5 11.5t17.5 23.5q4 18 -12.5 28.5t-58.5 13.5l25 90q49 -1 81.5 -10.5t50.5 -25t23.5 -37.5t0.5 -48t-20 -44.5t-37 -31t-49 -19.5t-55 -9z" />
    <glyph glyph-name="uni1ED0" unicode="&#x1ed0;" horiz-adv-x="660" 
d="M302 -12q-56 0 -101 18.5t-77 54t-49.5 87t-17.5 116.5q0 86 27 159.5t72.5 127t105.5 83.5t126 30q56 0 101 -19t77 -54.5t49.5 -86.5t17.5 -116q0 -86 -27 -159.5t-72.5 -127t-105.5 -83.5t-126 -30zM309 106q35 0 68 21.5t59 58.5t41.5 86.5t15.5 106.5
q0 78 -28.5 122t-82.5 44q-35 0 -68 -21.5t-59 -58t-42 -86t-16 -106.5q0 -78 29 -122.5t83 -44.5zM323 685l-53 39l107 100h127l72 -100l-64 -39l-80 72h-4zM571 763l-35 53l115 76l38 -64z" />
    <glyph glyph-name="uni1ED1" unicode="&#x1ed1;" horiz-adv-x="533" 
d="M222 -12q-44 0 -79 14.5t-60.5 41.5t-39 64.5t-13.5 83.5q0 72 24 130.5t63.5 99.5t89.5 63.5t101 22.5q43 0 78.5 -14.5t60.5 -41.5t39 -64.5t14 -83.5q0 -72 -24 -130.5t-63.5 -99.5t-89.5 -63.5t-101 -22.5zM237 98q25 0 47.5 15.5t40 42.5t27.5 64t10 81
q0 46 -17.5 71.5t-52.5 25.5q-25 0 -47.5 -15.5t-39.5 -42.5t-27 -64.5t-10 -80.5q0 -45 17 -71t52 -26zM233 566l-40 56l109 88h117l77 -95l-54 -49l-88 68h-4zM510 641l-47 48l100 119l69 -58z" />
    <glyph glyph-name="uni1ED2" unicode="&#x1ed2;" horiz-adv-x="660" 
d="M302 -12q-56 0 -101 18.5t-77 54t-49.5 87t-17.5 116.5q0 86 27 159.5t72.5 127t105.5 83.5t126 30q56 0 101 -19t77 -54.5t49.5 -86.5t17.5 -116q0 -86 -27 -159.5t-72.5 -127t-105.5 -83.5t-126 -30zM309 106q35 0 68 21.5t59 58.5t41.5 86.5t15.5 106.5
q0 78 -28.5 122t-82.5 44q-35 0 -68 -21.5t-59 -58t-42 -86t-16 -106.5q0 -78 29 -122.5t83 -44.5zM323 685l-53 39l107 100h127l72 -100l-64 -39l-80 72h-4zM271 761l-92 81l58 55l86 -92z" />
    <glyph glyph-name="uni1ED3" unicode="&#x1ed3;" horiz-adv-x="533" 
d="M222 -12q-44 0 -79 14.5t-60.5 41.5t-39 64.5t-13.5 83.5q0 72 24 130.5t63.5 99.5t89.5 63.5t101 22.5q43 0 78.5 -14.5t60.5 -41.5t39 -64.5t14 -83.5q0 -72 -24 -130.5t-63.5 -99.5t-89.5 -63.5t-101 -22.5zM237 98q25 0 47.5 15.5t40 42.5t27.5 64t10 81
q0 46 -17.5 71.5t-52.5 25.5q-25 0 -47.5 -15.5t-39.5 -42.5t-27 -64.5t-10 -80.5q0 -45 17 -71t52 -26zM233 566l-40 56l109 88h117l77 -95l-54 -49l-88 68h-4zM158 638l-83 126l87 44l60 -131z" />
    <glyph glyph-name="uni1ED4" unicode="&#x1ed4;" horiz-adv-x="660" 
d="M302 -12q-56 0 -101 18.5t-77 54t-49.5 87t-17.5 116.5q0 86 27 159.5t72.5 127t105.5 83.5t126 30q56 0 101 -19t77 -54.5t49.5 -86.5t17.5 -116q0 -86 -27 -159.5t-72.5 -127t-105.5 -83.5t-126 -30zM309 106q35 0 68 21.5t59 58.5t41.5 86.5t15.5 106.5
q0 78 -28.5 122t-82.5 44q-35 0 -68 -21.5t-59 -58t-42 -86t-16 -106.5q0 -78 29 -122.5t83 -44.5zM323 685l-53 39l107 100h127l72 -100l-64 -39l-80 72h-4zM563 750l-3 47q14 3 24.5 8.5t12.5 18.5q4 14 -8.5 22.5t-50.5 10.5l25 60q41 -1 68 -7.5t42 -17t19.5 -25
t1.5 -30.5q-8 -44 -45.5 -63.5t-85.5 -23.5z" />
    <glyph glyph-name="uni1ED5" unicode="&#x1ed5;" horiz-adv-x="533" 
d="M222 -12q-44 0 -79 14.5t-60.5 41.5t-39 64.5t-13.5 83.5q0 72 24 130.5t63.5 99.5t89.5 63.5t101 22.5q43 0 78.5 -14.5t60.5 -41.5t39 -64.5t14 -83.5q0 -72 -24 -130.5t-63.5 -99.5t-89.5 -63.5t-101 -22.5zM237 98q25 0 47.5 15.5t40 42.5t27.5 64t10 81
q0 46 -17.5 71.5t-52.5 25.5q-25 0 -47.5 -15.5t-39.5 -42.5t-27 -64.5t-10 -80.5q0 -45 17 -71t52 -26zM233 566l-40 56l109 88h117l77 -95l-54 -49l-88 68h-4zM486 644l-1 50q14 4 24 9.5t12 19.5t-10 22t-49 11l25 62q82 -3 111 -24t22 -56q-5 -24 -17.5 -40.5t-30 -27.5
t-40 -17t-46.5 -9z" />
    <glyph glyph-name="uni1ED6" unicode="&#x1ed6;" horiz-adv-x="660" 
d="M302 -12q-56 0 -101 18.5t-77 54t-49.5 87t-17.5 116.5q0 86 27 159.5t72.5 127t105.5 83.5t126 30q56 0 101 -19t77 -54.5t49.5 -86.5t17.5 -116q0 -86 -27 -159.5t-72.5 -127t-105.5 -83.5t-126 -30zM309 106q35 0 68 21.5t59 58.5t41.5 86.5t15.5 106.5
q0 78 -28.5 122t-82.5 44q-35 0 -68 -21.5t-59 -58t-42 -86t-16 -106.5q0 -78 29 -122.5t83 -44.5zM321 685l-51 39l105 92h127l74 -92l-66 -39l-80 63h-4zM503 838q-21 0 -35.5 7t-26 15t-21.5 15t-20 7q-27 0 -38 -38l-70 8q13 57 42 84t71 27q21 0 35.5 -7t26 -15t21 -15
t19.5 -7q27 0 39 39l68 -9q-12 -57 -40.5 -84t-70.5 -27z" />
    <glyph glyph-name="uni1ED7" unicode="&#x1ed7;" horiz-adv-x="533" 
d="M222 -12q-44 0 -79 14.5t-60.5 41.5t-39 64.5t-13.5 83.5q0 72 24 130.5t63.5 99.5t89.5 63.5t101 22.5q43 0 78.5 -14.5t60.5 -41.5t39 -64.5t14 -83.5q0 -72 -24 -130.5t-63.5 -99.5t-89.5 -63.5t-101 -22.5zM237 98q25 0 47.5 15.5t40 42.5t27.5 64t10 81
q0 46 -17.5 71.5t-52.5 25.5q-25 0 -47.5 -15.5t-39.5 -42.5t-27 -64.5t-10 -80.5q0 -45 17 -71t52 -26zM233 566l-40 56l105 80h117l81 -87l-54 -49l-91 60h-4zM419 716q-21 0 -35 6.5t-25 14.5t-20.5 14.5t-20.5 6.5t-20.5 -9t-17.5 -29l-66 7q17 57 44.5 84t65.5 27
q21 0 35.5 -6.5t25.5 -14.5t20 -14.5t20 -6.5q23 0 37 38l65 -7q-15 -57 -42.5 -84t-65.5 -27z" />
    <glyph glyph-name="uni1ED8" unicode="&#x1ed8;" horiz-adv-x="660" 
d="M302 -12q-56 0 -101 18.5t-77 54t-49.5 87t-17.5 116.5q0 86 27 159.5t72.5 127t105.5 83.5t126 30q56 0 101 -19t77 -54.5t49.5 -86.5t17.5 -116q0 -86 -27 -159.5t-72.5 -127t-105.5 -83.5t-126 -30zM309 106q35 0 68 21.5t59 58.5t41.5 86.5t15.5 106.5
q0 78 -28.5 122t-82.5 44q-35 0 -68 -21.5t-59 -58t-42 -86t-16 -106.5q0 -78 29 -122.5t83 -44.5zM309 685l-57 44l109 106h160l70 -111l-67 -38l-86 83h-4zM258 -221q-28 0 -51 16.5t-23 49.5q0 16 6.5 31t18 26t27 17.5t33.5 6.5q29 0 51.5 -17t22.5 -49q0 -35 -24.5 -58
t-60.5 -23z" />
    <glyph glyph-name="uni1ED9" unicode="&#x1ed9;" horiz-adv-x="533" 
d="M222 -12q-44 0 -79 14.5t-60.5 41.5t-39 64.5t-13.5 83.5q0 72 24 130.5t63.5 99.5t89.5 63.5t101 22.5q43 0 78.5 -14.5t60.5 -41.5t39 -64.5t14 -83.5q0 -72 -24 -130.5t-63.5 -99.5t-89.5 -63.5t-101 -22.5zM237 98q25 0 47.5 15.5t40 42.5t27.5 64t10 81
q0 46 -17.5 71.5t-52.5 25.5q-25 0 -47.5 -15.5t-39.5 -42.5t-27 -64.5t-10 -80.5q0 -45 17 -71t52 -26zM205 561l-47 55l130 128h150l86 -131l-62 -52l-105 96h-4zM164 -221q-28 0 -51 16.5t-23 49.5q0 16 6.5 31t18 26t27 17.5t33.5 6.5q29 0 51.5 -17t22.5 -49
q0 -35 -24.5 -58t-60.5 -23z" />
    <glyph glyph-name="uni1EDA" unicode="&#x1eda;" horiz-adv-x="660" 
d="M302 -12q-56 0 -101 18.5t-77 54t-49.5 87t-17.5 116.5q0 86 27 159.5t72.5 127t105.5 83.5t126 30q68 0 121 -28q42 5 62 31t20 59q0 22 -11 47l102 32q8 -19 12.5 -36.5t4.5 -35.5q0 -57 -34.5 -96t-94.5 -50q30 -35 46.5 -85.5t16.5 -113.5q0 -86 -27 -159.5
t-72.5 -127t-105.5 -83.5t-126 -30zM309 106q35 0 68 21.5t59 58.5t41.5 86.5t15.5 106.5q0 78 -28.5 122t-82.5 44q-35 0 -68 -21.5t-59 -58t-42 -86t-16 -106.5q0 -78 29 -122.5t83 -44.5zM371 686l-52 79l195 124l61 -101z" />
    <glyph glyph-name="uni1EDB" unicode="&#x1edb;" horiz-adv-x="538" 
d="M222 -12q-44 0 -79 14.5t-60.5 41.5t-39 64.5t-13.5 83.5q0 72 24 130.5t63.5 99.5t89.5 63.5t101 22.5q53 0 95 -22q35 8 55.5 38.5t21.5 69.5q0 9 -3 23t-7 24l102 32q8 -17 11.5 -36.5t3.5 -35.5q0 -61 -33.5 -105.5t-93.5 -58.5q19 -26 29.5 -59.5t10.5 -73.5
q0 -72 -24 -130.5t-63.5 -99.5t-89.5 -63.5t-101 -22.5zM237 98q25 0 47.5 15.5t40 42.5t27.5 64t10 81q0 46 -17.5 71.5t-52.5 25.5q-25 0 -47.5 -15.5t-39.5 -42.5t-27 -64.5t-10 -80.5q0 -45 17 -71t52 -26zM296 578l-60 78l185 166l82 -104z" />
    <glyph glyph-name="uni1EDC" unicode="&#x1edc;" horiz-adv-x="660" 
d="M302 -12q-56 0 -101 18.5t-77 54t-49.5 87t-17.5 116.5q0 86 27 159.5t72.5 127t105.5 83.5t126 30q68 0 121 -28q42 5 62 31t20 59q0 22 -11 47l102 32q8 -19 12.5 -36.5t4.5 -35.5q0 -57 -34.5 -96t-94.5 -50q30 -35 46.5 -85.5t16.5 -113.5q0 -86 -27 -159.5
t-72.5 -127t-105.5 -83.5t-126 -30zM309 106q35 0 68 21.5t59 58.5t41.5 86.5t15.5 106.5q0 78 -28.5 122t-82.5 44q-35 0 -68 -21.5t-59 -58t-42 -86t-16 -106.5q0 -78 29 -122.5t83 -44.5zM431 676l-164 134l94 87l147 -154z" />
    <glyph glyph-name="uni1EDD" unicode="&#x1edd;" horiz-adv-x="538" 
d="M222 -12q-44 0 -79 14.5t-60.5 41.5t-39 64.5t-13.5 83.5q0 72 24 130.5t63.5 99.5t89.5 63.5t101 22.5q53 0 95 -22q35 8 55.5 38.5t21.5 69.5q0 9 -3 23t-7 24l102 32q8 -17 11.5 -36.5t3.5 -35.5q0 -61 -33.5 -105.5t-93.5 -58.5q19 -26 29.5 -59.5t10.5 -73.5
q0 -72 -24 -130.5t-63.5 -99.5t-89.5 -63.5t-101 -22.5zM237 98q25 0 47.5 15.5t40 42.5t27.5 64t10 81q0 46 -17.5 71.5t-52.5 25.5q-25 0 -47.5 -15.5t-39.5 -42.5t-27 -64.5t-10 -80.5q0 -45 17 -71t52 -26zM349 569l-154 171l117 87l121 -193z" />
    <glyph glyph-name="uni1EDE" unicode="&#x1ede;" horiz-adv-x="660" 
d="M302 -12q-56 0 -101 18.5t-77 54t-49.5 87t-17.5 116.5q0 86 27 159.5t72.5 127t105.5 83.5t126 30q68 0 121 -28q42 5 62 31t20 59q0 22 -11 47l102 32q8 -19 12.5 -36.5t4.5 -35.5q0 -57 -34.5 -96t-94.5 -50q30 -35 46.5 -85.5t16.5 -113.5q0 -86 -27 -159.5
t-72.5 -127t-105.5 -83.5t-126 -30zM309 106q35 0 68 21.5t59 58.5t41.5 86.5t15.5 106.5q0 78 -28.5 122t-82.5 44q-35 0 -68 -21.5t-59 -58t-42 -86t-16 -106.5q0 -78 29 -122.5t83 -44.5zM349 691v58q20 4 34.5 10t16.5 20t-14.5 22.5t-59.5 11.5l32 73q92 -2 125 -26.5
t25 -64.5q-5 -26 -19.5 -44.5t-36 -31t-48 -19.5t-55.5 -9z" />
    <glyph glyph-name="uni1EDF" unicode="&#x1edf;" horiz-adv-x="538" 
d="M222 -12q-44 0 -79 14.5t-60.5 41.5t-39 64.5t-13.5 83.5q0 72 24 130.5t63.5 99.5t89.5 63.5t101 22.5q53 0 95 -22q35 8 55.5 38.5t21.5 69.5q0 9 -3 23t-7 24l102 32q8 -17 11.5 -36.5t3.5 -35.5q0 -61 -33.5 -105.5t-93.5 -58.5q19 -26 29.5 -59.5t10.5 -73.5
q0 -72 -24 -130.5t-63.5 -99.5t-89.5 -63.5t-101 -22.5zM237 98q25 0 47.5 15.5t40 42.5t27.5 64t10 81q0 46 -17.5 71.5t-52.5 25.5q-25 0 -47.5 -15.5t-39.5 -42.5t-27 -64.5t-10 -80.5q0 -45 17 -71t52 -26zM267 568v58q19 4 33.5 11.5t17.5 23.5q4 18 -12.5 28.5
t-58.5 13.5l25 90q49 -1 81.5 -10.5t50.5 -25t23.5 -37.5t0.5 -48t-20 -44.5t-37 -31t-49 -19.5t-55 -9z" />
    <glyph glyph-name="uni1EE0" unicode="&#x1ee0;" horiz-adv-x="660" 
d="M302 -12q-56 0 -101 18.5t-77 54t-49.5 87t-17.5 116.5q0 86 27 159.5t72.5 127t105.5 83.5t126 30q68 0 121 -28q42 5 62 31t20 59q0 22 -11 47l102 32q8 -19 12.5 -36.5t4.5 -35.5q0 -57 -34.5 -96t-94.5 -50q30 -35 46.5 -85.5t16.5 -113.5q0 -86 -27 -159.5
t-72.5 -127t-105.5 -83.5t-126 -30zM309 106q35 0 68 21.5t59 58.5t41.5 86.5t15.5 106.5q0 78 -28.5 122t-82.5 44q-35 0 -68 -21.5t-59 -58t-42 -86t-16 -106.5q0 -78 29 -122.5t83 -44.5zM437 692q-26 0 -44.5 9t-33 20t-26 20t-23.5 9q-14 0 -26 -10.5t-20 -38.5l-93 7
q17 76 58 110t93 34q26 0 45 -9t33 -20t26 -20t24 -9q14 0 25.5 11t19.5 38l93 -7q-17 -76 -58 -110t-93 -34z" />
    <glyph glyph-name="uni1EE1" unicode="&#x1ee1;" horiz-adv-x="538" 
d="M357 573q-23 0 -39 10t-29.5 22.5t-25.5 22.5t-27 10q-14 0 -24.5 -13.5t-15.5 -42.5l-86 5q14 78 46.5 115t83.5 37q23 0 39 -10t29.5 -22t25.5 -22t27 -10q14 0 24.5 13t15.5 42l86 -5q-14 -78 -47 -115t-83 -37zM222 -12q-44 0 -79 14.5t-60.5 41.5t-39 64.5
t-13.5 83.5q0 72 24 130.5t63.5 99.5t89.5 63.5t101 22.5q53 0 95 -22q35 8 55.5 38.5t21.5 69.5q0 9 -3 23t-7 24l102 32q8 -17 11.5 -36.5t3.5 -35.5q0 -61 -33.5 -105.5t-93.5 -58.5q19 -26 29.5 -59.5t10.5 -73.5q0 -72 -24 -130.5t-63.5 -99.5t-89.5 -63.5t-101 -22.5z
M237 98q25 0 47.5 15.5t40 42.5t27.5 64t10 81q0 46 -17.5 71.5t-52.5 25.5q-25 0 -47.5 -15.5t-39.5 -42.5t-27 -64.5t-10 -80.5q0 -45 17 -71t52 -26z" />
    <glyph glyph-name="uni1EE2" unicode="&#x1ee2;" horiz-adv-x="660" 
d="M302 -12q-56 0 -101 18.5t-77 54t-49.5 87t-17.5 116.5q0 86 27 159.5t72.5 127t105.5 83.5t126 30q68 0 121 -28q42 5 62 31t20 59q0 22 -11 47l102 32q8 -19 12.5 -36.5t4.5 -35.5q0 -57 -34.5 -96t-94.5 -50q30 -35 46.5 -85.5t16.5 -113.5q0 -86 -27 -159.5
t-72.5 -127t-105.5 -83.5t-126 -30zM309 106q35 0 68 21.5t59 58.5t41.5 86.5t15.5 106.5q0 78 -28.5 122t-82.5 44q-35 0 -68 -21.5t-59 -58t-42 -86t-16 -106.5q0 -78 29 -122.5t83 -44.5zM256 -221q-28 0 -51 16.5t-23 49.5q0 16 6.5 31t18 26t27 17.5t33.5 6.5
q29 0 51.5 -17t22.5 -49q0 -35 -24.5 -58t-60.5 -23z" />
    <glyph glyph-name="uni1EE3" unicode="&#x1ee3;" horiz-adv-x="538" 
d="M222 -12q-44 0 -79 14.5t-60.5 41.5t-39 64.5t-13.5 83.5q0 72 24 130.5t63.5 99.5t89.5 63.5t101 22.5q53 0 95 -22q35 8 55.5 38.5t21.5 69.5q0 9 -3 23t-7 24l102 32q8 -17 11.5 -36.5t3.5 -35.5q0 -61 -33.5 -105.5t-93.5 -58.5q19 -26 29.5 -59.5t10.5 -73.5
q0 -72 -24 -130.5t-63.5 -99.5t-89.5 -63.5t-101 -22.5zM237 98q25 0 47.5 15.5t40 42.5t27.5 64t10 81q0 46 -17.5 71.5t-52.5 25.5q-25 0 -47.5 -15.5t-39.5 -42.5t-27 -64.5t-10 -80.5q0 -45 17 -71t52 -26zM164 -221q-28 0 -51 16.5t-23 49.5q0 16 6.5 31t18 26t27 17.5
t33.5 6.5q29 0 51.5 -17t22.5 -49q0 -35 -24.5 -58t-60.5 -23z" />
    <glyph glyph-name="uni1EE4" unicode="&#x1ee4;" horiz-adv-x="643" 
d="M88 320l67 332h137l-71 -357q-4 -20 -6 -39t-2 -37q0 -55 22 -84t77 -29q47 0 78 38.5t49 129.5l76 378h134l-76 -376q-30 -150 -95.5 -219t-169.5 -69q-116 0 -174.5 55.5t-58.5 171.5q0 22 4 50.5t9 54.5zM247 -221q-28 0 -51 16.5t-23 49.5q0 16 6.5 31t18 26t27 17.5
t33.5 6.5q29 0 51.5 -17t22.5 -49q0 -35 -24.5 -58t-60.5 -23z" />
    <glyph glyph-name="uni1EE5" unicode="&#x1ee5;" horiz-adv-x="545" 
d="M529 496l-98 -496h-111l2 67h-4q-34 -32 -75.5 -55.5t-86.5 -23.5q-62 0 -89.5 32.5t-27.5 95.5q0 17 2 34t6 36l62 310h136l-58 -293q-4 -15 -6 -26t-2 -21q0 -51 50 -51q42 0 99 64l64 327h137zM213 -228q-28 0 -51 16.5t-23 49.5q0 16 6.5 31t18 26t27 17.5t33.5 6.5
q29 0 51.5 -17t22.5 -49q0 -35 -24.5 -58t-60.5 -23z" />
    <glyph glyph-name="uni1EE6" unicode="&#x1ee6;" horiz-adv-x="643" 
d="M88 320l67 332h137l-71 -357q-4 -20 -6 -39t-2 -37q0 -55 22 -84t77 -29q47 0 78 38.5t49 129.5l76 378h134l-76 -376q-30 -150 -95.5 -219t-169.5 -69q-116 0 -174.5 55.5t-58.5 171.5q0 22 4 50.5t9 54.5zM359 691v58q20 4 34.5 10t16.5 20t-14.5 22.5t-59.5 11.5
l32 73q92 -2 125 -26.5t25 -64.5q-5 -26 -19.5 -44.5t-36 -31t-48 -19.5t-55.5 -9z" />
    <glyph glyph-name="uni1EE7" unicode="&#x1ee7;" horiz-adv-x="545" 
d="M529 496l-98 -496h-111l2 67h-4q-34 -32 -75.5 -55.5t-86.5 -23.5q-62 0 -89.5 32.5t-27.5 95.5q0 17 2 34t6 36l62 310h136l-58 -293q-4 -15 -6 -26t-2 -21q0 -51 50 -51q42 0 99 64l64 327h137zM280 568v58q19 4 33.5 11.5t17.5 23.5q4 18 -12.5 28.5t-58.5 13.5l25 90
q49 -1 81.5 -10.5t50.5 -25t23.5 -37.5t0.5 -48t-20 -44.5t-37 -31t-49 -19.5t-55 -9z" />
    <glyph glyph-name="uni1EE8" unicode="&#x1ee8;" horiz-adv-x="666" 
d="M88 320l67 332h137l-71 -357q-4 -20 -6 -39t-2 -37q0 -55 22 -84t77 -29q47 0 78 38.5t49 129.5l76 378h79q80 11 80 76q0 23 -11 48l103 32q16 -36 16 -72q0 -56 -36 -88.5t-107 -46.5l-66 -325q-30 -150 -95.5 -219t-169.5 -69q-116 0 -174.5 55.5t-58.5 171.5
q0 22 4 50.5t9 54.5zM378 686l-52 79l195 124l61 -101z" />
    <glyph glyph-name="uni1EE9" unicode="&#x1ee9;" horiz-adv-x="567" 
d="M318 67q-34 -32 -75.5 -55.5t-86.5 -23.5q-62 0 -89.5 32.5t-27.5 95.5q0 17 2 34t6 36l62 310h136l-58 -293q-4 -15 -6 -26t-2 -21q0 -51 50 -51q42 0 99 64l64 327h61q34 5 55.5 32t22.5 68q0 9 -2.5 23.5t-6.5 23.5l102 33q7 -17 10.5 -36.5t3.5 -35.5
q0 -58 -30.5 -98.5t-87.5 -57.5l-89 -448h-111l2 67h-4zM309 578l-60 78l185 166l82 -104z" />
    <glyph glyph-name="uni1EEA" unicode="&#x1eea;" horiz-adv-x="666" 
d="M88 320l67 332h137l-71 -357q-4 -20 -6 -39t-2 -37q0 -55 22 -84t77 -29q47 0 78 38.5t49 129.5l76 378h79q80 11 80 76q0 23 -11 48l103 32q16 -36 16 -72q0 -56 -36 -88.5t-107 -46.5l-66 -325q-30 -150 -95.5 -219t-169.5 -69q-116 0 -174.5 55.5t-58.5 171.5
q0 22 4 50.5t9 54.5zM438 676l-164 134l94 87l147 -154z" />
    <glyph glyph-name="uni1EEB" unicode="&#x1eeb;" horiz-adv-x="567" 
d="M318 67q-34 -32 -75.5 -55.5t-86.5 -23.5q-62 0 -89.5 32.5t-27.5 95.5q0 17 2 34t6 36l62 310h136l-58 -293q-4 -15 -6 -26t-2 -21q0 -51 50 -51q42 0 99 64l64 327h61q34 5 55.5 32t22.5 68q0 9 -2.5 23.5t-6.5 23.5l102 33q7 -17 10.5 -36.5t3.5 -35.5
q0 -58 -30.5 -98.5t-87.5 -57.5l-89 -448h-111l2 67h-4zM362 569l-154 171l117 87l121 -193z" />
    <glyph glyph-name="uni1EEC" unicode="&#x1eec;" horiz-adv-x="666" 
d="M88 320l67 332h137l-71 -357q-4 -20 -6 -39t-2 -37q0 -55 22 -84t77 -29q47 0 78 38.5t49 129.5l76 378h79q80 11 80 76q0 23 -11 48l103 32q16 -36 16 -72q0 -56 -36 -88.5t-107 -46.5l-66 -325q-30 -150 -95.5 -219t-169.5 -69q-116 0 -174.5 55.5t-58.5 171.5
q0 22 4 50.5t9 54.5zM356 691v58q20 4 34.5 10t16.5 20t-14.5 22.5t-59.5 11.5l32 73q92 -2 125 -26.5t25 -64.5q-5 -26 -19.5 -44.5t-36 -31t-48 -19.5t-55.5 -9z" />
    <glyph glyph-name="uni1EED" unicode="&#x1eed;" horiz-adv-x="567" 
d="M318 67q-34 -32 -75.5 -55.5t-86.5 -23.5q-62 0 -89.5 32.5t-27.5 95.5q0 17 2 34t6 36l62 310h136l-58 -293q-4 -15 -6 -26t-2 -21q0 -51 50 -51q42 0 99 64l64 327h61q34 5 55.5 32t22.5 68q0 9 -2.5 23.5t-6.5 23.5l102 33q7 -17 10.5 -36.5t3.5 -35.5
q0 -58 -30.5 -98.5t-87.5 -57.5l-89 -448h-111l2 67h-4zM280 568v58q19 4 33.5 11.5t17.5 23.5q4 18 -12.5 28.5t-58.5 13.5l25 90q49 -1 81.5 -10.5t50.5 -25t23.5 -37.5t0.5 -48t-20 -44.5t-37 -31t-49 -19.5t-55 -9z" />
    <glyph glyph-name="uni1EEE" unicode="&#x1eee;" horiz-adv-x="666" 
d="M88 320l67 332h137l-71 -357q-4 -20 -6 -39t-2 -37q0 -55 22 -84t77 -29q47 0 78 38.5t49 129.5l76 378h79q80 11 80 76q0 23 -11 48l103 32q16 -36 16 -72q0 -56 -36 -88.5t-107 -46.5l-66 -325q-30 -150 -95.5 -219t-169.5 -69q-116 0 -174.5 55.5t-58.5 171.5
q0 22 4 50.5t9 54.5zM473 692q-26 0 -44.5 9t-33 20t-26 20t-23.5 9q-14 0 -26 -10.5t-20 -38.5l-93 7q17 76 58 110t93 34q26 0 45 -9t33 -20t26 -20t24 -9q14 0 25.5 11t19.5 38l93 -7q-17 -76 -58 -110t-93 -34z" />
    <glyph glyph-name="uni1EEF" unicode="&#x1eef;" horiz-adv-x="567" 
d="M318 67q-34 -32 -75.5 -55.5t-86.5 -23.5q-62 0 -89.5 32.5t-27.5 95.5q0 17 2 34t6 36l62 310h136l-58 -293q-4 -15 -6 -26t-2 -21q0 -51 50 -51q42 0 99 64l64 327h61q34 5 55.5 32t22.5 68q0 9 -2.5 23.5t-6.5 23.5l102 33q7 -17 10.5 -36.5t3.5 -35.5
q0 -58 -30.5 -98.5t-87.5 -57.5l-89 -448h-111l2 67h-4zM389 573q-25 0 -42 10t-30.5 22.5t-25.5 22.5t-28 10q-15 0 -27 -13.5t-17 -42.5l-90 5q13 78 50 115t92 37q25 0 41.5 -10t30 -22t25.5 -22t28 -10q15 0 27 13t17 42l90 -5q-13 -78 -50 -115t-91 -37z" />
    <glyph glyph-name="uni1EF0" unicode="&#x1ef0;" horiz-adv-x="666" 
d="M88 320l67 332h137l-71 -357q-4 -20 -6 -39t-2 -37q0 -55 22 -84t77 -29q47 0 78 38.5t49 129.5l76 378h79q80 11 80 76q0 23 -11 48l103 32q16 -36 16 -72q0 -56 -36 -88.5t-107 -46.5l-66 -325q-30 -150 -95.5 -219t-169.5 -69q-116 0 -174.5 55.5t-58.5 171.5
q0 22 4 50.5t9 54.5zM249 -221q-28 0 -51 16.5t-23 49.5q0 16 6.5 31t18 26t27 17.5t33.5 6.5q29 0 51.5 -17t22.5 -49q0 -35 -24.5 -58t-60.5 -23z" />
    <glyph glyph-name="uni1EF1" unicode="&#x1ef1;" horiz-adv-x="567" 
d="M318 67q-34 -32 -75.5 -55.5t-86.5 -23.5q-62 0 -89.5 32.5t-27.5 95.5q0 17 2 34t6 36l62 310h136l-58 -293q-4 -15 -6 -26t-2 -21q0 -51 50 -51q42 0 99 64l64 327h61q34 5 55.5 32t22.5 68q0 9 -2.5 23.5t-6.5 23.5l102 33q7 -17 10.5 -36.5t3.5 -35.5
q0 -58 -30.5 -98.5t-87.5 -57.5l-89 -448h-111l2 67h-4zM213 -228q-28 0 -51 16.5t-23 49.5q0 16 6.5 31t18 26t27 17.5t33.5 6.5q29 0 51.5 -17t22.5 -49q0 -35 -24.5 -58t-60.5 -23z" />
    <glyph glyph-name="Ygrave" unicode="&#x1ef2;" 
d="M138 0l46 236l-104 416h142l28 -157q7 -37 12.5 -71t12.5 -72h4q20 38 39 72.5t41 72.5l91 155h147l-276 -416l-47 -236h-136zM365 676l-164 134l94 87l147 -154z" />
    <glyph glyph-name="ygrave" unicode="&#x1ef3;" horiz-adv-x="499" 
d="M36 -194q-14 0 -35 6t-36 14l42 98q17 -10 37 -10q27 0 52 19.5t42 52.5l12 25l-86 485h136l23 -224q4 -32 6 -73t3 -76h4q16 35 33 75t33 74l104 224h133l-268 -507q-26 -45 -51.5 -79t-53.5 -57t-60 -35t-70 -12zM332 569l-154 171l117 87l121 -193z" />
    <glyph glyph-name="uni1EF4" unicode="&#x1ef4;" 
d="M138 0l46 236l-104 416h142l28 -157q7 -37 12.5 -71t12.5 -72h4q20 38 39 72.5t41 72.5l91 155h147l-276 -416l-47 -236h-136zM170 -229q-28 0 -51 16.5t-23 49.5q0 16 6.5 31t18 26t27 17.5t33.5 6.5q29 0 51.5 -17t22.5 -49q0 -35 -24.5 -58t-60.5 -23z" />
    <glyph glyph-name="uni1EF5" unicode="&#x1ef5;" horiz-adv-x="499" 
d="M36 -194q-14 0 -35 6t-36 14l42 98q17 -10 37 -10q27 0 52 19.5t42 52.5l12 25l-86 485h136l23 -224q4 -32 6 -73t3 -76h4q16 35 33 75t33 74l104 224h133l-268 -507q-26 -45 -51.5 -79t-53.5 -57t-60 -35t-70 -12zM329 -229q-28 0 -51 16.5t-23 49.5q0 16 6.5 31t18 26
t27 17.5t33.5 6.5q29 0 51.5 -17t22.5 -49q0 -35 -24.5 -58t-60.5 -23z" />
    <glyph glyph-name="uni1EF6" unicode="&#x1ef6;" 
d="M138 0l46 236l-104 416h142l28 -157q7 -37 12.5 -71t12.5 -72h4q20 38 39 72.5t41 72.5l91 155h147l-276 -416l-47 -236h-136zM283 691v58q20 4 34.5 10t16.5 20t-14.5 22.5t-59.5 11.5l32 73q92 -2 125 -26.5t25 -64.5q-5 -26 -19.5 -44.5t-36 -31t-48 -19.5t-55.5 -9z
" />
    <glyph glyph-name="uni1EF7" unicode="&#x1ef7;" horiz-adv-x="499" 
d="M36 -194q-14 0 -35 6t-36 14l42 98q17 -10 37 -10q27 0 52 19.5t42 52.5l12 25l-86 485h136l23 -224q4 -32 6 -73t3 -76h4q16 35 33 75t33 74l104 224h133l-268 -507q-26 -45 -51.5 -79t-53.5 -57t-60 -35t-70 -12zM250 568v58q19 4 33.5 11.5t17.5 23.5q4 18 -12.5 28.5
t-58.5 13.5l25 90q49 -1 81.5 -10.5t50.5 -25t23.5 -37.5t0.5 -48t-20 -44.5t-37 -31t-49 -19.5t-55 -9z" />
    <glyph glyph-name="uni1EF8" unicode="&#x1ef8;" 
d="M138 0l46 236l-104 416h142l28 -157q7 -37 12.5 -71t12.5 -72h4q20 38 39 72.5t41 72.5l91 155h147l-276 -416l-47 -236h-136zM400 692q-26 0 -44.5 9t-33 20t-26 20t-23.5 9q-14 0 -26 -10.5t-20 -38.5l-93 7q17 76 58 110t93 34q26 0 45 -9t33 -20t26 -20t24 -9
q14 0 25.5 11t19.5 38l93 -7q-17 -76 -58 -110t-93 -34z" />
    <glyph glyph-name="uni1EF9" unicode="&#x1ef9;" horiz-adv-x="499" 
d="M36 -194q-14 0 -35 6t-36 14l42 98q17 -10 37 -10q27 0 52 19.5t42 52.5l12 25l-86 485h136l23 -224q4 -32 6 -73t3 -76h4q16 35 33 75t33 74l104 224h133l-268 -507q-26 -45 -51.5 -79t-53.5 -57t-60 -35t-70 -12zM375 573q-25 0 -42 10t-30.5 22.5t-25.5 22.5t-28 10
q-15 0 -27 -13.5t-17 -42.5l-90 5q13 78 50 115t92 37q25 0 41.5 -10t30 -22t25.5 -22t28 -10q15 0 27 13t17 42l90 -5q-13 -78 -50 -115t-91 -37z" />
    <glyph glyph-name="uni2007" unicode="&#x2007;" 
 />
    </font>
</defs>
</svg>
